osu file format v14

[General]
AudioFilename: audio.mp3
AudioLeadIn: 0
PreviewTime: 93698
Countdown: 0
SampleSet: Normal
StackLeniency: 0.7
Mode: 1
LetterboxInBreaks: 0
WidescreenStoryboard: 0

[Editor]
Bookmarks: 1211,10576,19942,29308,38674,48040,57406,66771,76137,85503,94869,103942,104235,112430,113601,121796,122967,132332,141406
DistanceSpacing: 1.1
BeatDivisor: 1
GridSize: 32
TimelineZoom: 2.2

[Metadata]
Title:Chrome VOX
TitleUnicode:Chrome VOX
Artist:t+pazolite
ArtistUnicode:t+pazolite
Creator:gaston_2199
Version:Ayyri's Inner Oni
Source:Cytus II
Tags:Instrumental Electronic Video Game see you again, HOLLOWood Comiket 94 C94 Rayark tpz hardcore j-core neko OST original sound track soundtrack C.H.S Cutie & Headshaking Sounds CHS-0033 VOEZ ayyri eiri-
BeatmapID:2675819
BeatmapSetID:1176081

[Difficulty]
HPDrainRate:6
CircleSize:2
OverallDifficulty:6
ApproachRate:10
SliderMultiplier:1.4
SliderTickRate:1

[Events]
//Background and Video events
0,0,"Chrome VOX.jpg",0,-70
//Break Periods
//Storyboard Layer 0 (Background)
//Storyboard Layer 1 (Fail)
//Storyboard Layer 2 (Pass)
//Storyboard Layer 3 (Foreground)
//Storyboard Layer 4 (Overlay)
//Storyboard Sound Samples

[TimingPoints]
1211,292.682926829268,4,1,0,75,1,0
10540,-100,4,1,0,80,0,0
29271,-100,4,1,0,50,0,0
38637,-100,4,1,0,65,0,0
48003,-100,4,1,0,75,0,0
65710,-100,4,1,0,65,0,0
66735,-100,4,1,0,50,0,0
76101,-100,4,1,0,65,0,0
85467,-100,4,1,0,75,0,0
90150,-100,4,1,0,80,0,0
94869,-95.2380952380952,4,1,0,90,0,1
103942,-95.2380952380952,4,1,0,90,0,0
104235,-95.2380952380952,4,1,0,90,0,1
112430,-95.2380952380952,4,1,0,90,0,0
113601,-90.9090909090909,4,1,0,90,0,1
121796,-90.9090909090909,4,1,0,90,0,0
122967,-90.9090909090909,4,1,0,95,0,1
132332,-95.2380952380952,4,1,0,80,0,0
132735,-100,4,1,0,75,0,0
136979,-100,4,1,0,80,0,0
141369,-100,4,1,0,90,0,0

[HitObjects]
256,192,1211,5,4,0:0:0:0:
256,192,1357,1,0,0:0:0:0:
256,192,1503,1,8,0:0:0:0:
256,192,1650,1,0,0:0:0:0:
256,192,1723,1,0,0:0:0:0:
256,192,1796,1,8,0:0:0:0:
256,192,1869,1,8,0:0:0:0:
256,192,1942,1,8,0:0:0:0:
256,192,2015,1,8,0:0:0:0:
256,192,2089,1,0,0:0:0:0:
256,192,2235,1,8,0:0:0:0:
256,192,2381,1,0,0:0:0:0:
256,192,2528,1,0,0:0:0:0:
256,192,2674,1,8,0:0:0:0:
256,192,2820,1,0,0:0:0:0:
256,192,2893,1,0,0:0:0:0:
256,192,2967,1,8,0:0:0:0:
256,192,3113,1,8,0:0:0:0:
256,192,3259,1,8,0:0:0:0:
256,192,3406,1,8,0:0:0:0:
256,192,3552,1,0,0:0:0:0:
256,192,3698,1,0,0:0:0:0:
256,192,3845,1,8,0:0:0:0:
256,192,3991,1,0,0:0:0:0:
256,192,4064,1,0,0:0:0:0:
256,192,4137,1,8,0:0:0:0:
256,192,4284,1,0,0:0:0:0:
256,192,4357,1,0,0:0:0:0:
256,192,4430,1,8,0:0:0:0:
256,192,4576,1,0,0:0:0:0:
256,192,4650,1,0,0:0:0:0:
256,192,4723,1,8,0:0:0:0:
256,192,4869,1,8,0:0:0:0:
256,192,5015,1,0,0:0:0:0:
256,192,5089,1,0,0:0:0:0:
256,192,5162,1,0,0:0:0:0:
256,192,5235,1,0,0:0:0:0:
256,192,5308,1,8,0:0:0:0:
256,192,5601,1,8,0:0:0:0:
256,192,5893,1,4,0:0:0:0:
256,192,6040,1,0,0:0:0:0:
256,192,6186,1,8,0:0:0:0:
256,192,6332,1,0,0:0:0:0:
256,192,6406,1,0,0:0:0:0:
256,192,6479,1,8,0:0:0:0:
256,192,6552,1,8,0:0:0:0:
256,192,6625,1,8,0:0:0:0:
256,192,6698,1,8,0:0:0:0:
256,192,6771,1,0,0:0:0:0:
256,192,7064,1,0,0:0:0:0:
256,192,7210,1,0,0:0:0:0:
256,192,7357,1,8,0:0:0:0:
256,192,7503,1,0,0:0:0:0:
256,192,7576,1,0,0:0:0:0:
256,192,7650,1,8,0:0:0:0:
256,192,7796,1,0,0:0:0:0:
256,192,7942,1,12,0:0:0:0:
256,192,8235,1,0,0:0:0:0:
256,192,8381,1,0,0:0:0:0:
256,192,8528,1,8,0:0:0:0:
256,192,8674,1,0,0:0:0:0:
256,192,8747,1,0,0:0:0:0:
256,192,8820,1,8,0:0:0:0:
256,192,8967,1,8,0:0:0:0:
256,192,9113,1,8,0:0:0:0:
256,192,9259,1,8,0:0:0:0:
256,192,9406,1,0,0:0:0:0:
256,192,10284,1,12,0:0:0:0:
256,192,10576,1,4,0:0:0:0:
256,192,10723,1,0,0:0:0:0:
256,192,10869,1,8,0:0:0:0:
256,192,11015,1,0,0:0:0:0:
256,192,11089,1,0,0:0:0:0:
256,192,11162,1,8,0:0:0:0:
256,192,11308,1,8,0:0:0:0:
256,192,11454,1,0,0:0:0:0:
256,192,11601,1,0,0:0:0:0:
256,192,11674,1,8,0:0:0:0:
256,192,11747,1,0,0:0:0:0:
256,192,11893,1,8,0:0:0:0:
256,192,12040,1,0,0:0:0:0:
256,192,12186,1,0,0:0:0:0:
256,192,12332,1,8,0:0:0:0:
256,192,12625,1,0,0:0:0:0:
256,192,12918,1,0,0:0:0:0:
256,192,13064,1,0,0:0:0:0:
256,192,13210,1,8,0:0:0:0:
256,192,13357,1,0,0:0:0:0:
256,192,13430,1,0,0:0:0:0:
256,192,13503,1,8,0:0:0:0:
256,192,13650,1,0,0:0:0:0:
256,192,13796,1,8,0:0:0:0:
256,192,14089,1,0,0:0:0:0:
256,192,14162,1,8,0:0:0:0:
256,192,14235,1,0,0:0:0:0:
256,192,14308,1,8,0:0:0:0:
256,192,14381,1,0,0:0:0:0:
256,192,14454,1,0,0:0:0:0:
256,192,14528,1,8,0:0:0:0:
256,192,14601,1,8,0:0:0:0:
256,192,14674,1,4,0:0:0:0:
256,192,14967,1,4,0:0:0:0:
256,192,15259,1,8,0:0:0:0:
256,192,15406,1,8,0:0:0:0:
256,192,15552,1,8,0:0:0:0:
256,192,15698,1,8,0:0:0:0:
256,192,15845,1,0,0:0:0:0:
256,192,16137,1,12,0:0:0:0:
256,192,16430,1,4,0:0:0:0:
256,192,16576,1,0,0:0:0:0:
256,192,16723,1,8,0:0:0:0:
256,192,16869,1,0,0:0:0:0:
256,192,17015,1,8,0:0:0:0:
256,192,17308,1,0,0:0:0:0:
256,192,17601,1,0,0:0:0:0:
256,192,17747,1,0,0:0:0:0:
256,192,17893,1,8,0:0:0:0:
256,192,18040,1,0,0:0:0:0:
256,192,18113,1,0,0:0:0:0:
256,192,18186,1,8,0:0:0:0:
256,192,18479,1,8,0:0:0:0:
256,192,18771,1,0,0:0:0:0:
256,192,18845,1,8,0:0:0:0:
256,192,18918,1,0,0:0:0:0:
256,192,18991,1,8,0:0:0:0:
256,192,19064,1,0,0:0:0:0:
256,192,19137,1,0,0:0:0:0:
256,192,19210,1,8,0:0:0:0:
256,192,19284,1,0,0:0:0:0:
256,192,19357,1,12,0:0:0:0:
256,192,19503,1,0,0:0:0:0:
256,192,19650,1,12,0:0:0:0:
256,192,19942,1,4,0:0:0:0:
256,192,20089,1,0,0:0:0:0:
256,192,20235,1,8,0:0:0:0:
256,192,20381,1,0,0:0:0:0:
256,192,20454,1,0,0:0:0:0:
256,192,20528,1,8,0:0:0:0:
256,192,20674,1,8,0:0:0:0:
256,192,20820,1,0,0:0:0:0:
256,192,20967,1,0,0:0:0:0:
256,192,21040,1,8,0:0:0:0:
256,192,21113,1,0,0:0:0:0:
256,192,21259,1,0,0:0:0:0:
256,192,21406,1,0,0:0:0:0:
256,192,21552,1,8,0:0:0:0:
256,192,21698,1,0,0:0:0:0:
256,192,21991,1,8,0:0:0:0:
256,192,22284,1,0,0:0:0:0:
256,192,22430,1,0,0:0:0:0:
256,192,22576,1,8,0:0:0:0:
256,192,22723,1,0,0:0:0:0:
256,192,22796,1,0,0:0:0:0:
256,192,22869,1,8,0:0:0:0:
256,192,23015,1,0,0:0:0:0:
256,192,23162,1,8,0:0:0:0:
256,192,23454,1,0,0:0:0:0:
256,192,23528,1,8,0:0:0:0:
256,192,23601,1,0,0:0:0:0:
256,192,23674,1,8,0:0:0:0:
256,192,23747,1,0,0:0:0:0:
256,192,23820,1,0,0:0:0:0:
256,192,23893,1,8,0:0:0:0:
256,192,23967,1,8,0:0:0:0:
256,192,24040,1,4,0:0:0:0:
256,192,24332,1,4,0:0:0:0:
256,192,24625,1,8,0:0:0:0:
256,192,24771,1,8,0:0:0:0:
256,192,24918,1,8,0:0:0:0:
256,192,24991,1,8,0:0:0:0:
256,192,25064,1,8,0:0:0:0:
256,192,25137,1,8,0:0:0:0:
256,192,25210,1,0,0:0:0:0:
256,192,25284,1,0,0:0:0:0:
256,192,25357,1,8,0:0:0:0:
256,192,25430,1,8,0:0:0:0:
256,192,25503,1,0,0:0:0:0:
256,192,25576,1,0,0:0:0:0:
256,192,25650,1,8,0:0:0:0:
256,192,25796,1,12,0:0:0:0:
256,192,25942,1,0,0:0:0:0:
256,192,26089,1,8,0:0:0:0:
256,192,26235,1,0,0:0:0:0:
256,192,26381,1,8,0:0:0:0:
256,192,26674,1,0,0:0:0:0:
256,192,26967,1,12,0:0:0:0:
256,192,27113,1,0,0:0:0:0:
256,192,27162,1,0,0:0:0:0:
256,192,27210,1,0,0:0:0:0:
256,192,27259,1,8,0:0:0:0:
256,192,27406,1,0,0:0:0:0:
256,192,27552,1,8,0:0:0:0:
256,192,27625,1,8,0:0:0:0:
256,192,27698,1,8,0:0:0:0:
256,192,27771,1,8,0:0:0:0:
256,192,27845,1,0,0:0:0:0:
256,192,27991,1,8,0:0:0:0:
256,192,28137,1,4,0:0:0:0:
256,192,28430,1,0,0:0:0:0:
256,192,28576,1,8,0:0:0:0:
256,192,28723,1,0,0:0:0:0:
256,192,28796,1,0,0:0:0:0:
256,192,28869,1,0,0:0:0:0:
256,192,28942,1,0,0:0:0:0:
256,192,29015,1,12,0:0:0:0:
256,192,29308,1,4,0:0:0:0:
256,192,29601,1,8,0:0:0:0:
256,192,29747,1,8,0:0:0:0:
256,192,29893,1,0,0:0:0:0:
256,192,30186,1,8,0:0:0:0:
256,192,30332,1,0,0:0:0:0:
256,192,30479,1,8,0:0:0:0:
256,192,30771,1,0,0:0:0:0:
256,192,31064,1,8,0:0:0:0:
256,192,31210,1,8,0:0:0:0:
256,192,31357,1,0,0:0:0:0:
256,192,31650,1,0,0:0:0:0:
256,192,31942,1,8,0:0:0:0:
256,192,32089,1,0,0:0:0:0:
256,192,32235,1,8,0:0:0:0:
256,192,32528,1,8,0:0:0:0:
256,192,32674,1,8,0:0:0:0:
256,192,32820,1,0,0:0:0:0:
256,192,33113,1,8,0:0:0:0:
256,192,33406,1,0,0:0:0:0:
256,192,33552,1,0,0:0:0:0:
256,192,33698,1,8,0:0:0:0:
256,192,33991,1,8,0:0:0:0:
256,192,34284,1,8,0:0:0:0:
256,192,34430,1,0,0:0:0:0:
256,192,34576,1,8,0:0:0:0:
256,192,34869,1,0,0:0:0:0:
256,192,35015,1,0,0:0:0:0:
256,192,35162,1,8,0:0:0:0:
256,192,35308,1,8,0:0:0:0:
256,192,35454,1,0,0:0:0:0:
256,192,35747,1,8,0:0:0:0:
256,192,36040,1,0,0:0:0:0:
256,192,36332,1,8,0:0:0:0:
256,192,36479,1,8,0:0:0:0:
256,192,36625,1,0,0:0:0:0:
256,192,36771,1,0,0:0:0:0:
256,192,36918,1,8,0:0:0:0:
256,192,37210,1,0,0:0:0:0:
256,192,37357,1,8,0:0:0:0:
256,192,37503,1,0,0:0:0:0:
256,192,37650,1,0,0:0:0:0:
256,192,37796,1,8,0:0:0:0:
256,192,38089,1,8,0:0:0:0:
256,192,38235,1,0,0:0:0:0:
256,192,38381,1,8,0:0:0:0:
256,192,38674,1,12,0:0:0:0:
256,192,38820,1,0,0:0:0:0:
256,192,38967,1,8,0:0:0:0:
256,192,39113,1,8,0:0:0:0:
256,192,39259,1,0,0:0:0:0:
256,192,39406,1,0,0:0:0:0:
256,192,39552,1,8,0:0:0:0:
256,192,39698,1,0,0:0:0:0:
256,192,39845,1,8,0:0:0:0:
256,192,39991,1,0,0:0:0:0:
256,192,40137,1,8,0:0:0:0:
256,192,40284,1,8,0:0:0:0:
256,192,40430,1,0,0:0:0:0:
256,192,40576,1,0,0:0:0:0:
256,192,40723,1,8,0:0:0:0:
256,192,40869,1,0,0:0:0:0:
256,192,41015,1,8,0:0:0:0:
256,192,41162,1,8,0:0:0:0:
256,192,41308,1,0,0:0:0:0:
256,192,41454,1,0,0:0:0:0:
256,192,41601,1,8,0:0:0:0:
256,192,41747,1,0,0:0:0:0:
256,192,41893,1,8,0:0:0:0:
256,192,42040,1,8,0:0:0:0:
256,192,42186,1,0,0:0:0:0:
256,192,42332,1,0,0:0:0:0:
256,192,42479,1,8,0:0:0:0:
256,192,42625,1,8,0:0:0:0:
256,192,42771,1,0,0:0:0:0:
256,192,42918,1,0,0:0:0:0:
256,192,43064,1,12,0:0:0:0:
256,192,43357,1,8,0:0:0:0:
256,192,43503,1,8,0:0:0:0:
256,192,43650,1,8,0:0:0:0:
256,192,43723,1,0,0:0:0:0:
256,192,43796,1,8,0:0:0:0:
256,192,43942,1,8,0:0:0:0:
256,192,44089,1,8,0:0:0:0:
256,192,44235,1,0,0:0:0:0:
256,192,44308,1,8,0:0:0:0:
256,192,44381,1,0,0:0:0:0:
256,192,44528,1,8,0:0:0:0:
256,192,44674,1,8,0:0:0:0:
256,192,44820,1,8,0:0:0:0:
256,192,44893,1,0,0:0:0:0:
256,192,44967,1,8,0:0:0:0:
256,192,45113,1,8,0:0:0:0:
256,192,45186,1,8,0:0:0:0:
256,192,45259,1,0,0:0:0:0:
256,192,45332,1,0,0:0:0:0:
256,192,45406,1,8,0:0:0:0:
256,192,45552,1,0,0:0:0:0:
256,192,45698,1,8,0:0:0:0:
256,192,45771,1,8,0:0:0:0:
256,192,45845,1,0,0:0:0:0:
256,192,45918,1,0,0:0:0:0:
256,192,45991,1,8,0:0:0:0:
256,192,46064,1,0,0:0:0:0:
256,192,46137,1,8,0:0:0:0:
256,192,46210,1,0,0:0:0:0:
256,192,46284,1,8,0:0:0:0:
256,192,46357,1,8,0:0:0:0:
256,192,46430,1,8,0:0:0:0:
256,192,46503,1,0,0:0:0:0:
256,192,46576,1,8,0:0:0:0:
256,192,46650,1,0,0:0:0:0:
256,192,46723,1,8,0:0:0:0:
256,192,46796,1,8,0:0:0:0:
256,192,46869,1,0,0:0:0:0:
256,192,47015,1,8,0:0:0:0:
256,192,47162,1,0,0:0:0:0:
256,192,47308,1,0,0:0:0:0:
256,192,47454,1,8,0:0:0:0:
256,192,47747,1,12,0:0:0:0:
256,192,47893,1,0,0:0:0:0:
256,192,48040,1,8,0:0:0:0:
256,192,48113,1,0,0:0:0:0:
256,192,48186,1,8,0:0:0:0:
256,192,48259,1,8,0:0:0:0:
256,192,48332,1,0,0:0:0:0:
256,192,48479,1,0,0:0:0:0:
256,192,48625,1,8,0:0:0:0:
256,192,48698,1,0,0:0:0:0:
256,192,48771,1,0,0:0:0:0:
256,192,48845,1,8,0:0:0:0:
256,192,48918,1,0,0:0:0:0:
256,192,49064,1,0,0:0:0:0:
256,192,49137,1,8,0:0:0:0:
256,192,49210,1,0,0:0:0:0:
256,192,49357,1,8,0:0:0:0:
256,192,49430,1,8,0:0:0:0:
256,192,49503,1,0,0:0:0:0:
256,192,49650,1,8,0:0:0:0:
256,192,49723,1,8,0:0:0:0:
256,192,49796,1,0,0:0:0:0:
256,192,49942,1,0,0:0:0:0:
256,192,50015,1,0,0:0:0:0:
256,192,50089,1,8,0:0:0:0:
256,192,50235,1,0,0:0:0:0:
256,192,50308,1,0,0:0:0:0:
256,192,50381,1,8,0:0:0:0:
256,192,50454,1,0,0:0:0:0:
256,192,50528,1,8,0:0:0:0:
256,192,50601,1,8,0:0:0:0:
256,192,50674,1,0,0:0:0:0:
256,192,50820,1,8,0:0:0:0:
256,192,50893,1,0,0:0:0:0:
256,192,50967,1,8,0:0:0:0:
256,192,51113,1,0,0:0:0:0:
256,192,51186,1,0,0:0:0:0:
256,192,51259,1,8,0:0:0:0:
256,192,51406,1,0,0:0:0:0:
256,192,51552,1,12,0:0:0:0:
256,192,51698,1,0,0:0:0:0:
256,192,51845,1,0,0:0:0:0:
256,192,51918,1,8,0:0:0:0:
256,192,51991,1,0,0:0:0:0:
256,192,52064,1,0,0:0:0:0:
256,192,52137,1,8,0:0:0:0:
256,192,52284,1,8,0:0:0:0:
256,192,52430,1,0,0:0:0:0:
256,192,52576,1,0,0:0:0:0:
256,192,52723,1,8,0:0:0:0:
256,192,52796,1,0,0:0:0:0:
256,192,52869,1,8,0:0:0:0:
256,192,52942,1,8,0:0:0:0:
256,192,53015,1,0,0:0:0:0:
256,192,53162,1,0,0:0:0:0:
256,192,53308,1,8,0:0:0:0:
256,192,53381,1,0,0:0:0:0:
256,192,53454,1,0,0:0:0:0:
256,192,53528,1,8,0:0:0:0:
256,192,53601,1,0,0:0:0:0:
256,192,53747,1,0,0:0:0:0:
256,192,53820,1,8,0:0:0:0:
256,192,53893,1,0,0:0:0:0:
256,192,54040,1,8,0:0:0:0:
256,192,54113,1,8,0:0:0:0:
256,192,54186,1,0,0:0:0:0:
256,192,54332,1,8,0:0:0:0:
256,192,54406,1,8,0:0:0:0:
256,192,54479,1,0,0:0:0:0:
256,192,54625,1,0,0:0:0:0:
256,192,54698,1,0,0:0:0:0:
256,192,54771,1,8,0:0:0:0:
256,192,54918,1,0,0:0:0:0:
256,192,54991,1,0,0:0:0:0:
256,192,55064,1,8,0:0:0:0:
256,192,55137,1,8,0:0:0:0:
256,192,55210,1,0,0:0:0:0:
256,192,55284,1,0,0:0:0:0:
256,192,55357,1,8,0:0:0:0:
256,192,55430,1,0,0:0:0:0:
256,192,55503,1,8,0:0:0:0:
256,192,55576,1,0,0:0:0:0:
256,192,55650,1,8,0:0:0:0:
256,192,55723,1,8,0:0:0:0:
256,192,55796,1,8,0:0:0:0:
256,192,55869,1,8,0:0:0:0:
256,192,55942,1,0,0:0:0:0:
256,192,56089,1,0,0:0:0:0:
256,192,56235,1,12,0:0:0:0:
256,192,56528,1,4,0:0:0:0:
256,192,56820,1,4,0:0:0:0:
256,192,57113,1,12,0:0:0:0:
256,192,57406,1,8,0:0:0:0:
256,192,57479,1,0,0:0:0:0:
256,192,57552,1,8,0:0:0:0:
256,192,57625,1,8,0:0:0:0:
256,192,57698,1,0,0:0:0:0:
256,192,57845,1,0,0:0:0:0:
256,192,57991,1,8,0:0:0:0:
256,192,58064,1,0,0:0:0:0:
256,192,58137,1,0,0:0:0:0:
256,192,58210,1,8,0:0:0:0:
256,192,58284,1,0,0:0:0:0:
256,192,58430,1,0,0:0:0:0:
256,192,58503,1,8,0:0:0:0:
256,192,58576,1,0,0:0:0:0:
256,192,58723,1,8,0:0:0:0:
256,192,58796,1,8,0:0:0:0:
256,192,58869,1,0,0:0:0:0:
256,192,59015,1,8,0:0:0:0:
256,192,59089,1,8,0:0:0:0:
256,192,59162,1,0,0:0:0:0:
256,192,59235,1,0,0:0:0:0:
256,192,59308,1,0,0:0:0:0:
256,192,59381,1,0,0:0:0:0:
256,192,59454,1,8,0:0:0:0:
256,192,59601,1,0,0:0:0:0:
256,192,59674,1,0,0:0:0:0:
256,192,59747,1,8,0:0:0:0:
256,192,59820,1,0,0:0:0:0:
256,192,59893,1,8,0:0:0:0:
256,192,59967,1,8,0:0:0:0:
256,192,60040,1,0,0:0:0:0:
256,192,60186,1,8,0:0:0:0:
256,192,60259,1,0,0:0:0:0:
256,192,60332,1,8,0:0:0:0:
256,192,60479,1,0,0:0:0:0:
256,192,60552,1,0,0:0:0:0:
256,192,60625,1,8,0:0:0:0:
256,192,60771,1,0,0:0:0:0:
256,192,60918,1,12,0:0:0:0:
256,192,61064,1,0,0:0:0:0:
256,192,61210,1,0,0:0:0:0:
256,192,61284,1,8,0:0:0:0:
256,192,61357,1,0,0:0:0:0:
256,192,61430,1,0,0:0:0:0:
256,192,61503,1,8,0:0:0:0:
256,192,61650,1,8,0:0:0:0:
256,192,61796,1,0,0:0:0:0:
256,192,61942,1,0,0:0:0:0:
256,192,62089,1,8,0:0:0:0:
256,192,62162,1,0,0:0:0:0:
256,192,62235,1,8,0:0:0:0:
256,192,62308,1,8,0:0:0:0:
256,192,62381,1,0,0:0:0:0:
256,192,62528,1,8,0:0:0:0:
256,192,62674,1,8,0:0:0:0:
256,192,62747,1,0,0:0:0:0:
256,192,62820,1,8,0:0:0:0:
256,192,62893,1,8,0:0:0:0:
256,192,62967,1,0,0:0:0:0:
256,192,63113,1,0,0:0:0:0:
256,192,63259,1,8,0:0:0:0:
256,192,63332,1,0,0:0:0:0:
256,192,63406,1,8,0:0:0:0:
256,192,63479,1,8,0:0:0:0:
256,192,63552,1,0,0:0:0:0:
256,192,63698,1,8,0:0:0:0:
256,192,63845,1,0,0:0:0:0:
256,192,63991,1,0,0:0:0:0:
256,192,64137,1,8,0:0:0:0:
256,192,64210,1,8,0:0:0:0:
256,192,64284,1,0,0:0:0:0:
256,192,64430,1,8,0:0:0:0:
256,192,64503,1,0,0:0:0:0:
256,192,64576,1,8,0:0:0:0:
256,192,64650,1,0,0:0:0:0:
256,192,64723,1,8,0:0:0:0:
256,192,64796,1,0,0:0:0:0:
256,192,64869,1,8,0:0:0:0:
256,192,64942,1,0,0:0:0:0:
256,192,65015,1,8,0:0:0:0:
256,192,65089,1,8,0:0:0:0:
256,192,65162,1,0,0:0:0:0:
256,192,65235,1,0,0:0:0:0:
256,192,65308,1,8,0:0:0:0:
256,192,65381,1,8,0:0:0:0:
256,192,65454,1,8,0:0:0:0:
256,192,65528,1,8,0:0:0:0:
256,192,65601,1,0,0:0:0:0:
256,192,65747,1,0,0:0:0:0:
256,192,65820,1,0,0:0:0:0:
256,192,65893,1,8,0:0:0:0:
256,192,66040,1,0,0:0:0:0:
256,192,66186,1,8,0:0:0:0:
256,192,66332,1,0,0:0:0:0:
256,192,66479,1,8,0:0:0:0:
256,192,66552,1,0,0:0:0:0:
256,192,66625,1,8,0:0:0:0:
256,192,66771,1,4,0:0:0:0:
256,192,66918,1,0,0:0:0:0:
256,192,67064,1,8,0:0:0:0:
256,192,67210,1,0,0:0:0:0:
256,192,67357,1,8,0:0:0:0:
256,192,67650,1,0,0:0:0:0:
256,192,67796,1,8,0:0:0:0:
256,192,68089,1,8,0:0:0:0:
256,192,68381,1,0,0:0:0:0:
256,192,68528,1,8,0:0:0:0:
256,192,68820,1,0,0:0:0:0:
256,192,69259,1,0,0:0:0:0:
256,192,69406,1,8,0:0:0:0:
256,192,69552,1,0,0:0:0:0:
256,192,69698,1,8,0:0:0:0:
256,192,69991,1,0,0:0:0:0:
256,192,70137,1,8,0:0:0:0:
256,192,70430,1,8,0:0:0:0:
256,192,70576,1,8,0:0:0:0:
256,192,70723,1,0,0:0:0:0:
256,192,70869,1,8,0:0:0:0:
256,192,71015,1,0,0:0:0:0:
256,192,71162,1,8,0:0:0:0:
256,192,71601,1,0,0:0:0:0:
256,192,71747,1,8,0:0:0:0:
256,192,71893,1,0,0:0:0:0:
256,192,72040,1,8,0:0:0:0:
256,192,72332,1,0,0:0:0:0:
256,192,72479,1,8,0:0:0:0:
256,192,72771,1,8,0:0:0:0:
256,192,73064,1,0,0:0:0:0:
256,192,73210,1,8,0:0:0:0:
256,192,73503,1,8,0:0:0:0:
256,192,73942,1,8,0:0:0:0:
256,192,74089,1,0,0:0:0:0:
256,192,74235,1,8,0:0:0:0:
256,192,74381,1,0,0:0:0:0:
256,192,74528,1,0,0:0:0:0:
256,192,74674,1,8,0:0:0:0:
256,192,74820,1,0,0:0:0:0:
256,192,75113,1,8,0:0:0:0:
256,192,75406,1,0,0:0:0:0:
256,192,75552,1,8,0:0:0:0:
256,192,75698,1,0,0:0:0:0:
256,192,75845,1,8,0:0:0:0:
256,192,75918,1,8,0:0:0:0:
256,192,75991,1,0,0:0:0:0:
256,192,76064,1,0,0:0:0:0:
256,192,76137,1,12,0:0:0:0:
256,192,76284,1,0,0:0:0:0:
256,192,76430,1,8,0:0:0:0:
256,192,76576,1,0,0:0:0:0:
256,192,76723,1,8,0:0:0:0:
256,192,76869,1,0,0:0:0:0:
256,192,77015,1,8,0:0:0:0:
256,192,77162,1,8,0:0:0:0:
256,192,77308,1,0,0:0:0:0:
256,192,77454,1,8,0:0:0:0:
256,192,77601,1,8,0:0:0:0:
256,192,77747,1,0,0:0:0:0:
256,192,77893,1,8,0:0:0:0:
256,192,78040,1,0,0:0:0:0:
256,192,78186,1,8,0:0:0:0:
256,192,78479,1,0,0:0:0:0:
256,192,78625,1,0,0:0:0:0:
256,192,78771,1,8,0:0:0:0:
256,192,78918,1,0,0:0:0:0:
256,192,79064,1,8,0:0:0:0:
256,192,79210,1,0,0:0:0:0:
256,192,79357,1,8,0:0:0:0:
256,192,79503,1,8,0:0:0:0:
256,192,79650,1,0,0:0:0:0:
256,192,79796,1,8,0:0:0:0:
256,192,79942,1,8,0:0:0:0:
256,192,80089,1,0,0:0:0:0:
256,192,80235,1,8,0:0:0:0:
256,192,80381,1,0,0:0:0:0:
256,192,80528,1,8,0:0:0:0:
256,192,80674,1,8,0:0:0:0:
256,192,80820,1,0,0:0:0:0:
256,192,80967,1,0,0:0:0:0:
256,192,81113,1,8,0:0:0:0:
256,192,81259,1,0,0:0:0:0:
256,192,81406,1,8,0:0:0:0:
256,192,81552,1,0,0:0:0:0:
256,192,81698,1,8,0:0:0:0:
256,192,81845,1,8,0:0:0:0:
256,192,81991,1,0,0:0:0:0:
256,192,82137,1,0,0:0:0:0:
256,192,82284,1,8,0:0:0:0:
256,192,82430,1,0,0:0:0:0:
256,192,82576,1,8,0:0:0:0:
256,192,82723,1,0,0:0:0:0:
256,192,82869,1,8,0:0:0:0:
256,192,83162,1,0,0:0:0:0:
256,192,83308,1,0,0:0:0:0:
256,192,83454,1,8,0:0:0:0:
256,192,83601,1,0,0:0:0:0:
256,192,83747,1,8,0:0:0:0:
256,192,83893,1,0,0:0:0:0:
256,192,84040,1,8,0:0:0:0:
256,192,84186,1,8,0:0:0:0:
256,192,84332,1,0,0:0:0:0:
256,192,84479,1,8,0:0:0:0:
256,192,84625,1,8,0:0:0:0:
256,192,84771,1,0,0:0:0:0:
256,192,85064,1,0,0:0:0:0:
256,192,85210,1,8,0:0:0:0:
256,192,85503,1,12,0:0:0:0:
256,192,85650,1,0,0:0:0:0:
256,192,85723,1,0,0:0:0:0:
256,192,85796,1,8,0:0:0:0:
256,192,85942,1,0,0:0:0:0:
256,192,86015,1,0,0:0:0:0:
256,192,86089,1,8,0:0:0:0:
256,192,86235,1,8,0:0:0:0:
256,192,86308,1,0,0:0:0:0:
256,192,86381,1,8,0:0:0:0:
256,192,86528,1,0,0:0:0:0:
256,192,86601,1,0,0:0:0:0:
256,192,86674,1,8,0:0:0:0:
256,192,86820,1,0,0:0:0:0:
256,192,86967,1,8,0:0:0:0:
256,192,87113,1,0,0:0:0:0:
256,192,87259,1,8,0:0:0:0:
256,192,87406,1,8,0:0:0:0:
256,192,87479,1,8,0:0:0:0:
256,192,87552,1,0,0:0:0:0:
256,192,87698,1,8,0:0:0:0:
256,192,87845,1,0,0:0:0:0:
256,192,87991,1,0,0:0:0:0:
256,192,88064,1,0,0:0:0:0:
256,192,88137,1,8,0:0:0:0:
256,192,88284,1,0,0:0:0:0:
256,192,88357,1,0,0:0:0:0:
256,192,88430,1,8,0:0:0:0:
256,192,88576,1,8,0:0:0:0:
256,192,88650,1,0,0:0:0:0:
256,192,88723,1,8,0:0:0:0:
256,192,88869,1,0,0:0:0:0:
256,192,88942,1,0,0:0:0:0:
256,192,89015,1,8,0:0:0:0:
256,192,89162,1,0,0:0:0:0:
256,192,89308,1,8,0:0:0:0:
256,192,89454,1,0,0:0:0:0:
256,192,89601,1,8,0:0:0:0:
256,192,89747,1,8,0:0:0:0:
256,192,89820,1,8,0:0:0:0:
256,192,89893,1,0,0:0:0:0:
256,192,90040,1,8,0:0:0:0:
256,192,90186,1,8,0:0:0:0:
256,192,90259,1,8,0:0:0:0:
256,192,90332,1,0,0:0:0:0:
256,192,90406,1,0,0:0:0:0:
256,192,90479,1,8,0:0:0:0:
256,192,90625,1,0,0:0:0:0:
256,192,90698,1,0,0:0:0:0:
256,192,90771,1,8,0:0:0:0:
256,192,90918,1,0,0:0:0:0:
256,192,90991,1,8,0:0:0:0:
256,192,91064,1,0,0:0:0:0:
256,192,91137,1,0,0:0:0:0:
256,192,91210,1,8,0:0:0:0:
256,192,91284,1,8,0:0:0:0:
256,192,91357,1,0,0:0:0:0:
256,192,91503,1,8,0:0:0:0:
256,192,91576,1,0,0:0:0:0:
256,192,91650,1,8,0:0:0:0:
256,192,91723,1,8,0:0:0:0:
256,192,91796,1,0,0:0:0:0:
256,192,91942,1,8,0:0:0:0:
256,192,92015,1,8,0:0:0:0:
256,192,92089,1,0,0:0:0:0:
256,192,92162,1,8,0:0:0:0:
256,192,92235,1,8,0:0:0:0:
256,192,92308,1,0,0:0:0:0:
256,192,92381,1,8,0:0:0:0:
256,192,92528,1,8,0:0:0:0:
256,192,92601,1,8,0:0:0:0:
256,192,92674,1,0,0:0:0:0:
256,192,92747,1,0,0:0:0:0:
256,192,92820,1,8,0:0:0:0:
256,192,92893,1,0,0:0:0:0:
256,192,92967,1,8,0:0:0:0:
256,192,93040,1,0,0:0:0:0:
256,192,93113,1,8,0:0:0:0:
256,192,93186,1,8,0:0:0:0:
256,192,93259,1,0,0:0:0:0:
256,192,93332,1,0,0:0:0:0:
256,192,93406,1,8,0:0:0:0:
256,192,93479,1,0,0:0:0:0:
256,192,93552,1,8,0:0:0:0:
256,192,93625,1,8,0:0:0:0:
256,192,93698,1,0,0:0:0:0:
256,192,93845,1,8,0:0:0:0:
256,192,93991,1,8,0:0:0:0:
256,192,94137,1,8,0:0:0:0:
256,192,94430,1,0,0:0:0:0:
256,192,94576,1,12,0:0:0:0:
256,192,94869,1,12,0:0:0:0:
256,192,95015,1,8,0:0:0:0:
256,192,95089,1,0,0:0:0:0:
256,192,95162,1,8,0:0:0:0:
256,192,95308,1,0,0:0:0:0:
256,192,95454,1,0,0:0:0:0:
256,192,95528,1,8,0:0:0:0:
256,192,95674,1,8,0:0:0:0:
256,192,95747,1,0,0:0:0:0:
256,192,95893,1,0,0:0:0:0:
256,192,95967,1,0,0:0:0:0:
256,192,96040,1,8,0:0:0:0:
256,192,96186,1,0,0:0:0:0:
256,192,96332,1,8,0:0:0:0:
256,192,96406,1,0,0:0:0:0:
256,192,96479,1,8,0:0:0:0:
256,192,96625,1,0,0:0:0:0:
256,192,96698,1,8,0:0:0:0:
256,192,96771,1,8,0:0:0:0:
256,192,96845,1,8,0:0:0:0:
256,192,96918,1,0,0:0:0:0:
256,192,97064,1,8,0:0:0:0:
256,192,97210,1,0,0:0:0:0:
256,192,97284,1,0,0:0:0:0:
256,192,97357,1,8,0:0:0:0:
256,192,97503,1,0,0:0:0:0:
256,192,97576,1,0,0:0:0:0:
256,192,97650,1,8,0:0:0:0:
256,192,97796,1,8,0:0:0:0:
256,192,97869,1,0,0:0:0:0:
256,192,97942,1,8,0:0:0:0:
256,192,98015,1,8,0:0:0:0:
256,192,98089,1,0,0:0:0:0:
256,192,98235,1,0,0:0:0:0:
256,192,98308,1,0,0:0:0:0:
256,192,98381,1,8,0:0:0:0:
256,192,98528,1,0,0:0:0:0:
256,192,98576,1,0,0:0:0:0:
256,192,98625,1,0,0:0:0:0:
256,192,98674,1,8,0:0:0:0:
256,192,98747,1,0,0:0:0:0:
256,192,98820,1,8,0:0:0:0:
256,192,98967,1,8,0:0:0:0:
256,192,99040,1,0,0:0:0:0:
256,192,99113,1,8,0:0:0:0:
256,192,99186,1,8,0:0:0:0:
256,192,99259,1,0,0:0:0:0:
256,192,99406,1,8,0:0:0:0:
256,192,99479,1,8,0:0:0:0:
256,192,99552,1,0,0:0:0:0:
256,192,99698,1,0,0:0:0:0:
256,192,99771,1,0,0:0:0:0:
256,192,99845,1,8,0:0:0:0:
256,192,99991,1,0,0:0:0:0:
256,192,100137,1,0,0:0:0:0:
256,192,100210,1,8,0:0:0:0:
256,192,100357,1,8,0:0:0:0:
256,192,100430,1,0,0:0:0:0:
256,192,100576,1,0,0:0:0:0:
256,192,100650,1,0,0:0:0:0:
256,192,100723,1,8,0:0:0:0:
256,192,100869,1,0,0:0:0:0:
256,192,101015,1,8,0:0:0:0:
256,192,101089,1,0,0:0:0:0:
256,192,101162,1,8,0:0:0:0:
256,192,101308,1,0,0:0:0:0:
256,192,101381,1,8,0:0:0:0:
256,192,101454,1,8,0:0:0:0:
256,192,101528,1,8,0:0:0:0:
256,192,101601,1,0,0:0:0:0:
256,192,101747,1,8,0:0:0:0:
256,192,101893,1,0,0:0:0:0:
256,192,101967,1,0,0:0:0:0:
256,192,102040,1,8,0:0:0:0:
256,192,102186,1,8,0:0:0:0:
256,192,102259,1,8,0:0:0:0:
256,192,102332,1,0,0:0:0:0:
256,192,102479,1,8,0:0:0:0:
256,192,102552,1,0,0:0:0:0:
256,192,102625,1,0,0:0:0:0:
256,192,102698,1,8,0:0:0:0:
256,192,102771,1,0,0:0:0:0:
256,192,102918,1,0,0:0:0:0:
256,192,102991,1,0,0:0:0:0:
256,192,103064,1,8,0:0:0:0:
256,192,103210,1,0,0:0:0:0:
256,192,103357,1,8,0:0:0:0:
256,192,103430,1,0,0:0:0:0:
256,192,103503,1,8,0:0:0:0:
256,192,103576,1,8,0:0:0:0:
256,192,103650,1,0,0:0:0:0:
256,192,103723,1,0,0:0:0:0:
256,192,103796,1,8,0:0:0:0:
256,192,103845,1,0,0:0:0:0:
256,192,103893,1,0,0:0:0:0:
256,192,103942,1,8,0:0:0:0:
256,192,104089,1,0,0:0:0:0:
256,192,104235,1,12,0:0:0:0:
256,192,104381,1,8,0:0:0:0:
256,192,104454,1,0,0:0:0:0:
256,192,104528,1,8,0:0:0:0:
256,192,104674,1,0,0:0:0:0:
256,192,104820,1,0,0:0:0:0:
256,192,104893,1,8,0:0:0:0:
256,192,105040,1,8,0:0:0:0:
256,192,105113,1,0,0:0:0:0:
256,192,105259,1,0,0:0:0:0:
256,192,105332,1,0,0:0:0:0:
256,192,105406,1,8,0:0:0:0:
256,192,105552,1,0,0:0:0:0:
256,192,105698,1,8,0:0:0:0:
256,192,105771,1,0,0:0:0:0:
256,192,105845,1,8,0:0:0:0:
256,192,105991,1,0,0:0:0:0:
256,192,106064,1,8,0:0:0:0:
256,192,106137,1,8,0:0:0:0:
256,192,106210,1,8,0:0:0:0:
256,192,106284,1,0,0:0:0:0:
256,192,106430,1,8,0:0:0:0:
256,192,106576,1,0,0:0:0:0:
256,192,106650,1,0,0:0:0:0:
256,192,106723,1,8,0:0:0:0:
256,192,106869,1,8,0:0:0:0:
256,192,106942,1,8,0:0:0:0:
256,192,107015,1,0,0:0:0:0:
256,192,107162,1,8,0:0:0:0:
256,192,107235,1,0,0:0:0:0:
256,192,107308,1,0,0:0:0:0:
256,192,107381,1,8,0:0:0:0:
256,192,107454,1,0,0:0:0:0:
256,192,107601,1,0,0:0:0:0:
256,192,107674,1,0,0:0:0:0:
256,192,107747,1,8,0:0:0:0:
256,192,107893,1,0,0:0:0:0:
256,192,107942,1,0,0:0:0:0:
256,192,107991,1,0,0:0:0:0:
256,192,108040,1,8,0:0:0:0:
256,192,108113,1,0,0:0:0:0:
256,192,108186,1,8,0:0:0:0:
256,192,108332,1,8,0:0:0:0:
256,192,108406,1,0,0:0:0:0:
256,192,108479,1,8,0:0:0:0:
256,192,108552,1,0,0:0:0:0:
256,192,108625,1,8,0:0:0:0:
256,192,108771,1,0,0:0:0:0:
256,192,108918,1,12,0:0:0:0:
256,192,109064,1,8,0:0:0:0:
256,192,109137,1,8,0:0:0:0:
256,192,109210,1,0,0:0:0:0:
256,192,109357,1,8,0:0:0:0:
256,192,109430,1,8,0:0:0:0:
256,192,109503,1,0,0:0:0:0:
256,192,109650,1,8,0:0:0:0:
256,192,109723,1,8,0:0:0:0:
256,192,109796,1,0,0:0:0:0:
256,192,109942,1,0,0:0:0:0:
256,192,110089,1,12,0:0:0:0:
256,192,110235,1,8,0:0:0:0:
256,192,110308,1,8,0:0:0:0:
256,192,110381,1,0,0:0:0:0:
256,192,110528,1,8,0:0:0:0:
256,192,110601,1,8,0:0:0:0:
256,192,110674,1,0,0:0:0:0:
256,192,110820,1,8,0:0:0:0:
256,192,110893,1,8,0:0:0:0:
256,192,110967,1,0,0:0:0:0:
256,192,111113,1,0,0:0:0:0:
256,192,111259,1,8,0:0:0:0:
256,192,111332,1,0,0:0:0:0:
256,192,111406,1,8,0:0:0:0:
256,192,111479,1,0,0:0:0:0:
256,192,111552,1,8,0:0:0:0:
256,192,111625,1,8,0:0:0:0:
256,192,111698,1,0,0:0:0:0:
256,192,111771,1,0,0:0:0:0:
256,192,111845,1,8,0:0:0:0:
256,192,111918,1,0,0:0:0:0:
256,192,111991,1,8,0:0:0:0:
256,192,112064,1,0,0:0:0:0:
256,192,112137,1,8,0:0:0:0:
256,192,112210,1,8,0:0:0:0:
256,192,112284,1,0,0:0:0:0:
256,192,112357,1,0,0:0:0:0:
256,192,112430,1,12,0:0:0:0:
256,192,112576,1,0,0:0:0:0:
256,192,112723,1,8,0:0:0:0:
256,192,112869,1,0,0:0:0:0:
256,192,112942,1,0,0:0:0:0:
256,192,113015,1,8,0:0:0:0:
256,192,113064,1,8,0:0:0:0:
256,192,113113,1,8,0:0:0:0:
256,192,113162,1,0,0:0:0:0:
256,192,113235,1,0,0:0:0:0:
256,192,113308,1,12,0:0:0:0:
256,192,113601,1,4,0:0:0:0:
256,192,113747,1,0,0:0:0:0:
256,192,113820,1,0,0:0:0:0:
256,192,113893,1,8,0:0:0:0:
256,192,114040,1,0,0:0:0:0:
256,192,114186,1,8,0:0:0:0:
256,192,114259,1,8,0:0:0:0:
256,192,114332,1,0,0:0:0:0:
256,192,114406,1,0,0:0:0:0:
256,192,114479,1,8,0:0:0:0:
256,192,114625,1,8,0:0:0:0:
256,192,114698,1,8,0:0:0:0:
256,192,114771,1,8,0:0:0:0:
256,192,114918,1,8,0:0:0:0:
256,192,114991,1,8,0:0:0:0:
256,192,115064,1,0,0:0:0:0:
256,192,115210,1,8,0:0:0:0:
256,192,115357,1,0,0:0:0:0:
256,192,115503,1,0,0:0:0:0:
256,192,115576,1,0,0:0:0:0:
256,192,115650,1,8,0:0:0:0:
256,192,115723,1,0,0:0:0:0:
256,192,115796,1,8,0:0:0:0:
256,192,115942,1,0,0:0:0:0:
256,192,116089,1,0,0:0:0:0:
256,192,116162,1,0,0:0:0:0:
256,192,116235,1,8,0:0:0:0:
256,192,116381,1,0,0:0:0:0:
256,192,116528,1,8,0:0:0:0:
256,192,116601,1,8,0:0:0:0:
256,192,116674,1,8,0:0:0:0:
256,192,116747,1,8,0:0:0:0:
256,192,116820,1,0,0:0:0:0:
256,192,116967,1,8,0:0:0:0:
256,192,117040,1,8,0:0:0:0:
256,192,117113,1,0,0:0:0:0:
256,192,117259,1,0,0:0:0:0:
256,192,117332,1,0,0:0:0:0:
256,192,117406,1,0,0:0:0:0:
256,192,117552,1,8,0:0:0:0:
256,192,117698,1,0,0:0:0:0:
256,192,117845,1,8,0:0:0:0:
256,192,117918,1,0,0:0:0:0:
256,192,117991,1,8,0:0:0:0:
256,192,118064,1,8,0:0:0:0:
256,192,118137,1,0,0:0:0:0:
256,192,118284,1,0,0:0:0:0:
256,192,118430,1,0,0:0:0:0:
256,192,118503,1,0,0:0:0:0:
256,192,118576,1,8,0:0:0:0:
256,192,118723,1,0,0:0:0:0:
256,192,118869,1,8,0:0:0:0:
256,192,118942,1,8,0:0:0:0:
256,192,119015,1,0,0:0:0:0:
256,192,119089,1,0,0:0:0:0:
256,192,119162,1,8,0:0:0:0:
256,192,119308,1,8,0:0:0:0:
256,192,119381,1,8,0:0:0:0:
256,192,119454,1,8,0:0:0:0:
256,192,119601,1,8,0:0:0:0:
256,192,119674,1,8,0:0:0:0:
256,192,119747,1,0,0:0:0:0:
256,192,119893,1,8,0:0:0:0:
256,192,120040,1,0,0:0:0:0:
256,192,120113,1,0,0:0:0:0:
256,192,120186,1,0,0:0:0:0:
256,192,120259,1,0,0:0:0:0:
256,192,120332,1,8,0:0:0:0:
256,192,120479,1,8,0:0:0:0:
256,192,120625,1,0,0:0:0:0:
256,192,120771,1,0,0:0:0:0:
256,192,120845,1,0,0:0:0:0:
256,192,120918,1,8,0:0:0:0:
256,192,121064,1,0,0:0:0:0:
256,192,121210,1,8,0:0:0:0:
256,192,121284,1,0,0:0:0:0:
256,192,121357,1,8,0:0:0:0:
256,192,121430,1,8,0:0:0:0:
256,192,121503,1,0,0:0:0:0:
256,192,121650,1,8,0:0:0:0:
256,192,121796,1,4,0:0:0:0:
256,192,121942,1,8,0:0:0:0:
256,192,122235,1,0,0:0:0:0:
256,192,122381,1,8,0:0:0:0:
256,192,122674,1,8,0:0:0:0:
256,192,122723,1,8,0:0:0:0:
256,192,122771,1,8,0:0:0:0:
256,192,122820,1,8,0:0:0:0:
256,192,122967,1,4,0:0:0:0:
256,192,123113,1,0,0:0:0:0:
256,192,123186,1,0,0:0:0:0:
256,192,123259,1,8,0:0:0:0:
256,192,123406,1,0,0:0:0:0:
256,192,123552,1,8,0:0:0:0:
256,192,123625,1,8,0:0:0:0:
256,192,123698,1,0,0:0:0:0:
256,192,123771,1,0,0:0:0:0:
256,192,123845,1,8,0:0:0:0:
256,192,123991,1,8,0:0:0:0:
256,192,124064,1,8,0:0:0:0:
256,192,124137,1,8,0:0:0:0:
256,192,124284,1,8,0:0:0:0:
256,192,124357,1,8,0:0:0:0:
256,192,124430,1,0,0:0:0:0:
256,192,124576,1,8,0:0:0:0:
256,192,124723,1,0,0:0:0:0:
256,192,124796,1,0,0:0:0:0:
256,192,124869,1,0,0:0:0:0:
256,192,124942,1,0,0:0:0:0:
256,192,125015,1,8,0:0:0:0:
256,192,125089,1,8,0:0:0:0:
256,192,125162,1,0,0:0:0:0:
256,192,125308,1,0,0:0:0:0:
256,192,125454,1,0,0:0:0:0:
256,192,125528,1,0,0:0:0:0:
256,192,125601,1,8,0:0:0:0:
256,192,125747,1,0,0:0:0:0:
256,192,125893,1,8,0:0:0:0:
256,192,125967,1,8,0:0:0:0:
256,192,126040,1,8,0:0:0:0:
256,192,126113,1,8,0:0:0:0:
256,192,126186,1,0,0:0:0:0:
256,192,126332,1,8,0:0:0:0:
256,192,126406,1,8,0:0:0:0:
256,192,126479,1,0,0:0:0:0:
256,192,126625,1,0,0:0:0:0:
256,192,126698,1,0,0:0:0:0:
256,192,126771,1,0,0:0:0:0:
256,192,126918,1,8,0:0:0:0:
256,192,127064,1,0,0:0:0:0:
256,192,127137,1,0,0:0:0:0:
256,192,127210,1,8,0:0:0:0:
256,192,127284,1,0,0:0:0:0:
256,192,127357,1,8,0:0:0:0:
256,192,127430,1,0,0:0:0:0:
256,192,127503,1,8,0:0:0:0:
256,192,127576,1,8,0:0:0:0:
256,192,127650,1,4,0:0:0:0:
256,192,127796,1,8,0:0:0:0:
256,192,127942,1,8,0:0:0:0:
256,192,128015,1,0,0:0:0:0:
256,192,128089,1,8,0:0:0:0:
256,192,128235,1,0,0:0:0:0:
256,192,128308,1,0,0:0:0:0:
256,192,128381,1,0,0:0:0:0:
256,192,128528,1,8,0:0:0:0:
256,192,128674,1,8,0:0:0:0:
256,192,128820,1,4,0:0:0:0:
256,192,128967,1,8,0:0:0:0:
256,192,129040,1,8,0:0:0:0:
256,192,129113,1,0,0:0:0:0:
256,192,129259,1,8,0:0:0:0:
256,192,129406,1,0,0:0:0:0:
256,192,129479,1,8,0:0:0:0:
256,192,129552,1,0,0:0:0:0:
256,192,129698,1,8,0:0:0:0:
256,192,129845,1,0,0:0:0:0:
256,192,129918,1,0,0:0:0:0:
256,192,129991,1,8,0:0:0:0:
256,192,130064,1,8,0:0:0:0:
256,192,130137,1,0,0:0:0:0:
256,192,130210,1,0,0:0:0:0:
256,192,130284,1,8,0:0:0:0:
256,192,130357,1,0,0:0:0:0:
256,192,130430,1,8,0:0:0:0:
256,192,130503,1,0,0:0:0:0:
256,192,130576,1,8,0:0:0:0:
256,192,130650,1,8,0:0:0:0:
256,192,130723,1,0,0:0:0:0:
256,192,130796,1,0,0:0:0:0:
256,192,130869,1,8,0:0:0:0:
256,192,130942,1,0,0:0:0:0:
256,192,131015,1,8,0:0:0:0:
256,192,131089,1,0,0:0:0:0:
256,192,131162,1,8,0:0:0:0:
256,192,131235,1,8,0:0:0:0:
256,192,131308,1,0,0:0:0:0:
256,192,131381,1,0,0:0:0:0:
256,192,131454,1,8,0:0:0:0:
256,192,131528,1,0,0:0:0:0:
256,192,131601,1,8,0:0:0:0:
256,192,131674,1,8,0:0:0:0:
256,192,131747,1,4,0:0:0:0:
256,192,132040,1,12,0:0:0:0:
256,192,132332,1,4,0:0:0:0:
256,192,132771,1,0,0:0:0:0:
256,192,132918,1,8,0:0:0:0:
256,192,133210,1,0,0:0:0:0:
256,192,133503,1,0,0:0:0:0:
256,192,133796,1,0,0:0:0:0:
256,192,134089,1,8,0:0:0:0:
256,192,134381,1,0,0:0:0:0:
256,192,134674,1,0,0:0:0:0:
256,192,135113,1,0,0:0:0:0:
256,192,135259,1,8,0:0:0:0:
256,192,135552,1,0,0:0:0:0:
256,192,135845,1,0,0:0:0:0:
256,192,136137,1,0,0:0:0:0:
256,192,136430,1,8,0:0:0:0:
256,192,136723,1,0,0:0:0:0:
256,192,137015,1,0,0:0:0:0:
256,192,137162,1,0,0:0:0:0:
256,192,137308,1,0,0:0:0:0:
256,192,137454,1,0,0:0:0:0:
256,192,137601,1,8,0:0:0:0:
256,192,137747,1,0,0:0:0:0:
256,192,137820,1,0,0:0:0:0:
256,192,137967,1,0,0:0:0:0:
256,192,138040,1,0,0:0:0:0:
256,192,138186,1,0,0:0:0:0:
256,192,138332,1,0,0:0:0:0:
256,192,138479,1,0,0:0:0:0:
256,192,138625,1,0,0:0:0:0:
256,192,138771,1,8,0:0:0:0:
256,192,138918,1,0,0:0:0:0:
256,192,138991,1,0,0:0:0:0:
256,192,139137,1,0,0:0:0:0:
256,192,139210,1,0,0:0:0:0:
256,192,139284,1,0,0:0:0:0:
256,192,139357,1,8,0:0:0:0:
256,192,139430,1,8,0:0:0:0:
256,192,139503,1,0,0:0:0:0:
256,192,139576,1,0,0:0:0:0:
256,192,139650,1,8,0:0:0:0:
256,192,139723,1,0,0:0:0:0:
256,192,139796,1,8,0:0:0:0:
256,192,139869,1,0,0:0:0:0:
256,192,139942,1,8,0:0:0:0:
256,192,140015,1,8,0:0:0:0:
256,192,140089,1,0,0:0:0:0:
256,192,140162,1,0,0:0:0:0:
256,192,140235,1,8,0:0:0:0:
256,192,140308,1,0,0:0:0:0:
256,192,140381,1,8,0:0:0:0:
256,192,140454,1,0,0:0:0:0:
256,192,140528,1,8,0:0:0:0:
256,192,140601,1,8,0:0:0:0:
256,192,140674,1,0,0:0:0:0:
256,192,140747,1,0,0:0:0:0:
256,192,140820,1,8,0:0:0:0:
256,192,140893,1,8,0:0:0:0:
256,192,140967,1,8,0:0:0:0:
256,192,141040,1,8,0:0:0:0:
256,192,141113,1,4,0:0:0:0:
256,192,141406,1,12,0:0:0:0:
