osu file format v14

[General]
AudioFilename: Candy Crack Curtain Call.mp3
AudioLeadIn: 0
PreviewTime: 71582
Countdown: 0
SampleSet: Normal
StackLeniency: 0.7
Mode: 1
LetterboxInBreaks: 0
WidescreenStoryboard: 0

[Editor]
DistanceSpacing: 1
BeatDivisor: 1
GridSize: 32
TimelineZoom: 1

[Metadata]
Title:Candy Crack Curtain Call
TitleUnicode:Candy Crack Curtain Call
Artist:t+pazolite
ArtistUnicode:t+pazolite
Creator:tasuke912
Version:Kantan
Source:
Tags:HARDCORE TANO*C Bright Colors 2 CCCC
BeatmapID:928804
BeatmapSetID:237272

[Difficulty]
HPDrainRate:7
CircleSize:2
OverallDifficulty:3
ApproachRate:5
SliderMultiplier:1.2
SliderTickRate:1

[Events]
//Background and Video events
0,0,"cal.jpg",0,0
//Break Periods
2,40220,46820
//Storyboard Layer 0 (Background)
//Storyboard Layer 1 (Fail)
//Storyboard Layer 2 (Pass)
//Storyboard Layer 3 (Foreground)
//Storyboard Sound Samples

[TimingPoints]
20,250,4,1,0,70,1,0
20,-200,4,1,0,70,0,0
16020,-100,4,1,0,80,0,0
40145,-100,4,1,0,70,0,0
47957,-100,4,1,0,90,0,0
48082,-100,4,1,0,70,0,0
56020,-100,4,1,0,90,0,0
72020,-100,4,1,0,90,0,1
87020,-100,4,1,0,90,0,0
88020,-100,4,1,0,90,0,1
104020,-100,4,1,0,90,0,0
120020,-100,4,1,0,90,0,1
127020,-100,4,1,0,90,0,0
128020,-100,4,1,0,90,0,1
136020,-100,4,1,0,90,0,0

[HitObjects]
256,192,20,5,0,0:0:0:0:
256,192,520,1,2,0:0:0:0:
256,192,1520,1,2,0:0:0:0:
256,192,2020,1,0,0:0:0:0:
256,192,2520,1,2,0:0:0:0:
256,192,3520,1,2,0:0:0:0:
256,192,4020,1,0,0:0:0:0:
256,192,4520,1,2,0:0:0:0:
256,192,5520,1,2,0:0:0:0:
256,192,6020,1,0,0:0:0:0:
256,192,7020,1,2,0:0:0:0:
256,192,8020,1,0,0:0:0:0:
256,192,8520,1,2,0:0:0:0:
256,192,9520,1,2,0:0:0:0:
256,192,10020,1,0,0:0:0:0:
256,192,10520,1,2,0:0:0:0:
256,192,11520,1,2,0:0:0:0:
256,192,12020,1,0,0:0:0:0:
256,192,12520,1,2,0:0:0:0:
256,192,13520,1,2,0:0:0:0:
256,192,14020,1,0,0:0:0:0:
256,192,15020,1,2,0:0:0:0:
256,192,16020,5,4,0:0:0:0:
256,192,17020,1,2,0:0:0:0:
256,192,18020,1,2,0:0:0:0:
256,192,19020,1,2,0:0:0:0:
256,192,20020,1,2,0:0:0:0:
256,192,20520,1,2,0:0:0:0:
256,192,21020,1,2,0:0:0:0:
256,192,21520,1,2,0:0:0:0:
256,192,22020,1,2,0:0:0:0:
256,192,22270,1,2,0:0:0:0:
256,192,22520,1,2,0:0:0:0:
256,192,23020,1,0,0:0:0:0:
256,192,24020,5,4,0:0:0:0:
256,192,24520,1,0,0:0:0:0:
256,192,25020,1,0,0:0:0:0:
256,192,25270,1,0,0:0:0:0:
256,192,25520,1,0,0:0:0:0:
256,192,26020,1,2,0:0:0:0:
256,192,26520,1,2,0:0:0:0:
256,192,27020,1,2,0:0:0:0:
256,192,27270,1,2,0:0:0:0:
256,192,27520,1,2,0:0:0:0:
256,192,28020,1,0,0:0:0:0:
256,192,28520,1,0,0:0:0:0:
256,192,29020,1,0,0:0:0:0:
256,192,29270,1,0,0:0:0:0:
256,192,29520,1,0,0:0:0:0:
256,192,30020,1,2,0:0:0:0:
256,192,31020,1,2,0:0:0:0:
256,192,31520,1,2,0:0:0:0:
256,192,32020,1,4,0:0:0:0:
256,192,32520,1,0,0:0:0:0:
256,192,33020,1,0,0:0:0:0:
256,192,33270,1,0,0:0:0:0:
256,192,33520,1,0,0:0:0:0:
256,192,34020,1,2,0:0:0:0:
256,192,34520,1,2,0:0:0:0:
256,192,35020,1,2,0:0:0:0:
256,192,35270,1,2,0:0:0:0:
256,192,35520,1,2,0:0:0:0:
256,192,36020,1,0,0:0:0:0:
256,192,36520,1,0,0:0:0:0:
256,192,37020,1,2,0:0:0:0:
256,192,37520,1,2,0:0:0:0:
256,192,38020,1,0,0:0:0:0:
256,192,38270,1,0,0:0:0:0:
256,192,38520,1,0,0:0:0:0:
256,192,38770,1,0,0:0:0:0:
256,192,39020,1,0,0:0:0:0:
256,192,40020,5,4,0:0:0:0:
256,192,48020,5,4,0:0:0:0:
256,192,52020,1,0,0:0:0:0:
256,192,56020,5,0,0:0:0:0:
256,192,56270,1,0,0:0:0:0:
256,192,56520,1,0,0:0:0:0:
256,192,57020,1,2,0:0:0:0:
256,192,57270,1,2,0:0:0:0:
256,192,57520,1,2,0:0:0:0:
256,192,58020,1,0,0:0:0:0:
256,192,58270,1,0,0:0:0:0:
256,192,58520,1,0,0:0:0:0:
256,192,59020,1,2,0:0:0:0:
256,192,59270,1,2,0:0:0:0:
256,192,59520,1,2,0:0:0:0:
256,192,60020,1,0,0:0:0:0:
256,192,60520,1,2,0:0:0:0:
256,192,61020,1,0,0:0:0:0:
256,192,61520,1,2,0:0:0:0:
256,192,62020,1,0,0:0:0:0:
256,192,62520,1,2,0:0:0:0:
256,192,63020,1,0,0:0:0:0:
256,192,63520,1,2,0:0:0:0:
256,192,63770,1,2,0:0:0:0:
256,192,64020,1,0,0:0:0:0:
256,192,65020,1,2,0:0:0:0:
256,192,65270,1,2,0:0:0:0:
256,192,65520,1,2,0:0:0:0:
256,192,66020,1,0,0:0:0:0:
256,192,67020,1,2,0:0:0:0:
256,192,67270,1,2,0:0:0:0:
256,192,67520,1,2,0:0:0:0:
256,192,68020,1,0,0:0:0:0:
256,192,68520,1,2,0:0:0:0:
256,192,69020,1,0,0:0:0:0:
256,192,69520,1,2,0:0:0:0:
256,192,70020,1,0,0:0:0:0:
256,192,70270,1,0,0:0:0:0:
256,192,70520,1,2,0:0:0:0:
256,192,70770,1,2,0:0:0:0:
256,192,72020,5,4,0:0:0:0:
256,192,72520,1,2,0:0:0:0:
256,192,73020,1,0,0:0:0:0:
256,192,73270,1,0,0:0:0:0:
256,192,73520,1,2,0:0:0:0:
256,192,74020,1,0,0:0:0:0:
256,192,74520,1,2,0:0:0:0:
256,192,75020,1,2,0:0:0:0:
256,192,75270,1,2,0:0:0:0:
256,192,75520,1,0,0:0:0:0:
256,192,76020,1,0,0:0:0:0:
256,192,76520,1,2,0:0:0:0:
256,192,77020,1,0,0:0:0:0:
256,192,77270,1,0,0:0:0:0:
256,192,77520,1,2,0:0:0:0:
256,192,77770,1,2,0:0:0:0:
256,192,78020,1,0,0:0:0:0:
256,192,78895,1,0,0:0:0:0:
256,192,79520,1,0,0:0:0:0:
256,192,79770,1,2,0:0:0:0:
256,192,80020,1,4,0:0:0:0:
256,192,80520,1,2,0:0:0:0:
256,192,81020,1,0,0:0:0:0:
256,192,81270,1,0,0:0:0:0:
256,192,81520,1,2,0:0:0:0:
256,192,82020,1,0,0:0:0:0:
256,192,82520,1,2,0:0:0:0:
256,192,83020,1,2,0:0:0:0:
256,192,83270,1,2,0:0:0:0:
256,192,83520,1,0,0:0:0:0:
256,192,83770,1,2,0:0:0:0:
256,192,84020,1,2,0:0:0:0:
256,192,84520,1,0,0:0:0:0:
256,192,85020,1,2,0:0:0:0:
256,192,85270,1,2,0:0:0:0:
256,192,85520,1,0,0:0:0:0:
256,192,85770,1,0,0:0:0:0:
256,192,86020,1,2,0:0:0:0:
256,192,88020,1,4,0:0:0:0:
256,192,88520,1,2,0:0:0:0:
256,192,89020,1,0,0:0:0:0:
256,192,89270,1,0,0:0:0:0:
256,192,89520,1,2,0:0:0:0:
256,192,90020,1,0,0:0:0:0:
256,192,90520,1,2,0:0:0:0:
256,192,91020,1,2,0:0:0:0:
256,192,91270,1,2,0:0:0:0:
256,192,91520,1,0,0:0:0:0:
256,192,92020,1,0,0:0:0:0:
256,192,92520,1,2,0:0:0:0:
256,192,93020,1,0,0:0:0:0:
256,192,93270,1,0,0:0:0:0:
256,192,93520,1,2,0:0:0:0:
256,192,93770,1,2,0:0:0:0:
256,192,94020,1,0,0:0:0:0:
256,192,94895,1,0,0:0:0:0:
256,192,95520,1,0,0:0:0:0:
256,192,95770,1,2,0:0:0:0:
256,192,96020,1,4,0:0:0:0:
256,192,96520,1,2,0:0:0:0:
256,192,97020,1,0,0:0:0:0:
256,192,97270,1,0,0:0:0:0:
256,192,97520,1,2,0:0:0:0:
256,192,98020,1,0,0:0:0:0:
256,192,98520,1,2,0:0:0:0:
256,192,99020,1,2,0:0:0:0:
256,192,99270,1,2,0:0:0:0:
256,192,99520,1,0,0:0:0:0:
256,192,99770,1,2,0:0:0:0:
256,192,100020,1,2,0:0:0:0:
256,192,100520,1,0,0:0:0:0:
256,192,101020,1,2,0:0:0:0:
256,192,101270,1,2,0:0:0:0:
256,192,101520,1,0,0:0:0:0:
256,192,101770,1,0,0:0:0:0:
256,192,102020,1,2,0:0:0:0:
256,192,104020,5,4,0:0:0:0:
256,192,104520,1,2,0:0:0:0:
256,192,105520,1,2,0:0:0:0:
256,192,105770,1,2,0:0:0:0:
256,192,106020,1,0,0:0:0:0:
256,192,106520,1,0,0:0:0:0:
256,192,107020,1,2,0:0:0:0:
256,192,107520,1,0,0:0:0:0:
256,192,107770,1,2,0:0:0:0:
256,192,108020,1,0,0:0:0:0:
256,192,108520,1,2,0:0:0:0:
256,192,109520,1,2,0:0:0:0:
256,192,109770,1,2,0:0:0:0:
256,192,110020,1,0,0:0:0:0:
256,192,110520,1,2,0:0:0:0:
256,192,111020,1,0,0:0:0:0:
256,192,111520,1,0,0:0:0:0:
256,192,111770,1,2,0:0:0:0:
256,192,112020,1,4,0:0:0:0:
256,192,112520,1,2,0:0:0:0:
256,192,113020,1,0,0:0:0:0:
256,192,113270,1,0,0:0:0:0:
256,192,113520,1,2,0:0:0:0:
256,192,114020,1,0,0:0:0:0:
256,192,114520,1,2,0:0:0:0:
256,192,115020,1,2,0:0:0:0:
256,192,115270,1,0,0:0:0:0:
256,192,115520,1,2,0:0:0:0:
256,192,116020,1,0,0:0:0:0:
256,192,116520,1,0,0:0:0:0:
256,192,117020,1,2,0:0:0:0:
256,192,117520,1,2,0:0:0:0:
256,192,118020,1,0,0:0:0:0:
256,192,118270,1,0,0:0:0:0:
256,192,118520,1,2,0:0:0:0:
256,192,118770,1,2,0:0:0:0:
256,192,120020,1,4,0:0:0:0:
256,192,120520,1,2,0:0:0:0:
256,192,121020,1,0,0:0:0:0:
256,192,121270,1,0,0:0:0:0:
256,192,121520,1,2,0:0:0:0:
256,192,122020,1,0,0:0:0:0:
256,192,122520,1,2,0:0:0:0:
256,192,123020,1,2,0:0:0:0:
256,192,123270,1,2,0:0:0:0:
256,192,123520,1,0,0:0:0:0:
256,192,124020,1,0,0:0:0:0:
256,192,124520,1,2,0:0:0:0:
256,192,125020,1,0,0:0:0:0:
256,192,125270,1,0,0:0:0:0:
256,192,125520,1,2,0:0:0:0:
256,192,125770,1,2,0:0:0:0:
256,192,126020,1,0,0:0:0:0:
256,192,126520,1,0,0:0:0:0:
256,192,127020,1,2,0:0:0:0:
256,192,128020,5,4,0:0:0:0:
256,192,128520,1,2,0:0:0:0:
256,192,129020,1,0,0:0:0:0:
256,192,129270,1,0,0:0:0:0:
256,192,129520,1,2,0:0:0:0:
256,192,130020,1,0,0:0:0:0:
256,192,130520,1,2,0:0:0:0:
256,192,131020,1,2,0:0:0:0:
256,192,131270,1,2,0:0:0:0:
256,192,131520,1,0,0:0:0:0:
256,192,132020,1,0,0:0:0:0:
256,192,132520,1,2,0:0:0:0:
256,192,133020,1,0,0:0:0:0:
256,192,133270,1,0,0:0:0:0:
256,192,133520,1,2,0:0:0:0:
256,192,134020,1,0,0:0:0:0:
256,192,134270,1,2,0:0:0:0:
256,192,134520,1,0,0:0:0:0:
256,192,134770,1,2,0:0:0:0:
256,192,135020,1,0,0:0:0:0:
256,192,135520,1,2,0:0:0:0:
256,192,136020,1,2,0:0:0:0:
