osu file format v14

[General]
AudioFilename: audio.mp3
AudioLeadIn: 0
PreviewTime: -1
Countdown: 0
SampleSet: Soft
StackLeniency: 0.7
Mode: 3
LetterboxInBreaks: 0
StoryFireInFront: 0
EpilepsyWarning: 1
SpecialStyle: 0
WidescreenStoryboard: 1

[Editor]
Bookmarks: 31020
DistanceSpacing: 0.5
BeatDivisor: 4
GridSize: 4
TimelineZoom: 3.339998

[Metadata]
Title:Call me it. (500 Tortures)
TitleUnicode:Call me it. (500 Tortures)
Artist:t+pazolite
ArtistUnicode:t+pazolite
Creator:LGonzo
Version:Rational Punishment
Source:
Tags:torture t+pazolite 500 call me it
BeatmapID:1436240
BeatmapSetID:679305

[Difficulty]
HPDrainRate:8.1
CircleSize:4
OverallDifficulty:8.3
ApproachRate:5
SliderMultiplier:1.4
SliderTickRate:1

[Events]
//Background and Video events
0,0,"call me it BG.png",0,0
//Break Periods
//Storyboard Layer 0 (Background)
//Storyboard Layer 1 (Fail)
//Storyboard Layer 2 (Pass)
//Storyboard Layer 3 (Foreground)
//Storyboard Sound Samples

[TimingPoints]
0,240,4,1,1,15,1,0
15840,-100,4,2,1,95,0,0
15940,-100,4,2,1,95,0,0
32631,-100,4,2,1,95,0,0
32700,-105.263157894737,4,2,1,95,0,0
32750,-111.111111111111,4,2,1,95,0,0
32800,-117.647058823529,4,2,1,95,0,0
32850,-125,4,2,1,95,0,0
32900,-133.333333333333,4,2,1,95,0,0
32950,-142.857142857143,4,2,1,95,0,0
33000,-153.846153846154,4,2,1,95,0,0
33180,-100,4,2,1,95,0,1
39960,-100,4,2,1,95,0,0
40911,-100,4,2,1,95,0,1
48611,-105.263157894737,4,3,1,95,0,0
94620,-100,4,2,1,95,0,1
97611,-100,4,2,1,95,0,0
98460,-100,4,2,1,95,0,1
101220,-100,4,2,1,95,0,0
102300,-100,4,2,1,95,0,1
108896,-100,4,2,1,95,0,0
110000,-100,4,2,1,95,0,1
113833,-100,4,2,1,95,0,0
113880,-100,4,2,1,95,0,1
117216,-100,4,2,1,95,0,0
117661,-100,4,2,1,95,0,1
121560,-100,4,2,1,95,0,0
121580,-100,4,2,1,95,0,1
125400,-100,4,2,1,95,0,0
140721,-100,4,2,1,95,0,1
147423,-100,4,2,1,95,0,0
150300,-100,4,2,1,95,0,1
156060,-100,4,2,1,95,0,0
171420,-100,4,2,1,95,0,1
186300,-100,4,2,1,95,0,0
186793,-100,4,2,1,95,0,1
189753,-100,4,2,1,95,0,0
190643,-100,4,2,1,95,0,1
194040,-100,4,2,1,95,0,0
194500,-100,4,2,1,95,0,1
197441,-100,4,2,1,95,0,0
198320,-100,4,2,1,95,0,1
202181,-111.111111111111,4,2,1,95,0,0
203181,-100,4,2,1,95,0,0
218501,-100,4,2,1,95,0,1
233061,-100,4,2,1,95,0,0
233880,-100,4,2,1,95,0,1
240722,-100,4,2,1,95,0,0
241560,-100,4,2,1,95,0,1
249198,-33.3333333333333,4,2,1,95,0,1
249231,-100,4,2,1,95,0,1
251126,-33.3333333333333,4,2,1,95,0,1
251180,-100,4,2,1,95,0,1
253043,-133.333333333333,4,2,1,95,0,1
254040,-100,4,2,1,95,0,0
254966,-100,4,2,1,95,0,1
261660,-100,4,2,1,95,0,0
262616,-100,4,2,1,95,0,1
270240,-200,4,2,1,95,0,0
273441,-66.6666666666667,4,2,1,95,0,0
273531,-34.4827586206897,4,2,1,95,0,0
273600,-181.818181818181,4,2,1,95,0,0

[HitObjects]
448,192,13980,5,0,0:0:0:0:
448,192,14460,1,0,0:0:0:0:
448,192,14940,1,0,0:0:0:0:
448,192,15420,1,0,0:0:0:0:
320,192,15660,1,0,0:0:0:0:
192,192,15900,1,0,0:0:0:0:
64,192,15900,1,0,0:0:0:0:
320,192,15900,128,0,19710:0:0:0:0:
192,192,16620,1,0,0:0:0:0:
448,192,16620,1,0,0:0:0:0:
192,192,16860,1,0,0:0:0:0:
64,192,16860,1,0,0:0:0:0:
448,192,18060,1,0,0:0:0:0:
192,192,18540,1,0,0:0:0:0:
64,192,18540,1,0,0:0:0:0:
64,192,18780,1,0,0:0:0:0:
192,192,18780,1,0,0:0:0:0:
64,192,19260,1,0,0:0:0:0:
192,192,19380,1,0,0:0:0:0:
448,192,19500,1,0,0:0:0:0:
192,192,19620,1,0,0:0:0:0:
448,192,19710,1,0,0:0:0:0:
64,192,19710,1,0,0:0:0:0:
192,192,19710,128,0,23580:0:0:0:0:
320,192,20460,1,0,0:0:0:0:
448,192,20460,1,0,0:0:0:0:
64,192,20700,1,0,0:0:0:0:
320,192,20700,1,0,0:0:0:0:
320,192,21900,1,0,0:0:0:0:
448,192,21900,1,0,0:0:0:0:
320,192,22380,1,0,0:0:0:0:
64,192,22620,1,0,0:0:0:0:
320,192,23100,1,0,0:0:0:0:
64,192,23100,1,0,0:0:0:0:
448,192,23220,1,0,0:0:0:0:
320,192,23340,1,0,0:0:0:0:
64,192,23460,1,0,0:0:0:0:
448,192,23580,1,0,0:0:0:0:
64,192,23580,128,0,27420:0:0:0:0:
320,192,24300,1,0,0:0:0:0:
448,192,24300,1,0,0:0:0:0:
320,192,24540,1,0,0:0:0:0:
192,192,24540,1,0,0:0:0:0:
192,192,25740,1,0,0:0:0:0:
320,192,25740,1,0,0:0:0:0:
448,192,25740,1,0,0:0:0:0:
192,192,26220,1,0,0:0:0:0:
320,192,26220,1,0,0:0:0:0:
192,192,26460,1,0,0:0:0:0:
320,192,26460,1,0,0:0:0:0:
448,192,26460,1,0,0:0:0:0:
320,192,26940,1,0,0:0:0:0:
192,192,26940,1,0,0:0:0:0:
448,192,27060,1,0,0:0:0:0:
320,192,27060,1,0,0:0:0:0:
192,192,27180,1,0,0:0:0:0:
320,192,27300,1,0,0:0:0:0:
192,192,27420,1,0,0:0:0:0:
448,192,27420,128,0,31020:0:0:0:0:
320,192,28080,1,0,0:0:0:0:
192,192,28380,1,0,0:0:0:0:
320,192,28380,1,0,0:0:0:0:
192,192,29520,1,0,0:0:0:0:
64,192,29520,1,0,0:0:0:0:
320,192,30060,1,0,0:0:0:0:
192,192,30300,1,0,0:0:0:0:
64,192,30300,1,0,0:0:0:0:
64,192,30780,1,0,0:0:0:0:
192,192,30900,1,0,0:0:0:0:
320,192,31020,1,0,0:0:0:0:
64,192,31020,128,0,32250:0:0:0:0:
192,192,31140,1,0,0:0:0:0:
448,192,32700,128,0,33210:0:0:0:0:
192,192,33210,1,0,0:0:0:0:
64,192,33210,1,0,0:0:0:0:
448,192,33300,1,0,0:0:0:0:
192,192,33300,1,0,0:0:0:0:
192,192,33420,1,0,0:0:0:0:
320,192,33420,1,0,0:0:0:0:
64,192,33420,1,0,0:0:0:0:
320,192,33540,1,0,0:0:0:0:
64,192,33540,1,0,0:0:0:0:
192,192,33660,1,0,0:0:0:0:
448,192,33660,1,0,0:0:0:0:
320,192,33750,1,0,0:0:0:0:
448,192,33750,1,0,0:0:0:0:
64,192,33750,1,0,0:0:0:0:
192,192,33870,1,0,0:0:0:0:
320,192,33870,1,0,0:0:0:0:
320,192,33990,1,0,0:0:0:0:
448,192,33990,1,0,0:0:0:0:
64,192,33990,1,0,0:0:0:0:
448,192,34110,1,0,0:0:0:0:
192,192,34110,1,0,0:0:0:0:
64,192,34110,1,0,0:0:0:0:
320,192,34170,1,0,0:0:0:0:
192,192,34230,1,0,0:0:0:0:
64,192,34290,1,0,0:0:0:0:
448,192,34350,1,0,0:0:0:0:
320,192,34350,1,0,0:0:0:0:
64,192,34470,1,0,0:0:0:0:
192,192,34470,1,0,0:0:0:0:
448,192,34590,1,0,0:0:0:0:
320,192,34590,1,0,0:0:0:0:
192,192,34710,1,0,0:0:0:0:
320,192,34710,1,0,0:0:0:0:
64,192,34710,1,0,0:0:0:0:
320,192,34830,1,0,0:0:0:0:
448,192,34830,1,0,0:0:0:0:
64,192,34890,1,0,0:0:0:0:
192,192,34890,1,0,0:0:0:0:
320,192,34950,1,0,0:0:0:0:
448,192,34950,1,0,0:0:0:0:
192,192,35010,1,0,0:0:0:0:
64,192,35010,1,0,0:0:0:0:
448,192,35070,1,0,0:0:0:0:
320,192,35070,1,0,0:0:0:0:
192,192,35130,1,0,0:0:0:0:
64,192,35190,1,0,0:0:0:0:
192,192,35250,1,0,0:0:0:0:
320,192,35310,1,0,0:0:0:0:
64,192,35310,1,0,0:0:0:0:
448,192,35310,1,0,0:0:0:0:
448,192,35460,1,0,0:0:0:0:
192,192,35460,1,0,0:0:0:0:
64,192,35460,1,0,0:0:0:0:
192,192,35580,1,0,0:0:0:0:
320,192,35580,1,0,0:0:0:0:
320,192,35700,1,0,0:0:0:0:
448,192,35700,1,0,0:0:0:0:
64,192,35700,1,0,0:0:0:0:
192,192,35820,1,0,0:0:0:0:
64,192,35820,1,0,0:0:0:0:
448,192,35940,1,0,0:0:0:0:
320,192,35940,1,0,0:0:0:0:
64,192,36060,1,0,0:0:0:0:
192,192,36060,1,0,0:0:0:0:
448,192,36120,1,0,0:0:0:0:
320,192,36120,1,0,0:0:0:0:
64,192,36180,1,0,0:0:0:0:
192,192,36180,1,0,0:0:0:0:
320,192,36300,1,0,0:0:0:0:
448,192,36300,1,0,0:0:0:0:
64,192,36300,1,0,0:0:0:0:
320,192,36420,1,0,0:0:0:0:
192,192,36420,1,0,0:0:0:0:
320,192,36540,1,0,0:0:0:0:
448,192,36540,1,0,0:0:0:0:
192,192,36660,1,0,0:0:0:0:
64,192,36660,1,0,0:0:0:0:
320,192,36750,1,0,0:0:0:0:
448,192,36750,1,0,0:0:0:0:
192,192,36810,1,0,0:0:0:0:
64,192,36810,1,0,0:0:0:0:
320,192,36870,1,0,0:0:0:0:
448,192,36870,1,0,0:0:0:0:
192,192,36930,1,0,0:0:0:0:
64,192,36930,1,0,0:0:0:0:
320,192,36990,1,0,0:0:0:0:
448,192,37050,1,0,0:0:0:0:
320,192,37110,1,0,0:0:0:0:
192,192,37170,1,0,0:0:0:0:
320,192,37230,1,0,0:0:0:0:
448,192,37230,1,0,0:0:0:0:
64,192,37230,1,0,0:0:0:0:
192,192,37350,1,0,0:0:0:0:
448,192,37350,1,0,0:0:0:0:
320,192,37500,1,0,0:0:0:0:
192,192,37500,1,0,0:0:0:0:
64,192,37500,1,0,0:0:0:0:
320,192,37620,1,0,0:0:0:0:
448,192,37620,1,0,0:0:0:0:
192,192,37740,1,0,0:0:0:0:
64,192,37740,1,0,0:0:0:0:
192,192,37860,1,0,0:0:0:0:
448,192,37860,1,0,0:0:0:0:
320,192,37980,1,0,0:0:0:0:
448,192,37980,1,0,0:0:0:0:
64,192,37980,1,0,0:0:0:0:
192,192,38040,1,0,0:0:0:0:
320,192,38100,1,0,0:0:0:0:
448,192,38100,1,0,0:0:0:0:
64,192,38100,1,0,0:0:0:0:
192,192,38220,1,0,0:0:0:0:
64,192,38220,1,0,0:0:0:0:
192,192,38340,1,0,0:0:0:0:
448,192,38340,1,0,0:0:0:0:
320,192,38460,1,0,0:0:0:0:
448,192,38460,1,0,0:0:0:0:
448,192,38580,1,0,0:0:0:0:
64,192,38580,1,0,0:0:0:0:
320,192,38700,1,0,0:0:0:0:
192,192,38700,1,0,0:0:0:0:
448,192,38760,1,0,0:0:0:0:
64,192,38760,1,0,0:0:0:0:
320,192,38820,1,0,0:0:0:0:
192,192,38820,1,0,0:0:0:0:
448,192,38880,1,0,0:0:0:0:
64,192,38880,1,0,0:0:0:0:
320,192,38940,1,0,0:0:0:0:
192,192,38940,1,0,0:0:0:0:
320,192,39060,1,0,0:0:0:0:
448,192,39060,1,0,0:0:0:0:
192,192,39180,1,0,0:0:0:0:
64,192,39180,1,0,0:0:0:0:
192,192,39300,1,0,0:0:0:0:
320,192,39300,1,0,0:0:0:0:
320,192,39420,1,0,0:0:0:0:
448,192,39420,1,0,0:0:0:0:
64,192,39420,1,0,0:0:0:0:
320,192,39540,1,0,0:0:0:0:
192,192,39540,1,0,0:0:0:0:
320,192,39660,1,0,0:0:0:0:
64,192,39660,1,0,0:0:0:0:
192,192,39780,1,0,0:0:0:0:
448,192,39780,1,0,0:0:0:0:
320,192,39900,1,0,0:0:0:0:
64,192,39900,1,0,0:0:0:0:
192,192,39900,1,0,0:0:0:0:
320,192,40020,1,0,0:0:0:0:
192,192,40140,1,0,0:0:0:0:
320,192,40140,1,0,0:0:0:0:
448,192,40140,1,0,0:0:0:0:
192,192,40260,1,0,0:0:0:0:
320,192,40380,1,0,0:0:0:0:
448,192,40380,1,0,0:0:0:0:
64,192,40380,1,0,0:0:0:0:
64,192,40500,1,0,0:0:0:0:
64,192,40620,1,0,0:0:0:0:
448,192,40620,1,0,0:0:0:0:
192,192,40620,1,0,0:0:0:0:
320,192,40740,1,0,0:0:0:0:
320,192,40860,1,0,0:0:0:0:
448,192,40860,1,0,0:0:0:0:
192,192,40860,1,0,0:0:0:0:
64,192,40980,1,0,0:0:0:0:
192,192,40980,1,0,0:0:0:0:
448,192,40980,1,0,0:0:0:0:
192,192,41100,1,0,0:0:0:0:
448,192,41100,1,0,0:0:0:0:
320,192,41220,1,0,0:0:0:0:
64,192,41220,1,0,0:0:0:0:
192,192,41340,1,0,0:0:0:0:
448,192,41340,1,0,0:0:0:0:
320,192,41460,1,0,0:0:0:0:
448,192,41460,1,0,0:0:0:0:
64,192,41460,1,0,0:0:0:0:
320,192,41580,1,0,0:0:0:0:
192,192,41580,1,0,0:0:0:0:
320,192,41700,1,0,0:0:0:0:
448,192,41700,1,0,0:0:0:0:
448,192,41820,1,0,0:0:0:0:
192,192,41820,1,0,0:0:0:0:
64,192,41820,1,0,0:0:0:0:
192,192,41940,1,0,0:0:0:0:
320,192,41940,1,0,0:0:0:0:
320,192,42060,1,0,0:0:0:0:
448,192,42060,1,0,0:0:0:0:
64,192,42060,1,0,0:0:0:0:
64,192,42180,1,0,0:0:0:0:
192,192,42180,1,0,0:0:0:0:
448,192,42180,1,0,0:0:0:0:
320,192,42300,1,0,0:0:0:0:
192,192,42300,1,0,0:0:0:0:
448,192,42420,1,0,0:0:0:0:
64,192,42420,1,0,0:0:0:0:
320,192,42540,1,0,0:0:0:0:
192,192,42540,1,0,0:0:0:0:
64,192,42600,1,0,0:0:0:0:
448,192,42600,1,0,0:0:0:0:
320,192,42660,1,0,0:0:0:0:
192,192,42660,1,0,0:0:0:0:
448,192,42720,1,0,0:0:0:0:
64,192,42720,1,0,0:0:0:0:
192,192,42780,1,0,0:0:0:0:
320,192,42780,1,0,0:0:0:0:
64,192,42900,1,0,0:0:0:0:
320,192,42900,1,0,0:0:0:0:
448,192,42900,1,0,0:0:0:0:
320,192,43020,1,0,0:0:0:0:
192,192,43140,1,0,0:0:0:0:
64,192,43140,1,0,0:0:0:0:
192,192,43260,1,0,0:0:0:0:
320,192,43380,1,0,0:0:0:0:
448,192,43380,1,0,0:0:0:0:
64,192,43380,1,0,0:0:0:0:
320,192,43500,1,0,0:0:0:0:
192,192,43500,1,0,0:0:0:0:
320,192,43620,1,0,0:0:0:0:
64,192,43710,1,0,0:0:0:0:
192,192,43710,1,0,0:0:0:0:
448,192,43770,1,0,0:0:0:0:
320,192,43770,1,0,0:0:0:0:
64,192,43830,1,0,0:0:0:0:
192,192,43830,1,0,0:0:0:0:
192,192,43920,1,0,0:0:0:0:
320,192,43920,1,0,0:0:0:0:
320,192,44100,1,0,0:0:0:0:
64,192,44100,1,0,0:0:0:0:
448,192,44220,1,0,0:0:0:0:
192,192,44220,1,0,0:0:0:0:
320,192,44340,1,0,0:0:0:0:
448,192,44340,1,0,0:0:0:0:
64,192,44340,1,0,0:0:0:0:
320,192,44460,1,0,0:0:0:0:
192,192,44460,1,0,0:0:0:0:
448,192,44520,1,0,0:0:0:0:
64,192,44520,1,0,0:0:0:0:
192,192,44580,1,0,0:0:0:0:
320,192,44580,1,0,0:0:0:0:
64,192,44640,1,0,0:0:0:0:
448,192,44640,1,0,0:0:0:0:
192,192,44700,1,0,0:0:0:0:
320,192,44700,1,0,0:0:0:0:
320,192,44820,1,0,0:0:0:0:
448,192,44820,1,0,0:0:0:0:
64,192,44820,1,0,0:0:0:0:
192,192,44940,1,0,0:0:0:0:
448,192,45060,1,0,0:0:0:0:
320,192,45060,1,0,0:0:0:0:
192,192,45180,1,0,0:0:0:0:
64,192,45180,1,0,0:0:0:0:
448,192,45300,1,0,0:0:0:0:
320,192,45420,1,0,0:0:0:0:
192,192,45420,1,0,0:0:0:0:
64,192,45540,1,0,0:0:0:0:
192,192,45540,1,0,0:0:0:0:
448,192,45540,1,0,0:0:0:0:
320,192,45660,1,0,0:0:0:0:
448,192,45660,1,0,0:0:0:0:
64,192,45660,1,0,0:0:0:0:
448,192,45780,1,0,0:0:0:0:
192,192,45780,1,0,0:0:0:0:
320,192,45900,1,0,0:0:0:0:
448,192,45900,1,0,0:0:0:0:
64,192,46020,1,0,0:0:0:0:
192,192,46020,1,0,0:0:0:0:
320,192,46140,1,0,0:0:0:0:
192,192,46140,1,0,0:0:0:0:
448,192,46260,1,0,0:0:0:0:
192,192,46260,1,0,0:0:0:0:
64,192,46260,1,0,0:0:0:0:
320,192,46380,1,0,0:0:0:0:
448,192,46380,1,0,0:0:0:0:
192,192,46440,1,0,0:0:0:0:
64,192,46440,1,0,0:0:0:0:
320,192,46500,1,0,0:0:0:0:
448,192,46500,1,0,0:0:0:0:
64,192,46560,1,0,0:0:0:0:
192,192,46560,1,0,0:0:0:0:
320,192,46620,1,0,0:0:0:0:
448,192,46620,1,0,0:0:0:0:
192,192,46680,1,0,0:0:0:0:
64,192,46740,1,0,0:0:0:0:
320,192,46800,1,0,0:0:0:0:
192,192,46800,1,0,0:0:0:0:
448,192,46950,1,0,0:0:0:0:
320,192,46950,1,0,0:0:0:0:
64,192,46950,1,0,0:0:0:0:
448,192,47070,1,0,0:0:0:0:
320,192,47130,1,0,0:0:0:0:
192,192,47190,1,0,0:0:0:0:
448,192,47190,1,0,0:0:0:0:
64,192,47190,1,0,0:0:0:0:
64,192,47340,1,0,0:0:0:0:
320,192,47340,1,0,0:0:0:0:
192,192,47460,1,0,0:0:0:0:
448,192,47460,1,0,0:0:0:0:
320,192,47460,1,0,0:0:0:0:
64,192,47580,1,0,0:0:0:0:
192,192,47580,1,0,0:0:0:0:
320,192,47640,1,0,0:0:0:0:
448,192,47640,1,0,0:0:0:0:
64,192,47700,1,0,0:0:0:0:
192,192,47700,1,0,0:0:0:0:
320,192,47760,1,0,0:0:0:0:
448,192,47760,1,0,0:0:0:0:
192,192,47820,1,0,0:0:0:0:
64,192,47820,1,0,0:0:0:0:
320,192,47880,1,0,0:0:0:0:
448,192,47940,1,0,0:0:0:0:
192,192,47940,1,0,0:0:0:0:
64,192,48000,1,0,0:0:0:0:
320,192,48060,1,0,0:0:0:0:
448,192,48060,1,0,0:0:0:0:
192,192,48120,1,0,0:0:0:0:
64,192,48120,1,0,0:0:0:0:
320,192,48180,1,0,0:0:0:0:
448,192,48180,1,0,0:0:0:0:
192,192,48240,1,0,0:0:0:0:
64,192,48240,1,0,0:0:0:0:
320,192,48300,1,0,0:0:0:0:
448,192,48300,1,0,0:0:0:0:
192,192,48360,1,0,0:0:0:0:
64,192,48360,1,0,0:0:0:0:
320,192,48420,1,0,0:0:0:0:
448,192,48420,1,0,0:0:0:0:
192,192,48480,1,0,0:0:0:0:
64,192,48540,1,0,0:0:0:0:
320,192,48540,128,0,48780:0:0:0:0:
192,192,48780,128,0,48900:0:0:0:0:
448,192,48900,128,0,49000:0:0:0:0:
64,192,49000,128,0,49100:0:0:0:0:
192,192,49100,128,0,49240:0:0:0:0:
448,192,49240,128,0,49360:0:0:0:0:
320,192,49360,128,0,49620:0:0:0:0:
64,192,49620,128,0,49740:0:0:0:0:
448,192,49740,128,0,49860:0:0:0:0:
192,192,49860,128,0,50080:0:0:0:0:
64,192,50080,128,0,50220:0:0:0:0:
320,192,50220,128,0,50340:0:0:0:0:
448,192,50340,128,0,50460:0:0:0:0:
320,192,50460,128,0,50580:0:0:0:0:
192,192,50580,128,0,50700:0:0:0:0:
448,192,50700,128,0,50820:0:0:0:0:
64,192,50820,128,0,50940:0:0:0:0:
192,192,50940,128,0,51040:0:0:0:0:
448,192,51040,128,0,51160:0:0:0:0:
64,192,51160,128,0,51280:0:0:0:0:
192,192,51280,128,0,51400:0:0:0:0:
448,192,51400,128,0,51520:0:0:0:0:
320,192,51520,128,0,51640:0:0:0:0:
64,192,51640,128,0,51760:0:0:0:0:
448,192,51760,128,0,51880:0:0:0:0:
192,192,51880,128,0,52000:0:0:0:0:
64,192,52000,128,0,52140:0:0:0:0:
448,192,52140,128,0,52260:0:0:0:0:
320,192,52260,128,0,52380:0:0:0:0:
64,192,52380,128,0,52640:0:0:0:0:
192,192,52640,128,0,52760:0:0:0:0:
448,192,52760,128,0,52880:0:0:0:0:
320,192,52880,128,0,53000:0:0:0:0:
64,192,53000,128,0,53120:0:0:0:0:
320,192,53120,128,0,53240:0:0:0:0:
64,192,53240,128,0,53480:0:0:0:0:
448,192,53480,128,0,53600:0:0:0:0:
64,192,53600,128,0,53720:0:0:0:0:
192,192,53720,128,0,53960:0:0:0:0:
448,192,53960,128,0,54060:0:0:0:0:
64,192,54060,128,0,54160:0:0:0:0:
320,192,54160,128,0,54300:0:0:0:0:
448,192,54300,128,0,54400:0:0:0:0:
64,192,54400,128,0,54540:0:0:0:0:
320,192,54540,128,0,54660:0:0:0:0:
192,192,54540,128,0,56220:0:0:0:0:
448,192,54660,128,0,54780:0:0:0:0:
320,192,54780,128,0,54900:0:0:0:0:
64,192,54900,128,0,55020:0:0:0:0:
320,192,55020,128,0,55140:0:0:0:0:
448,192,55140,128,0,55260:0:0:0:0:
64,192,55260,128,0,55380:0:0:0:0:
320,192,55380,128,0,55500:0:0:0:0:
448,192,55500,128,0,55600:0:0:0:0:
320,192,55600,128,0,55720:0:0:0:0:
64,192,55720,128,0,55840:0:0:0:0:
448,192,55840,128,0,55960:0:0:0:0:
64,192,55960,128,0,56100:0:0:0:0:
320,192,56100,128,0,56220:0:0:0:0:
64,192,56220,1,0,0:0:0:0:
448,192,56220,128,0,56440:0:0:0:0:
192,192,56440,128,0,56560:0:0:0:0:
448,192,56560,128,0,56660:0:0:0:0:
64,192,56660,128,0,56760:0:0:0:0:
192,192,56760,128,0,56900:0:0:0:0:
448,192,56900,128,0,57020:0:0:0:0:
320,192,57020,128,0,57280:0:0:0:0:
64,192,57280,128,0,57400:0:0:0:0:
448,192,57400,128,0,57520:0:0:0:0:
192,192,57520,128,0,57740:0:0:0:0:
64,192,57740,128,0,57880:0:0:0:0:
320,192,57880,128,0,58000:0:0:0:0:
448,192,58000,128,0,58120:0:0:0:0:
320,192,58120,128,0,58240:0:0:0:0:
192,192,58240,128,0,58360:0:0:0:0:
448,192,58360,128,0,58480:0:0:0:0:
64,192,58480,128,0,58600:0:0:0:0:
192,192,58600,128,0,58700:0:0:0:0:
448,192,58700,128,0,58820:0:0:0:0:
64,192,58820,128,0,58940:0:0:0:0:
192,192,58940,128,0,59060:0:0:0:0:
448,192,59060,128,0,59180:0:0:0:0:
320,192,59180,128,0,59300:0:0:0:0:
64,192,59300,128,0,59420:0:0:0:0:
448,192,59420,128,0,59540:0:0:0:0:
192,192,59540,128,0,59660:0:0:0:0:
64,192,59660,128,0,59800:0:0:0:0:
192,192,59800,128,0,59940:0:0:0:0:
320,192,59940,128,0,60080:0:0:0:0:
64,192,60080,128,0,60240:0:0:0:0:
448,192,60240,128,0,60360:0:0:0:0:
320,192,60360,128,0,60520:0:0:0:0:
192,192,60520,128,0,60660:0:0:0:0:
64,192,60660,128,0,60760:0:0:0:0:
192,192,60760,128,0,60900:0:0:0:0:
448,192,60900,128,0,61280:0:0:0:0:
192,192,61160,128,0,61280:0:0:0:0:
64,192,61280,128,0,61400:0:0:0:0:
448,192,61400,128,0,61740:0:0:0:0:
192,192,61600,128,0,61740:0:0:0:0:
64,192,61740,128,0,63880:0:0:0:0:
320,192,61880,128,0,62000:0:0:0:0:
448,192,62000,128,0,62120:0:0:0:0:
320,192,62120,128,0,62240:0:0:0:0:
192,192,62240,128,0,62360:0:0:0:0:
448,192,62360,128,0,62480:0:0:0:0:
320,192,62480,128,0,62600:0:0:0:0:
192,192,62600,128,0,62700:0:0:0:0:
448,192,62700,128,0,62820:0:0:0:0:
320,192,62820,128,0,62940:0:0:0:0:
192,192,62940,128,0,63060:0:0:0:0:
448,192,63060,128,0,63180:0:0:0:0:
320,192,63180,128,0,63300:0:0:0:0:
192,192,63300,128,0,63420:0:0:0:0:
448,192,63420,128,0,63540:0:0:0:0:
192,192,63540,128,0,63660:0:0:0:0:
320,192,63660,128,0,63780:0:0:0:0:
192,192,63780,128,0,63880:0:0:0:0:
448,192,63880,128,0,67740:0:0:0:0:
320,192,63880,128,0,64140:0:0:0:0:
192,192,64140,128,0,64260:0:0:0:0:
64,192,64260,128,0,64400:0:0:0:0:
320,192,64400,128,0,64520:0:0:0:0:
192,192,64520,128,0,64620:0:0:0:0:
320,192,64620,128,0,64740:0:0:0:0:
192,192,64740,128,0,65000:0:0:0:0:
320,192,65000,128,0,65120:0:0:0:0:
192,192,65120,128,0,65220:0:0:0:0:
64,192,65220,128,0,65480:0:0:0:0:
192,192,65480,128,0,65620:0:0:0:0:
320,192,65620,128,0,65720:0:0:0:0:
192,192,65720,128,0,65820:0:0:0:0:
64,192,65820,128,0,65940:0:0:0:0:
192,192,65940,128,0,66060:0:0:0:0:
320,192,66060,128,0,66180:0:0:0:0:
192,192,66180,128,0,66280:0:0:0:0:
64,192,66280,128,0,66380:0:0:0:0:
192,192,66380,128,0,66540:0:0:0:0:
320,192,66540,128,0,66640:0:0:0:0:
192,192,66640,128,0,66760:0:0:0:0:
320,192,66760,128,0,66880:0:0:0:0:
64,192,66880,128,0,67020:0:0:0:0:
192,192,67020,128,0,67120:0:0:0:0:
320,192,67120,128,0,67240:0:0:0:0:
64,192,67240,128,0,67380:0:0:0:0:
320,192,67380,128,0,67500:0:0:0:0:
192,192,67500,128,0,67620:0:0:0:0:
320,192,67620,128,0,67740:0:0:0:0:
192,192,67740,128,0,71580:0:0:0:0:
64,192,67740,128,0,68000:0:0:0:0:
320,192,68000,128,0,68120:0:0:0:0:
448,192,68120,128,0,68220:0:0:0:0:
320,192,68220,1,0,0:0:0:0:
64,192,68220,128,0,68340:0:0:0:0:
320,192,68340,128,0,68460:0:0:0:0:
448,192,68460,128,0,68580:0:0:0:0:
320,192,68580,128,0,68840:0:0:0:0:
448,192,68840,128,0,68960:0:0:0:0:
64,192,68960,128,0,69080:0:0:0:0:
320,192,69080,128,0,69280:0:0:0:0:
448,192,69280,128,0,69440:0:0:0:0:
64,192,69440,128,0,69560:0:0:0:0:
448,192,69560,128,0,69660:0:0:0:0:
320,192,69660,128,0,69780:0:0:0:0:
64,192,69780,128,0,69900:0:0:0:0:
448,192,69900,128,0,70020:0:0:0:0:
64,192,70020,128,0,70140:0:0:0:0:
320,192,70140,128,0,70260:0:0:0:0:
64,192,70260,128,0,70380:0:0:0:0:
448,192,70380,128,0,70500:0:0:0:0:
64,192,70500,128,0,70620:0:0:0:0:
320,192,70620,128,0,70740:0:0:0:0:
448,192,70740,128,0,70860:0:0:0:0:
64,192,70860,128,0,70980:0:0:0:0:
448,192,70980,128,0,71100:0:0:0:0:
320,192,71100,128,0,71220:0:0:0:0:
64,192,71220,128,0,71340:0:0:0:0:
448,192,71340,128,0,71460:0:0:0:0:
320,192,71460,128,0,71580:0:0:0:0:
64,192,71580,128,0,73020:0:0:0:0:
448,192,71580,1,0,0:0:0:0:
448,192,72060,1,0,0:0:0:0:
320,192,72300,1,0,0:0:0:0:
192,192,72300,1,0,0:0:0:0:
448,192,72540,1,0,0:0:0:0:
320,192,72540,1,0,0:0:0:0:
192,192,72540,1,0,0:0:0:0:
320,192,73020,1,0,0:0:0:0:
448,192,73020,1,0,0:0:0:0:
320,192,73140,128,0,73260:0:0:0:0:
448,192,73260,1,0,0:0:0:0:
64,192,73260,1,0,0:0:0:0:
192,192,73260,1,0,0:0:0:0:
192,192,73380,128,0,73500:0:0:0:0:
320,192,73500,1,0,0:0:0:0:
448,192,73500,1,0,0:0:0:0:
320,192,73620,128,0,73740:0:0:0:0:
192,192,74220,1,0,0:0:0:0:
64,192,74220,1,0,0:0:0:0:
192,192,74460,1,0,0:0:0:0:
64,192,74460,1,0,0:0:0:0:
448,192,74460,1,0,0:0:0:0:
64,192,74940,1,0,0:0:0:0:
448,192,74940,1,0,0:0:0:0:
320,192,74940,128,0,75420:0:0:0:0:
192,192,75060,1,0,0:0:0:0:
448,192,75180,1,0,0:0:0:0:
192,192,75300,1,0,0:0:0:0:
64,192,75420,1,0,0:0:0:0:
448,192,75420,1,0,0:0:0:0:
320,192,75900,1,0,0:0:0:0:
448,192,75900,1,0,0:0:0:0:
64,192,76020,128,0,76200:0:0:0:0:
192,192,76020,1,0,0:0:0:0:
448,192,76200,1,0,0:0:0:0:
320,192,76200,1,0,0:0:0:0:
448,192,76380,1,0,0:0:0:0:
320,192,76380,1,0,0:0:0:0:
64,192,76380,1,0,0:0:0:0:
192,192,76500,128,0,76680:0:0:0:0:
192,192,76860,1,0,0:0:0:0:
64,192,76860,1,0,0:0:0:0:
448,192,76860,1,0,0:0:0:0:
320,192,76860,128,0,77340:0:0:0:0:
64,192,77100,1,0,0:0:0:0:
192,192,77100,1,0,0:0:0:0:
192,192,77340,1,0,0:0:0:0:
448,192,77340,1,0,0:0:0:0:
192,192,77580,1,0,0:0:0:0:
64,192,77580,1,0,0:0:0:0:
320,192,77820,1,0,0:0:0:0:
192,192,77820,1,0,0:0:0:0:
448,192,77820,128,0,77970:0:0:0:0:
320,192,77970,128,0,78090:0:0:0:0:
192,192,78090,128,0,78180:0:0:0:0:
448,192,78090,1,0,0:0:0:0:
64,192,78090,1,0,0:0:0:0:
64,192,78180,128,0,78300:0:0:0:0:
192,192,78300,128,0,78420:0:0:0:0:
320,192,78300,1,0,0:0:0:0:
448,192,78300,1,0,0:0:0:0:
320,192,78420,128,0,78520:0:0:0:0:
448,192,78420,1,0,0:0:0:0:
192,192,78520,128,0,78640:0:0:0:0:
64,192,78520,1,0,0:0:0:0:
64,192,78640,128,0,78780:0:0:0:0:
320,192,78780,1,0,0:0:0:0:
448,192,78780,1,0,0:0:0:0:
64,192,78840,1,0,0:0:0:0:
192,192,78840,1,0,0:0:0:0:
320,192,78900,1,0,0:0:0:0:
448,192,78900,1,0,0:0:0:0:
192,192,78960,1,0,0:0:0:0:
64,192,78960,1,0,0:0:0:0:
320,192,79020,1,0,0:0:0:0:
448,192,79020,1,0,0:0:0:0:
64,192,79080,1,0,0:0:0:0:
192,192,79080,1,0,0:0:0:0:
320,192,79140,1,0,0:0:0:0:
448,192,79140,1,0,0:0:0:0:
192,192,79200,1,0,0:0:0:0:
64,192,79200,1,0,0:0:0:0:
448,192,79230,128,0,80940:0:0:0:0:
320,192,80940,1,0,0:0:0:0:
64,192,80940,1,0,0:0:0:0:
192,192,80940,128,0,81180:0:0:0:0:
320,192,81180,1,0,0:0:0:0:
448,192,81180,1,0,0:0:0:0:
64,192,81180,1,0,0:0:0:0:
64,192,81300,128,0,81420:0:0:0:0:
192,192,81420,1,0,0:0:0:0:
448,192,81420,1,0,0:0:0:0:
64,192,82140,1,0,0:0:0:0:
448,192,82140,1,0,0:0:0:0:
320,192,82140,128,0,82620:0:0:0:0:
192,192,82620,1,0,0:0:0:0:
64,192,82620,1,0,0:0:0:0:
448,192,82620,128,0,83100:0:0:0:0:
192,192,83100,1,0,0:0:0:0:
320,192,83100,1,0,0:0:0:0:
192,192,83220,128,0,83340:0:0:0:0:
320,192,83340,1,0,0:0:0:0:
64,192,83340,1,0,0:0:0:0:
64,192,84780,128,0,85020:0:0:0:0:
448,192,84780,1,0,0:0:0:0:
192,192,84780,1,0,0:0:0:0:
320,192,84880,128,0,85020:0:0:0:0:
448,192,85020,128,0,85860:0:0:0:0:
192,192,85020,1,0,0:0:0:0:
192,192,85120,128,0,85240:0:0:0:0:
192,192,85860,1,0,0:0:0:0:
64,192,85860,1,0,0:0:0:0:
320,192,85860,128,0,86460:0:0:0:0:
64,192,86460,1,0,0:0:0:0:
448,192,86460,1,0,0:0:0:0:
192,192,86460,128,0,86940:0:0:0:0:
448,192,86940,1,0,0:0:0:0:
320,192,86940,1,0,0:0:0:0:
320,192,87060,128,0,87220:0:0:0:0:
64,192,87180,128,0,87300:0:0:0:0:
320,192,87300,128,0,87540:0:0:0:0:
192,192,87300,1,0,0:0:0:0:
448,192,87300,1,0,0:0:0:0:
64,192,87540,1,0,0:0:0:0:
448,192,87540,128,0,87900:0:0:0:0:
192,192,87540,1,0,0:0:0:0:
192,192,87660,128,0,87780:0:0:0:0:
192,192,87900,1,0,0:0:0:0:
64,192,87900,128,0,88260:0:0:0:0:
320,192,87900,1,0,0:0:0:0:
320,192,88020,128,0,88140:0:0:0:0:
448,192,88260,1,0,0:0:0:0:
192,192,88260,128,0,88500:0:0:0:0:
320,192,88260,1,0,0:0:0:0:
64,192,88500,1,0,0:0:0:0:
448,192,88500,128,0,88740:0:0:0:0:
320,192,88500,1,0,0:0:0:0:
64,192,88620,1,0,0:0:0:0:
192,192,88620,1,0,0:0:0:0:
320,192,88740,128,0,88860:0:0:0:0:
192,192,88860,128,0,89220:0:0:0:0:
448,192,88860,1,0,0:0:0:0:
64,192,88980,1,0,0:0:0:0:
320,192,88980,128,0,89100:0:0:0:0:
448,192,89220,1,0,0:0:0:0:
320,192,89220,128,0,89360:0:0:0:0:
192,192,89460,1,0,0:0:0:0:
448,192,89460,1,0,0:0:0:0:
64,192,89460,1,0,0:0:0:0:
64,192,89580,128,0,89700:0:0:0:0:
320,192,89580,128,0,89700:0:0:0:0:
448,192,89700,128,0,89820:0:0:0:0:
192,192,89700,1,0,0:0:0:0:
320,192,89820,1,0,0:0:0:0:
192,192,89820,1,0,0:0:0:0:
64,192,89940,128,0,90060:0:0:0:0:
192,192,90060,1,0,0:0:0:0:
448,192,90060,1,0,0:0:0:0:
448,192,90180,128,0,90300:0:0:0:0:
64,192,90300,1,0,0:0:0:0:
320,192,90300,1,0,0:0:0:0:
320,192,90420,128,0,90540:0:0:0:0:
192,192,90540,1,0,0:0:0:0:
64,192,90540,1,0,0:0:0:0:
448,192,90640,128,0,90780:0:0:0:0:
320,192,90780,1,0,0:0:0:0:
192,192,90780,1,0,0:0:0:0:
192,192,91260,1,0,0:0:0:0:
64,192,91260,1,0,0:0:0:0:
320,192,91380,128,0,91500:0:0:0:0:
448,192,91740,1,0,0:0:0:0:
64,192,91740,1,0,0:0:0:0:
192,192,91740,1,0,0:0:0:0:
320,192,91860,128,0,91980:0:0:0:0:
192,192,92100,128,0,92240:0:0:0:0:
64,192,92100,1,0,0:0:0:0:
320,192,92240,1,0,0:0:0:0:
448,192,92240,1,0,0:0:0:0:
64,192,92340,128,0,92460:0:0:0:0:
192,192,92460,1,0,0:0:0:0:
448,192,92460,1,0,0:0:0:0:
320,192,92580,128,0,92700:0:0:0:0:
448,192,92700,1,0,0:0:0:0:
192,192,92700,1,0,0:0:0:0:
448,192,92820,1,0,0:0:0:0:
320,192,92820,1,0,0:0:0:0:
64,192,92880,1,0,0:0:0:0:
192,192,92880,1,0,0:0:0:0:
320,192,92940,1,0,0:0:0:0:
448,192,92940,1,0,0:0:0:0:
192,192,93000,1,0,0:0:0:0:
64,192,93000,1,0,0:0:0:0:
320,192,93060,1,0,0:0:0:0:
448,192,93060,1,0,0:0:0:0:
192,192,93120,1,0,0:0:0:0:
64,192,93120,1,0,0:0:0:0:
320,192,93180,1,0,0:0:0:0:
448,192,93180,1,0,0:0:0:0:
192,192,93240,1,0,0:0:0:0:
64,192,93240,1,0,0:0:0:0:
320,192,93300,1,0,0:0:0:0:
448,192,93300,1,0,0:0:0:0:
192,192,93360,1,0,0:0:0:0:
64,192,93360,1,0,0:0:0:0:
320,192,93420,1,0,0:0:0:0:
448,192,93420,1,0,0:0:0:0:
192,192,93480,1,0,0:0:0:0:
320,192,93540,1,0,0:0:0:0:
448,192,93540,1,0,0:0:0:0:
64,192,93540,1,0,0:0:0:0:
192,192,93600,1,0,0:0:0:0:
320,192,93660,1,0,0:0:0:0:
448,192,93660,1,0,0:0:0:0:
192,192,93720,1,0,0:0:0:0:
64,192,93720,1,0,0:0:0:0:
320,192,93780,1,0,0:0:0:0:
448,192,93780,1,0,0:0:0:0:
192,192,93840,1,0,0:0:0:0:
64,192,93840,1,0,0:0:0:0:
320,192,93900,1,0,0:0:0:0:
448,192,93900,1,0,0:0:0:0:
192,192,93960,1,0,0:0:0:0:
64,192,93960,1,0,0:0:0:0:
320,192,94020,1,0,0:0:0:0:
448,192,94020,1,0,0:0:0:0:
192,192,94080,1,0,0:0:0:0:
64,192,94080,1,0,0:0:0:0:
320,192,94140,1,0,0:0:0:0:
448,192,94140,1,0,0:0:0:0:
448,192,94410,128,0,94620:0:0:0:0:
192,192,94620,1,0,0:0:0:0:
64,192,94620,1,0,0:0:0:0:
448,192,94740,1,0,0:0:0:0:
320,192,94740,1,0,0:0:0:0:
64,192,94740,1,0,0:0:0:0:
192,192,94860,1,0,0:0:0:0:
448,192,94980,1,0,0:0:0:0:
192,192,94980,1,0,0:0:0:0:
64,192,94980,1,0,0:0:0:0:
320,192,95100,1,0,0:0:0:0:
320,192,95220,1,0,0:0:0:0:
448,192,95220,1,0,0:0:0:0:
64,192,95220,1,0,0:0:0:0:
192,192,95340,1,0,0:0:0:0:
64,192,95340,1,0,0:0:0:0:
320,192,95460,1,0,0:0:0:0:
448,192,95460,1,0,0:0:0:0:
192,192,95460,1,0,0:0:0:0:
320,192,95580,1,0,0:0:0:0:
64,192,95700,1,0,0:0:0:0:
448,192,95700,1,0,0:0:0:0:
192,192,95700,1,0,0:0:0:0:
192,192,95820,1,0,0:0:0:0:
64,192,95940,1,0,0:0:0:0:
448,192,95940,1,0,0:0:0:0:
320,192,95940,1,0,0:0:0:0:
64,192,96060,1,0,0:0:0:0:
192,192,96060,1,0,0:0:0:0:
320,192,96150,1,0,0:0:0:0:
448,192,96150,1,0,0:0:0:0:
64,192,96270,1,0,0:0:0:0:
192,192,96270,1,0,0:0:0:0:
320,192,96330,1,0,0:0:0:0:
448,192,96330,1,0,0:0:0:0:
192,192,96420,1,0,0:0:0:0:
64,192,96420,1,0,0:0:0:0:
320,192,96480,1,0,0:0:0:0:
448,192,96480,1,0,0:0:0:0:
192,192,96540,1,0,0:0:0:0:
64,192,96540,1,0,0:0:0:0:
320,192,96660,1,0,0:0:0:0:
192,192,96660,1,0,0:0:0:0:
448,192,96660,1,0,0:0:0:0:
64,192,96780,1,0,0:0:0:0:
192,192,96780,1,0,0:0:0:0:
448,192,96780,1,0,0:0:0:0:
320,192,96900,1,0,0:0:0:0:
192,192,96900,1,0,0:0:0:0:
64,192,97020,1,0,0:0:0:0:
192,192,97140,1,0,0:0:0:0:
320,192,97140,1,0,0:0:0:0:
320,192,97260,1,0,0:0:0:0:
448,192,97260,1,0,0:0:0:0:
64,192,97320,1,0,0:0:0:0:
192,192,97320,1,0,0:0:0:0:
448,192,97380,1,0,0:0:0:0:
320,192,97380,1,0,0:0:0:0:
192,192,97440,1,0,0:0:0:0:
64,192,97440,1,0,0:0:0:0:
320,192,97500,1,0,0:0:0:0:
448,192,97500,1,0,0:0:0:0:
192,192,97620,128,0,97740:0:0:0:0:
320,192,97740,1,0,0:0:0:0:
448,192,97740,1,0,0:0:0:0:
320,192,97860,128,0,97980:0:0:0:0:
192,192,97980,1,0,0:0:0:0:
64,192,97980,1,0,0:0:0:0:
192,192,98100,128,0,98220:0:0:0:0:
64,192,98220,1,0,0:0:0:0:
448,192,98220,1,0,0:0:0:0:
320,192,98370,128,0,98490:0:0:0:0:
64,192,98490,1,0,0:0:0:0:
192,192,98490,1,0,0:0:0:0:
448,192,98580,1,0,0:0:0:0:
448,192,98700,1,0,0:0:0:0:
320,192,98700,1,0,0:0:0:0:
320,192,98820,1,0,0:0:0:0:
192,192,98820,1,0,0:0:0:0:
64,192,98820,1,0,0:0:0:0:
448,192,98940,1,0,0:0:0:0:
192,192,98940,1,0,0:0:0:0:
320,192,99060,1,0,0:0:0:0:
448,192,99060,1,0,0:0:0:0:
64,192,99060,1,0,0:0:0:0:
192,192,99180,1,0,0:0:0:0:
448,192,99300,1,0,0:0:0:0:
64,192,99300,1,0,0:0:0:0:
192,192,99300,1,0,0:0:0:0:
192,192,99420,1,0,0:0:0:0:
320,192,99420,1,0,0:0:0:0:
192,192,99540,1,0,0:0:0:0:
64,192,99540,1,0,0:0:0:0:
448,192,99540,1,0,0:0:0:0:
320,192,99540,1,0,0:0:0:0:
320,192,99660,1,0,0:0:0:0:
448,192,99660,1,0,0:0:0:0:
64,192,99660,1,0,0:0:0:0:
320,192,99780,1,0,0:0:0:0:
448,192,99780,1,0,0:0:0:0:
192,192,99780,1,0,0:0:0:0:
192,192,99900,1,0,0:0:0:0:
64,192,99900,1,0,0:0:0:0:
448,192,100020,1,0,0:0:0:0:
320,192,100020,1,0,0:0:0:0:
192,192,100140,1,0,0:0:0:0:
64,192,100140,1,0,0:0:0:0:
320,192,100200,1,0,0:0:0:0:
448,192,100200,1,0,0:0:0:0:
192,192,100260,1,0,0:0:0:0:
64,192,100260,1,0,0:0:0:0:
320,192,100320,1,0,0:0:0:0:
448,192,100320,1,0,0:0:0:0:
192,192,100380,1,0,0:0:0:0:
64,192,100380,1,0,0:0:0:0:
448,192,100500,1,0,0:0:0:0:
320,192,100500,1,0,0:0:0:0:
64,192,100500,1,0,0:0:0:0:
192,192,100620,1,0,0:0:0:0:
448,192,100740,1,0,0:0:0:0:
320,192,100740,1,0,0:0:0:0:
192,192,100860,1,0,0:0:0:0:
64,192,100860,1,0,0:0:0:0:
448,192,100860,1,0,0:0:0:0:
192,192,100980,1,0,0:0:0:0:
320,192,100980,1,0,0:0:0:0:
448,192,101100,1,0,0:0:0:0:
64,192,101100,1,0,0:0:0:0:
192,192,101160,1,0,0:0:0:0:
320,192,101160,1,0,0:0:0:0:
448,192,101220,1,0,0:0:0:0:
64,192,101220,1,0,0:0:0:0:
320,192,101340,128,0,101460:0:0:0:0:
64,192,101460,1,0,0:0:0:0:
192,192,101460,1,0,0:0:0:0:
320,192,101580,128,0,101700:0:0:0:0:
448,192,101700,1,0,0:0:0:0:
64,192,101700,1,0,0:0:0:0:
320,192,101820,1,0,0:0:0:0:
192,192,101820,128,0,102060:0:0:0:0:
320,192,102060,1,0,0:0:0:0:
64,192,102060,1,0,0:0:0:0:
64,192,102180,128,0,102300:0:0:0:0:
448,192,102300,1,0,0:0:0:0:
320,192,102300,1,0,0:0:0:0:
192,192,102300,1,0,0:0:0:0:
192,192,102420,1,0,0:0:0:0:
64,192,102420,1,0,0:0:0:0:
320,192,102540,1,0,0:0:0:0:
64,192,102660,1,0,0:0:0:0:
448,192,102660,1,0,0:0:0:0:
192,192,102660,1,0,0:0:0:0:
320,192,102780,1,0,0:0:0:0:
64,192,102900,1,0,0:0:0:0:
320,192,102900,1,0,0:0:0:0:
192,192,102900,1,0,0:0:0:0:
64,192,103020,1,0,0:0:0:0:
192,192,103020,1,0,0:0:0:0:
448,192,103020,1,0,0:0:0:0:
320,192,103140,1,0,0:0:0:0:
64,192,103140,1,0,0:0:0:0:
192,192,103260,1,0,0:0:0:0:
64,192,103260,1,0,0:0:0:0:
320,192,103260,1,0,0:0:0:0:
320,192,103380,1,0,0:0:0:0:
448,192,103380,1,0,0:0:0:0:
64,192,103500,1,0,0:0:0:0:
320,192,103500,1,0,0:0:0:0:
192,192,103620,1,0,0:0:0:0:
320,192,103620,1,0,0:0:0:0:
448,192,103620,1,0,0:0:0:0:
320,192,103740,1,0,0:0:0:0:
448,192,103860,1,0,0:0:0:0:
64,192,103860,1,0,0:0:0:0:
192,192,103860,1,0,0:0:0:0:
320,192,103980,1,0,0:0:0:0:
448,192,103980,1,0,0:0:0:0:
192,192,104040,1,0,0:0:0:0:
64,192,104040,1,0,0:0:0:0:
320,192,104100,1,0,0:0:0:0:
448,192,104100,1,0,0:0:0:0:
192,192,104160,1,0,0:0:0:0:
64,192,104160,1,0,0:0:0:0:
320,192,104220,1,0,0:0:0:0:
448,192,104220,1,0,0:0:0:0:
192,192,104340,1,0,0:0:0:0:
64,192,104340,1,0,0:0:0:0:
320,192,104460,1,0,0:0:0:0:
192,192,104580,1,0,0:0:0:0:
448,192,104580,1,0,0:0:0:0:
64,192,104580,1,0,0:0:0:0:
64,192,104700,1,0,0:0:0:0:
320,192,104700,1,0,0:0:0:0:
448,192,104700,1,0,0:0:0:0:
192,192,104820,1,0,0:0:0:0:
448,192,104940,1,0,0:0:0:0:
64,192,104940,1,0,0:0:0:0:
192,192,105000,1,0,0:0:0:0:
320,192,105000,1,0,0:0:0:0:
448,192,105060,1,0,0:0:0:0:
64,192,105060,1,0,0:0:0:0:
192,192,105120,1,0,0:0:0:0:
320,192,105120,1,0,0:0:0:0:
448,192,105180,1,0,0:0:0:0:
64,192,105180,1,0,0:0:0:0:
320,192,105300,128,0,105420:0:0:0:0:
192,192,105420,1,0,0:0:0:0:
64,192,105420,1,0,0:0:0:0:
448,192,105420,1,0,0:0:0:0:
192,192,105540,128,0,105660:0:0:0:0:
320,192,105660,1,0,0:0:0:0:
448,192,105660,1,0,0:0:0:0:
448,192,105780,128,0,105900:0:0:0:0:
192,192,105900,1,0,0:0:0:0:
64,192,105900,1,0,0:0:0:0:
192,192,106020,128,0,106140:0:0:0:0:
320,192,106140,1,0,0:0:0:0:
448,192,106140,1,0,0:0:0:0:
320,192,106260,1,0,0:0:0:0:
448,192,106260,1,0,0:0:0:0:
64,192,106260,1,0,0:0:0:0:
192,192,106380,1,0,0:0:0:0:
448,192,106500,1,0,0:0:0:0:
64,192,106500,1,0,0:0:0:0:
320,192,106620,1,0,0:0:0:0:
448,192,106620,1,0,0:0:0:0:
192,192,106740,1,0,0:0:0:0:
64,192,106740,1,0,0:0:0:0:
320,192,106740,1,0,0:0:0:0:
192,192,106860,1,0,0:0:0:0:
320,192,106980,1,0,0:0:0:0:
448,192,106980,1,0,0:0:0:0:
192,192,107100,1,0,0:0:0:0:
448,192,107100,1,0,0:0:0:0:
64,192,107220,1,0,0:0:0:0:
320,192,107220,1,0,0:0:0:0:
448,192,107220,1,0,0:0:0:0:
192,192,107340,1,0,0:0:0:0:
320,192,107340,1,0,0:0:0:0:
64,192,107460,1,0,0:0:0:0:
448,192,107460,1,0,0:0:0:0:
192,192,107460,1,0,0:0:0:0:
320,192,107580,1,0,0:0:0:0:
64,192,107700,1,0,0:0:0:0:
448,192,107700,1,0,0:0:0:0:
320,192,107700,1,0,0:0:0:0:
64,192,107820,1,0,0:0:0:0:
192,192,107820,1,0,0:0:0:0:
320,192,107880,1,0,0:0:0:0:
448,192,107880,1,0,0:0:0:0:
192,192,107940,1,0,0:0:0:0:
64,192,107940,1,0,0:0:0:0:
320,192,108000,1,0,0:0:0:0:
448,192,108000,1,0,0:0:0:0:
192,192,108060,1,0,0:0:0:0:
64,192,108060,1,0,0:0:0:0:
192,192,108180,1,0,0:0:0:0:
448,192,108180,1,0,0:0:0:0:
64,192,108300,1,0,0:0:0:0:
320,192,108300,1,0,0:0:0:0:
448,192,108300,1,0,0:0:0:0:
192,192,108420,1,0,0:0:0:0:
448,192,108540,1,0,0:0:0:0:
192,192,108540,1,0,0:0:0:0:
64,192,108660,1,0,0:0:0:0:
320,192,108660,1,0,0:0:0:0:
448,192,108660,1,0,0:0:0:0:
64,192,108780,1,0,0:0:0:0:
448,192,108780,1,0,0:0:0:0:
192,192,108840,5,0,0:0:0:0:
320,192,108840,1,0,0:0:0:0:
448,192,108900,1,0,0:0:0:0:
64,192,108900,1,0,0:0:0:0:
320,192,109020,128,0,109140:0:0:0:0:
192,192,109140,1,0,0:0:0:0:
64,192,109140,1,0,0:0:0:0:
192,192,109260,128,0,109380:0:0:0:0:
320,192,109380,1,0,0:0:0:0:
448,192,109380,1,0,0:0:0:0:
64,192,109500,1,0,0:0:0:0:
192,192,109500,1,0,0:0:0:0:
320,192,109740,1,0,0:0:0:0:
64,192,109740,1,0,0:0:0:0:
448,192,109740,1,0,0:0:0:0:
448,192,109980,5,0,0:0:0:0:
192,192,109980,1,0,0:0:0:0:
64,192,109980,1,0,0:0:0:0:
448,192,110100,128,0,110220:0:0:0:0:
320,192,110220,1,0,0:0:0:0:
192,192,110220,1,0,0:0:0:0:
192,192,110340,128,0,110460:0:0:0:0:
448,192,110460,1,0,0:0:0:0:
64,192,110460,1,0,0:0:0:0:
448,192,110580,128,0,110700:0:0:0:0:
320,192,110700,1,0,0:0:0:0:
64,192,110700,1,0,0:0:0:0:
192,192,110700,1,0,0:0:0:0:
448,192,110820,1,0,0:0:0:0:
320,192,110820,1,0,0:0:0:0:
64,192,110940,1,0,0:0:0:0:
320,192,110940,1,0,0:0:0:0:
192,192,111060,128,0,111180:0:0:0:0:
64,192,111180,1,0,0:0:0:0:
320,192,111180,1,0,0:0:0:0:
448,192,111180,1,0,0:0:0:0:
64,192,111300,1,0,0:0:0:0:
192,192,111300,1,0,0:0:0:0:
320,192,111420,1,0,0:0:0:0:
448,192,111420,1,0,0:0:0:0:
64,192,111540,1,0,0:0:0:0:
192,192,111540,1,0,0:0:0:0:
320,192,111660,1,0,0:0:0:0:
192,192,111660,1,0,0:0:0:0:
64,192,111660,1,0,0:0:0:0:
320,192,111780,128,0,111900:0:0:0:0:
64,192,111900,1,0,0:0:0:0:
448,192,111900,1,0,0:0:0:0:
448,192,112020,128,0,112140:0:0:0:0:
64,192,112140,1,0,0:0:0:0:
192,192,112140,1,0,0:0:0:0:
192,192,112260,128,0,112380:0:0:0:0:
64,192,112380,1,0,0:0:0:0:
448,192,112380,1,0,0:0:0:0:
320,192,112500,1,0,0:0:0:0:
192,192,112500,1,0,0:0:0:0:
64,192,112620,1,0,0:0:0:0:
320,192,112620,1,0,0:0:0:0:
192,192,112740,1,0,0:0:0:0:
448,192,112740,1,0,0:0:0:0:
320,192,112860,1,0,0:0:0:0:
64,192,112860,1,0,0:0:0:0:
448,192,112860,1,0,0:0:0:0:
320,192,112980,128,0,113100:0:0:0:0:
192,192,113100,1,0,0:0:0:0:
448,192,113100,1,0,0:0:0:0:
192,192,113220,128,0,113340:0:0:0:0:
320,192,113340,1,0,0:0:0:0:
448,192,113340,1,0,0:0:0:0:
320,192,113460,128,0,113580:0:0:0:0:
192,192,113580,1,0,0:0:0:0:
64,192,113580,1,0,0:0:0:0:
192,192,113700,128,0,113820:0:0:0:0:
448,192,113820,1,0,0:0:0:0:
64,192,113820,1,0,0:0:0:0:
448,192,113940,128,0,114060:0:0:0:0:
64,192,114060,1,0,0:0:0:0:
320,192,114060,1,0,0:0:0:0:
64,192,114180,128,0,114300:0:0:0:0:
192,192,114300,1,0,0:0:0:0:
320,192,114300,1,0,0:0:0:0:
320,192,114420,128,0,114540:0:0:0:0:
192,192,114540,1,0,0:0:0:0:
64,192,114540,1,0,0:0:0:0:
448,192,114540,1,0,0:0:0:0:
192,192,114660,1,0,0:0:0:0:
448,192,114660,1,0,0:0:0:0:
64,192,114780,1,0,0:0:0:0:
320,192,114780,1,0,0:0:0:0:
192,192,114780,1,0,0:0:0:0:
320,192,114900,128,0,115020:0:0:0:0:
192,192,115020,1,0,0:0:0:0:
448,192,115020,1,0,0:0:0:0:
192,192,115140,1,0,0:0:0:0:
64,192,115140,1,0,0:0:0:0:
448,192,115140,1,0,0:0:0:0:
320,192,115260,1,0,0:0:0:0:
192,192,115260,1,0,0:0:0:0:
192,192,115380,128,0,115500:0:0:0:0:
320,192,115500,1,0,0:0:0:0:
64,192,115500,1,0,0:0:0:0:
448,192,115500,1,0,0:0:0:0:
192,192,115620,1,0,0:0:0:0:
448,192,115740,1,0,0:0:0:0:
64,192,115740,1,0,0:0:0:0:
192,192,115740,1,0,0:0:0:0:
320,192,115860,128,0,115980:0:0:0:0:
64,192,115980,1,0,0:0:0:0:
448,192,115980,1,0,0:0:0:0:
192,192,116100,128,0,116220:0:0:0:0:
320,192,116220,1,0,0:0:0:0:
448,192,116220,1,0,0:0:0:0:
192,192,116340,1,0,0:0:0:0:
320,192,116340,1,0,0:0:0:0:
192,192,116460,1,0,0:0:0:0:
64,192,116460,1,0,0:0:0:0:
320,192,116580,1,0,0:0:0:0:
448,192,116580,1,0,0:0:0:0:
192,192,116700,128,0,116820:0:0:0:0:
320,192,116820,1,0,0:0:0:0:
448,192,116820,1,0,0:0:0:0:
320,192,116940,128,0,117060:0:0:0:0:
64,192,117060,1,0,0:0:0:0:
448,192,117060,1,0,0:0:0:0:
192,192,117180,1,0,0:0:0:0:
64,192,117180,1,0,0:0:0:0:
448,192,117240,128,0,117420:0:0:0:0:
64,192,117420,1,0,0:0:0:0:
320,192,117420,1,0,0:0:0:0:
192,192,117540,128,0,117660:0:0:0:0:
320,192,117660,1,0,0:0:0:0:
64,192,117660,1,0,0:0:0:0:
448,192,117660,1,0,0:0:0:0:
320,192,117780,128,0,117900:0:0:0:0:
192,192,117900,1,0,0:0:0:0:
64,192,117900,1,0,0:0:0:0:
192,192,118020,128,0,118140:0:0:0:0:
64,192,118140,1,0,0:0:0:0:
448,192,118140,1,0,0:0:0:0:
320,192,118260,128,0,118380:0:0:0:0:
64,192,118380,1,0,0:0:0:0:
448,192,118380,1,0,0:0:0:0:
64,192,118500,1,0,0:0:0:0:
320,192,118500,1,0,0:0:0:0:
192,192,118620,1,0,0:0:0:0:
320,192,118620,1,0,0:0:0:0:
448,192,118620,1,0,0:0:0:0:
320,192,118740,128,0,118860:0:0:0:0:
64,192,118860,1,0,0:0:0:0:
448,192,118860,1,0,0:0:0:0:
320,192,118980,1,0,0:0:0:0:
192,192,118980,1,0,0:0:0:0:
64,192,118980,1,0,0:0:0:0:
192,192,119100,1,0,0:0:0:0:
448,192,119100,1,0,0:0:0:0:
320,192,119220,1,0,0:0:0:0:
64,192,119220,1,0,0:0:0:0:
448,192,119220,1,0,0:0:0:0:
192,192,119340,1,0,0:0:0:0:
320,192,119340,1,0,0:0:0:0:
192,192,119460,128,0,119580:0:0:0:0:
320,192,119580,1,0,0:0:0:0:
448,192,119580,1,0,0:0:0:0:
320,192,119700,128,0,119820:0:0:0:0:
64,192,119820,1,0,0:0:0:0:
448,192,119820,1,0,0:0:0:0:
192,192,119940,128,0,120060:0:0:0:0:
448,192,120060,1,0,0:0:0:0:
64,192,120060,1,0,0:0:0:0:
320,192,120180,1,0,0:0:0:0:
192,192,120180,1,0,0:0:0:0:
320,192,120300,1,0,0:0:0:0:
64,192,120300,1,0,0:0:0:0:
192,192,120420,1,0,0:0:0:0:
320,192,120420,1,0,0:0:0:0:
448,192,120420,1,0,0:0:0:0:
64,192,120540,1,0,0:0:0:0:
192,192,120540,1,0,0:0:0:0:
448,192,120660,128,0,120780:0:0:0:0:
64,192,120780,1,0,0:0:0:0:
192,192,120780,1,0,0:0:0:0:
64,192,120900,128,0,121020:0:0:0:0:
448,192,121020,1,0,0:0:0:0:
192,192,121020,1,0,0:0:0:0:
320,192,121140,128,0,121260:0:0:0:0:
448,192,121260,1,0,0:0:0:0:
64,192,121260,1,0,0:0:0:0:
192,192,121380,128,0,121500:0:0:0:0:
448,192,121500,1,0,0:0:0:0:
64,192,121500,1,0,0:0:0:0:
192,192,121620,128,0,121740:0:0:0:0:
64,192,121740,1,0,0:0:0:0:
320,192,121740,1,0,0:0:0:0:
448,192,121860,128,0,121980:0:0:0:0:
320,192,121980,1,0,0:0:0:0:
64,192,121980,1,0,0:0:0:0:
320,192,122100,128,0,122220:0:0:0:0:
448,192,122220,1,0,0:0:0:0:
192,192,122220,1,0,0:0:0:0:
320,192,122340,1,0,0:0:0:0:
192,192,122340,1,0,0:0:0:0:
448,192,122460,1,0,0:0:0:0:
192,192,122460,1,0,0:0:0:0:
64,192,122460,1,0,0:0:0:0:
192,192,122580,128,0,122700:0:0:0:0:
320,192,122700,1,0,0:0:0:0:
448,192,122700,1,0,0:0:0:0:
64,192,122700,1,0,0:0:0:0:
192,192,122820,1,0,0:0:0:0:
320,192,122820,1,0,0:0:0:0:
448,192,122940,1,0,0:0:0:0:
64,192,122940,1,0,0:0:0:0:
192,192,122940,1,0,0:0:0:0:
320,192,123060,128,0,123180:0:0:0:0:
192,192,123180,1,0,0:0:0:0:
64,192,123180,1,0,0:0:0:0:
320,192,123300,1,0,0:0:0:0:
448,192,123300,1,0,0:0:0:0:
64,192,123300,1,0,0:0:0:0:
192,192,123420,1,0,0:0:0:0:
320,192,123420,1,0,0:0:0:0:
448,192,123420,1,0,0:0:0:0:
192,192,123540,128,0,123660:0:0:0:0:
64,192,123660,1,0,0:0:0:0:
448,192,123660,1,0,0:0:0:0:
64,192,123780,128,0,123900:0:0:0:0:
320,192,123900,1,0,0:0:0:0:
64,192,124020,1,0,0:0:0:0:
192,192,124020,1,0,0:0:0:0:
320,192,124140,1,0,0:0:0:0:
448,192,124140,1,0,0:0:0:0:
192,192,124140,1,0,0:0:0:0:
64,192,124260,1,0,0:0:0:0:
192,192,124260,128,0,124500:0:0:0:0:
320,192,124500,1,0,0:0:0:0:
448,192,124500,128,0,124620:0:0:0:0:
320,192,124620,128,0,124740:0:0:0:0:
64,192,124740,128,0,124860:0:0:0:0:
448,192,124860,128,0,124980:0:0:0:0:
320,192,124980,128,0,125100:0:0:0:0:
448,192,125100,1,0,0:0:0:0:
192,192,125100,1,0,0:0:0:0:
64,192,125100,1,0,0:0:0:0:
192,192,125220,128,0,125340:0:0:0:0:
448,192,125340,1,0,0:0:0:0:
64,192,125340,1,0,0:0:0:0:
192,192,125460,1,0,0:0:0:0:
320,192,125580,1,0,0:0:0:0:
448,192,125580,1,0,0:0:0:0:
64,192,125580,1,0,0:0:0:0:
320,192,125700,1,0,0:0:0:0:
448,192,125820,1,0,0:0:0:0:
64,192,125820,1,0,0:0:0:0:
320,192,125940,1,0,0:0:0:0:
64,192,126060,1,0,0:0:0:0:
320,192,126060,1,0,0:0:0:0:
192,192,126180,1,0,0:0:0:0:
448,192,126300,1,0,0:0:0:0:
192,192,126300,1,0,0:0:0:0:
448,192,126420,1,0,0:0:0:0:
320,192,126540,1,0,0:0:0:0:
64,192,126540,1,0,0:0:0:0:
320,192,126660,1,0,0:0:0:0:
192,192,126780,1,0,0:0:0:0:
64,192,126780,1,0,0:0:0:0:
448,192,126780,1,0,0:0:0:0:
192,192,126900,1,0,0:0:0:0:
320,192,127020,1,0,0:0:0:0:
448,192,127020,1,0,0:0:0:0:
320,192,127140,1,0,0:0:0:0:
64,192,127260,1,0,0:0:0:0:
192,192,127260,1,0,0:0:0:0:
448,192,127260,1,0,0:0:0:0:
320,192,127380,1,0,0:0:0:0:
448,192,127500,1,0,0:0:0:0:
64,192,127500,1,0,0:0:0:0:
192,192,127620,1,0,0:0:0:0:
64,192,127740,1,0,0:0:0:0:
320,192,127740,1,0,0:0:0:0:
448,192,127740,1,0,0:0:0:0:
320,192,127860,1,0,0:0:0:0:
320,192,127980,1,0,0:0:0:0:
192,192,127980,1,0,0:0:0:0:
64,192,128100,1,0,0:0:0:0:
192,192,128220,1,0,0:0:0:0:
320,192,128220,1,0,0:0:0:0:
448,192,128220,1,0,0:0:0:0:
192,192,128340,1,0,0:0:0:0:
320,192,128460,1,0,0:0:0:0:
448,192,128460,1,0,0:0:0:0:
64,192,128460,1,0,0:0:0:0:
320,192,128580,1,0,0:0:0:0:
64,192,128700,1,0,0:0:0:0:
192,192,128700,1,0,0:0:0:0:
320,192,128820,1,0,0:0:0:0:
192,192,128940,1,0,0:0:0:0:
64,192,128940,1,0,0:0:0:0:
448,192,128940,1,0,0:0:0:0:
192,192,129060,1,0,0:0:0:0:
320,192,129180,1,0,0:0:0:0:
448,192,129180,1,0,0:0:0:0:
192,192,129300,1,0,0:0:0:0:
64,192,129420,1,0,0:0:0:0:
448,192,129420,1,0,0:0:0:0:
320,192,129540,1,0,0:0:0:0:
192,192,129660,1,0,0:0:0:0:
64,192,129660,1,0,0:0:0:0:
192,192,129780,1,0,0:0:0:0:
448,192,129900,1,0,0:0:0:0:
64,192,129900,1,0,0:0:0:0:
320,192,130020,1,0,0:0:0:0:
64,192,130140,1,0,0:0:0:0:
320,192,130140,1,0,0:0:0:0:
192,192,130260,1,0,0:0:0:0:
192,192,130380,1,0,0:0:0:0:
448,192,130380,1,0,0:0:0:0:
448,192,130500,1,0,0:0:0:0:
64,192,130620,1,0,0:0:0:0:
320,192,130620,1,0,0:0:0:0:
320,192,130740,1,0,0:0:0:0:
192,192,130860,1,0,0:0:0:0:
64,192,130860,1,0,0:0:0:0:
320,192,130980,1,0,0:0:0:0:
448,192,130980,1,0,0:0:0:0:
320,192,131100,1,0,0:0:0:0:
448,192,131100,1,0,0:0:0:0:
320,192,131220,1,0,0:0:0:0:
448,192,131220,1,0,0:0:0:0:
320,192,131340,1,0,0:0:0:0:
448,192,131340,1,0,0:0:0:0:
320,192,131460,1,0,0:0:0:0:
448,192,131460,1,0,0:0:0:0:
64,192,131580,1,0,0:0:0:0:
320,192,131580,1,0,0:0:0:0:
320,192,131700,1,0,0:0:0:0:
192,192,131820,1,0,0:0:0:0:
448,192,131820,1,0,0:0:0:0:
192,192,131940,1,0,0:0:0:0:
64,192,132060,1,0,0:0:0:0:
320,192,132060,1,0,0:0:0:0:
448,192,132060,1,0,0:0:0:0:
192,192,132180,1,0,0:0:0:0:
448,192,132180,1,0,0:0:0:0:
64,192,132300,1,0,0:0:0:0:
192,192,132300,1,0,0:0:0:0:
320,192,132300,1,0,0:0:0:0:
448,192,132420,1,0,0:0:0:0:
320,192,132420,1,0,0:0:0:0:
64,192,132420,1,0,0:0:0:0:
192,192,132540,1,0,0:0:0:0:
320,192,132660,1,0,0:0:0:0:
192,192,132660,1,0,0:0:0:0:
192,192,132780,1,0,0:0:0:0:
448,192,132900,1,0,0:0:0:0:
320,192,132900,1,0,0:0:0:0:
448,192,133020,1,0,0:0:0:0:
64,192,133020,1,0,0:0:0:0:
192,192,133020,1,0,0:0:0:0:
320,192,133140,1,0,0:0:0:0:
320,192,133260,1,0,0:0:0:0:
192,192,133260,1,0,0:0:0:0:
64,192,133380,1,0,0:0:0:0:
192,192,133500,1,0,0:0:0:0:
448,192,133500,1,0,0:0:0:0:
320,192,133620,1,0,0:0:0:0:
192,192,133740,1,0,0:0:0:0:
64,192,133740,1,0,0:0:0:0:
192,192,133860,1,0,0:0:0:0:
320,192,133980,1,0,0:0:0:0:
448,192,133980,1,0,0:0:0:0:
64,192,133980,1,0,0:0:0:0:
320,192,134100,1,0,0:0:0:0:
320,192,134220,1,0,0:0:0:0:
192,192,134220,1,0,0:0:0:0:
448,192,134340,1,0,0:0:0:0:
448,192,134460,1,0,0:0:0:0:
192,192,134460,1,0,0:0:0:0:
64,192,134460,1,0,0:0:0:0:
320,192,134580,1,0,0:0:0:0:
320,192,134700,1,0,0:0:0:0:
192,192,134700,1,0,0:0:0:0:
192,192,134820,1,0,0:0:0:0:
448,192,134940,1,0,0:0:0:0:
64,192,134940,1,0,0:0:0:0:
320,192,135060,1,0,0:0:0:0:
448,192,135180,1,0,0:0:0:0:
320,192,135180,1,0,0:0:0:0:
192,192,135300,1,0,0:0:0:0:
192,192,135420,1,0,0:0:0:0:
64,192,135420,1,0,0:0:0:0:
320,192,135420,1,0,0:0:0:0:
320,192,135540,1,0,0:0:0:0:
320,192,135660,1,0,0:0:0:0:
192,192,135660,1,0,0:0:0:0:
448,192,135780,1,0,0:0:0:0:
320,192,135900,1,0,0:0:0:0:
64,192,135900,1,0,0:0:0:0:
192,192,136020,1,0,0:0:0:0:
448,192,136020,1,0,0:0:0:0:
320,192,136140,1,0,0:0:0:0:
64,192,136140,1,0,0:0:0:0:
192,192,136260,1,0,0:0:0:0:
448,192,136260,1,0,0:0:0:0:
320,192,136380,1,0,0:0:0:0:
64,192,136380,1,0,0:0:0:0:
192,192,136500,1,0,0:0:0:0:
448,192,136500,1,0,0:0:0:0:
320,192,136620,1,0,0:0:0:0:
64,192,136620,1,0,0:0:0:0:
192,192,136620,1,0,0:0:0:0:
320,192,136740,1,0,0:0:0:0:
448,192,136860,1,0,0:0:0:0:
192,192,136860,1,0,0:0:0:0:
64,192,136980,1,0,0:0:0:0:
320,192,137100,1,0,0:0:0:0:
448,192,137100,1,0,0:0:0:0:
64,192,137100,1,0,0:0:0:0:
320,192,137220,1,0,0:0:0:0:
192,192,137340,1,0,0:0:0:0:
448,192,137340,1,0,0:0:0:0:
64,192,137340,1,0,0:0:0:0:
192,192,137460,1,0,0:0:0:0:
320,192,137580,1,0,0:0:0:0:
448,192,137580,1,0,0:0:0:0:
320,192,137700,1,0,0:0:0:0:
192,192,137820,1,0,0:0:0:0:
64,192,137820,1,0,0:0:0:0:
64,192,137940,1,0,0:0:0:0:
320,192,138060,1,0,0:0:0:0:
448,192,138060,1,0,0:0:0:0:
320,192,138180,1,0,0:0:0:0:
192,192,138300,1,0,0:0:0:0:
64,192,138300,1,0,0:0:0:0:
320,192,138300,1,0,0:0:0:0:
192,192,138420,1,0,0:0:0:0:
320,192,138540,1,0,0:0:0:0:
64,192,138540,1,0,0:0:0:0:
192,192,138660,1,0,0:0:0:0:
64,192,138660,1,0,0:0:0:0:
64,192,138780,1,0,0:0:0:0:
192,192,138780,1,0,0:0:0:0:
64,192,138900,1,0,0:0:0:0:
192,192,138900,1,0,0:0:0:0:
64,192,139020,1,0,0:0:0:0:
192,192,139020,1,0,0:0:0:0:
192,192,139140,1,0,0:0:0:0:
64,192,139140,1,0,0:0:0:0:
320,192,139260,1,0,0:0:0:0:
192,192,139260,1,0,0:0:0:0:
320,192,139380,1,0,0:0:0:0:
448,192,139500,1,0,0:0:0:0:
192,192,139500,1,0,0:0:0:0:
64,192,139500,1,0,0:0:0:0:
192,192,139620,1,0,0:0:0:0:
320,192,139740,1,0,0:0:0:0:
64,192,139740,1,0,0:0:0:0:
320,192,139860,1,0,0:0:0:0:
192,192,139980,1,0,0:0:0:0:
64,192,139980,1,0,0:0:0:0:
448,192,139980,1,0,0:0:0:0:
320,192,140100,1,0,0:0:0:0:
192,192,140220,1,0,0:0:0:0:
64,192,140220,1,0,0:0:0:0:
320,192,140220,1,0,0:0:0:0:
448,192,140220,1,0,0:0:0:0:
448,192,140460,128,0,140700:0:0:0:0:
192,192,140460,1,0,0:0:0:0:
64,192,140460,1,0,0:0:0:0:
320,192,140700,1,0,0:0:0:0:
192,192,140700,1,0,0:0:0:0:
64,192,140820,1,0,0:0:0:0:
192,192,140820,1,0,0:0:0:0:
192,192,140940,1,0,0:0:0:0:
320,192,140940,1,0,0:0:0:0:
448,192,140940,1,0,0:0:0:0:
320,192,141060,1,0,0:0:0:0:
192,192,141180,1,0,0:0:0:0:
448,192,141180,1,0,0:0:0:0:
64,192,141300,1,0,0:0:0:0:
192,192,141300,1,0,0:0:0:0:
320,192,141300,1,0,0:0:0:0:
192,192,141420,1,0,0:0:0:0:
448,192,141420,1,0,0:0:0:0:
64,192,141420,1,0,0:0:0:0:
192,192,141540,1,0,0:0:0:0:
320,192,141660,1,0,0:0:0:0:
448,192,141660,1,0,0:0:0:0:
64,192,141780,1,0,0:0:0:0:
192,192,141780,1,0,0:0:0:0:
448,192,141900,1,0,0:0:0:0:
192,192,141900,1,0,0:0:0:0:
320,192,141900,1,0,0:0:0:0:
192,192,142020,1,0,0:0:0:0:
64,192,142020,1,0,0:0:0:0:
320,192,142140,1,0,0:0:0:0:
320,192,142260,1,0,0:0:0:0:
448,192,142260,1,0,0:0:0:0:
64,192,142260,1,0,0:0:0:0:
192,192,142380,1,0,0:0:0:0:
64,192,142380,1,0,0:0:0:0:
320,192,142440,1,0,0:0:0:0:
448,192,142440,1,0,0:0:0:0:
192,192,142500,1,0,0:0:0:0:
64,192,142500,1,0,0:0:0:0:
320,192,142560,1,0,0:0:0:0:
448,192,142560,1,0,0:0:0:0:
192,192,142620,1,0,0:0:0:0:
64,192,142620,1,0,0:0:0:0:
320,192,142740,1,0,0:0:0:0:
192,192,142740,1,0,0:0:0:0:
448,192,142860,1,0,0:0:0:0:
192,192,142860,1,0,0:0:0:0:
320,192,142980,1,0,0:0:0:0:
64,192,142980,1,0,0:0:0:0:
192,192,142980,1,0,0:0:0:0:
320,192,143100,1,0,0:0:0:0:
448,192,143100,1,0,0:0:0:0:
192,192,143220,1,0,0:0:0:0:
64,192,143340,1,0,0:0:0:0:
320,192,143340,1,0,0:0:0:0:
448,192,143340,1,0,0:0:0:0:
320,192,143460,1,0,0:0:0:0:
192,192,143580,1,0,0:0:0:0:
64,192,143580,1,0,0:0:0:0:
320,192,143640,1,0,0:0:0:0:
448,192,143640,1,0,0:0:0:0:
192,192,143700,1,0,0:0:0:0:
64,192,143700,1,0,0:0:0:0:
192,192,143820,1,0,0:0:0:0:
448,192,143820,1,0,0:0:0:0:
320,192,143940,1,0,0:0:0:0:
448,192,143940,1,0,0:0:0:0:
64,192,144060,1,0,0:0:0:0:
192,192,144180,1,0,0:0:0:0:
448,192,144180,1,0,0:0:0:0:
192,192,144300,1,0,0:0:0:0:
64,192,144300,1,0,0:0:0:0:
320,192,144360,1,0,0:0:0:0:
448,192,144360,1,0,0:0:0:0:
192,192,144420,1,0,0:0:0:0:
64,192,144420,1,0,0:0:0:0:
320,192,144480,1,0,0:0:0:0:
448,192,144480,1,0,0:0:0:0:
192,192,144540,1,0,0:0:0:0:
64,192,144540,1,0,0:0:0:0:
320,192,144660,1,0,0:0:0:0:
448,192,144660,1,0,0:0:0:0:
192,192,144660,1,0,0:0:0:0:
192,192,144780,1,0,0:0:0:0:
320,192,144900,1,0,0:0:0:0:
448,192,144900,1,0,0:0:0:0:
64,192,144900,1,0,0:0:0:0:
192,192,145020,1,0,0:0:0:0:
320,192,145020,1,0,0:0:0:0:
320,192,145140,1,0,0:0:0:0:
64,192,145140,1,0,0:0:0:0:
448,192,145260,1,0,0:0:0:0:
192,192,145260,1,0,0:0:0:0:
64,192,145260,1,0,0:0:0:0:
192,192,145380,1,0,0:0:0:0:
448,192,145380,1,0,0:0:0:0:
320,192,145380,1,0,0:0:0:0:
64,192,145500,1,0,0:0:0:0:
448,192,145500,1,0,0:0:0:0:
320,192,145500,1,0,0:0:0:0:
192,192,145620,1,0,0:0:0:0:
448,192,145740,1,0,0:0:0:0:
64,192,145740,1,0,0:0:0:0:
192,192,145740,1,0,0:0:0:0:
320,192,145860,1,0,0:0:0:0:
64,192,145980,1,0,0:0:0:0:
320,192,145980,1,0,0:0:0:0:
448,192,145980,1,0,0:0:0:0:
320,192,146100,1,0,0:0:0:0:
192,192,146220,1,0,0:0:0:0:
64,192,146220,1,0,0:0:0:0:
320,192,146280,1,0,0:0:0:0:
448,192,146280,1,0,0:0:0:0:
192,192,146340,1,0,0:0:0:0:
64,192,146340,1,0,0:0:0:0:
320,192,146400,1,0,0:0:0:0:
448,192,146400,1,0,0:0:0:0:
192,192,146460,1,0,0:0:0:0:
64,192,146460,1,0,0:0:0:0:
320,192,146580,1,0,0:0:0:0:
448,192,146580,1,0,0:0:0:0:
192,192,146700,1,0,0:0:0:0:
64,192,146700,1,0,0:0:0:0:
320,192,146700,1,0,0:0:0:0:
192,192,146820,1,0,0:0:0:0:
64,192,146940,1,0,0:0:0:0:
448,192,146940,1,0,0:0:0:0:
320,192,147060,1,0,0:0:0:0:
64,192,147180,1,0,0:0:0:0:
320,192,147180,1,0,0:0:0:0:
448,192,147180,1,0,0:0:0:0:
192,192,147300,1,0,0:0:0:0:
448,192,147420,1,0,0:0:0:0:
320,192,147480,1,0,0:0:0:0:
192,192,147540,1,0,0:0:0:0:
320,192,147600,1,0,0:0:0:0:
448,192,147660,1,0,0:0:0:0:
64,192,147660,1,0,0:0:0:0:
192,192,147720,1,0,0:0:0:0:
320,192,147780,1,0,0:0:0:0:
192,192,147840,1,0,0:0:0:0:
64,192,147900,1,0,0:0:0:0:
320,192,147900,1,0,0:0:0:0:
448,192,147900,1,0,0:0:0:0:
192,192,147960,1,0,0:0:0:0:
320,192,148020,1,0,0:0:0:0:
448,192,148080,1,0,0:0:0:0:
320,192,148140,1,0,0:0:0:0:
64,192,148140,1,0,0:0:0:0:
192,192,148200,1,0,0:0:0:0:
64,192,148260,1,0,0:0:0:0:
192,192,148320,1,0,0:0:0:0:
320,192,148380,1,0,0:0:0:0:
448,192,148380,1,0,0:0:0:0:
192,192,148500,1,0,0:0:0:0:
192,192,148620,1,0,0:0:0:0:
448,192,148620,1,0,0:0:0:0:
320,192,148620,1,0,0:0:0:0:
320,192,148740,1,0,0:0:0:0:
192,192,148860,1,0,0:0:0:0:
64,192,148860,1,0,0:0:0:0:
320,192,148860,1,0,0:0:0:0:
192,192,148980,1,0,0:0:0:0:
192,192,149100,1,0,0:0:0:0:
320,192,149100,1,0,0:0:0:0:
320,192,149220,1,0,0:0:0:0:
64,192,149340,1,0,0:0:0:0:
192,192,149340,1,0,0:0:0:0:
448,192,149340,1,0,0:0:0:0:
320,192,149460,1,0,0:0:0:0:
448,192,149460,1,0,0:0:0:0:
192,192,149580,1,0,0:0:0:0:
64,192,149580,1,0,0:0:0:0:
320,192,149580,1,0,0:0:0:0:
320,192,149700,1,0,0:0:0:0:
64,192,149700,1,0,0:0:0:0:
448,192,149700,1,0,0:0:0:0:
192,192,149820,128,0,150300:0:0:0:0:
320,192,149820,1,0,0:0:0:0:
64,192,149820,1,0,0:0:0:0:
320,192,150060,1,0,0:0:0:0:
448,192,150060,1,0,0:0:0:0:
448,192,150300,1,0,0:0:0:0:
64,192,150300,1,0,0:0:0:0:
64,192,150420,1,0,0:0:0:0:
192,192,150420,1,0,0:0:0:0:
192,192,150540,1,0,0:0:0:0:
320,192,150540,1,0,0:0:0:0:
448,192,150540,1,0,0:0:0:0:
320,192,150660,1,0,0:0:0:0:
192,192,150780,1,0,0:0:0:0:
448,192,150780,1,0,0:0:0:0:
64,192,150900,1,0,0:0:0:0:
192,192,150900,1,0,0:0:0:0:
320,192,150900,1,0,0:0:0:0:
192,192,151020,1,0,0:0:0:0:
448,192,151020,1,0,0:0:0:0:
64,192,151020,1,0,0:0:0:0:
192,192,151140,1,0,0:0:0:0:
320,192,151260,1,0,0:0:0:0:
448,192,151260,1,0,0:0:0:0:
64,192,151380,1,0,0:0:0:0:
192,192,151380,1,0,0:0:0:0:
448,192,151500,1,0,0:0:0:0:
192,192,151500,1,0,0:0:0:0:
320,192,151500,1,0,0:0:0:0:
192,192,151620,1,0,0:0:0:0:
64,192,151620,1,0,0:0:0:0:
320,192,151740,1,0,0:0:0:0:
320,192,151860,1,0,0:0:0:0:
448,192,151860,1,0,0:0:0:0:
64,192,151860,1,0,0:0:0:0:
192,192,151980,1,0,0:0:0:0:
64,192,151980,1,0,0:0:0:0:
320,192,152040,1,0,0:0:0:0:
448,192,152040,1,0,0:0:0:0:
192,192,152100,1,0,0:0:0:0:
64,192,152100,1,0,0:0:0:0:
320,192,152160,1,0,0:0:0:0:
448,192,152160,1,0,0:0:0:0:
192,192,152220,1,0,0:0:0:0:
64,192,152220,1,0,0:0:0:0:
320,192,152340,1,0,0:0:0:0:
192,192,152340,1,0,0:0:0:0:
448,192,152460,1,0,0:0:0:0:
192,192,152460,1,0,0:0:0:0:
320,192,152580,1,0,0:0:0:0:
64,192,152580,1,0,0:0:0:0:
192,192,152580,1,0,0:0:0:0:
320,192,152700,1,0,0:0:0:0:
448,192,152700,1,0,0:0:0:0:
192,192,152820,1,0,0:0:0:0:
64,192,152940,1,0,0:0:0:0:
320,192,152940,1,0,0:0:0:0:
448,192,152940,1,0,0:0:0:0:
320,192,153060,1,0,0:0:0:0:
192,192,153180,1,0,0:0:0:0:
64,192,153180,1,0,0:0:0:0:
320,192,153240,1,0,0:0:0:0:
448,192,153240,1,0,0:0:0:0:
192,192,153300,1,0,0:0:0:0:
64,192,153300,1,0,0:0:0:0:
192,192,153420,1,0,0:0:0:0:
448,192,153420,1,0,0:0:0:0:
320,192,153540,1,0,0:0:0:0:
448,192,153540,1,0,0:0:0:0:
64,192,153660,1,0,0:0:0:0:
192,192,153780,1,0,0:0:0:0:
448,192,153780,1,0,0:0:0:0:
192,192,153900,1,0,0:0:0:0:
64,192,153900,1,0,0:0:0:0:
320,192,153960,1,0,0:0:0:0:
448,192,153960,1,0,0:0:0:0:
192,192,154020,1,0,0:0:0:0:
64,192,154020,1,0,0:0:0:0:
320,192,154080,1,0,0:0:0:0:
448,192,154080,1,0,0:0:0:0:
192,192,154140,1,0,0:0:0:0:
64,192,154140,1,0,0:0:0:0:
448,192,154200,1,0,0:0:0:0:
320,192,154260,1,0,0:0:0:0:
192,192,154320,1,0,0:0:0:0:
64,192,154320,1,0,0:0:0:0:
320,192,154380,1,0,0:0:0:0:
448,192,154440,1,0,0:0:0:0:
320,192,154500,1,0,0:0:0:0:
64,192,154500,1,0,0:0:0:0:
192,192,154500,1,0,0:0:0:0:
448,192,154560,1,0,0:0:0:0:
320,192,154620,1,0,0:0:0:0:
192,192,154680,1,0,0:0:0:0:
64,192,154740,1,0,0:0:0:0:
320,192,154740,1,0,0:0:0:0:
448,192,154740,1,0,0:0:0:0:
448,192,154860,1,0,0:0:0:0:
192,192,154860,1,0,0:0:0:0:
64,192,154860,1,0,0:0:0:0:
192,192,154980,1,0,0:0:0:0:
448,192,154980,1,0,0:0:0:0:
320,192,154980,1,0,0:0:0:0:
448,192,155100,1,0,0:0:0:0:
320,192,155100,1,0,0:0:0:0:
64,192,155160,1,0,0:0:0:0:
192,192,155160,1,0,0:0:0:0:
320,192,155220,1,0,0:0:0:0:
448,192,155220,1,0,0:0:0:0:
64,192,155280,1,0,0:0:0:0:
192,192,155280,1,0,0:0:0:0:
320,192,155340,1,0,0:0:0:0:
448,192,155340,1,0,0:0:0:0:
320,192,155460,1,0,0:0:0:0:
192,192,155460,1,0,0:0:0:0:
64,192,155460,1,0,0:0:0:0:
320,192,155580,1,0,0:0:0:0:
448,192,155580,1,0,0:0:0:0:
64,192,155640,1,0,0:0:0:0:
192,192,155640,1,0,0:0:0:0:
320,192,155700,1,0,0:0:0:0:
448,192,155700,1,0,0:0:0:0:
192,192,155760,1,0,0:0:0:0:
64,192,155760,1,0,0:0:0:0:
320,192,155820,1,0,0:0:0:0:
448,192,155880,1,0,0:0:0:0:
64,192,155880,1,0,0:0:0:0:
192,192,155940,1,0,0:0:0:0:
320,192,156000,1,0,0:0:0:0:
192,192,156060,1,0,0:0:0:0:
64,192,156060,1,0,0:0:0:0:
448,192,156060,128,0,157020:0:0:0:0:
64,192,156300,1,0,0:0:0:0:
64,192,156540,1,0,0:0:0:0:
64,192,156780,1,0,0:0:0:0:
64,192,157020,1,0,0:0:0:0:
64,192,157260,1,0,0:0:0:0:
64,192,157500,1,0,0:0:0:0:
320,192,157740,128,0,157980:0:0:0:0:
192,192,157740,1,0,0:0:0:0:
64,192,157740,1,0,0:0:0:0:
192,192,157980,1,0,0:0:0:0:
448,192,157980,1,0,0:0:0:0:
64,192,157980,128,0,158220:0:0:0:0:
448,192,158220,1,0,0:0:0:0:
448,192,158460,1,0,0:0:0:0:
448,192,158700,1,0,0:0:0:0:
192,192,158940,1,0,0:0:0:0:
64,192,158940,1,0,0:0:0:0:
320,192,158940,128,0,159420:0:0:0:0:
448,192,158940,1,0,0:0:0:0:
448,192,159180,1,0,0:0:0:0:
64,192,159420,128,0,159900:0:0:0:0:
192,192,159420,1,0,0:0:0:0:
448,192,159420,1,0,0:0:0:0:
448,192,159660,1,0,0:0:0:0:
448,192,159900,128,0,160140:0:0:0:0:
320,192,159900,1,0,0:0:0:0:
192,192,159900,1,0,0:0:0:0:
64,192,160140,1,0,0:0:0:0:
64,192,160380,1,0,0:0:0:0:
64,192,160620,1,0,0:0:0:0:
64,192,160860,1,0,0:0:0:0:
64,192,161100,1,0,0:0:0:0:
64,192,161340,1,0,0:0:0:0:
320,192,161580,128,0,161820:0:0:0:0:
448,192,161580,1,0,0:0:0:0:
192,192,161580,1,0,0:0:0:0:
64,192,161820,1,0,0:0:0:0:
192,192,161820,128,0,162660:0:0:0:0:
320,192,162060,1,0,0:0:0:0:
320,192,162300,1,0,0:0:0:0:
320,192,162540,1,0,0:0:0:0:
64,192,162660,128,0,163260:0:0:0:0:
320,192,162780,1,0,0:0:0:0:
320,192,163020,1,0,0:0:0:0:
320,192,163260,128,0,163740:0:0:0:0:
448,192,163260,1,0,0:0:0:0:
448,192,163500,1,0,0:0:0:0:
64,192,163740,1,0,0:0:0:0:
192,192,163740,1,0,0:0:0:0:
448,192,163740,1,0,0:0:0:0:
448,192,163860,128,0,164040:0:0:0:0:
64,192,164100,1,0,0:0:0:0:
192,192,164100,1,0,0:0:0:0:
64,192,164340,1,0,0:0:0:0:
192,192,164340,1,0,0:0:0:0:
320,192,164340,128,0,164580:0:0:0:0:
192,192,164700,1,0,0:0:0:0:
64,192,164700,1,0,0:0:0:0:
448,192,164700,128,0,164940:0:0:0:0:
192,192,165060,1,0,0:0:0:0:
320,192,165060,1,0,0:0:0:0:
192,192,165300,1,0,0:0:0:0:
320,192,165300,1,0,0:0:0:0:
64,192,165300,128,0,165540:0:0:0:0:
320,192,165540,1,0,0:0:0:0:
448,192,165540,1,0,0:0:0:0:
448,192,165660,1,0,0:0:0:0:
320,192,165660,128,0,165900:0:0:0:0:
192,192,165660,1,0,0:0:0:0:
192,192,166020,1,0,0:0:0:0:
448,192,166020,1,0,0:0:0:0:
64,192,166020,1,0,0:0:0:0:
64,192,166260,1,0,0:0:0:0:
192,192,166260,128,0,166500:0:0:0:0:
448,192,166260,1,0,0:0:0:0:
320,192,166500,1,0,0:0:0:0:
448,192,166500,1,0,0:0:0:0:
320,192,166620,1,0,0:0:0:0:
448,192,166620,1,0,0:0:0:0:
64,192,166620,1,0,0:0:0:0:
320,192,166740,128,0,166860:0:0:0:0:
64,192,166860,1,0,0:0:0:0:
448,192,166860,1,0,0:0:0:0:
192,192,166980,128,0,167100:0:0:0:0:
320,192,167100,1,0,0:0:0:0:
448,192,167100,1,0,0:0:0:0:
320,192,167220,128,0,167340:0:0:0:0:
64,192,167340,1,0,0:0:0:0:
448,192,167340,1,0,0:0:0:0:
64,192,167460,128,0,167580:0:0:0:0:
192,192,167580,1,0,0:0:0:0:
320,192,167580,1,0,0:0:0:0:
320,192,168060,1,0,0:0:0:0:
448,192,168060,1,0,0:0:0:0:
192,192,168060,128,0,168300:0:0:0:0:
192,192,168540,1,0,0:0:0:0:
64,192,168540,1,0,0:0:0:0:
448,192,168540,128,0,168780:0:0:0:0:
192,192,168900,1,0,0:0:0:0:
64,192,168900,1,0,0:0:0:0:
320,192,169020,1,0,0:0:0:0:
448,192,169020,1,0,0:0:0:0:
192,192,169020,128,0,169260:0:0:0:0:
320,192,169260,128,0,169500:0:0:0:0:
448,192,169260,1,0,0:0:0:0:
192,192,169500,1,0,0:0:0:0:
320,192,169620,1,0,0:0:0:0:
448,192,169620,1,0,0:0:0:0:
64,192,169680,1,0,0:0:0:0:
192,192,169680,1,0,0:0:0:0:
320,192,169740,1,0,0:0:0:0:
448,192,169740,1,0,0:0:0:0:
192,192,169800,1,0,0:0:0:0:
64,192,169800,1,0,0:0:0:0:
320,192,169860,1,0,0:0:0:0:
448,192,169860,1,0,0:0:0:0:
192,192,169920,1,0,0:0:0:0:
64,192,169920,1,0,0:0:0:0:
448,192,169980,1,0,0:0:0:0:
320,192,169980,1,0,0:0:0:0:
192,192,170040,1,0,0:0:0:0:
64,192,170040,1,0,0:0:0:0:
320,192,170100,1,0,0:0:0:0:
448,192,170100,1,0,0:0:0:0:
192,192,170160,1,0,0:0:0:0:
64,192,170160,1,0,0:0:0:0:
320,192,170220,1,0,0:0:0:0:
448,192,170220,1,0,0:0:0:0:
192,192,170280,1,0,0:0:0:0:
64,192,170280,1,0,0:0:0:0:
448,192,170340,1,0,0:0:0:0:
320,192,170340,1,0,0:0:0:0:
192,192,170400,1,0,0:0:0:0:
64,192,170400,1,0,0:0:0:0:
320,192,170460,1,0,0:0:0:0:
448,192,170460,1,0,0:0:0:0:
192,192,170520,1,0,0:0:0:0:
64,192,170520,1,0,0:0:0:0:
320,192,170580,1,0,0:0:0:0:
448,192,170580,1,0,0:0:0:0:
192,192,170640,1,0,0:0:0:0:
64,192,170640,1,0,0:0:0:0:
320,192,170700,1,0,0:0:0:0:
448,192,170700,1,0,0:0:0:0:
192,192,170760,1,0,0:0:0:0:
64,192,170760,1,0,0:0:0:0:
320,192,170820,1,0,0:0:0:0:
448,192,170820,1,0,0:0:0:0:
192,192,170880,1,0,0:0:0:0:
64,192,170880,1,0,0:0:0:0:
320,192,170940,1,0,0:0:0:0:
448,192,170940,1,0,0:0:0:0:
448,192,171180,128,0,171420:0:0:0:0:
320,192,171420,1,0,0:0:0:0:
192,192,171420,1,0,0:0:0:0:
192,192,171540,1,0,0:0:0:0:
64,192,171540,1,0,0:0:0:0:
448,192,171660,1,0,0:0:0:0:
320,192,171660,1,0,0:0:0:0:
64,192,171660,1,0,0:0:0:0:
192,192,171780,1,0,0:0:0:0:
448,192,171900,1,0,0:0:0:0:
192,192,171900,1,0,0:0:0:0:
64,192,171900,1,0,0:0:0:0:
320,192,172020,1,0,0:0:0:0:
320,192,172140,1,0,0:0:0:0:
448,192,172140,1,0,0:0:0:0:
64,192,172140,1,0,0:0:0:0:
192,192,172260,1,0,0:0:0:0:
64,192,172260,1,0,0:0:0:0:
320,192,172380,1,0,0:0:0:0:
448,192,172380,1,0,0:0:0:0:
192,192,172380,1,0,0:0:0:0:
320,192,172500,1,0,0:0:0:0:
64,192,172620,1,0,0:0:0:0:
448,192,172620,1,0,0:0:0:0:
192,192,172620,1,0,0:0:0:0:
192,192,172740,1,0,0:0:0:0:
64,192,172860,1,0,0:0:0:0:
448,192,172860,1,0,0:0:0:0:
320,192,172860,1,0,0:0:0:0:
64,192,172980,1,0,0:0:0:0:
192,192,172980,1,0,0:0:0:0:
320,192,173070,1,0,0:0:0:0:
448,192,173070,1,0,0:0:0:0:
64,192,173190,1,0,0:0:0:0:
192,192,173190,1,0,0:0:0:0:
320,192,173250,1,0,0:0:0:0:
448,192,173250,1,0,0:0:0:0:
192,192,173340,1,0,0:0:0:0:
64,192,173340,1,0,0:0:0:0:
320,192,173400,1,0,0:0:0:0:
448,192,173400,1,0,0:0:0:0:
192,192,173460,1,0,0:0:0:0:
64,192,173460,1,0,0:0:0:0:
320,192,173580,1,0,0:0:0:0:
192,192,173580,1,0,0:0:0:0:
448,192,173580,1,0,0:0:0:0:
64,192,173700,1,0,0:0:0:0:
192,192,173700,1,0,0:0:0:0:
448,192,173700,1,0,0:0:0:0:
320,192,173820,1,0,0:0:0:0:
192,192,173820,1,0,0:0:0:0:
64,192,173940,1,0,0:0:0:0:
192,192,174060,1,0,0:0:0:0:
320,192,174060,1,0,0:0:0:0:
320,192,174180,1,0,0:0:0:0:
448,192,174180,1,0,0:0:0:0:
64,192,174240,1,0,0:0:0:0:
192,192,174240,1,0,0:0:0:0:
448,192,174300,1,0,0:0:0:0:
320,192,174300,128,0,174540:0:0:0:0:
64,192,174420,128,0,174540:0:0:0:0:
192,192,174540,1,0,0:0:0:0:
448,192,174540,128,0,174780:0:0:0:0:
192,192,174660,128,0,174780:0:0:0:0:
64,192,174780,128,0,175020:0:0:0:0:
320,192,174780,1,0,0:0:0:0:
448,192,174900,128,0,175020:0:0:0:0:
320,192,175020,128,0,175260:0:0:0:0:
192,192,175260,1,0,0:0:0:0:
64,192,175260,1,0,0:0:0:0:
448,192,175380,1,0,0:0:0:0:
192,192,175380,1,0,0:0:0:0:
448,192,175500,1,0,0:0:0:0:
320,192,175500,1,0,0:0:0:0:
320,192,175620,1,0,0:0:0:0:
192,192,175620,1,0,0:0:0:0:
64,192,175620,1,0,0:0:0:0:
448,192,175740,1,0,0:0:0:0:
192,192,175740,1,0,0:0:0:0:
320,192,175860,1,0,0:0:0:0:
448,192,175860,1,0,0:0:0:0:
64,192,175860,1,0,0:0:0:0:
192,192,175980,1,0,0:0:0:0:
448,192,176100,1,0,0:0:0:0:
64,192,176100,1,0,0:0:0:0:
192,192,176100,1,0,0:0:0:0:
192,192,176220,1,0,0:0:0:0:
320,192,176220,1,0,0:0:0:0:
192,192,176340,1,0,0:0:0:0:
64,192,176340,1,0,0:0:0:0:
448,192,176340,1,0,0:0:0:0:
320,192,176460,1,0,0:0:0:0:
448,192,176460,1,0,0:0:0:0:
64,192,176460,1,0,0:0:0:0:
320,192,176580,1,0,0:0:0:0:
448,192,176580,1,0,0:0:0:0:
192,192,176580,1,0,0:0:0:0:
192,192,176700,1,0,0:0:0:0:
64,192,176700,1,0,0:0:0:0:
448,192,176820,1,0,0:0:0:0:
320,192,176820,1,0,0:0:0:0:
192,192,176940,1,0,0:0:0:0:
64,192,176940,1,0,0:0:0:0:
320,192,177000,1,0,0:0:0:0:
448,192,177000,1,0,0:0:0:0:
192,192,177060,1,0,0:0:0:0:
64,192,177060,1,0,0:0:0:0:
320,192,177120,1,0,0:0:0:0:
448,192,177120,1,0,0:0:0:0:
192,192,177180,1,0,0:0:0:0:
64,192,177180,1,0,0:0:0:0:
448,192,177300,1,0,0:0:0:0:
320,192,177300,1,0,0:0:0:0:
64,192,177300,1,0,0:0:0:0:
192,192,177420,1,0,0:0:0:0:
448,192,177540,1,0,0:0:0:0:
320,192,177540,1,0,0:0:0:0:
192,192,177660,1,0,0:0:0:0:
64,192,177660,1,0,0:0:0:0:
448,192,177660,1,0,0:0:0:0:
192,192,177780,1,0,0:0:0:0:
320,192,177780,1,0,0:0:0:0:
448,192,177900,1,0,0:0:0:0:
64,192,177900,1,0,0:0:0:0:
192,192,177960,1,0,0:0:0:0:
320,192,177960,1,0,0:0:0:0:
448,192,178020,1,0,0:0:0:0:
64,192,178020,1,0,0:0:0:0:
320,192,178140,128,0,178260:0:0:0:0:
64,192,178260,1,0,0:0:0:0:
192,192,178260,1,0,0:0:0:0:
320,192,178380,128,0,178500:0:0:0:0:
448,192,178500,1,0,0:0:0:0:
64,192,178500,1,0,0:0:0:0:
320,192,178620,1,0,0:0:0:0:
192,192,178620,128,0,178860:0:0:0:0:
320,192,178860,1,0,0:0:0:0:
64,192,178860,1,0,0:0:0:0:
320,192,178980,128,0,179100:0:0:0:0:
448,192,179100,1,0,0:0:0:0:
192,192,179100,1,0,0:0:0:0:
192,192,179220,1,0,0:0:0:0:
64,192,179220,1,0,0:0:0:0:
320,192,179340,1,0,0:0:0:0:
64,192,179460,1,0,0:0:0:0:
448,192,179460,1,0,0:0:0:0:
192,192,179460,1,0,0:0:0:0:
320,192,179580,1,0,0:0:0:0:
192,192,179580,1,0,0:0:0:0:
320,192,179700,1,0,0:0:0:0:
64,192,179700,1,0,0:0:0:0:
192,192,179820,1,0,0:0:0:0:
64,192,179820,1,0,0:0:0:0:
448,192,179820,1,0,0:0:0:0:
320,192,179940,1,0,0:0:0:0:
64,192,180060,1,0,0:0:0:0:
192,192,180060,1,0,0:0:0:0:
448,192,180060,1,0,0:0:0:0:
192,192,180180,1,0,0:0:0:0:
320,192,180180,1,0,0:0:0:0:
192,192,180300,1,0,0:0:0:0:
64,192,180300,1,0,0:0:0:0:
320,192,180300,1,0,0:0:0:0:
320,192,180420,1,0,0:0:0:0:
448,192,180420,1,0,0:0:0:0:
64,192,180420,1,0,0:0:0:0:
448,192,180540,1,0,0:0:0:0:
192,192,180540,1,0,0:0:0:0:
320,192,180660,1,0,0:0:0:0:
448,192,180660,1,0,0:0:0:0:
192,192,180780,1,0,0:0:0:0:
64,192,180780,1,0,0:0:0:0:
320,192,180840,1,0,0:0:0:0:
448,192,180840,1,0,0:0:0:0:
192,192,180900,1,0,0:0:0:0:
64,192,180900,1,0,0:0:0:0:
320,192,180960,1,0,0:0:0:0:
448,192,180960,1,0,0:0:0:0:
192,192,181020,1,0,0:0:0:0:
64,192,181020,1,0,0:0:0:0:
320,192,181140,1,0,0:0:0:0:
192,192,181140,1,0,0:0:0:0:
64,192,181260,1,0,0:0:0:0:
192,192,181260,1,0,0:0:0:0:
448,192,181260,1,0,0:0:0:0:
320,192,181380,1,0,0:0:0:0:
192,192,181380,1,0,0:0:0:0:
448,192,181500,1,0,0:0:0:0:
192,192,181500,1,0,0:0:0:0:
64,192,181620,1,0,0:0:0:0:
192,192,181620,1,0,0:0:0:0:
320,192,181620,1,0,0:0:0:0:
320,192,181740,1,0,0:0:0:0:
64,192,181740,1,0,0:0:0:0:
192,192,181800,1,0,0:0:0:0:
448,192,181800,1,0,0:0:0:0:
320,192,181860,1,0,0:0:0:0:
64,192,181860,1,0,0:0:0:0:
192,192,181920,1,0,0:0:0:0:
448,192,181920,1,0,0:0:0:0:
320,192,181980,1,0,0:0:0:0:
64,192,181980,1,0,0:0:0:0:
192,192,182100,128,0,182220:0:0:0:0:
320,192,182220,1,0,0:0:0:0:
448,192,182220,1,0,0:0:0:0:
320,192,182340,128,0,182460:0:0:0:0:
192,192,182460,1,0,0:0:0:0:
64,192,182460,1,0,0:0:0:0:
64,192,182580,128,0,182700:0:0:0:0:
448,192,182700,1,0,0:0:0:0:
320,192,182700,1,0,0:0:0:0:
192,192,182820,128,0,182940:0:0:0:0:
64,192,182940,1,0,0:0:0:0:
448,192,182940,1,0,0:0:0:0:
320,192,183060,1,0,0:0:0:0:
192,192,183060,1,0,0:0:0:0:
64,192,183180,1,0,0:0:0:0:
192,192,183180,1,0,0:0:0:0:
448,192,183180,1,0,0:0:0:0:
320,192,183300,1,0,0:0:0:0:
64,192,183420,1,0,0:0:0:0:
320,192,183420,1,0,0:0:0:0:
192,192,183540,1,0,0:0:0:0:
448,192,183540,1,0,0:0:0:0:
64,192,183540,1,0,0:0:0:0:
448,192,183660,1,0,0:0:0:0:
320,192,183660,1,0,0:0:0:0:
64,192,183660,1,0,0:0:0:0:
64,192,183780,1,0,0:0:0:0:
192,192,183780,1,0,0:0:0:0:
448,192,183900,1,0,0:0:0:0:
320,192,183900,1,0,0:0:0:0:
448,192,184020,1,0,0:0:0:0:
64,192,184020,1,0,0:0:0:0:
64,192,184140,1,0,0:0:0:0:
192,192,184140,1,0,0:0:0:0:
320,192,184140,1,0,0:0:0:0:
192,192,184260,1,0,0:0:0:0:
448,192,184260,1,0,0:0:0:0:
448,192,184380,1,0,0:0:0:0:
320,192,184380,1,0,0:0:0:0:
192,192,184500,1,0,0:0:0:0:
320,192,184620,1,0,0:0:0:0:
448,192,184620,1,0,0:0:0:0:
64,192,184680,1,0,0:0:0:0:
192,192,184680,1,0,0:0:0:0:
320,192,184740,1,0,0:0:0:0:
448,192,184740,1,0,0:0:0:0:
192,192,184800,1,0,0:0:0:0:
64,192,184800,1,0,0:0:0:0:
320,192,184860,1,0,0:0:0:0:
448,192,184860,1,0,0:0:0:0:
64,192,184980,1,0,0:0:0:0:
192,192,184980,1,0,0:0:0:0:
448,192,184980,1,0,0:0:0:0:
320,192,185100,1,0,0:0:0:0:
64,192,185220,1,0,0:0:0:0:
448,192,185220,1,0,0:0:0:0:
320,192,185220,1,0,0:0:0:0:
192,192,185340,1,0,0:0:0:0:
192,192,185460,1,0,0:0:0:0:
320,192,185460,1,0,0:0:0:0:
448,192,185460,1,0,0:0:0:0:
64,192,185580,1,0,0:0:0:0:
192,192,185580,1,0,0:0:0:0:
320,192,185640,1,0,0:0:0:0:
448,192,185640,1,0,0:0:0:0:
192,192,185700,1,0,0:0:0:0:
64,192,185700,1,0,0:0:0:0:
448,192,185820,1,0,0:0:0:0:
64,192,185820,1,0,0:0:0:0:
320,192,185880,1,0,0:0:0:0:
192,192,185940,1,0,0:0:0:0:
64,192,186000,1,0,0:0:0:0:
320,192,186000,1,0,0:0:0:0:
448,192,186060,1,0,0:0:0:0:
320,192,186120,1,0,0:0:0:0:
448,192,186180,1,0,0:0:0:0:
192,192,186180,1,0,0:0:0:0:
64,192,186240,1,0,0:0:0:0:
320,192,186300,1,0,0:0:0:0:
448,192,186300,1,0,0:0:0:0:
192,192,186300,1,0,0:0:0:0:
192,192,186540,1,0,0:0:0:0:
320,192,186540,1,0,0:0:0:0:
448,192,186540,1,0,0:0:0:0:
64,192,186780,1,0,0:0:0:0:
192,192,186780,1,0,0:0:0:0:
320,192,186780,1,0,0:0:0:0:
448,192,186900,128,0,187020:0:0:0:0:
320,192,187020,1,0,0:0:0:0:
192,192,187020,1,0,0:0:0:0:
192,192,187140,128,0,187260:0:0:0:0:
448,192,187260,1,0,0:0:0:0:
64,192,187260,1,0,0:0:0:0:
448,192,187380,128,0,187500:0:0:0:0:
320,192,187500,1,0,0:0:0:0:
64,192,187500,1,0,0:0:0:0:
192,192,187500,1,0,0:0:0:0:
448,192,187620,1,0,0:0:0:0:
320,192,187620,1,0,0:0:0:0:
64,192,187740,1,0,0:0:0:0:
320,192,187740,1,0,0:0:0:0:
192,192,187860,128,0,187980:0:0:0:0:
64,192,187980,1,0,0:0:0:0:
320,192,187980,1,0,0:0:0:0:
448,192,187980,1,0,0:0:0:0:
64,192,188100,1,0,0:0:0:0:
192,192,188100,1,0,0:0:0:0:
320,192,188220,1,0,0:0:0:0:
448,192,188220,1,0,0:0:0:0:
64,192,188340,1,0,0:0:0:0:
192,192,188340,1,0,0:0:0:0:
320,192,188460,1,0,0:0:0:0:
192,192,188460,1,0,0:0:0:0:
64,192,188460,1,0,0:0:0:0:
320,192,188580,128,0,188700:0:0:0:0:
64,192,188700,1,0,0:0:0:0:
448,192,188700,1,0,0:0:0:0:
448,192,188820,128,0,188940:0:0:0:0:
64,192,188940,1,0,0:0:0:0:
192,192,188940,1,0,0:0:0:0:
192,192,189060,128,0,189180:0:0:0:0:
64,192,189180,1,0,0:0:0:0:
448,192,189180,1,0,0:0:0:0:
320,192,189300,1,0,0:0:0:0:
192,192,189300,1,0,0:0:0:0:
64,192,189420,1,0,0:0:0:0:
320,192,189420,1,0,0:0:0:0:
192,192,189540,1,0,0:0:0:0:
448,192,189540,1,0,0:0:0:0:
320,192,189660,1,0,0:0:0:0:
64,192,189660,1,0,0:0:0:0:
448,192,189660,1,0,0:0:0:0:
320,192,189780,128,0,189900:0:0:0:0:
192,192,189900,1,0,0:0:0:0:
448,192,189900,1,0,0:0:0:0:
192,192,190020,128,0,190140:0:0:0:0:
320,192,190140,1,0,0:0:0:0:
448,192,190140,1,0,0:0:0:0:
320,192,190260,128,0,190380:0:0:0:0:
192,192,190380,1,0,0:0:0:0:
64,192,190380,1,0,0:0:0:0:
192,192,190500,128,0,190620:0:0:0:0:
448,192,190620,1,0,0:0:0:0:
64,192,190620,1,0,0:0:0:0:
448,192,190740,128,0,190860:0:0:0:0:
64,192,190860,1,0,0:0:0:0:
320,192,190860,1,0,0:0:0:0:
64,192,190980,128,0,191100:0:0:0:0:
192,192,191100,1,0,0:0:0:0:
320,192,191100,1,0,0:0:0:0:
320,192,191220,128,0,191340:0:0:0:0:
192,192,191340,1,0,0:0:0:0:
64,192,191340,1,0,0:0:0:0:
448,192,191340,1,0,0:0:0:0:
192,192,191460,1,0,0:0:0:0:
448,192,191460,1,0,0:0:0:0:
64,192,191580,1,0,0:0:0:0:
320,192,191580,1,0,0:0:0:0:
192,192,191580,1,0,0:0:0:0:
320,192,191700,128,0,191820:0:0:0:0:
192,192,191820,1,0,0:0:0:0:
448,192,191820,1,0,0:0:0:0:
192,192,191940,1,0,0:0:0:0:
64,192,191940,1,0,0:0:0:0:
448,192,191940,1,0,0:0:0:0:
320,192,192060,1,0,0:0:0:0:
192,192,192060,1,0,0:0:0:0:
192,192,192180,128,0,192300:0:0:0:0:
320,192,192300,1,0,0:0:0:0:
64,192,192300,1,0,0:0:0:0:
448,192,192300,1,0,0:0:0:0:
192,192,192420,1,0,0:0:0:0:
448,192,192540,1,0,0:0:0:0:
64,192,192540,1,0,0:0:0:0:
192,192,192540,1,0,0:0:0:0:
320,192,192660,128,0,192780:0:0:0:0:
64,192,192780,1,0,0:0:0:0:
448,192,192780,1,0,0:0:0:0:
192,192,192900,128,0,193020:0:0:0:0:
320,192,193020,1,0,0:0:0:0:
448,192,193020,1,0,0:0:0:0:
192,192,193140,1,0,0:0:0:0:
320,192,193140,1,0,0:0:0:0:
192,192,193260,1,0,0:0:0:0:
64,192,193260,1,0,0:0:0:0:
320,192,193380,1,0,0:0:0:0:
448,192,193380,1,0,0:0:0:0:
192,192,193500,128,0,193620:0:0:0:0:
320,192,193620,1,0,0:0:0:0:
448,192,193620,1,0,0:0:0:0:
320,192,193740,128,0,193860:0:0:0:0:
64,192,193860,1,0,0:0:0:0:
448,192,193860,1,0,0:0:0:0:
320,192,193980,1,0,0:0:0:0:
448,192,193980,1,0,0:0:0:0:
192,192,193980,1,0,0:0:0:0:
64,192,194220,1,0,0:0:0:0:
192,192,194220,1,0,0:0:0:0:
448,192,194220,1,0,0:0:0:0:
320,192,194460,1,0,0:0:0:0:
64,192,194460,1,0,0:0:0:0:
448,192,194460,1,0,0:0:0:0:
320,192,194580,128,0,194700:0:0:0:0:
192,192,194700,1,0,0:0:0:0:
64,192,194700,1,0,0:0:0:0:
192,192,194820,128,0,194940:0:0:0:0:
64,192,194940,1,0,0:0:0:0:
448,192,194940,1,0,0:0:0:0:
320,192,195060,128,0,195180:0:0:0:0:
64,192,195180,1,0,0:0:0:0:
448,192,195180,1,0,0:0:0:0:
64,192,195300,1,0,0:0:0:0:
320,192,195300,1,0,0:0:0:0:
192,192,195420,1,0,0:0:0:0:
320,192,195420,1,0,0:0:0:0:
448,192,195420,1,0,0:0:0:0:
320,192,195540,128,0,195660:0:0:0:0:
64,192,195660,1,0,0:0:0:0:
448,192,195660,1,0,0:0:0:0:
320,192,195780,1,0,0:0:0:0:
192,192,195780,1,0,0:0:0:0:
64,192,195780,1,0,0:0:0:0:
192,192,195900,1,0,0:0:0:0:
448,192,195900,1,0,0:0:0:0:
320,192,196020,1,0,0:0:0:0:
64,192,196020,1,0,0:0:0:0:
448,192,196020,1,0,0:0:0:0:
192,192,196140,1,0,0:0:0:0:
320,192,196140,1,0,0:0:0:0:
192,192,196260,128,0,196380:0:0:0:0:
320,192,196380,1,0,0:0:0:0:
448,192,196380,1,0,0:0:0:0:
320,192,196500,128,0,196620:0:0:0:0:
64,192,196620,1,0,0:0:0:0:
448,192,196620,1,0,0:0:0:0:
192,192,196740,128,0,196860:0:0:0:0:
448,192,196860,1,0,0:0:0:0:
64,192,196860,1,0,0:0:0:0:
320,192,196980,1,0,0:0:0:0:
192,192,196980,1,0,0:0:0:0:
320,192,197100,1,0,0:0:0:0:
64,192,197100,1,0,0:0:0:0:
192,192,197220,1,0,0:0:0:0:
320,192,197220,1,0,0:0:0:0:
448,192,197220,1,0,0:0:0:0:
64,192,197340,1,0,0:0:0:0:
192,192,197340,1,0,0:0:0:0:
448,192,197460,128,0,197580:0:0:0:0:
64,192,197580,1,0,0:0:0:0:
192,192,197580,1,0,0:0:0:0:
64,192,197700,128,0,197820:0:0:0:0:
448,192,197820,1,0,0:0:0:0:
192,192,197820,1,0,0:0:0:0:
320,192,197940,128,0,198060:0:0:0:0:
448,192,198060,1,0,0:0:0:0:
64,192,198060,1,0,0:0:0:0:
192,192,198180,128,0,198300:0:0:0:0:
448,192,198300,1,0,0:0:0:0:
64,192,198300,1,0,0:0:0:0:
192,192,198420,128,0,198540:0:0:0:0:
64,192,198540,1,0,0:0:0:0:
320,192,198540,1,0,0:0:0:0:
448,192,198660,128,0,198780:0:0:0:0:
320,192,198780,1,0,0:0:0:0:
64,192,198780,1,0,0:0:0:0:
320,192,198900,128,0,199020:0:0:0:0:
448,192,199020,1,0,0:0:0:0:
192,192,199020,1,0,0:0:0:0:
64,192,199140,1,0,0:0:0:0:
192,192,199140,1,0,0:0:0:0:
448,192,199140,1,0,0:0:0:0:
320,192,199260,1,0,0:0:0:0:
192,192,199260,1,0,0:0:0:0:
448,192,199260,1,0,0:0:0:0:
192,192,199380,128,0,199500:0:0:0:0:
320,192,199500,1,0,0:0:0:0:
320,192,199620,1,0,0:0:0:0:
448,192,199620,1,0,0:0:0:0:
320,192,199740,1,0,0:0:0:0:
192,192,199740,1,0,0:0:0:0:
64,192,199740,1,0,0:0:0:0:
448,192,199860,128,0,199980:0:0:0:0:
64,192,199980,1,0,0:0:0:0:
192,192,199980,1,0,0:0:0:0:
192,192,200100,1,0,0:0:0:0:
64,192,200220,1,0,0:0:0:0:
320,192,200220,1,0,0:0:0:0:
448,192,200340,128,0,200460:0:0:0:0:
192,192,200460,1,0,0:0:0:0:
320,192,200460,1,0,0:0:0:0:
64,192,200580,128,0,200700:0:0:0:0:
192,192,200700,1,0,0:0:0:0:
320,192,200700,1,0,0:0:0:0:
448,192,200820,1,0,0:0:0:0:
192,192,200820,1,0,0:0:0:0:
64,192,200940,1,0,0:0:0:0:
320,192,200940,1,0,0:0:0:0:
448,192,200940,1,0,0:0:0:0:
192,192,201060,128,0,201300:0:0:0:0:
320,192,201060,1,0,0:0:0:0:
448,192,201300,128,0,201420:0:0:0:0:
320,192,201300,1,0,0:0:0:0:
320,192,201420,128,0,201540:0:0:0:0:
64,192,201540,128,0,201660:0:0:0:0:
192,192,201540,1,0,0:0:0:0:
448,192,201540,1,0,0:0:0:0:
448,192,201660,128,0,201780:0:0:0:0:
192,192,201780,128,0,201900:0:0:0:0:
320,192,201780,1,0,0:0:0:0:
64,192,201900,128,0,202020:0:0:0:0:
320,192,201900,1,0,0:0:0:0:
192,192,202020,5,0,0:0:0:0:
320,192,202020,128,0,202140:0:0:0:0:
192,192,202140,128,0,203100:0:0:0:0:
448,192,202140,1,0,0:0:0:0:
448,192,203100,5,0,0:0:0:0:
320,192,203100,1,0,0:0:0:0:
64,192,203220,1,0,0:0:0:0:
192,192,203340,1,0,0:0:0:0:
320,192,203460,1,0,0:0:0:0:
64,192,203580,1,0,0:0:0:0:
320,192,203700,1,0,0:0:0:0:
192,192,203820,1,0,0:0:0:0:
320,192,203940,1,0,0:0:0:0:
64,192,204060,1,0,0:0:0:0:
320,192,204180,1,0,0:0:0:0:
192,192,204300,1,0,0:0:0:0:
320,192,204420,1,0,0:0:0:0:
64,192,204540,1,0,0:0:0:0:
192,192,204660,1,0,0:0:0:0:
320,192,204780,1,0,0:0:0:0:
448,192,204900,1,0,0:0:0:0:
192,192,205020,1,0,0:0:0:0:
64,192,205020,1,0,0:0:0:0:
320,192,205140,1,0,0:0:0:0:
448,192,205260,1,0,0:0:0:0:
64,192,205380,1,0,0:0:0:0:
192,192,205500,1,0,0:0:0:0:
320,192,205620,1,0,0:0:0:0:
64,192,205740,1,0,0:0:0:0:
448,192,205860,1,0,0:0:0:0:
192,192,205980,1,0,0:0:0:0:
320,192,206100,1,0,0:0:0:0:
64,192,206220,1,0,0:0:0:0:
448,192,206340,1,0,0:0:0:0:
320,192,206460,1,0,0:0:0:0:
192,192,206580,1,0,0:0:0:0:
320,192,206700,1,0,0:0:0:0:
64,192,206820,1,0,0:0:0:0:
320,192,206940,1,0,0:0:0:0:
192,192,207060,1,0,0:0:0:0:
64,192,207180,1,0,0:0:0:0:
448,192,207300,1,0,0:0:0:0:
320,192,207420,1,0,0:0:0:0:
192,192,207540,1,0,0:0:0:0:
320,192,207660,1,0,0:0:0:0:
192,192,207780,1,0,0:0:0:0:
64,192,207900,1,0,0:0:0:0:
320,192,207900,1,0,0:0:0:0:
192,192,208020,1,0,0:0:0:0:
448,192,208140,1,0,0:0:0:0:
192,192,208260,1,0,0:0:0:0:
320,192,208380,1,0,0:0:0:0:
448,192,208500,1,0,0:0:0:0:
64,192,208620,1,0,0:0:0:0:
192,192,208740,1,0,0:0:0:0:
448,192,208860,1,0,0:0:0:0:
320,192,208980,1,0,0:0:0:0:
64,192,209100,1,0,0:0:0:0:
192,192,209220,1,0,0:0:0:0:
448,192,209340,1,0,0:0:0:0:
64,192,209460,1,0,0:0:0:0:
192,192,209580,1,0,0:0:0:0:
320,192,209700,1,0,0:0:0:0:
64,192,209820,1,0,0:0:0:0:
448,192,209940,1,0,0:0:0:0:
320,192,210060,1,0,0:0:0:0:
64,192,210180,1,0,0:0:0:0:
448,192,210300,1,0,0:0:0:0:
320,192,210420,1,0,0:0:0:0:
192,192,210540,1,0,0:0:0:0:
448,192,210660,1,0,0:0:0:0:
64,192,210780,1,0,0:0:0:0:
192,192,210780,1,0,0:0:0:0:
320,192,210780,128,0,211020:0:0:0:0:
192,192,211020,1,0,0:0:0:0:
64,192,211140,1,0,0:0:0:0:
192,192,211260,1,0,0:0:0:0:
320,192,211380,1,0,0:0:0:0:
64,192,211500,1,0,0:0:0:0:
448,192,211620,1,0,0:0:0:0:
320,192,211740,1,0,0:0:0:0:
192,192,211860,1,0,0:0:0:0:
64,192,211980,1,0,0:0:0:0:
320,192,212100,1,0,0:0:0:0:
192,192,212220,1,0,0:0:0:0:
448,192,212340,1,0,0:0:0:0:
64,192,212460,1,0,0:0:0:0:
320,192,212460,1,0,0:0:0:0:
192,192,212460,128,0,212700:0:0:0:0:
64,192,212700,1,0,0:0:0:0:
448,192,212700,1,0,0:0:0:0:
320,192,212700,128,0,212940:0:0:0:0:
64,192,212940,1,0,0:0:0:0:
192,192,213060,1,0,0:0:0:0:
320,192,213180,1,0,0:0:0:0:
192,192,213300,1,0,0:0:0:0:
448,192,213420,1,0,0:0:0:0:
64,192,213540,1,0,0:0:0:0:
320,192,213660,1,0,0:0:0:0:
448,192,213780,1,0,0:0:0:0:
320,192,213900,1,0,0:0:0:0:
192,192,214020,1,0,0:0:0:0:
448,192,214140,1,0,0:0:0:0:
64,192,214140,128,0,214380:0:0:0:0:
192,192,214140,1,0,0:0:0:0:
320,192,214260,1,0,0:0:0:0:
448,192,214380,1,0,0:0:0:0:
192,192,214380,128,0,214620:0:0:0:0:
320,192,214500,1,0,0:0:0:0:
448,192,214620,128,0,214860:0:0:0:0:
64,192,214620,1,0,0:0:0:0:
320,192,214740,1,0,0:0:0:0:
64,192,214860,1,0,0:0:0:0:
192,192,214980,1,0,0:0:0:0:
448,192,215100,1,0,0:0:0:0:
320,192,215220,1,0,0:0:0:0:
192,192,215340,1,0,0:0:0:0:
448,192,215460,1,0,0:0:0:0:
192,192,215580,1,0,0:0:0:0:
320,192,215580,1,0,0:0:0:0:
64,192,215700,1,0,0:0:0:0:
192,192,215820,1,0,0:0:0:0:
320,192,215940,1,0,0:0:0:0:
448,192,216060,1,0,0:0:0:0:
64,192,216060,1,0,0:0:0:0:
192,192,216180,1,0,0:0:0:0:
64,192,216300,1,0,0:0:0:0:
448,192,216420,1,0,0:0:0:0:
320,192,216540,1,0,0:0:0:0:
64,192,216540,1,0,0:0:0:0:
192,192,216660,1,0,0:0:0:0:
320,192,216780,1,0,0:0:0:0:
448,192,216900,1,0,0:0:0:0:
320,192,217020,1,0,0:0:0:0:
64,192,217020,128,0,217260:0:0:0:0:
192,192,217140,1,0,0:0:0:0:
320,192,217260,1,0,0:0:0:0:
448,192,217260,128,0,217500:0:0:0:0:
64,192,217380,1,0,0:0:0:0:
192,192,217500,128,0,217740:0:0:0:0:
320,192,217500,1,0,0:0:0:0:
64,192,217620,1,0,0:0:0:0:
448,192,217740,128,0,217980:0:0:0:0:
320,192,217740,1,0,0:0:0:0:
192,192,217860,1,0,0:0:0:0:
64,192,217980,128,0,218220:0:0:0:0:
320,192,217980,1,0,0:0:0:0:
192,192,218100,1,0,0:0:0:0:
320,192,218220,128,0,218460:0:0:0:0:
192,192,218220,1,0,0:0:0:0:
448,192,218220,1,0,0:0:0:0:
64,192,218340,1,0,0:0:0:0:
192,192,218460,1,0,0:0:0:0:
448,192,218460,1,0,0:0:0:0:
64,192,218580,128,0,218700:0:0:0:0:
192,192,218700,1,0,0:0:0:0:
320,192,218700,1,0,0:0:0:0:
320,192,218820,128,0,218940:0:0:0:0:
192,192,218940,1,0,0:0:0:0:
192,192,219060,128,0,219180:0:0:0:0:
64,192,219180,1,0,0:0:0:0:
448,192,219180,1,0,0:0:0:0:
320,192,219300,128,0,219420:0:0:0:0:
192,192,219300,1,0,0:0:0:0:
192,192,219420,1,0,0:0:0:0:
448,192,219420,1,0,0:0:0:0:
64,192,219540,128,0,219660:0:0:0:0:
320,192,219660,1,0,0:0:0:0:
192,192,219660,1,0,0:0:0:0:
448,192,219780,1,0,0:0:0:0:
320,192,219780,1,0,0:0:0:0:
64,192,219900,1,0,0:0:0:0:
320,192,220020,128,0,220140:0:0:0:0:
192,192,220140,1,0,0:0:0:0:
448,192,220140,1,0,0:0:0:0:
192,192,220260,128,0,220380:0:0:0:0:
320,192,220380,1,0,0:0:0:0:
64,192,220380,1,0,0:0:0:0:
320,192,220500,128,0,220620:0:0:0:0:
192,192,220620,1,0,0:0:0:0:
448,192,220740,1,0,0:0:0:0:
64,192,220740,1,0,0:0:0:0:
320,192,220740,128,0,220860:0:0:0:0:
192,192,220860,1,0,0:0:0:0:
448,192,220860,1,0,0:0:0:0:
192,192,220980,1,0,0:0:0:0:
64,192,220980,1,0,0:0:0:0:
320,192,221100,1,0,0:0:0:0:
64,192,221100,1,0,0:0:0:0:
192,192,221220,1,0,0:0:0:0:
448,192,221220,1,0,0:0:0:0:
320,192,221220,1,0,0:0:0:0:
192,192,221340,1,0,0:0:0:0:
64,192,221340,1,0,0:0:0:0:
320,192,221460,128,0,221580:0:0:0:0:
192,192,221580,1,0,0:0:0:0:
64,192,221700,128,0,221820:0:0:0:0:
320,192,221820,1,0,0:0:0:0:
448,192,221940,128,0,222060:0:0:0:0:
192,192,222060,1,0,0:0:0:0:
64,192,222060,1,0,0:0:0:0:
320,192,222180,128,0,222300:0:0:0:0:
192,192,222300,1,0,0:0:0:0:
448,192,222300,1,0,0:0:0:0:
192,192,222420,128,0,222540:0:0:0:0:
64,192,222540,1,0,0:0:0:0:
448,192,222540,1,0,0:0:0:0:
320,192,222660,128,0,222780:0:0:0:0:
192,192,222780,1,0,0:0:0:0:
192,192,222900,128,0,223020:0:0:0:0:
64,192,223020,1,0,0:0:0:0:
448,192,223020,1,0,0:0:0:0:
320,192,223140,1,0,0:0:0:0:
192,192,223140,1,0,0:0:0:0:
64,192,223140,1,0,0:0:0:0:
192,192,223260,1,0,0:0:0:0:
448,192,223260,1,0,0:0:0:0:
320,192,223380,128,0,223500:0:0:0:0:
192,192,223500,1,0,0:0:0:0:
64,192,223500,1,0,0:0:0:0:
320,192,223620,1,0,0:0:0:0:
448,192,223620,1,0,0:0:0:0:
192,192,223740,1,0,0:0:0:0:
64,192,223740,1,0,0:0:0:0:
448,192,223740,1,0,0:0:0:0:
320,192,223860,128,0,223980:0:0:0:0:
192,192,223980,1,0,0:0:0:0:
64,192,224100,1,0,0:0:0:0:
320,192,224100,1,0,0:0:0:0:
192,192,224220,1,0,0:0:0:0:
448,192,224220,1,0,0:0:0:0:
320,192,224220,1,0,0:0:0:0:
192,192,224340,128,0,224460:0:0:0:0:
64,192,224460,1,0,0:0:0:0:
448,192,224460,1,0,0:0:0:0:
320,192,224580,128,0,224700:0:0:0:0:
448,192,224700,1,0,0:0:0:0:
320,192,224820,1,0,0:0:0:0:
64,192,224820,1,0,0:0:0:0:
192,192,224940,1,0,0:0:0:0:
320,192,224940,1,0,0:0:0:0:
448,192,224940,1,0,0:0:0:0:
192,192,225060,1,0,0:0:0:0:
64,192,225060,1,0,0:0:0:0:
320,192,225180,128,0,225300:0:0:0:0:
192,192,225300,1,0,0:0:0:0:
448,192,225300,1,0,0:0:0:0:
192,192,225420,128,0,225540:0:0:0:0:
64,192,225540,1,0,0:0:0:0:
448,192,225540,1,0,0:0:0:0:
320,192,225660,1,0,0:0:0:0:
192,192,225660,1,0,0:0:0:0:
448,192,225780,128,0,225900:0:0:0:0:
64,192,225900,1,0,0:0:0:0:
192,192,225900,1,0,0:0:0:0:
320,192,226020,128,0,226140:0:0:0:0:
192,192,226140,1,0,0:0:0:0:
448,192,226140,1,0,0:0:0:0:
64,192,226260,128,0,226380:0:0:0:0:
192,192,226380,1,0,0:0:0:0:
448,192,226380,1,0,0:0:0:0:
320,192,226500,128,0,226620:0:0:0:0:
192,192,226620,1,0,0:0:0:0:
64,192,226740,128,0,226860:0:0:0:0:
448,192,226860,1,0,0:0:0:0:
320,192,226860,1,0,0:0:0:0:
320,192,226980,1,0,0:0:0:0:
192,192,226980,1,0,0:0:0:0:
64,192,226980,1,0,0:0:0:0:
192,192,227100,1,0,0:0:0:0:
448,192,227100,1,0,0:0:0:0:
192,192,227220,128,0,227340:0:0:0:0:
320,192,227340,1,0,0:0:0:0:
64,192,227460,1,0,0:0:0:0:
192,192,227460,1,0,0:0:0:0:
320,192,227580,1,0,0:0:0:0:
448,192,227700,128,0,227820:0:0:0:0:
320,192,227820,1,0,0:0:0:0:
192,192,227820,1,0,0:0:0:0:
64,192,227940,128,0,228060:0:0:0:0:
192,192,228060,1,0,0:0:0:0:
448,192,228060,1,0,0:0:0:0:
192,192,228180,1,0,0:0:0:0:
320,192,228180,128,0,228300:0:0:0:0:
64,192,228300,1,0,0:0:0:0:
448,192,228300,1,0,0:0:0:0:
192,192,228420,1,0,0:0:0:0:
64,192,228420,128,0,228540:0:0:0:0:
320,192,228540,1,0,0:0:0:0:
448,192,228540,1,0,0:0:0:0:
192,192,228660,128,0,228780:0:0:0:0:
320,192,228660,1,0,0:0:0:0:
64,192,228780,1,0,0:0:0:0:
448,192,228780,1,0,0:0:0:0:
320,192,228900,1,0,0:0:0:0:
192,192,228900,1,0,0:0:0:0:
192,192,229020,1,0,0:0:0:0:
64,192,229020,1,0,0:0:0:0:
448,192,229020,1,0,0:0:0:0:
320,192,229140,128,0,229260:0:0:0:0:
192,192,229260,1,0,0:0:0:0:
64,192,229380,128,0,229500:0:0:0:0:
320,192,229500,1,0,0:0:0:0:
448,192,229500,1,0,0:0:0:0:
320,192,229620,128,0,229740:0:0:0:0:
192,192,229740,1,0,0:0:0:0:
64,192,229860,128,0,229980:0:0:0:0:
448,192,229980,1,0,0:0:0:0:
320,192,229980,1,0,0:0:0:0:
320,192,230100,128,0,230220:0:0:0:0:
192,192,230220,1,0,0:0:0:0:
64,192,230340,128,0,230460:0:0:0:0:
448,192,230460,1,0,0:0:0:0:
320,192,230460,1,0,0:0:0:0:
320,192,230580,128,0,230700:0:0:0:0:
192,192,230700,1,0,0:0:0:0:
448,192,230820,128,0,230940:0:0:0:0:
192,192,230820,1,0,0:0:0:0:
320,192,230820,1,0,0:0:0:0:
64,192,230940,1,0,0:0:0:0:
192,192,230940,1,0,0:0:0:0:
64,192,231060,1,0,0:0:0:0:
320,192,231060,128,0,231180:0:0:0:0:
192,192,231180,1,0,0:0:0:0:
448,192,231180,1,0,0:0:0:0:
64,192,231300,1,0,0:0:0:0:
192,192,231300,1,0,0:0:0:0:
192,192,231420,1,0,0:0:0:0:
448,192,231420,1,0,0:0:0:0:
320,192,231540,128,0,231660:0:0:0:0:
192,192,231660,1,0,0:0:0:0:
64,192,231660,1,0,0:0:0:0:
448,192,231780,128,0,231900:0:0:0:0:
64,192,231780,1,0,0:0:0:0:
320,192,231780,1,0,0:0:0:0:
192,192,231900,1,0,0:0:0:0:
320,192,231900,1,0,0:0:0:0:
192,192,232020,128,0,232140:0:0:0:0:
64,192,232140,1,0,0:0:0:0:
448,192,232140,1,0,0:0:0:0:
320,192,232260,128,0,232380:0:0:0:0:
192,192,232380,1,0,0:0:0:0:
448,192,232380,1,0,0:0:0:0:
192,192,232500,1,0,0:0:0:0:
320,192,232500,1,0,0:0:0:0:
64,192,232620,1,0,0:0:0:0:
320,192,232620,1,0,0:0:0:0:
448,192,232620,1,0,0:0:0:0:
192,192,232740,128,0,232860:0:0:0:0:
320,192,232860,1,0,0:0:0:0:
448,192,232860,1,0,0:0:0:0:
64,192,232980,128,0,233100:0:0:0:0:
320,192,233100,1,0,0:0:0:0:
192,192,233100,1,0,0:0:0:0:
320,192,233220,128,0,233340:0:0:0:0:
64,192,233340,1,0,0:0:0:0:
192,192,233460,128,0,233580:0:0:0:0:
320,192,233580,1,0,0:0:0:0:
448,192,233700,128,0,233820:0:0:0:0:
64,192,233820,1,0,0:0:0:0:
192,192,233820,1,0,0:0:0:0:
320,192,233820,1,0,0:0:0:0:
64,192,233940,128,0,234060:0:0:0:0:
192,192,234060,1,0,0:0:0:0:
320,192,234060,1,0,0:0:0:0:
320,192,234180,128,0,234300:0:0:0:0:
192,192,234300,1,0,0:0:0:0:
192,192,234420,128,0,234540:0:0:0:0:
64,192,234540,1,0,0:0:0:0:
448,192,234540,1,0,0:0:0:0:
320,192,234660,128,0,234780:0:0:0:0:
192,192,234660,1,0,0:0:0:0:
192,192,234780,1,0,0:0:0:0:
448,192,234780,1,0,0:0:0:0:
64,192,234900,128,0,235020:0:0:0:0:
320,192,235020,1,0,0:0:0:0:
192,192,235020,1,0,0:0:0:0:
320,192,235140,1,0,0:0:0:0:
64,192,235140,1,0,0:0:0:0:
64,192,235260,1,0,0:0:0:0:
192,192,235260,1,0,0:0:0:0:
448,192,235260,1,0,0:0:0:0:
320,192,235380,128,0,235500:0:0:0:0:
192,192,235500,1,0,0:0:0:0:
448,192,235500,1,0,0:0:0:0:
192,192,235620,128,0,235740:0:0:0:0:
320,192,235740,1,0,0:0:0:0:
64,192,235740,1,0,0:0:0:0:
320,192,235860,128,0,235980:0:0:0:0:
192,192,235980,1,0,0:0:0:0:
320,192,236100,128,0,236220:0:0:0:0:
192,192,236220,1,0,0:0:0:0:
448,192,236220,1,0,0:0:0:0:
192,192,236340,1,0,0:0:0:0:
64,192,236340,1,0,0:0:0:0:
320,192,236460,1,0,0:0:0:0:
64,192,236460,1,0,0:0:0:0:
192,192,236580,1,0,0:0:0:0:
448,192,236580,1,0,0:0:0:0:
320,192,236580,1,0,0:0:0:0:
192,192,236700,1,0,0:0:0:0:
64,192,236700,1,0,0:0:0:0:
320,192,236820,128,0,236940:0:0:0:0:
192,192,236940,1,0,0:0:0:0:
64,192,237060,128,0,237180:0:0:0:0:
320,192,237180,1,0,0:0:0:0:
448,192,237300,128,0,237420:0:0:0:0:
192,192,237420,1,0,0:0:0:0:
64,192,237420,1,0,0:0:0:0:
320,192,237540,128,0,237660:0:0:0:0:
192,192,237660,1,0,0:0:0:0:
448,192,237660,1,0,0:0:0:0:
192,192,237780,128,0,237900:0:0:0:0:
64,192,237900,1,0,0:0:0:0:
448,192,237900,1,0,0:0:0:0:
320,192,238020,128,0,238140:0:0:0:0:
192,192,238140,1,0,0:0:0:0:
192,192,238260,128,0,238380:0:0:0:0:
64,192,238380,1,0,0:0:0:0:
448,192,238380,1,0,0:0:0:0:
320,192,238500,1,0,0:0:0:0:
192,192,238500,1,0,0:0:0:0:
448,192,238500,1,0,0:0:0:0:
192,192,238620,1,0,0:0:0:0:
64,192,238620,1,0,0:0:0:0:
320,192,238740,128,0,238860:0:0:0:0:
192,192,238860,1,0,0:0:0:0:
64,192,238860,1,0,0:0:0:0:
320,192,238980,1,0,0:0:0:0:
448,192,238980,1,0,0:0:0:0:
192,192,239100,1,0,0:0:0:0:
64,192,239100,1,0,0:0:0:0:
448,192,239100,1,0,0:0:0:0:
320,192,239220,128,0,239340:0:0:0:0:
192,192,239340,1,0,0:0:0:0:
64,192,239460,1,0,0:0:0:0:
320,192,239460,1,0,0:0:0:0:
192,192,239580,1,0,0:0:0:0:
448,192,239580,1,0,0:0:0:0:
320,192,239580,1,0,0:0:0:0:
192,192,239700,128,0,239820:0:0:0:0:
64,192,239820,1,0,0:0:0:0:
448,192,239820,1,0,0:0:0:0:
320,192,239940,128,0,240060:0:0:0:0:
448,192,240060,1,0,0:0:0:0:
320,192,240180,1,0,0:0:0:0:
64,192,240180,1,0,0:0:0:0:
192,192,240300,1,0,0:0:0:0:
320,192,240300,1,0,0:0:0:0:
448,192,240300,1,0,0:0:0:0:
192,192,240420,1,0,0:0:0:0:
64,192,240420,1,0,0:0:0:0:
320,192,240540,128,0,240660:0:0:0:0:
192,192,240660,1,0,0:0:0:0:
448,192,240660,1,0,0:0:0:0:
192,192,240780,128,0,240900:0:0:0:0:
64,192,240900,1,0,0:0:0:0:
448,192,240900,1,0,0:0:0:0:
320,192,241020,1,0,0:0:0:0:
192,192,241020,1,0,0:0:0:0:
448,192,241140,128,0,241260:0:0:0:0:
64,192,241260,1,0,0:0:0:0:
192,192,241260,1,0,0:0:0:0:
320,192,241380,128,0,241500:0:0:0:0:
192,192,241500,1,0,0:0:0:0:
448,192,241500,1,0,0:0:0:0:
64,192,241500,1,0,0:0:0:0:
192,192,241620,128,0,241740:0:0:0:0:
64,192,241740,1,0,0:0:0:0:
320,192,241740,1,0,0:0:0:0:
320,192,241860,128,0,241980:0:0:0:0:
192,192,241980,1,0,0:0:0:0:
192,192,242100,128,0,242220:0:0:0:0:
448,192,242220,1,0,0:0:0:0:
64,192,242220,1,0,0:0:0:0:
320,192,242340,128,0,242460:0:0:0:0:
64,192,242340,1,0,0:0:0:0:
448,192,242460,1,0,0:0:0:0:
192,192,242460,1,0,0:0:0:0:
64,192,242580,128,0,242700:0:0:0:0:
192,192,242700,1,0,0:0:0:0:
320,192,242700,1,0,0:0:0:0:
320,192,242820,1,0,0:0:0:0:
448,192,242820,1,0,0:0:0:0:
64,192,242940,1,0,0:0:0:0:
320,192,243060,128,0,243180:0:0:0:0:
448,192,243180,1,0,0:0:0:0:
192,192,243180,1,0,0:0:0:0:
192,192,243300,128,0,243420:0:0:0:0:
64,192,243420,1,0,0:0:0:0:
320,192,243420,1,0,0:0:0:0:
320,192,243540,128,0,243660:0:0:0:0:
192,192,243660,1,0,0:0:0:0:
192,192,243780,128,0,243900:0:0:0:0:
448,192,243900,1,0,0:0:0:0:
64,192,244020,1,0,0:0:0:0:
192,192,244020,1,0,0:0:0:0:
64,192,244140,1,0,0:0:0:0:
320,192,244140,1,0,0:0:0:0:
320,192,244260,1,0,0:0:0:0:
448,192,244260,1,0,0:0:0:0:
192,192,244260,1,0,0:0:0:0:
64,192,244380,1,0,0:0:0:0:
192,192,244380,1,0,0:0:0:0:
320,192,244500,128,0,244620:0:0:0:0:
192,192,244620,1,0,0:0:0:0:
64,192,244740,128,0,244860:0:0:0:0:
192,192,244860,1,0,0:0:0:0:
448,192,244860,1,0,0:0:0:0:
448,192,244980,128,0,245100:0:0:0:0:
64,192,245100,1,0,0:0:0:0:
192,192,245100,1,0,0:0:0:0:
320,192,245220,128,0,245340:0:0:0:0:
448,192,245340,1,0,0:0:0:0:
192,192,245340,1,0,0:0:0:0:
192,192,245460,128,0,245580:0:0:0:0:
448,192,245580,1,0,0:0:0:0:
64,192,245580,1,0,0:0:0:0:
320,192,245700,128,0,245820:0:0:0:0:
192,192,245820,1,0,0:0:0:0:
192,192,245940,128,0,246060:0:0:0:0:
448,192,246060,1,0,0:0:0:0:
64,192,246060,1,0,0:0:0:0:
320,192,246180,1,0,0:0:0:0:
448,192,246180,1,0,0:0:0:0:
448,192,246300,1,0,0:0:0:0:
192,192,246300,1,0,0:0:0:0:
320,192,246420,128,0,246540:0:0:0:0:
64,192,246540,1,0,0:0:0:0:
192,192,246540,1,0,0:0:0:0:
448,192,246660,1,0,0:0:0:0:
320,192,246660,1,0,0:0:0:0:
448,192,246780,1,0,0:0:0:0:
64,192,246780,1,0,0:0:0:0:
192,192,246780,1,0,0:0:0:0:
320,192,246900,128,0,247020:0:0:0:0:
192,192,247020,1,0,0:0:0:0:
320,192,247140,1,0,0:0:0:0:
64,192,247140,1,0,0:0:0:0:
320,192,247260,1,0,0:0:0:0:
448,192,247260,1,0,0:0:0:0:
192,192,247260,1,0,0:0:0:0:
192,192,247380,128,0,247500:0:0:0:0:
448,192,247500,1,0,0:0:0:0:
64,192,247500,1,0,0:0:0:0:
320,192,247620,128,0,247740:0:0:0:0:
448,192,247740,1,0,0:0:0:0:
64,192,247860,1,0,0:0:0:0:
320,192,247860,1,0,0:0:0:0:
448,192,247980,1,0,0:0:0:0:
320,192,247980,1,0,0:0:0:0:
192,192,247980,1,0,0:0:0:0:
64,192,248100,5,0,0:0:0:0:
192,192,248100,1,0,0:0:0:0:
320,192,248220,128,0,248340:0:0:0:0:
448,192,248340,1,0,0:0:0:0:
192,192,248340,1,0,0:0:0:0:
192,192,248460,128,0,248580:0:0:0:0:
448,192,248580,1,0,0:0:0:0:
64,192,248580,1,0,0:0:0:0:
192,192,248700,1,0,0:0:0:0:
320,192,248700,1,0,0:0:0:0:
448,192,248820,128,0,248940:0:0:0:0:
192,192,248940,1,0,0:0:0:0:
64,192,248940,1,0,0:0:0:0:
320,192,249060,128,0,249180:0:0:0:0:
192,192,249180,1,0,0:0:0:0:
64,192,249300,128,0,249420:0:0:0:0:
320,192,249420,1,0,0:0:0:0:
448,192,249420,1,0,0:0:0:0:
64,192,249540,128,0,249660:0:0:0:0:
192,192,249540,1,0,0:0:0:0:
320,192,249660,1,0,0:0:0:0:
448,192,249660,1,0,0:0:0:0:
320,192,249780,1,0,0:0:0:0:
448,192,249780,1,0,0:0:0:0:
320,192,249900,1,0,0:0:0:0:
448,192,249900,1,0,0:0:0:0:
64,192,249900,1,0,0:0:0:0:
448,192,250020,1,0,0:0:0:0:
192,192,250020,1,0,0:0:0:0:
320,192,250140,1,0,0:0:0:0:
64,192,250140,1,0,0:0:0:0:
320,192,250260,128,0,250380:0:0:0:0:
192,192,250380,1,0,0:0:0:0:
64,192,250380,1,0,0:0:0:0:
192,192,250500,128,0,250620:0:0:0:0:
320,192,250620,1,0,0:0:0:0:
448,192,250620,1,0,0:0:0:0:
192,192,250740,1,0,0:0:0:0:
64,192,250740,1,0,0:0:0:0:
448,192,250860,1,0,0:0:0:0:
320,192,250860,1,0,0:0:0:0:
192,192,250860,1,0,0:0:0:0:
64,192,250980,1,0,0:0:0:0:
192,192,250980,1,0,0:0:0:0:
320,192,251100,1,0,0:0:0:0:
192,192,251100,1,0,0:0:0:0:
448,192,251220,128,0,251340:0:0:0:0:
64,192,251220,1,0,0:0:0:0:
192,192,251340,1,0,0:0:0:0:
320,192,251340,1,0,0:0:0:0:
320,192,251460,1,0,0:0:0:0:
448,192,251460,1,0,0:0:0:0:
192,192,251580,1,0,0:0:0:0:
64,192,251580,1,0,0:0:0:0:
320,192,251700,1,0,0:0:0:0:
448,192,251700,1,0,0:0:0:0:
192,192,251820,1,0,0:0:0:0:
64,192,251820,1,0,0:0:0:0:
320,192,251940,1,0,0:0:0:0:
448,192,251940,1,0,0:0:0:0:
192,192,252060,1,0,0:0:0:0:
64,192,252060,1,0,0:0:0:0:
320,192,252180,1,0,0:0:0:0:
448,192,252180,1,0,0:0:0:0:
192,192,252300,1,0,0:0:0:0:
64,192,252300,1,0,0:0:0:0:
320,192,252420,1,0,0:0:0:0:
448,192,252420,1,0,0:0:0:0:
192,192,252540,1,0,0:0:0:0:
64,192,252540,1,0,0:0:0:0:
320,192,252660,1,0,0:0:0:0:
448,192,252660,1,0,0:0:0:0:
192,192,252780,1,0,0:0:0:0:
64,192,252780,1,0,0:0:0:0:
320,192,252840,1,0,0:0:0:0:
448,192,252840,1,0,0:0:0:0:
192,192,252900,1,0,0:0:0:0:
64,192,252900,1,0,0:0:0:0:
320,192,252960,1,0,0:0:0:0:
448,192,252960,1,0,0:0:0:0:
192,192,253020,1,0,0:0:0:0:
64,192,253020,128,0,253260:0:0:0:0:
192,192,253980,1,0,0:0:0:0:
64,192,253980,1,0,0:0:0:0:
192,192,254100,128,0,254220:0:0:0:0:
320,192,254220,1,0,0:0:0:0:
448,192,254220,1,0,0:0:0:0:
320,192,254340,128,0,254460:0:0:0:0:
192,192,254460,1,0,0:0:0:0:
64,192,254460,1,0,0:0:0:0:
64,192,254580,128,0,254670:0:0:0:0:
320,192,254700,1,0,0:0:0:0:
448,192,254700,128,0,254940:0:0:0:0:
192,192,254940,1,0,0:0:0:0:
320,192,254940,1,0,0:0:0:0:
448,192,255060,1,0,0:0:0:0:
320,192,255060,1,0,0:0:0:0:
192,192,255060,1,0,0:0:0:0:
64,192,255180,1,0,0:0:0:0:
192,192,255180,1,0,0:0:0:0:
320,192,255180,1,0,0:0:0:0:
448,192,255180,1,0,0:0:0:0:
320,192,255300,1,0,0:0:0:0:
192,192,255300,1,0,0:0:0:0:
192,192,255420,1,0,0:0:0:0:
64,192,255420,1,0,0:0:0:0:
448,192,255420,1,0,0:0:0:0:
320,192,255540,1,0,0:0:0:0:
448,192,255540,1,0,0:0:0:0:
192,192,255540,1,0,0:0:0:0:
192,192,255660,1,0,0:0:0:0:
320,192,255660,1,0,0:0:0:0:
64,192,255780,1,0,0:0:0:0:
192,192,255780,1,0,0:0:0:0:
448,192,255780,1,0,0:0:0:0:
448,192,255900,1,0,0:0:0:0:
320,192,255900,1,0,0:0:0:0:
64,192,255960,1,0,0:0:0:0:
192,192,255960,1,0,0:0:0:0:
320,192,256020,1,0,0:0:0:0:
448,192,256020,1,0,0:0:0:0:
192,192,256140,1,0,0:0:0:0:
320,192,256140,1,0,0:0:0:0:
448,192,256140,1,0,0:0:0:0:
192,192,256260,1,0,0:0:0:0:
64,192,256260,1,0,0:0:0:0:
448,192,256260,1,0,0:0:0:0:
320,192,256380,1,0,0:0:0:0:
448,192,256380,1,0,0:0:0:0:
64,192,256380,1,0,0:0:0:0:
192,192,256380,1,0,0:0:0:0:
192,192,256500,1,0,0:0:0:0:
448,192,256500,1,0,0:0:0:0:
64,192,256620,1,0,0:0:0:0:
192,192,256620,1,0,0:0:0:0:
448,192,256680,1,0,0:0:0:0:
320,192,256680,1,0,0:0:0:0:
64,192,256740,1,0,0:0:0:0:
192,192,256740,1,0,0:0:0:0:
320,192,256800,1,0,0:0:0:0:
448,192,256800,1,0,0:0:0:0:
192,192,256860,1,0,0:0:0:0:
64,192,256860,1,0,0:0:0:0:
192,192,256980,1,0,0:0:0:0:
320,192,256980,1,0,0:0:0:0:
448,192,256980,1,0,0:0:0:0:
192,192,257100,1,0,0:0:0:0:
64,192,257220,1,0,0:0:0:0:
320,192,257220,1,0,0:0:0:0:
448,192,257220,1,0,0:0:0:0:
192,192,257340,1,0,0:0:0:0:
320,192,257340,1,0,0:0:0:0:
448,192,257340,1,0,0:0:0:0:
192,192,257460,1,0,0:0:0:0:
64,192,257580,1,0,0:0:0:0:
320,192,257580,1,0,0:0:0:0:
448,192,257580,1,0,0:0:0:0:
320,192,257700,1,0,0:0:0:0:
64,192,257820,1,0,0:0:0:0:
448,192,257820,1,0,0:0:0:0:
320,192,257880,1,0,0:0:0:0:
192,192,257880,1,0,0:0:0:0:
64,192,257940,1,0,0:0:0:0:
448,192,257940,1,0,0:0:0:0:
320,192,258060,1,0,0:0:0:0:
192,192,258060,1,0,0:0:0:0:
448,192,258060,1,0,0:0:0:0:
192,192,258180,1,0,0:0:0:0:
64,192,258300,1,0,0:0:0:0:
320,192,258300,1,0,0:0:0:0:
448,192,258300,1,0,0:0:0:0:
320,192,258420,1,0,0:0:0:0:
320,192,258540,1,0,0:0:0:0:
192,192,258540,1,0,0:0:0:0:
64,192,258540,1,0,0:0:0:0:
320,192,258600,1,0,0:0:0:0:
448,192,258600,1,0,0:0:0:0:
192,192,258660,1,0,0:0:0:0:
64,192,258660,1,0,0:0:0:0:
320,192,258720,1,0,0:0:0:0:
448,192,258720,1,0,0:0:0:0:
192,192,258780,1,0,0:0:0:0:
64,192,258780,1,0,0:0:0:0:
320,192,258900,1,0,0:0:0:0:
448,192,258900,1,0,0:0:0:0:
192,192,258900,1,0,0:0:0:0:
320,192,259020,1,0,0:0:0:0:
192,192,259140,1,0,0:0:0:0:
64,192,259140,1,0,0:0:0:0:
448,192,259140,1,0,0:0:0:0:
320,192,259260,1,0,0:0:0:0:
192,192,259260,1,0,0:0:0:0:
64,192,259380,1,0,0:0:0:0:
192,192,259380,1,0,0:0:0:0:
320,192,259380,1,0,0:0:0:0:
448,192,259500,1,0,0:0:0:0:
320,192,259500,1,0,0:0:0:0:
192,192,259500,1,0,0:0:0:0:
192,192,259620,1,0,0:0:0:0:
64,192,259620,1,0,0:0:0:0:
448,192,259620,1,0,0:0:0:0:
320,192,259740,1,0,0:0:0:0:
192,192,259860,1,0,0:0:0:0:
64,192,259860,1,0,0:0:0:0:
320,192,259860,1,0,0:0:0:0:
448,192,259980,1,0,0:0:0:0:
192,192,259980,1,0,0:0:0:0:
192,192,260100,1,0,0:0:0:0:
64,192,260100,1,0,0:0:0:0:
320,192,260100,1,0,0:0:0:0:
448,192,260100,1,0,0:0:0:0:
320,192,260220,1,0,0:0:0:0:
448,192,260340,1,0,0:0:0:0:
192,192,260340,1,0,0:0:0:0:
64,192,260340,1,0,0:0:0:0:
320,192,260460,1,0,0:0:0:0:
448,192,260460,1,0,0:0:0:0:
64,192,260520,1,0,0:0:0:0:
192,192,260520,1,0,0:0:0:0:
320,192,260580,1,0,0:0:0:0:
448,192,260580,1,0,0:0:0:0:
192,192,260640,1,0,0:0:0:0:
64,192,260640,1,0,0:0:0:0:
448,192,260700,1,0,0:0:0:0:
320,192,260700,1,0,0:0:0:0:
320,192,260820,1,0,0:0:0:0:
192,192,260820,1,0,0:0:0:0:
64,192,260940,1,0,0:0:0:0:
192,192,260940,1,0,0:0:0:0:
448,192,260940,1,0,0:0:0:0:
192,192,261060,1,0,0:0:0:0:
320,192,261180,1,0,0:0:0:0:
64,192,261180,1,0,0:0:0:0:
448,192,261180,1,0,0:0:0:0:
320,192,261300,1,0,0:0:0:0:
64,192,261420,1,0,0:0:0:0:
448,192,261420,1,0,0:0:0:0:
192,192,261420,1,0,0:0:0:0:
320,192,261540,1,0,0:0:0:0:
192,192,261540,1,0,0:0:0:0:
192,192,261660,1,0,0:0:0:0:
448,192,261660,1,0,0:0:0:0:
320,192,261780,1,0,0:0:0:0:
192,192,261900,1,0,0:0:0:0:
320,192,261900,1,0,0:0:0:0:
192,192,262020,1,0,0:0:0:0:
64,192,262140,1,0,0:0:0:0:
320,192,262140,1,0,0:0:0:0:
320,192,262260,1,0,0:0:0:0:
448,192,262380,1,0,0:0:0:0:
64,192,262380,1,0,0:0:0:0:
192,192,262380,1,0,0:0:0:0:
192,192,262500,1,0,0:0:0:0:
192,192,262620,1,0,0:0:0:0:
320,192,262620,1,0,0:0:0:0:
64,192,262740,1,0,0:0:0:0:
320,192,262740,1,0,0:0:0:0:
448,192,262740,1,0,0:0:0:0:
192,192,262860,1,0,0:0:0:0:
320,192,262860,1,0,0:0:0:0:
64,192,262860,1,0,0:0:0:0:
320,192,262980,1,0,0:0:0:0:
448,192,262980,1,0,0:0:0:0:
192,192,263100,1,0,0:0:0:0:
64,192,263100,1,0,0:0:0:0:
320,192,263100,1,0,0:0:0:0:
320,192,263220,1,0,0:0:0:0:
64,192,263220,1,0,0:0:0:0:
448,192,263220,1,0,0:0:0:0:
192,192,263340,1,0,0:0:0:0:
320,192,263340,1,0,0:0:0:0:
192,192,263460,1,0,0:0:0:0:
64,192,263460,1,0,0:0:0:0:
448,192,263460,1,0,0:0:0:0:
320,192,263580,1,0,0:0:0:0:
448,192,263580,1,0,0:0:0:0:
192,192,263580,1,0,0:0:0:0:
64,192,263700,1,0,0:0:0:0:
192,192,263700,1,0,0:0:0:0:
320,192,263700,1,0,0:0:0:0:
448,192,263700,1,0,0:0:0:0:
320,192,263820,1,0,0:0:0:0:
448,192,263820,1,0,0:0:0:0:
64,192,263820,1,0,0:0:0:0:
192,192,263940,1,0,0:0:0:0:
320,192,263940,1,0,0:0:0:0:
448,192,264060,1,0,0:0:0:0:
320,192,264060,1,0,0:0:0:0:
64,192,264180,1,0,0:0:0:0:
192,192,264180,1,0,0:0:0:0:
448,192,264180,1,0,0:0:0:0:
320,192,264300,1,0,0:0:0:0:
448,192,264300,1,0,0:0:0:0:
64,192,264360,1,0,0:0:0:0:
192,192,264360,1,0,0:0:0:0:
320,192,264420,1,0,0:0:0:0:
448,192,264420,1,0,0:0:0:0:
192,192,264480,1,0,0:0:0:0:
64,192,264480,1,0,0:0:0:0:
320,192,264540,1,0,0:0:0:0:
448,192,264540,1,0,0:0:0:0:
192,192,264660,1,0,0:0:0:0:
64,192,264660,1,0,0:0:0:0:
448,192,264660,1,0,0:0:0:0:
320,192,264780,1,0,0:0:0:0:
192,192,264780,1,0,0:0:0:0:
64,192,264900,1,0,0:0:0:0:
448,192,264900,1,0,0:0:0:0:
320,192,264900,1,0,0:0:0:0:
320,192,265020,1,0,0:0:0:0:
192,192,265020,1,0,0:0:0:0:
448,192,265020,1,0,0:0:0:0:
64,192,265140,1,0,0:0:0:0:
192,192,265140,1,0,0:0:0:0:
320,192,265140,1,0,0:0:0:0:
320,192,265260,1,0,0:0:0:0:
64,192,265260,1,0,0:0:0:0:
192,192,265380,1,0,0:0:0:0:
448,192,265380,1,0,0:0:0:0:
448,192,265500,1,0,0:0:0:0:
64,192,265500,1,0,0:0:0:0:
192,192,265560,1,0,0:0:0:0:
320,192,265560,1,0,0:0:0:0:
448,192,265620,1,0,0:0:0:0:
64,192,265620,1,0,0:0:0:0:
192,192,265740,1,0,0:0:0:0:
448,192,265740,1,0,0:0:0:0:
64,192,265740,1,0,0:0:0:0:
192,192,265860,1,0,0:0:0:0:
320,192,265860,1,0,0:0:0:0:
448,192,265860,1,0,0:0:0:0:
64,192,265980,1,0,0:0:0:0:
448,192,265980,1,0,0:0:0:0:
320,192,265980,1,0,0:0:0:0:
192,192,266100,1,0,0:0:0:0:
320,192,266100,1,0,0:0:0:0:
64,192,266220,1,0,0:0:0:0:
192,192,266220,1,0,0:0:0:0:
320,192,266280,1,0,0:0:0:0:
448,192,266280,1,0,0:0:0:0:
192,192,266340,1,0,0:0:0:0:
64,192,266340,1,0,0:0:0:0:
320,192,266400,1,0,0:0:0:0:
448,192,266400,1,0,0:0:0:0:
192,192,266460,1,0,0:0:0:0:
64,192,266460,1,0,0:0:0:0:
320,192,266580,1,0,0:0:0:0:
192,192,266580,1,0,0:0:0:0:
448,192,266580,1,0,0:0:0:0:
64,192,266700,1,0,0:0:0:0:
192,192,266700,1,0,0:0:0:0:
448,192,266700,1,0,0:0:0:0:
320,192,266820,1,0,0:0:0:0:
192,192,266820,1,0,0:0:0:0:
64,192,266820,1,0,0:0:0:0:
192,192,266940,1,0,0:0:0:0:
320,192,266940,1,0,0:0:0:0:
448,192,267060,1,0,0:0:0:0:
320,192,267060,1,0,0:0:0:0:
64,192,267180,1,0,0:0:0:0:
192,192,267180,1,0,0:0:0:0:
448,192,267180,1,0,0:0:0:0:
192,192,267300,1,0,0:0:0:0:
448,192,267300,1,0,0:0:0:0:
64,192,267420,1,0,0:0:0:0:
448,192,267420,1,0,0:0:0:0:
320,192,267420,1,0,0:0:0:0:
192,192,267540,1,0,0:0:0:0:
320,192,267540,1,0,0:0:0:0:
448,192,267540,1,0,0:0:0:0:
64,192,267660,1,0,0:0:0:0:
192,192,267660,1,0,0:0:0:0:
448,192,267780,1,0,0:0:0:0:
320,192,267780,1,0,0:0:0:0:
192,192,267780,1,0,0:0:0:0:
192,192,267900,1,0,0:0:0:0:
320,192,267900,1,0,0:0:0:0:
64,192,268020,1,0,0:0:0:0:
448,192,268020,1,0,0:0:0:0:
320,192,268140,1,0,0:0:0:0:
448,192,268140,1,0,0:0:0:0:
192,192,268200,1,0,0:0:0:0:
64,192,268200,1,0,0:0:0:0:
320,192,268260,1,0,0:0:0:0:
448,192,268260,1,0,0:0:0:0:
192,192,268320,1,0,0:0:0:0:
64,192,268320,1,0,0:0:0:0:
320,192,268380,1,0,0:0:0:0:
448,192,268380,128,0,268560:0:0:0:0:
192,192,268560,128,0,268740:0:0:0:0:
320,192,268560,1,0,0:0:0:0:
64,192,268560,1,0,0:0:0:0:
448,192,268740,128,0,268920:0:0:0:0:
64,192,268920,1,0,0:0:0:0:
192,192,268920,1,0,0:0:0:0:
192,192,269100,5,0,0:0:0:0:
448,192,269100,1,0,0:0:0:0:
320,192,269100,128,0,269220:0:0:0:0:
64,192,269220,1,0,0:0:0:0:
192,192,269220,1,0,0:0:0:0:
320,192,269340,1,0,0:0:0:0:
448,192,269340,1,0,0:0:0:0:
192,192,269400,1,0,0:0:0:0:
64,192,269400,1,0,0:0:0:0:
320,192,269460,1,0,0:0:0:0:
448,192,269460,1,0,0:0:0:0:
192,192,269520,1,0,0:0:0:0:
64,192,269520,1,0,0:0:0:0:
320,192,269580,1,0,0:0:0:0:
448,192,269580,1,0,0:0:0:0:
192,192,269640,1,0,0:0:0:0:
320,192,269700,1,0,0:0:0:0:
448,192,269700,1,0,0:0:0:0:
64,192,269700,1,0,0:0:0:0:
64,192,269820,1,0,0:0:0:0:
192,192,269820,1,0,0:0:0:0:
320,192,269880,1,0,0:0:0:0:
448,192,269880,1,0,0:0:0:0:
64,192,269940,1,0,0:0:0:0:
192,192,269940,1,0,0:0:0:0:
320,192,270000,1,0,0:0:0:0:
448,192,270000,1,0,0:0:0:0:
64,192,270060,1,0,0:0:0:0:
192,192,270060,1,0,0:0:0:0:
320,192,270120,1,0,0:0:0:0:
448,192,270120,1,0,0:0:0:0:
64,192,270180,1,0,0:0:0:0:
192,192,270180,128,0,273300:0:0:0:0:
320,192,273360,128,0,273600:0:0:0:0:
