osu file format v14

[General]
AudioFilename: 15 Call me it. (500 Tortures).mp3
AudioLeadIn: 0
PreviewTime: 138720
Countdown: 0
SampleSet: Soft
StackLeniency: 0.7
Mode: 3
LetterboxInBreaks: 0
SpecialStyle: 1
WidescreenStoryboard: 0

[Editor]
DistanceSpacing: 0.8
BeatDivisor: 2
GridSize: 32
TimelineZoom: 1.2

[Metadata]
Title:Call me it (500 Tortures)
TitleUnicode:Call me it (500 Tortures)
Artist:t+pazolite
ArtistUnicode:t+pazolite
Creator:genkicho
Version:EZ
Source:
Tags:
BeatmapID:894388
BeatmapSetID:412257

[Difficulty]
HPDrainRate:2
CircleSize:4
OverallDifficulty:3
ApproachRate:5
SliderMultiplier:1.4
SliderTickRate:1

[Events]
//Background and Video events
0,0,"480417.jpg",0,0
//Break Periods
2,125000,138960
2,155720,162000
2,202760,216720
//Storyboard Layer 0 (Background)
//Storyboard Layer 1 (Fail)
//Storyboard Layer 2 (Pass)
//Storyboard Layer 3 (Foreground)
//Storyboard Sound Samples

[TimingPoints]
15333,480.769230769231,4,2,0,20,1,0
32640,120,4,2,0,70,1,1
39360,-133.333333333333,4,2,0,70,0,1
40320,-100,4,2,0,70,0,1
48000,480,4,2,0,30,1,0
63360,-83.3333333333333,4,2,0,30,0,0
74880,-58.8235294117647,4,2,0,30,0,0
75120,-83.3333333333333,4,2,0,30,0,0
75360,-58.8235294117647,4,2,0,30,0,0
75600,-83.3333333333333,4,2,0,30,0,0
75840,-58.8235294117647,4,2,0,30,0,0
76080,-83.3333333333333,4,2,0,30,0,0
76320,-74.0740740740741,4,2,0,30,0,0
77760,-64.5161290322581,4,2,0,30,0,0
78000,-100,4,2,0,30,0,0
78240,-66.6666666666667,4,2,0,30,0,0
78480,-100,4,2,0,30,0,0
78720,240,4,2,0,35,1,0
78720,-100,4,2,0,35,0,0
80400,-90.9090909090909,4,2,0,35,0,0
80640,-66.6666666666667,4,2,0,35,0,0
80760,-100,4,2,0,35,0,0
81600,-95.2380952380952,4,2,0,35,0,0
82080,-90.9090909090909,4,2,0,35,0,0
82560,-100,4,2,0,35,0,0
84240,-90.9090909090909,4,2,0,35,0,0
84480,-125,4,2,0,35,0,0
85320,-111.111111111111,4,2,0,35,0,0
85920,-100,4,2,0,35,0,0
86400,-95.2380952380952,4,2,0,35,0,0
92160,-111.111111111111,4,2,0,35,0,0
93000,-100,4,2,0,35,0,0
93600,-133.333333333333,4,2,0,35,0,0
93840,-16.6666666666667,4,2,0,35,0,0
94080,120,4,2,0,70,1,0
94080,-100,4,2,0,70,0,1
96960,-133.333333333333,4,2,0,70,0,1
97920,-100,4,2,0,70,0,1
100680,-133.333333333333,4,2,0,70,0,1
101760,-100,4,2,0,70,0,1
104640,-133.333333333333,4,2,0,70,0,1
105120,-100,4,2,0,70,0,1
108360,-285.714285714284,4,2,0,70,0,1
109440,240,4,2,0,35,1,0
109440,-100,4,2,0,35,0,0
124800,-125,4,2,0,35,0,0
140160,120,4,2,0,70,1,1
146880,-133.333333333333,4,2,0,70,0,1
147840,240,4,2,0,30,1,0
147840,-100,4,2,0,30,0,0
149760,120,4,2,0,100,1,1
149760,-100,4,2,0,100,0,1
155520,240,4,2,0,30,1,0
155520,-100,4,2,0,30,0,0
166080,-111.111111111111,4,2,0,30,0,0
167040,-66.6666666666667,4,2,0,30,0,0
167160,-100,4,2,0,30,0,0
167520,-66.6666666666667,4,2,0,30,0,0
167640,-100,4,2,0,30,0,0
168000,-66.6666666666667,4,2,0,30,0,0
168120,-100,4,2,0,30,0,0
168480,-66.6666666666667,4,2,0,30,0,0
168600,-100,4,2,0,30,0,0
168960,-111.111111111111,4,2,0,30,0,0
169800,-90.9090909090909,4,2,0,30,0,0
170400,-133.333333333333,4,2,0,30,0,0
170640,-16.6666666666667,4,2,0,30,0,0
170880,120,4,2,0,70,1,1
173760,-133.333333333333,4,2,0,70,0,1
174720,-100,4,2,0,70,0,1
177480,-133.333333333333,4,2,0,70,0,1
178560,-100,4,2,0,70,0,1
181440,-133.333333333333,4,2,0,70,0,1
182400,-100,4,2,0,70,0,1
185160,-250,4,2,0,70,0,1
186240,240,4,2,0,30,1,0
202560,-125,4,2,0,30,0,0
210240,-66.6666666666667,4,2,0,30,0,0
210360,-125,4,2,0,30,0,0
211920,-100,4,2,0,30,0,0
212160,-66.6666666666667,4,2,0,30,0,0
212280,-125,4,2,0,30,0,0
213600,-111.111111111111,4,2,0,30,0,0
213840,-90.9090909090909,4,2,0,30,0,0
214080,-66.6666666666667,4,2,0,30,0,0
214200,-125,4,2,0,30,0,0
215040,-66.6666666666667,4,2,0,30,0,0
215160,-125,4,2,0,30,0,0
215760,-100,4,2,0,30,0,0
216000,-66.6666666666667,4,2,0,30,0,0
216120,-125,4,2,0,30,0,0
216480,-76.9230769230769,4,2,0,30,0,0
216600,-125,4,2,0,30,0,0
216720,-76.9230769230769,4,2,0,30,0,0
216840,-125,4,2,0,30,0,0
216960,-125,4,2,0,30,0,0
217200,-117.647058823529,4,2,0,30,0,0
217440,-111.111111111111,4,2,0,30,0,0
217680,-105.263157894737,4,2,0,30,0,0
217920,-100,4,2,0,30,0,0
250560,-66.6666666666667,4,2,0,30,0,0
250680,-100,4,2,0,30,0,0
250920,-66.6666666666667,4,2,0,30,0,0
251040,-100,4,2,0,30,0,0
251280,-66.6666666666667,4,2,0,30,0,0
251400,-100,4,2,0,30,0,0
251640,-66.6666666666667,4,2,0,30,0,0
251760,-100,4,2,0,30,0,0
252000,-83.3333333333333,4,2,0,30,0,0
252480,-66.6666666666667,4,2,0,30,0,0
252600,-133.333333333333,4,2,0,30,0,0
253440,-125,4,2,0,30,0,0
253680,-83.3333333333333,4,2,0,30,0,0
253920,-62.5,4,2,0,30,0,0
254160,-16.6666666666667,4,2,0,30,0,0
254400,120,4,2,0,70,1,1
254400,-100,4,2,0,70,0,1
261120,-133.333333333333,4,2,0,70,0,1
262080,-100,4,2,0,70,0,1
267840,-117.647058823529,4,2,0,70,0,1
268800,-100,4,2,0,70,0,1
269640,-66.6666666666667,4,2,0,70,0,0

[HitObjects]
320,192,15333,5,0,0:0:0:0:
320,192,16054,1,0,0:0:0:0:
448,192,16294,1,0,0:0:0:0:
192,192,17496,1,0,0:0:0:0:
192,192,17977,1,0,0:0:0:0:
64,192,18217,1,0,0:0:0:0:
64,192,18698,1,0,0:0:0:0:
320,192,18818,1,0,0:0:0:0:
192,192,18938,1,0,0:0:0:0:
320,192,19058,1,0,0:0:0:0:
448,192,19179,1,0,0:0:0:0:
192,192,19900,1,0,0:0:0:0:
320,192,20140,1,0,0:0:0:0:
192,192,21342,1,0,0:0:0:0:
192,192,21823,1,0,0:0:0:0:
448,192,22063,1,0,0:0:0:0:
192,192,22544,1,0,0:0:0:0:
320,192,22664,1,0,0:0:0:0:
64,192,22784,1,0,0:0:0:0:
448,192,23025,1,0,0:0:0:0:
192,192,23746,1,0,0:0:0:0:
448,192,23986,1,0,0:0:0:0:
192,192,25188,1,0,0:0:0:0:
192,192,25669,1,0,0:0:0:0:
448,192,25909,1,0,0:0:0:0:
448,192,26390,1,0,0:0:0:0:
320,192,26510,1,0,0:0:0:0:
192,192,26631,1,0,0:0:0:0:
64,192,26751,1,0,0:0:0:0:
192,192,26871,1,0,0:0:0:0:
192,192,27592,1,0,0:0:0:0:
448,192,27833,1,0,0:0:0:0:
192,192,29034,1,0,0:0:0:0:
192,192,29515,1,0,0:0:0:0:
320,192,29756,1,0,0:0:0:0:
448,192,30236,1,0,0:0:0:0:
320,192,30357,1,0,0:0:0:0:
192,192,30477,1,0,0:0:0:0:
64,192,30597,128,0,32640:0:0:0:0:
192,192,32640,1,0,0:0:0:0:
448,192,32640,1,0,0:0:0:0:
320,192,32880,1,0,0:0:0:0:
64,192,33120,1,0,0:0:0:0:
192,192,33360,1,0,0:0:0:0:
320,192,33600,1,0,0:0:0:0:
192,192,33840,1,0,0:0:0:0:
448,192,34080,1,0,0:0:0:0:
320,192,34320,1,0,0:0:0:0:
192,192,34560,1,0,0:0:0:0:
64,192,34800,1,0,0:0:0:0:
320,192,35040,1,0,0:0:0:0:
192,192,35280,1,0,0:0:0:0:
448,192,35520,1,0,0:0:0:0:
320,192,35760,1,0,0:0:0:0:
192,192,36000,1,0,0:0:0:0:
64,192,36240,1,0,0:0:0:0:
320,192,36480,1,0,0:0:0:0:
192,192,36720,1,0,0:0:0:0:
448,192,36960,1,0,0:0:0:0:
320,192,37200,1,0,0:0:0:0:
192,192,37440,1,0,0:0:0:0:
64,192,37680,1,0,0:0:0:0:
192,192,37920,1,0,0:0:0:0:
320,192,38160,1,0,0:0:0:0:
192,192,38400,1,0,0:0:0:0:
448,192,38640,1,0,0:0:0:0:
320,192,38880,1,0,0:0:0:0:
64,192,39120,1,0,0:0:0:0:
192,192,39360,128,0,39600:0:0:0:0:
64,192,39600,128,0,39840:0:0:0:0:
448,192,39840,128,0,40080:0:0:0:0:
320,192,40080,128,0,40320:0:0:0:0:
448,192,40320,1,0,0:0:0:0:
192,192,40320,1,0,0:0:0:0:
64,192,40560,1,0,0:0:0:0:
192,192,40800,1,0,0:0:0:0:
320,192,41040,1,0,0:0:0:0:
192,192,41280,1,0,0:0:0:0:
448,192,41520,1,0,0:0:0:0:
320,192,41760,1,0,0:0:0:0:
192,192,42000,1,0,0:0:0:0:
64,192,42240,1,0,0:0:0:0:
192,192,42480,1,0,0:0:0:0:
448,192,42720,1,0,0:0:0:0:
320,192,42960,1,0,0:0:0:0:
192,192,43200,1,0,0:0:0:0:
64,192,43440,1,0,0:0:0:0:
320,192,43680,1,0,0:0:0:0:
192,192,43920,1,0,0:0:0:0:
320,192,44160,1,0,0:0:0:0:
64,192,44400,1,0,0:0:0:0:
192,192,44640,1,0,0:0:0:0:
320,192,44880,1,0,0:0:0:0:
192,192,45120,1,0,0:0:0:0:
448,192,45360,1,0,0:0:0:0:
320,192,45600,1,0,0:0:0:0:
192,192,45840,1,0,0:0:0:0:
64,192,46080,128,0,47040:0:0:0:0:
192,192,47040,128,0,47520:0:0:0:0:
320,192,47520,128,0,47700:0:0:0:0:
448,192,47700,128,0,47880:0:0:0:0:
192,192,47880,128,0,48000:0:0:0:0:
64,192,48000,1,0,0:0:0:0:
64,192,48480,1,0,0:0:0:0:
64,192,48960,1,0,0:0:0:0:
64,192,49440,1,0,0:0:0:0:
64,192,49920,1,0,0:0:0:0:
64,192,50400,1,0,0:0:0:0:
64,192,50880,1,0,0:0:0:0:
64,192,51360,1,0,0:0:0:0:
192,192,51600,1,0,0:0:0:0:
320,192,51840,1,0,0:0:0:0:
320,192,52320,1,0,0:0:0:0:
320,192,52800,1,0,0:0:0:0:
320,192,53280,1,0,0:0:0:0:
320,192,53760,1,0,0:0:0:0:
320,192,54240,1,0,0:0:0:0:
320,192,54720,1,0,0:0:0:0:
320,192,55200,1,0,0:0:0:0:
448,192,55440,1,0,0:0:0:0:
192,192,55680,1,0,0:0:0:0:
192,192,56160,1,0,0:0:0:0:
192,192,56640,1,0,0:0:0:0:
192,192,57120,1,0,0:0:0:0:
192,192,57600,1,0,0:0:0:0:
192,192,58080,1,0,0:0:0:0:
192,192,58560,1,0,0:0:0:0:
192,192,59040,1,0,0:0:0:0:
320,192,59280,1,0,0:0:0:0:
448,192,59520,1,0,0:0:0:0:
448,192,60000,1,0,0:0:0:0:
448,192,60480,1,0,0:0:0:0:
448,192,60960,1,0,0:0:0:0:
448,192,61440,1,0,0:0:0:0:
448,192,61920,1,0,0:0:0:0:
448,192,62400,1,0,0:0:0:0:
448,192,62880,1,0,0:0:0:0:
320,192,63120,1,0,0:0:0:0:
64,192,63360,1,0,0:0:0:0:
192,192,63360,1,0,0:0:0:0:
192,192,64080,1,0,0:0:0:0:
320,192,64320,1,0,0:0:0:0:
192,192,65520,1,0,0:0:0:0:
192,192,66000,1,0,0:0:0:0:
448,192,66240,1,0,0:0:0:0:
320,192,66720,1,0,0:0:0:0:
192,192,66840,1,0,0:0:0:0:
64,192,66960,1,0,0:0:0:0:
192,192,67080,1,0,0:0:0:0:
448,192,67200,1,0,0:0:0:0:
192,192,67920,1,0,0:0:0:0:
320,192,68160,1,0,0:0:0:0:
192,192,69360,1,0,0:0:0:0:
192,192,69840,1,0,0:0:0:0:
448,192,70080,1,0,0:0:0:0:
320,192,70560,1,0,0:0:0:0:
192,192,70680,1,0,0:0:0:0:
448,192,70800,1,0,0:0:0:0:
320,192,70920,1,0,0:0:0:0:
192,192,71040,1,0,0:0:0:0:
64,192,71040,1,0,0:0:0:0:
192,192,71760,1,0,0:0:0:0:
448,192,72000,1,0,0:0:0:0:
320,192,72480,128,0,72720:0:0:0:0:
64,192,72480,1,0,0:0:0:0:
192,192,72720,128,0,72960:0:0:0:0:
64,192,72960,1,0,0:0:0:0:
448,192,72960,1,0,0:0:0:0:
192,192,73680,1,0,0:0:0:0:
320,192,73920,1,0,0:0:0:0:
192,192,74400,1,0,0:0:0:0:
320,192,74520,1,0,0:0:0:0:
192,192,74640,1,0,0:0:0:0:
320,192,74760,1,0,0:0:0:0:
64,192,74880,1,0,0:0:0:0:
448,192,74880,1,0,0:0:0:0:
192,192,75360,1,0,0:0:0:0:
320,192,75360,1,0,0:0:0:0:
64,192,75840,1,0,0:0:0:0:
448,192,75840,1,0,0:0:0:0:
192,192,76320,1,0,0:0:0:0:
320,192,76320,1,0,0:0:0:0:
64,192,76560,1,0,0:0:0:0:
448,192,76800,1,0,0:0:0:0:
320,192,76800,1,0,0:0:0:0:
192,192,77040,1,0,0:0:0:0:
64,192,77280,1,0,0:0:0:0:
320,192,77280,1,0,0:0:0:0:
448,192,77520,1,0,0:0:0:0:
192,192,77760,1,0,0:0:0:0:
64,192,77760,1,0,0:0:0:0:
320,192,77880,1,0,0:0:0:0:
448,192,78000,1,0,0:0:0:0:
64,192,78240,1,0,0:0:0:0:
192,192,78360,1,0,0:0:0:0:
320,192,78480,1,0,0:0:0:0:
64,192,78720,1,0,0:0:0:0:
448,192,78720,1,0,0:0:0:0:
320,192,80400,128,0,80640:0:0:0:0:
64,192,80640,1,0,0:0:0:0:
448,192,80640,1,0,0:0:0:0:
192,192,81600,128,0,82080:0:0:0:0:
320,192,82080,128,0,82560:0:0:0:0:
192,192,82560,1,0,0:0:0:0:
448,192,82560,1,0,0:0:0:0:
192,192,84240,128,0,84480:0:0:0:0:
320,192,84480,1,0,0:0:0:0:
64,192,84480,128,0,85320:0:0:0:0:
320,192,85320,128,0,85920:0:0:0:0:
448,192,85920,128,0,86400:0:0:0:0:
320,192,86400,1,0,0:0:0:0:
64,192,86400,1,0,0:0:0:0:
448,192,86880,1,0,0:0:0:0:
192,192,87120,1,0,0:0:0:0:
64,192,87360,1,0,0:0:0:0:
320,192,87360,1,0,0:0:0:0:
448,192,87840,1,0,0:0:0:0:
192,192,88080,1,0,0:0:0:0:
64,192,88320,1,0,0:0:0:0:
320,192,88320,1,0,0:0:0:0:
192,192,88800,1,0,0:0:0:0:
320,192,89040,1,0,0:0:0:0:
448,192,89280,1,0,0:0:0:0:
320,192,89520,1,0,0:0:0:0:
192,192,89760,1,0,0:0:0:0:
64,192,90000,1,0,0:0:0:0:
192,192,90240,1,0,0:0:0:0:
320,192,90240,1,0,0:0:0:0:
192,192,90720,1,0,0:0:0:0:
320,192,90720,1,0,0:0:0:0:
192,192,91200,1,0,0:0:0:0:
320,192,91200,1,0,0:0:0:0:
448,192,91560,1,0,0:0:0:0:
320,192,91680,1,0,0:0:0:0:
448,192,91920,1,0,0:0:0:0:
192,192,92160,1,0,0:0:0:0:
64,192,92160,128,0,93000:0:0:0:0:
448,192,93000,128,0,93600:0:0:0:0:
192,192,93600,1,0,0:0:0:0:
64,192,93840,128,0,94080:0:0:0:0:
320,192,94080,1,0,0:0:0:0:
448,192,94080,1,0,0:0:0:0:
192,192,94320,1,0,0:0:0:0:
64,192,94560,1,0,0:0:0:0:
192,192,94800,1,0,0:0:0:0:
320,192,95040,1,0,0:0:0:0:
192,192,95280,1,0,0:0:0:0:
448,192,95520,1,0,0:0:0:0:
192,192,95760,1,0,0:0:0:0:
64,192,96000,1,0,0:0:0:0:
192,192,96240,1,0,0:0:0:0:
448,192,96480,1,0,0:0:0:0:
320,192,96720,1,0,0:0:0:0:
448,192,96960,128,0,97200:0:0:0:0:
192,192,97200,128,0,97440:0:0:0:0:
64,192,97440,128,0,97680:0:0:0:0:
320,192,97680,128,0,97920:0:0:0:0:
448,192,97920,1,0,0:0:0:0:
192,192,98160,1,0,0:0:0:0:
64,192,98400,1,0,0:0:0:0:
192,192,98640,1,0,0:0:0:0:
320,192,98880,1,0,0:0:0:0:
192,192,99120,1,0,0:0:0:0:
448,192,99360,1,0,0:0:0:0:
320,192,99600,1,0,0:0:0:0:
192,192,99840,1,0,0:0:0:0:
64,192,100080,1,0,0:0:0:0:
320,192,100320,1,0,0:0:0:0:
192,192,100560,1,0,0:0:0:0:
64,192,100680,128,0,101760:0:0:0:0:
320,192,101760,1,0,0:0:0:0:
192,192,101760,1,0,0:0:0:0:
448,192,102000,1,0,0:0:0:0:
320,192,102240,1,0,0:0:0:0:
192,192,102480,1,0,0:0:0:0:
64,192,102720,1,0,0:0:0:0:
192,192,102960,1,0,0:0:0:0:
64,192,103200,1,0,0:0:0:0:
320,192,103440,1,0,0:0:0:0:
448,192,103680,1,0,0:0:0:0:
192,192,103920,1,0,0:0:0:0:
320,192,104160,1,0,0:0:0:0:
64,192,104400,1,0,0:0:0:0:
448,192,104640,128,0,104880:0:0:0:0:
320,192,104880,128,0,105120:0:0:0:0:
64,192,105120,128,0,105360:0:0:0:0:
192,192,105360,128,0,105600:0:0:0:0:
320,192,105600,1,0,0:0:0:0:
64,192,105840,1,0,0:0:0:0:
192,192,106080,1,0,0:0:0:0:
320,192,106320,1,0,0:0:0:0:
448,192,106560,1,0,0:0:0:0:
320,192,106800,1,0,0:0:0:0:
192,192,107040,1,0,0:0:0:0:
320,192,107280,1,0,0:0:0:0:
64,192,107520,1,0,0:0:0:0:
192,192,107760,1,0,0:0:0:0:
320,192,108000,1,0,0:0:0:0:
448,192,108240,1,0,0:0:0:0:
320,192,108360,128,0,108600:0:0:0:0:
64,192,108600,128,0,108720:0:0:0:0:
192,192,108720,128,0,108840:0:0:0:0:
448,192,108840,128,0,108960:0:0:0:0:
64,192,109440,1,0,0:0:0:0:
448,192,109440,1,0,0:0:0:0:
320,192,109680,1,0,0:0:0:0:
192,192,109920,1,0,0:0:0:0:
320,192,110160,1,0,0:0:0:0:
192,192,110280,1,0,0:0:0:0:
64,192,110400,1,0,0:0:0:0:
192,192,110640,1,0,0:0:0:0:
320,192,110760,1,0,0:0:0:0:
64,192,110880,1,0,0:0:0:0:
448,192,111000,1,0,0:0:0:0:
192,192,111120,1,0,0:0:0:0:
192,192,111360,1,0,0:0:0:0:
64,192,111600,1,0,0:0:0:0:
320,192,111840,1,0,0:0:0:0:
64,192,111960,1,0,0:0:0:0:
192,192,112080,1,0,0:0:0:0:
320,192,112200,1,0,0:0:0:0:
448,192,112320,128,0,112560:0:0:0:0:
320,192,112560,128,0,112800:0:0:0:0:
64,192,112800,128,0,113040:0:0:0:0:
192,192,113040,128,0,113280:0:0:0:0:
320,192,113280,1,0,0:0:0:0:
64,192,113520,1,0,0:0:0:0:
320,192,113760,1,0,0:0:0:0:
192,192,114000,1,0,0:0:0:0:
320,192,114120,1,0,0:0:0:0:
448,192,114240,1,0,0:0:0:0:
64,192,114480,1,0,0:0:0:0:
192,192,114600,1,0,0:0:0:0:
320,192,114720,1,0,0:0:0:0:
448,192,114960,1,0,0:0:0:0:
320,192,115080,1,0,0:0:0:0:
192,192,115200,1,0,0:0:0:0:
64,192,115440,1,0,0:0:0:0:
320,192,115680,1,0,0:0:0:0:
192,192,115800,1,0,0:0:0:0:
64,192,115920,1,0,0:0:0:0:
320,192,116040,128,0,117120:0:0:0:0:
64,192,117120,1,0,0:0:0:0:
448,192,117120,1,0,0:0:0:0:
192,192,117360,1,0,0:0:0:0:
64,192,117600,1,0,0:0:0:0:
192,192,117840,1,0,0:0:0:0:
320,192,117960,1,0,0:0:0:0:
448,192,118080,1,0,0:0:0:0:
192,192,118320,1,0,0:0:0:0:
320,192,118440,1,0,0:0:0:0:
64,192,118560,1,0,0:0:0:0:
192,192,118680,1,0,0:0:0:0:
448,192,118800,1,0,0:0:0:0:
320,192,119040,1,0,0:0:0:0:
64,192,119280,1,0,0:0:0:0:
192,192,119520,1,0,0:0:0:0:
64,192,119640,1,0,0:0:0:0:
448,192,119760,1,0,0:0:0:0:
192,192,119880,1,0,0:0:0:0:
320,192,120000,128,0,120240:0:0:0:0:
192,192,120240,128,0,120480:0:0:0:0:
64,192,120480,128,0,120720:0:0:0:0:
448,192,120720,128,0,120960:0:0:0:0:
192,192,120960,1,0,0:0:0:0:
320,192,120960,1,0,0:0:0:0:
64,192,121200,1,0,0:0:0:0:
320,192,121440,1,0,0:0:0:0:
192,192,121680,1,0,0:0:0:0:
320,192,121800,1,0,0:0:0:0:
448,192,121920,1,0,0:0:0:0:
64,192,122160,1,0,0:0:0:0:
192,192,122280,1,0,0:0:0:0:
320,192,122400,1,0,0:0:0:0:
192,192,122640,1,0,0:0:0:0:
320,192,122760,1,0,0:0:0:0:
448,192,122880,1,0,0:0:0:0:
192,192,123120,1,0,0:0:0:0:
448,192,123360,1,0,0:0:0:0:
320,192,123480,1,0,0:0:0:0:
192,192,123600,1,0,0:0:0:0:
64,192,123720,128,0,124800:0:0:0:0:
64,192,140160,5,0,0:0:0:0:
448,192,140160,1,0,0:0:0:0:
192,192,140400,1,0,0:0:0:0:
320,192,140640,1,0,0:0:0:0:
64,192,140880,1,0,0:0:0:0:
448,192,141120,1,0,0:0:0:0:
320,192,141360,1,0,0:0:0:0:
192,192,141600,1,0,0:0:0:0:
64,192,141840,1,0,0:0:0:0:
320,192,142080,1,0,0:0:0:0:
192,192,142320,1,0,0:0:0:0:
448,192,142560,1,0,0:0:0:0:
320,192,142800,1,0,0:0:0:0:
64,192,143040,1,0,0:0:0:0:
192,192,143280,1,0,0:0:0:0:
320,192,143520,1,0,0:0:0:0:
192,192,143760,1,0,0:0:0:0:
448,192,144000,1,0,0:0:0:0:
320,192,144240,1,0,0:0:0:0:
192,192,144480,1,0,0:0:0:0:
64,192,144720,1,0,0:0:0:0:
192,192,144960,1,0,0:0:0:0:
320,192,145200,1,0,0:0:0:0:
192,192,145440,1,0,0:0:0:0:
448,192,145680,1,0,0:0:0:0:
320,192,145920,1,0,0:0:0:0:
192,192,146160,1,0,0:0:0:0:
64,192,146400,1,0,0:0:0:0:
192,192,146640,1,0,0:0:0:0:
320,192,146880,128,0,147120:0:0:0:0:
192,192,147120,128,0,147360:0:0:0:0:
448,192,147360,128,0,147600:0:0:0:0:
320,192,147600,128,0,147840:0:0:0:0:
192,192,147840,1,0,0:0:0:0:
320,192,148080,1,0,0:0:0:0:
64,192,148320,1,0,0:0:0:0:
192,192,148560,1,0,0:0:0:0:
448,192,148800,1,0,0:0:0:0:
320,192,149040,1,0,0:0:0:0:
192,192,149280,1,0,0:0:0:0:
320,192,149520,128,0,149760:0:0:0:0:
64,192,149760,1,0,0:0:0:0:
448,192,149760,1,0,0:0:0:0:
192,192,150000,1,0,0:0:0:0:
320,192,150240,1,0,0:0:0:0:
192,192,150480,1,0,0:0:0:0:
448,192,150720,1,0,0:0:0:0:
320,192,150960,1,0,0:0:0:0:
192,192,151200,1,0,0:0:0:0:
64,192,151440,1,0,0:0:0:0:
192,192,151680,1,0,0:0:0:0:
320,192,151920,1,0,0:0:0:0:
192,192,152160,1,0,0:0:0:0:
448,192,152400,1,0,0:0:0:0:
320,192,152640,1,0,0:0:0:0:
64,192,152880,1,0,0:0:0:0:
192,192,153120,1,0,0:0:0:0:
320,192,153360,1,0,0:0:0:0:
192,192,153600,1,0,0:0:0:0:
192,192,153780,1,0,0:0:0:0:
448,192,153960,1,0,0:0:0:0:
192,192,154140,1,0,0:0:0:0:
448,192,154320,1,0,0:0:0:0:
64,192,154440,1,0,0:0:0:0:
192,192,154560,1,0,0:0:0:0:
320,192,154680,1,0,0:0:0:0:
448,192,154800,1,0,0:0:0:0:
320,192,154920,1,0,0:0:0:0:
192,192,155040,1,0,0:0:0:0:
64,192,155160,1,0,0:0:0:0:
192,192,155280,1,0,0:0:0:0:
320,192,155400,1,0,0:0:0:0:
448,192,155520,1,0,0:0:0:0:
192,192,155520,1,0,0:0:0:0:
192,192,163200,5,0,0:0:0:0:
448,192,163200,1,0,0:0:0:0:
192,192,163560,1,0,0:0:0:0:
320,192,163680,1,0,0:0:0:0:
64,192,163800,1,0,0:0:0:0:
448,192,163920,1,0,0:0:0:0:
192,192,164160,1,0,0:0:0:0:
320,192,164160,1,0,0:0:0:0:
192,192,164520,1,0,0:0:0:0:
64,192,164640,1,0,0:0:0:0:
320,192,164760,1,0,0:0:0:0:
448,192,164880,1,0,0:0:0:0:
192,192,165000,1,0,0:0:0:0:
192,192,165120,1,0,0:0:0:0:
64,192,165120,1,0,0:0:0:0:
320,192,165480,1,0,0:0:0:0:
192,192,165600,1,0,0:0:0:0:
64,192,165720,1,0,0:0:0:0:
320,192,165840,1,0,0:0:0:0:
192,192,165960,1,0,0:0:0:0:
192,192,166080,128,0,167040:0:0:0:0:
448,192,166080,1,0,0:0:0:0:
64,192,167040,1,0,0:0:0:0:
448,192,167040,1,0,0:0:0:0:
64,192,167520,1,0,0:0:0:0:
448,192,167520,1,0,0:0:0:0:
64,192,168000,1,0,0:0:0:0:
448,192,168000,1,0,0:0:0:0:
64,192,168480,1,0,0:0:0:0:
448,192,168480,1,0,0:0:0:0:
64,192,168960,128,0,169800:0:0:0:0:
448,192,168960,128,0,169800:0:0:0:0:
192,192,169800,128,0,170400:0:0:0:0:
320,192,169800,128,0,170400:0:0:0:0:
448,192,170400,1,0,0:0:0:0:
192,192,170640,128,0,170880:0:0:0:0:
64,192,170880,1,0,0:0:0:0:
320,192,170880,1,0,0:0:0:0:
192,192,171120,1,0,0:0:0:0:
320,192,171360,1,0,0:0:0:0:
448,192,171600,1,0,0:0:0:0:
320,192,171840,1,0,0:0:0:0:
192,192,172080,1,0,0:0:0:0:
64,192,172320,1,0,0:0:0:0:
192,192,172560,1,0,0:0:0:0:
64,192,172800,1,0,0:0:0:0:
192,192,173040,1,0,0:0:0:0:
320,192,173280,1,0,0:0:0:0:
448,192,173520,1,0,0:0:0:0:
192,192,173760,128,0,174000:0:0:0:0:
320,192,174000,128,0,174240:0:0:0:0:
64,192,174240,128,0,174480:0:0:0:0:
448,192,174480,128,0,174720:0:0:0:0:
320,192,174720,1,0,0:0:0:0:
192,192,174720,1,0,0:0:0:0:
64,192,174960,1,0,0:0:0:0:
192,192,175200,1,0,0:0:0:0:
320,192,175440,1,0,0:0:0:0:
192,192,175680,1,0,0:0:0:0:
320,192,175920,1,0,0:0:0:0:
448,192,176160,1,0,0:0:0:0:
320,192,176400,1,0,0:0:0:0:
192,192,176640,1,0,0:0:0:0:
64,192,176880,1,0,0:0:0:0:
192,192,177120,1,0,0:0:0:0:
320,192,177360,1,0,0:0:0:0:
448,192,177480,128,0,178560:0:0:0:0:
320,192,178560,1,0,0:0:0:0:
64,192,178560,1,0,0:0:0:0:
192,192,178800,1,0,0:0:0:0:
320,192,179040,1,0,0:0:0:0:
192,192,179280,1,0,0:0:0:0:
448,192,179520,1,0,0:0:0:0:
320,192,179760,1,0,0:0:0:0:
192,192,180000,1,0,0:0:0:0:
64,192,180240,1,0,0:0:0:0:
192,192,180480,1,0,0:0:0:0:
64,192,180720,1,0,0:0:0:0:
192,192,180960,1,0,0:0:0:0:
320,192,181200,1,0,0:0:0:0:
448,192,181440,128,0,181680:0:0:0:0:
192,192,181680,128,0,181920:0:0:0:0:
64,192,181920,128,0,182160:0:0:0:0:
320,192,182160,128,0,182400:0:0:0:0:
192,192,182400,1,0,0:0:0:0:
448,192,182640,1,0,0:0:0:0:
64,192,182880,1,0,0:0:0:0:
192,192,183120,1,0,0:0:0:0:
320,192,183360,1,0,0:0:0:0:
64,192,183600,1,0,0:0:0:0:
320,192,183840,1,0,0:0:0:0:
192,192,184080,1,0,0:0:0:0:
448,192,184320,1,0,0:0:0:0:
320,192,184560,1,0,0:0:0:0:
64,192,184800,1,0,0:0:0:0:
192,192,185040,1,0,0:0:0:0:
448,192,185160,128,0,185760:0:0:0:0:
320,192,185760,128,0,186000:0:0:0:0:
192,192,186000,128,0,186240:0:0:0:0:
64,192,186240,1,0,0:0:0:0:
448,192,186240,1,0,0:0:0:0:
320,192,186480,1,0,0:0:0:0:
192,192,186720,1,0,0:0:0:0:
64,192,186960,1,0,0:0:0:0:
192,192,187080,1,0,0:0:0:0:
320,192,187200,1,0,0:0:0:0:
64,192,187440,1,0,0:0:0:0:
448,192,187560,1,0,0:0:0:0:
320,192,187680,1,0,0:0:0:0:
192,192,187800,1,0,0:0:0:0:
448,192,187920,1,0,0:0:0:0:
64,192,188160,1,0,0:0:0:0:
192,192,188400,1,0,0:0:0:0:
320,192,188640,1,0,0:0:0:0:
192,192,188760,1,0,0:0:0:0:
64,192,188880,1,0,0:0:0:0:
448,192,189000,1,0,0:0:0:0:
320,192,189120,128,0,189360:0:0:0:0:
192,192,189360,128,0,189600:0:0:0:0:
64,192,189600,128,0,189840:0:0:0:0:
448,192,189840,128,0,190080:0:0:0:0:
192,192,190080,1,0,0:0:0:0:
64,192,190320,1,0,0:0:0:0:
320,192,190560,1,0,0:0:0:0:
192,192,190800,1,0,0:0:0:0:
320,192,190920,1,0,0:0:0:0:
448,192,191040,1,0,0:0:0:0:
320,192,191280,1,0,0:0:0:0:
192,192,191400,1,0,0:0:0:0:
64,192,191520,1,0,0:0:0:0:
448,192,191760,1,0,0:0:0:0:
320,192,191880,1,0,0:0:0:0:
192,192,192000,1,0,0:0:0:0:
320,192,192240,1,0,0:0:0:0:
64,192,192480,1,0,0:0:0:0:
448,192,192600,1,0,0:0:0:0:
320,192,192720,1,0,0:0:0:0:
192,192,192840,128,0,193920:0:0:0:0:
64,192,193920,1,0,0:0:0:0:
448,192,193920,1,0,0:0:0:0:
320,192,194160,1,0,0:0:0:0:
192,192,194400,1,0,0:0:0:0:
64,192,194640,1,0,0:0:0:0:
192,192,194760,1,0,0:0:0:0:
320,192,194880,1,0,0:0:0:0:
192,192,195120,1,0,0:0:0:0:
320,192,195240,1,0,0:0:0:0:
448,192,195360,1,0,0:0:0:0:
320,192,195480,1,0,0:0:0:0:
192,192,195600,1,0,0:0:0:0:
320,192,195840,1,0,0:0:0:0:
192,192,196080,1,0,0:0:0:0:
64,192,196320,1,0,0:0:0:0:
320,192,196440,1,0,0:0:0:0:
192,192,196560,1,0,0:0:0:0:
448,192,196680,1,0,0:0:0:0:
320,192,196800,128,0,197040:0:0:0:0:
448,192,197040,128,0,197280:0:0:0:0:
64,192,197280,128,0,197520:0:0:0:0:
192,192,197520,128,0,197760:0:0:0:0:
320,192,197760,1,0,0:0:0:0:
64,192,198000,1,0,0:0:0:0:
192,192,198240,1,0,0:0:0:0:
448,192,198480,1,0,0:0:0:0:
192,192,198600,1,0,0:0:0:0:
320,192,198720,1,0,0:0:0:0:
64,192,198960,1,0,0:0:0:0:
448,192,199080,1,0,0:0:0:0:
192,192,199200,1,0,0:0:0:0:
320,192,199440,1,0,0:0:0:0:
448,192,199560,1,0,0:0:0:0:
64,192,199680,1,0,0:0:0:0:
192,192,199920,1,0,0:0:0:0:
320,192,200160,1,0,0:0:0:0:
448,192,200280,1,0,0:0:0:0:
320,192,200400,1,0,0:0:0:0:
192,192,200520,1,0,0:0:0:0:
64,192,200760,1,0,0:0:0:0:
64,192,201000,1,0,0:0:0:0:
320,192,201120,1,0,0:0:0:0:
320,192,201360,1,0,0:0:0:0:
64,192,202560,1,0,0:0:0:0:
448,192,202560,1,0,0:0:0:0:
448,192,217920,5,0,0:0:0:0:
64,192,217920,1,0,0:0:0:0:
320,192,218160,1,0,0:0:0:0:
192,192,218400,1,0,0:0:0:0:
320,192,218640,1,0,0:0:0:0:
192,192,218760,1,0,0:0:0:0:
64,192,218880,1,0,0:0:0:0:
192,192,219120,1,0,0:0:0:0:
320,192,219240,1,0,0:0:0:0:
320,192,219600,1,0,0:0:0:0:
192,192,219840,1,0,0:0:0:0:
64,192,220080,1,0,0:0:0:0:
448,192,220320,1,0,0:0:0:0:
192,192,220440,1,0,0:0:0:0:
320,192,220560,1,0,0:0:0:0:
64,192,220680,1,0,0:0:0:0:
192,192,220800,1,0,0:0:0:0:
448,192,221040,1,0,0:0:0:0:
320,192,221280,1,0,0:0:0:0:
64,192,221520,1,0,0:0:0:0:
448,192,221760,1,0,0:0:0:0:
192,192,222000,1,0,0:0:0:0:
320,192,222240,1,0,0:0:0:0:
64,192,222480,1,0,0:0:0:0:
448,192,222600,1,0,0:0:0:0:
192,192,222720,1,0,0:0:0:0:
320,192,222960,1,0,0:0:0:0:
192,192,223080,1,0,0:0:0:0:
64,192,223200,1,0,0:0:0:0:
192,192,223440,1,0,0:0:0:0:
320,192,223560,1,0,0:0:0:0:
448,192,223680,1,0,0:0:0:0:
64,192,223920,1,0,0:0:0:0:
192,192,224160,1,0,0:0:0:0:
320,192,224280,1,0,0:0:0:0:
64,192,224400,1,0,0:0:0:0:
448,192,224520,1,0,0:0:0:0:
192,192,224760,1,0,0:0:0:0:
192,192,225000,1,0,0:0:0:0:
320,192,225120,1,0,0:0:0:0:
64,192,225360,1,0,0:0:0:0:
192,192,225600,1,0,0:0:0:0:
448,192,225600,1,0,0:0:0:0:
320,192,225840,1,0,0:0:0:0:
64,192,226080,1,0,0:0:0:0:
192,192,226320,1,0,0:0:0:0:
320,192,226440,1,0,0:0:0:0:
448,192,226560,1,0,0:0:0:0:
64,192,226800,1,0,0:0:0:0:
192,192,226920,1,0,0:0:0:0:
320,192,227040,1,0,0:0:0:0:
192,192,227280,1,0,0:0:0:0:
448,192,227520,1,0,0:0:0:0:
320,192,227760,1,0,0:0:0:0:
192,192,228000,1,0,0:0:0:0:
320,192,228120,1,0,0:0:0:0:
64,192,228240,1,0,0:0:0:0:
192,192,228360,1,0,0:0:0:0:
448,192,228480,1,0,0:0:0:0:
320,192,228720,1,0,0:0:0:0:
192,192,228960,1,0,0:0:0:0:
64,192,229200,1,0,0:0:0:0:
192,192,229440,1,0,0:0:0:0:
320,192,229680,1,0,0:0:0:0:
192,192,229920,1,0,0:0:0:0:
448,192,230160,1,0,0:0:0:0:
64,192,230280,1,0,0:0:0:0:
320,192,230400,1,0,0:0:0:0:
64,192,230640,1,0,0:0:0:0:
320,192,230760,1,0,0:0:0:0:
192,192,230880,1,0,0:0:0:0:
320,192,231120,1,0,0:0:0:0:
64,192,231240,1,0,0:0:0:0:
448,192,231360,1,0,0:0:0:0:
320,192,231600,1,0,0:0:0:0:
192,192,231840,1,0,0:0:0:0:
320,192,231960,1,0,0:0:0:0:
448,192,232080,1,0,0:0:0:0:
320,192,232200,1,0,0:0:0:0:
192,192,232320,1,0,0:0:0:0:
64,192,232560,1,0,0:0:0:0:
320,192,232800,1,0,0:0:0:0:
192,192,233040,1,0,0:0:0:0:
64,192,233280,1,0,0:0:0:0:
448,192,233280,1,0,0:0:0:0:
192,192,233520,1,0,0:0:0:0:
320,192,233760,1,0,0:0:0:0:
192,192,234000,1,0,0:0:0:0:
320,192,234120,1,0,0:0:0:0:
448,192,234240,1,0,0:0:0:0:
64,192,234480,1,0,0:0:0:0:
192,192,234600,1,0,0:0:0:0:
320,192,234720,1,0,0:0:0:0:
192,192,234960,1,0,0:0:0:0:
448,192,235200,1,0,0:0:0:0:
320,192,235440,1,0,0:0:0:0:
192,192,235680,1,0,0:0:0:0:
64,192,235800,1,0,0:0:0:0:
320,192,235920,1,0,0:0:0:0:
192,192,236040,1,0,0:0:0:0:
448,192,236160,1,0,0:0:0:0:
64,192,236400,1,0,0:0:0:0:
192,192,236640,1,0,0:0:0:0:
320,192,236880,1,0,0:0:0:0:
192,192,237120,1,0,0:0:0:0:
448,192,237360,1,0,0:0:0:0:
320,192,237600,1,0,0:0:0:0:
192,192,237840,1,0,0:0:0:0:
448,192,237960,1,0,0:0:0:0:
320,192,238080,1,0,0:0:0:0:
64,192,238320,1,0,0:0:0:0:
320,192,238440,1,0,0:0:0:0:
192,192,238560,1,0,0:0:0:0:
448,192,238800,1,0,0:0:0:0:
192,192,238920,1,0,0:0:0:0:
320,192,239040,1,0,0:0:0:0:
64,192,239280,1,0,0:0:0:0:
192,192,239520,1,0,0:0:0:0:
320,192,239640,1,0,0:0:0:0:
64,192,239760,1,0,0:0:0:0:
448,192,239880,1,0,0:0:0:0:
192,192,240120,1,0,0:0:0:0:
192,192,240360,1,0,0:0:0:0:
320,192,240480,1,0,0:0:0:0:
192,192,240720,1,0,0:0:0:0:
64,192,240960,1,0,0:0:0:0:
448,192,240960,1,0,0:0:0:0:
192,192,241200,1,0,0:0:0:0:
320,192,241440,1,0,0:0:0:0:
192,192,241680,1,0,0:0:0:0:
448,192,241800,1,0,0:0:0:0:
320,192,241920,1,0,0:0:0:0:
192,192,242160,1,0,0:0:0:0:
64,192,242280,1,0,0:0:0:0:
320,192,242400,1,0,0:0:0:0:
192,192,242640,1,0,0:0:0:0:
448,192,242880,1,0,0:0:0:0:
320,192,243120,1,0,0:0:0:0:
192,192,243360,1,0,0:0:0:0:
64,192,243480,1,0,0:0:0:0:
320,192,243600,1,0,0:0:0:0:
192,192,243720,1,0,0:0:0:0:
448,192,243840,1,0,0:0:0:0:
64,192,244080,1,0,0:0:0:0:
320,192,244320,1,0,0:0:0:0:
192,192,244560,1,0,0:0:0:0:
448,192,244800,1,0,0:0:0:0:
320,192,245040,1,0,0:0:0:0:
192,192,245280,1,0,0:0:0:0:
64,192,245520,1,0,0:0:0:0:
320,192,245640,1,0,0:0:0:0:
192,192,245760,1,0,0:0:0:0:
448,192,246000,1,0,0:0:0:0:
192,192,246120,1,0,0:0:0:0:
320,192,246240,1,0,0:0:0:0:
64,192,246480,1,0,0:0:0:0:
448,192,246600,1,0,0:0:0:0:
192,192,246720,1,0,0:0:0:0:
320,192,246960,1,0,0:0:0:0:
64,192,247200,1,0,0:0:0:0:
192,192,247320,1,0,0:0:0:0:
320,192,247440,1,0,0:0:0:0:
448,192,247560,1,0,0:0:0:0:
320,192,247680,1,0,0:0:0:0:
448,192,247920,128,0,248040:0:0:0:0:
64,192,248160,128,0,248280:0:0:0:0:
192,192,248400,1,0,0:0:0:0:
320,192,248640,1,0,0:0:0:0:
448,192,248640,1,0,0:0:0:0:
192,192,248880,1,0,0:0:0:0:
64,192,249120,1,0,0:0:0:0:
192,192,249240,1,0,0:0:0:0:
320,192,249360,1,0,0:0:0:0:
448,192,249480,1,0,0:0:0:0:
320,192,249600,1,0,0:0:0:0:
448,192,249840,128,0,249960:0:0:0:0:
64,192,250080,128,0,250200:0:0:0:0:
320,192,250320,1,0,0:0:0:0:
192,192,250560,1,0,0:0:0:0:
64,192,250560,1,0,0:0:0:0:
320,192,250800,1,0,0:0:0:0:
192,192,250920,1,0,0:0:0:0:
448,192,250920,1,0,0:0:0:0:
192,192,251160,1,0,0:0:0:0:
64,192,251280,1,0,0:0:0:0:
320,192,251280,1,0,0:0:0:0:
320,192,251520,1,0,0:0:0:0:
192,192,251640,1,0,0:0:0:0:
448,192,251640,1,0,0:0:0:0:
192,192,251880,1,0,0:0:0:0:
320,192,252000,1,0,0:0:0:0:
448,192,252120,1,0,0:0:0:0:
320,192,252240,1,0,0:0:0:0:
192,192,252360,1,0,0:0:0:0:
64,192,252480,1,0,0:0:0:0:
448,192,252480,128,0,252720:0:0:0:0:
192,192,252720,128,0,252840:0:0:0:0:
320,192,252840,128,0,253080:0:0:0:0:
64,192,253080,128,0,253200:0:0:0:0:
192,192,253200,128,0,253320:0:0:0:0:
448,192,253320,128,0,253440:0:0:0:0:
320,192,253440,128,0,254400:0:0:0:0:
192,192,254160,128,0,254400:0:0:0:0:
64,192,254400,1,0,0:0:0:0:
448,192,254400,1,0,0:0:0:0:
192,192,254640,1,0,0:0:0:0:
448,192,254880,1,0,0:0:0:0:
320,192,255120,1,0,0:0:0:0:
192,192,255360,1,0,0:0:0:0:
64,192,255600,1,0,0:0:0:0:
320,192,255840,1,0,0:0:0:0:
192,192,256080,1,0,0:0:0:0:
448,192,256320,1,0,0:0:0:0:
64,192,256560,1,0,0:0:0:0:
320,192,256800,1,0,0:0:0:0:
192,192,257040,1,0,0:0:0:0:
448,192,257280,1,0,0:0:0:0:
320,192,257520,1,0,0:0:0:0:
192,192,257760,1,0,0:0:0:0:
64,192,258000,1,0,0:0:0:0:
320,192,258240,1,0,0:0:0:0:
192,192,258480,1,0,0:0:0:0:
448,192,258720,1,0,0:0:0:0:
64,192,258960,1,0,0:0:0:0:
192,192,259200,1,0,0:0:0:0:
448,192,259440,1,0,0:0:0:0:
320,192,259680,1,0,0:0:0:0:
192,192,259920,1,0,0:0:0:0:
64,192,260160,1,0,0:0:0:0:
320,192,260400,1,0,0:0:0:0:
192,192,260640,1,0,0:0:0:0:
448,192,260880,1,0,0:0:0:0:
64,192,261120,128,0,261360:0:0:0:0:
320,192,261360,128,0,261600:0:0:0:0:
192,192,261600,128,0,261840:0:0:0:0:
448,192,261840,128,0,262080:0:0:0:0:
64,192,262080,1,0,0:0:0:0:
320,192,262080,1,0,0:0:0:0:
192,192,262320,1,0,0:0:0:0:
448,192,262560,1,0,0:0:0:0:
320,192,262800,1,0,0:0:0:0:
64,192,263040,1,0,0:0:0:0:
192,192,263280,1,0,0:0:0:0:
320,192,263520,1,0,0:0:0:0:
448,192,263760,1,0,0:0:0:0:
192,192,264000,1,0,0:0:0:0:
320,192,264240,1,0,0:0:0:0:
64,192,264480,1,0,0:0:0:0:
448,192,264720,1,0,0:0:0:0:
192,192,264960,1,0,0:0:0:0:
320,192,265200,1,0,0:0:0:0:
448,192,265440,1,0,0:0:0:0:
320,192,265680,1,0,0:0:0:0:
192,192,265920,1,0,0:0:0:0:
64,192,266160,1,0,0:0:0:0:
320,192,266400,1,0,0:0:0:0:
192,192,266640,1,0,0:0:0:0:
448,192,266880,1,0,0:0:0:0:
192,192,267120,1,0,0:0:0:0:
64,192,267360,1,0,0:0:0:0:
320,192,267600,1,0,0:0:0:0:
192,192,267840,128,0,268800:0:0:0:0:
320,192,268800,1,0,0:0:0:0:
448,192,268920,1,0,0:0:0:0:
320,192,269040,1,0,0:0:0:0:
192,192,269160,1,0,0:0:0:0:
64,192,269280,128,0,269460:0:0:0:0:
448,192,269460,128,0,269640:0:0:0:0:
192,192,269640,128,0,273120:0:0:0:0:
320,192,269640,1,0,0:0:0:0:
