osu file format v14

[General]
AudioFilename: audio.mp3
AudioLeadIn: 0
PreviewTime: 58415
Countdown: 0
SampleSet: Normal
StackLeniency: 0.7
Mode: 1
LetterboxInBreaks: 0
WidescreenStoryboard: 0

[Editor]
Bookmarks: 569,5492,10415,15338,20261,30108,35031,39954,44877,49800,54723,59646,68261,69492,70723,71954,79338,84261,89185,108877,112569,113185
DistanceSpacing: 1
BeatDivisor: 4
GridSize: 32
TimelineZoom: 4.299998

[Metadata]
Title:CENSORED!!
TitleUnicode:CENSORED!!
Artist:t+pazolite
ArtistUnicode:t+pazolite
Creator:eiri-
Version:Inner Oni
Source:SOUND VOLTEX III GRAVITY WARS
Tags:Ayyri 東方Project Koishi Komeiji 古明地 こいし SDVX MUSECA MÚSECA Touhou 11 Extra Stage Boss Hartmann's Youkai Girl Subterranean Animism ハルトマンの妖怪少女 Chireiden ALiCE'S EMOTiON E.P EP Reitaisai 13 RTS13 Blossom ZUN Team Shanghai Alice 東方地霊殿 Hardcore KONAMI BEMANI tpz
BeatmapID:1818474
BeatmapSetID:870162

[Difficulty]
HPDrainRate:6
CircleSize:2
OverallDifficulty:6
ApproachRate:10
SliderMultiplier:1.4
SliderTickRate:1

[Events]
//Background and Video events
0,0,"Koishi 486.jpg",0,-5
//Break Periods
//Storyboard Layer 0 (Background)
//Storyboard Layer 1 (Fail)
//Storyboard Layer 2 (Pass)
//Storyboard Layer 3 (Foreground)
//Storyboard Sound Samples

[TimingPoints]
569.647208121827,307.692307692308,4,1,0,65,1,0
10415,-100,4,1,0,75,0,0
15338,-100,4,1,0,85,0,0
20261,-100,4,1,0,90,0,1
30108,-100,4,1,0,85,0,0
39954,-100,4,1,0,90,0,0
49800,-100,4,1,0,95,0,0
59646,-100,4,1,0,100,0,1
68261,-100,4,1,0,100,0,0
69492,-100,4,1,0,100,0,1
70723,-100,4,1,0,100,0,0
71954,-100,4,1,0,100,0,1
79338,-100,4,1,0,85,0,0
80569,-100,4,1,0,80,0,0
81800,-100,4,1,0,85,0,0
83031,-100,4,1,0,80,0,0
84261,-100,4,1,0,85,0,0
89185,-100,4,1,0,90,0,1
99031,-100,4,1,0,95,0,1
103954,-100,4,1,0,97,0,1
108877,-100,4,1,0,100,0,0

[HitObjects]
256,192,569,5,8,0:0:0:0:
256,192,723,1,0,0:0:0:0:
256,192,877,1,8,0:0:0:0:
256,192,1031,1,8,0:0:0:0:
256,192,1185,1,0,0:0:0:0:
256,192,1338,1,0,0:0:0:0:
256,192,1492,1,8,0:0:0:0:
256,192,1646,1,0,0:0:0:0:
256,192,1800,1,8,0:0:0:0:
256,192,2108,1,0,0:0:0:0:
256,192,2415,1,8,0:0:0:0:
256,192,2723,1,0,0:0:0:0:
256,192,3031,1,0,0:0:0:0:
256,192,3185,1,8,0:0:0:0:
256,192,3338,1,8,0:0:0:0:
256,192,3492,1,0,0:0:0:0:
256,192,3646,1,8,0:0:0:0:
256,192,3800,1,0,0:0:0:0:
256,192,3954,1,8,0:0:0:0:
256,192,4108,1,8,0:0:0:0:
256,192,4261,1,0,0:0:0:0:
256,192,4569,1,8,0:0:0:0:
256,192,4877,1,0,0:0:0:0:
256,192,5338,1,0,0:0:0:0:
256,192,5415,1,0,0:0:0:0:
256,192,5492,1,8,0:0:0:0:
256,192,5646,1,0,0:0:0:0:
256,192,5800,1,8,0:0:0:0:
256,192,5954,1,0,0:0:0:0:
256,192,6108,1,8,0:0:0:0:
256,192,6261,1,8,0:0:0:0:
256,192,6415,1,0,0:0:0:0:
256,192,6569,1,0,0:0:0:0:
256,192,6646,1,0,0:0:0:0:
256,192,6723,1,8,0:0:0:0:
256,192,6877,1,0,0:0:0:0:
256,192,7031,1,8,0:0:0:0:
256,192,7185,1,0,0:0:0:0:
256,192,7338,1,8,0:0:0:0:
256,192,7646,1,0,0:0:0:0:
256,192,7954,1,8,0:0:0:0:
256,192,8108,1,0,0:0:0:0:
256,192,8261,1,8,0:0:0:0:
256,192,8415,1,8,0:0:0:0:
256,192,8569,1,0,0:0:0:0:
256,192,8723,1,0,0:0:0:0:
256,192,8877,1,8,0:0:0:0:
256,192,9031,1,8,0:0:0:0:
256,192,9108,1,0,0:0:0:0:
256,192,9185,1,8,0:0:0:0:
256,192,9338,1,0,0:0:0:0:
256,192,9492,1,8,0:0:0:0:
256,192,9646,1,0,0:0:0:0:
256,192,9800,1,8,0:0:0:0:
256,192,10108,1,0,0:0:0:0:
256,192,10415,1,12,0:0:0:0:
256,192,11338,1,0,0:0:0:0:
256,192,11646,1,8,0:0:0:0:
256,192,12569,1,0,0:0:0:0:
256,192,12723,1,0,0:0:0:0:
256,192,12877,1,8,0:0:0:0:
256,192,13800,1,0,0:0:0:0:
256,192,14108,1,8,0:0:0:0:
256,192,15031,1,0,0:0:0:0:
256,192,15185,1,0,0:0:0:0:
256,192,15338,1,12,0:0:0:0:
256,192,15569,1,4,0:0:0:0:
256,192,15800,1,12,0:0:0:0:
256,192,16031,1,12,0:0:0:0:
256,192,16261,1,4,0:0:0:0:
256,192,16415,1,4,0:0:0:0:
256,192,16569,1,12,0:0:0:0:
256,192,16800,1,4,0:0:0:0:
256,192,17031,1,12,0:0:0:0:
256,192,17261,1,12,0:0:0:0:
256,192,17492,1,4,0:0:0:0:
256,192,17646,1,4,0:0:0:0:
256,192,17800,1,12,0:0:0:0:
256,192,18031,1,4,0:0:0:0:
256,192,18261,1,12,0:0:0:0:
256,192,18492,1,12,0:0:0:0:
256,192,18723,1,4,0:0:0:0:
256,192,18877,1,12,0:0:0:0:
256,192,19031,1,4,0:0:0:0:
256,192,19954,1,12,0:0:0:0:
256,192,20261,1,4,0:0:0:0:
256,192,20492,1,0,0:0:0:0:
256,192,20569,1,8,0:0:0:0:
256,192,20723,1,8,0:0:0:0:
256,192,20800,1,0,0:0:0:0:
256,192,20877,1,0,0:0:0:0:
256,192,20954,1,8,0:0:0:0:
256,192,21108,1,0,0:0:0:0:
256,192,21185,1,8,0:0:0:0:
256,192,21338,1,0,0:0:0:0:
256,192,21492,1,8,0:0:0:0:
256,192,21723,1,8,0:0:0:0:
256,192,21800,1,0,0:0:0:0:
256,192,21954,1,8,0:0:0:0:
256,192,22108,1,0,0:0:0:0:
256,192,22185,1,8,0:0:0:0:
256,192,22261,1,8,0:0:0:0:
256,192,22415,1,12,0:0:0:0:
256,192,22723,1,0,0:0:0:0:
256,192,22954,1,0,0:0:0:0:
256,192,23031,1,8,0:0:0:0:
256,192,23185,1,8,0:0:0:0:
256,192,23261,1,0,0:0:0:0:
256,192,23338,1,0,0:0:0:0:
256,192,23415,1,8,0:0:0:0:
256,192,23569,1,0,0:0:0:0:
256,192,23646,1,8,0:0:0:0:
256,192,23800,1,0,0:0:0:0:
256,192,23954,1,8,0:0:0:0:
256,192,24108,1,4,0:0:0:0:
256,192,24338,1,4,0:0:0:0:
256,192,24569,1,12,0:0:0:0:
256,192,24723,1,0,0:0:0:0:
256,192,24877,1,12,0:0:0:0:
256,192,25185,1,4,0:0:0:0:
256,192,25415,1,0,0:0:0:0:
256,192,25492,1,8,0:0:0:0:
256,192,25646,1,8,0:0:0:0:
256,192,25723,1,0,0:0:0:0:
256,192,25800,1,0,0:0:0:0:
256,192,25877,1,8,0:0:0:0:
256,192,26031,1,0,0:0:0:0:
256,192,26108,1,8,0:0:0:0:
256,192,26261,1,0,0:0:0:0:
256,192,26415,1,8,0:0:0:0:
256,192,26646,1,8,0:0:0:0:
256,192,26723,1,0,0:0:0:0:
256,192,26877,1,8,0:0:0:0:
256,192,27031,1,0,0:0:0:0:
256,192,27108,1,8,0:0:0:0:
256,192,27185,1,8,0:0:0:0:
256,192,27338,1,12,0:0:0:0:
256,192,27646,1,0,0:0:0:0:
256,192,27723,1,0,0:0:0:0:
256,192,27800,1,8,0:0:0:0:
256,192,27954,1,0,0:0:0:0:
256,192,28031,1,8,0:0:0:0:
256,192,28108,1,8,0:0:0:0:
256,192,28261,1,8,0:0:0:0:
256,192,28415,1,0,0:0:0:0:
256,192,28492,1,8,0:0:0:0:
256,192,28569,1,8,0:0:0:0:
256,192,28723,1,8,0:0:0:0:
256,192,28877,1,0,0:0:0:0:
256,192,29031,1,0,0:0:0:0:
256,192,29082,1,0,0:0:0:0:
256,192,29133,1,0,0:0:0:0:
256,192,29185,1,0,0:0:0:0:
256,192,29338,1,0,0:0:0:0:
256,192,29492,1,8,0:0:0:0:
256,192,29800,2,0,L|320:192,2,35
256,192,30108,1,4,0:0:0:0:
256,192,30261,1,8,0:0:0:0:
256,192,30415,1,0,0:0:0:0:
256,192,30646,1,8,0:0:0:0:
256,192,30723,1,0,0:0:0:0:
256,192,30877,1,8,0:0:0:0:
256,192,30954,1,8,0:0:0:0:
256,192,31031,1,0,0:0:0:0:
256,192,31185,1,8,0:0:0:0:
256,192,31338,1,0,0:0:0:0:
256,192,31415,1,0,0:0:0:0:
256,192,31492,1,8,0:0:0:0:
256,192,31646,1,0,0:0:0:0:
256,192,31877,1,8,0:0:0:0:
256,192,31954,1,0,0:0:0:0:
256,192,32108,1,8,0:0:0:0:
256,192,32261,1,0,0:0:0:0:
256,192,32569,1,0,0:0:0:0:
256,192,32723,1,0,0:0:0:0:
256,192,32800,1,0,0:0:0:0:
256,192,32877,1,8,0:0:0:0:
256,192,33031,1,0,0:0:0:0:
256,192,33185,1,8,0:0:0:0:
256,192,33415,1,8,0:0:0:0:
256,192,33492,1,0,0:0:0:0:
256,192,33646,1,8,0:0:0:0:
256,192,33723,1,8,0:0:0:0:
256,192,33800,1,0,0:0:0:0:
256,192,33954,1,0,0:0:0:0:
256,192,34108,1,8,0:0:0:0:
256,192,34261,1,8,0:0:0:0:
256,192,34338,1,0,0:0:0:0:
256,192,34415,1,8,0:0:0:0:
256,192,34569,1,0,0:0:0:0:
256,192,34723,1,8,0:0:0:0:
256,192,35031,1,0,0:0:0:0:
256,192,35108,1,0,0:0:0:0:
256,192,35261,1,0,0:0:0:0:
256,192,35338,1,8,0:0:0:0:
256,192,35492,1,0,0:0:0:0:
256,192,35569,1,8,0:0:0:0:
256,192,35646,1,0,0:0:0:0:
256,192,35800,1,8,0:0:0:0:
256,192,35954,1,0,0:0:0:0:
256,192,36261,1,0,0:0:0:0:
256,192,36415,1,8,0:0:0:0:
256,192,36492,1,8,0:0:0:0:
256,192,36569,1,0,0:0:0:0:
256,192,36723,1,8,0:0:0:0:
256,192,36877,1,0,0:0:0:0:
256,192,37031,1,8,0:0:0:0:
256,192,37185,1,0,0:0:0:0:
256,192,37492,1,8,0:0:0:0:
256,192,37646,1,0,0:0:0:0:
256,192,37800,1,8,0:0:0:0:
256,192,38031,1,8,0:0:0:0:
256,192,38108,1,0,0:0:0:0:
256,192,38261,1,0,0:0:0:0:
256,192,38415,1,8,0:0:0:0:
256,192,38569,1,0,0:0:0:0:
256,192,38646,1,8,0:0:0:0:
256,192,38723,1,0,0:0:0:0:
256,192,38877,1,8,0:0:0:0:
256,192,38954,1,8,0:0:0:0:
256,192,39031,1,0,0:0:0:0:
256,192,39185,1,0,0:0:0:0:
256,192,39338,1,8,0:0:0:0:
256,192,39492,1,0,0:0:0:0:
256,192,39646,1,8,0:0:0:0:
256,192,39723,1,8,0:0:0:0:
256,192,39800,1,8,0:0:0:0:
256,192,39954,1,4,0:0:0:0:
256,192,40185,1,0,0:0:0:0:
256,192,40261,1,8,0:0:0:0:
256,192,40415,1,0,0:0:0:0:
256,192,40569,1,8,0:0:0:0:
256,192,40723,1,8,0:0:0:0:
256,192,40800,1,8,0:0:0:0:
256,192,40877,1,0,0:0:0:0:
256,192,41185,1,8,0:0:0:0:
256,192,41338,1,0,0:0:0:0:
256,192,41415,1,0,0:0:0:0:
256,192,41492,1,8,0:0:0:0:
256,192,41646,1,0,0:0:0:0:
256,192,41800,1,8,0:0:0:0:
256,192,41954,1,8,0:0:0:0:
256,192,42108,1,0,0:0:0:0:
256,192,42415,1,8,0:0:0:0:
256,192,42569,1,0,0:0:0:0:
256,192,42723,1,8,0:0:0:0:
256,192,42800,1,0,0:0:0:0:
256,192,42877,1,8,0:0:0:0:
256,192,43031,1,0,0:0:0:0:
256,192,43261,1,0,0:0:0:0:
256,192,43338,1,8,0:0:0:0:
256,192,43492,1,0,0:0:0:0:
256,192,43544,1,0,0:0:0:0:
256,192,43595,1,0,0:0:0:0:
256,192,43646,1,8,0:0:0:0:
256,192,43800,1,8,0:0:0:0:
256,192,43954,1,0,0:0:0:0:
256,192,44108,1,0,0:0:0:0:
256,192,44261,1,12,0:0:0:0:
256,192,44723,1,0,0:0:0:0:
256,192,44877,1,12,0:0:0:0:
256,192,45108,1,4,0:0:0:0:
256,192,45338,1,4,0:0:0:0:
256,192,45569,1,4,0:0:0:0:
256,192,45800,1,12,0:0:0:0:
256,192,45954,1,4,0:0:0:0:
256,192,46108,1,12,0:0:0:0:
256,192,46338,1,4,0:0:0:0:
256,192,46569,1,4,0:0:0:0:
256,192,46800,1,12,0:0:0:0:
256,192,47031,1,4,0:0:0:0:
256,192,47185,1,4,0:0:0:0:
256,192,47338,1,12,0:0:0:0:
256,192,47646,1,0,0:0:0:0:
256,192,47723,1,8,0:0:0:0:
256,192,47877,1,8,0:0:0:0:
256,192,48031,1,8,0:0:0:0:
256,192,48108,1,0,0:0:0:0:
256,192,48185,1,0,0:0:0:0:
256,192,48261,1,8,0:0:0:0:
256,192,48415,1,0,0:0:0:0:
256,192,48569,1,8,0:0:0:0:
256,192,48646,1,8,0:0:0:0:
256,192,48723,1,0,0:0:0:0:
256,192,48800,1,0,0:0:0:0:
256,192,48877,1,8,0:0:0:0:
256,192,48954,1,0,0:0:0:0:
256,192,49031,1,8,0:0:0:0:
256,192,49108,1,0,0:0:0:0:
256,192,49185,1,8,0:0:0:0:
256,192,49261,1,8,0:0:0:0:
256,192,49338,1,0,0:0:0:0:
256,192,49415,1,0,0:0:0:0:
256,192,49492,1,8,0:0:0:0:
256,192,49569,1,8,0:0:0:0:
256,192,49646,1,0,0:0:0:0:
256,192,49800,1,12,0:0:0:0:
256,192,50108,1,0,0:0:0:0:
256,192,50415,1,0,0:0:0:0:
256,192,50723,1,0,0:0:0:0:
256,192,50877,1,0,0:0:0:0:
256,192,50954,1,0,0:0:0:0:
256,192,51031,1,0,0:0:0:0:
256,192,51338,1,0,0:0:0:0:
256,192,51646,1,0,0:0:0:0:
256,192,51954,1,0,0:0:0:0:
256,192,52108,1,0,0:0:0:0:
256,192,52261,1,0,0:0:0:0:
256,192,52569,1,0,0:0:0:0:
256,192,52877,1,0,0:0:0:0:
256,192,53185,1,0,0:0:0:0:
256,192,53338,1,0,0:0:0:0:
256,192,53492,1,0,0:0:0:0:
256,192,53800,1,0,0:0:0:0:
256,192,54108,1,0,0:0:0:0:
256,192,54261,1,0,0:0:0:0:
256,192,54338,1,0,0:0:0:0:
256,192,54415,1,0,0:0:0:0:
256,192,54569,1,0,0:0:0:0:
256,192,54723,1,12,0:0:0:0:
256,192,54877,1,0,0:0:0:0:
256,192,55031,1,0,0:0:0:0:
256,192,55185,1,0,0:0:0:0:
256,192,55338,1,0,0:0:0:0:
256,192,55492,1,0,0:0:0:0:
256,192,55646,1,0,0:0:0:0:
256,192,55800,1,0,0:0:0:0:
256,192,55954,1,12,0:0:0:0:
256,192,56108,1,0,0:0:0:0:
256,192,56261,1,0,0:0:0:0:
256,192,56415,1,0,0:0:0:0:
256,192,56569,1,0,0:0:0:0:
256,192,56723,1,0,0:0:0:0:
256,192,56877,1,0,0:0:0:0:
256,192,56954,1,0,0:0:0:0:
256,192,57031,1,0,0:0:0:0:
256,192,57185,1,12,0:0:0:0:
256,192,57338,1,0,0:0:0:0:
256,192,57415,1,0,0:0:0:0:
256,192,57492,1,0,0:0:0:0:
256,192,57569,1,0,0:0:0:0:
256,192,57646,1,0,0:0:0:0:
256,192,57800,1,12,0:0:0:0:
256,192,57954,1,0,0:0:0:0:
256,192,58031,1,0,0:0:0:0:
256,192,58108,1,0,0:0:0:0:
256,192,58185,1,0,0:0:0:0:
256,192,58261,1,0,0:0:0:0:
256,192,58338,1,0,0:0:0:0:
256,192,58415,1,12,0:0:0:0:
256,192,59338,1,12,0:0:0:0:
256,192,59646,1,4,0:0:0:0:
256,192,59877,1,0,0:0:0:0:
256,192,59954,1,8,0:0:0:0:
256,192,60108,1,8,0:0:0:0:
256,192,60185,1,8,0:0:0:0:
256,192,60261,1,0,0:0:0:0:
256,192,60338,1,8,0:0:0:0:
256,192,60492,1,8,0:0:0:0:
256,192,60569,1,0,0:0:0:0:
256,192,60723,1,8,0:0:0:0:
256,192,60877,1,0,0:0:0:0:
256,192,61108,1,0,0:0:0:0:
256,192,61185,1,8,0:0:0:0:
256,192,61338,1,8,0:0:0:0:
256,192,61492,1,0,0:0:0:0:
256,192,61569,1,8,0:0:0:0:
256,192,61646,1,8,0:0:0:0:
256,192,61800,1,0,0:0:0:0:
256,192,61877,1,8,0:0:0:0:
256,192,61954,1,8,0:0:0:0:
256,192,62031,1,8,0:0:0:0:
256,192,62108,1,0,0:0:0:0:
256,192,62261,1,8,0:0:0:0:
256,192,62415,1,0,0:0:0:0:
256,192,62492,1,0,0:0:0:0:
256,192,62569,1,8,0:0:0:0:
256,192,62723,1,0,0:0:0:0:
256,192,62877,1,8,0:0:0:0:
256,192,62954,1,0,0:0:0:0:
256,192,63108,1,0,0:0:0:0:
256,192,63185,1,8,0:0:0:0:
256,192,63338,1,0,0:0:0:0:
256,192,63492,1,8,0:0:0:0:
256,192,63569,1,8,0:0:0:0:
256,192,63646,1,0,0:0:0:0:
256,192,63800,1,0,0:0:0:0:
256,192,63954,1,8,0:0:0:0:
256,192,64108,1,0,0:0:0:0:
256,192,64185,1,0,0:0:0:0:
256,192,64261,1,8,0:0:0:0:
256,192,64415,1,8,0:0:0:0:
256,192,64569,1,4,0:0:0:0:
256,192,64800,1,0,0:0:0:0:
256,192,64877,1,8,0:0:0:0:
256,192,65031,1,8,0:0:0:0:
256,192,65108,1,8,0:0:0:0:
256,192,65185,1,0,0:0:0:0:
256,192,65261,1,8,0:0:0:0:
256,192,65415,1,8,0:0:0:0:
256,192,65492,1,0,0:0:0:0:
256,192,65646,1,8,0:0:0:0:
256,192,65800,1,0,0:0:0:0:
256,192,66031,1,0,0:0:0:0:
256,192,66108,1,8,0:0:0:0:
256,192,66261,1,8,0:0:0:0:
256,192,66415,1,0,0:0:0:0:
256,192,66492,1,8,0:0:0:0:
256,192,66569,1,8,0:0:0:0:
256,192,66723,1,0,0:0:0:0:
256,192,66800,1,8,0:0:0:0:
256,192,66877,1,8,0:0:0:0:
256,192,66954,1,8,0:0:0:0:
256,192,67031,1,0,0:0:0:0:
256,192,67185,1,8,0:0:0:0:
256,192,67338,1,0,0:0:0:0:
256,192,67415,1,0,0:0:0:0:
256,192,67492,1,8,0:0:0:0:
256,192,67646,1,0,0:0:0:0:
256,192,67800,1,8,0:0:0:0:
256,192,67877,1,8,0:0:0:0:
256,192,67954,1,0,0:0:0:0:
256,192,68031,1,8,0:0:0:0:
256,192,68108,1,8,0:0:0:0:
256,192,68261,1,0,0:0:0:0:
256,192,68415,1,0,0:0:0:0:
256,192,68492,1,0,0:0:0:0:
256,192,68569,1,0,0:0:0:0:
256,192,68723,1,0,0:0:0:0:
256,192,68877,1,8,0:0:0:0:
256,192,69031,1,8,0:0:0:0:
256,192,69108,1,8,0:0:0:0:
256,192,69185,1,8,0:0:0:0:
256,192,69338,1,8,0:0:0:0:
256,192,69492,1,4,0:0:0:0:
256,192,69800,1,0,0:0:0:0:
256,192,70108,1,0,0:0:0:0:
256,192,70261,1,8,0:0:0:0:
256,192,70415,1,0,0:0:0:0:
256,192,70569,1,0,0:0:0:0:
256,192,70646,1,0,0:0:0:0:
256,192,70723,1,8,0:0:0:0:
256,192,70877,1,8,0:0:0:0:
256,192,71031,1,8,0:0:0:0:
256,192,71185,1,8,0:0:0:0:
256,192,71338,1,0,0:0:0:0:
256,192,71646,1,12,0:0:0:0:
256,192,71954,1,4,0:0:0:0:
256,192,72108,1,8,0:0:0:0:
256,192,72261,1,0,0:0:0:0:
256,192,72415,1,8,0:0:0:0:
256,192,72569,1,0,0:0:0:0:
256,192,72723,1,8,0:0:0:0:
256,192,72877,1,0,0:0:0:0:
256,192,72954,1,0,0:0:0:0:
256,192,73031,1,0,0:0:0:0:
256,192,73108,1,0,0:0:0:0:
256,192,73185,1,8,0:0:0:0:
256,192,73492,1,0,0:0:0:0:
256,192,73800,1,8,0:0:0:0:
256,192,73954,1,0,0:0:0:0:
256,192,74031,1,0,0:0:0:0:
256,192,74108,1,0,0:0:0:0:
256,192,74261,1,0,0:0:0:0:
256,192,74415,1,8,0:0:0:0:
256,192,74646,1,0,0:0:0:0:
256,192,74723,1,8,0:0:0:0:
256,192,74877,1,0,0:0:0:0:
256,192,75031,1,8,0:0:0:0:
256,192,75185,1,0,0:0:0:0:
256,192,75261,1,8,0:0:0:0:
256,192,75415,1,8,0:0:0:0:
256,192,75492,1,0,0:0:0:0:
256,192,75569,1,0,0:0:0:0:
256,192,75646,1,8,0:0:0:0:
256,192,75800,1,0,0:0:0:0:
256,192,75877,1,0,0:0:0:0:
256,192,75954,1,8,0:0:0:0:
256,192,76108,1,0,0:0:0:0:
256,192,76261,1,8,0:0:0:0:
256,192,76415,1,0,0:0:0:0:
256,192,76492,1,0,0:0:0:0:
256,192,76569,1,8,0:0:0:0:
256,192,76723,1,0,0:0:0:0:
256,192,76877,1,8,0:0:0:0:
256,192,76954,1,8,0:0:0:0:
256,192,77031,1,0,0:0:0:0:
256,192,77108,1,0,0:0:0:0:
256,192,77185,1,8,0:0:0:0:
256,192,77261,1,0,0:0:0:0:
256,192,77338,1,8,0:0:0:0:
256,192,77415,1,0,0:0:0:0:
256,192,77492,1,8,0:0:0:0:
256,192,77569,1,8,0:0:0:0:
256,192,77646,1,8,0:0:0:0:
256,192,77723,1,8,0:0:0:0:
256,192,77800,1,0,0:0:0:0:
256,192,77954,1,0,0:0:0:0:
256,192,78005,1,0,0:0:0:0:
256,192,78056,1,0,0:0:0:0:
256,192,78108,1,8,0:0:0:0:
256,192,78415,1,8,0:0:0:0:
256,192,78492,1,0,0:0:0:0:
256,192,78569,1,8,0:0:0:0:
256,192,78646,1,8,0:0:0:0:
256,192,78723,1,0,0:0:0:0:
256,192,79031,1,0,0:0:0:0:
256,192,79338,1,12,0:0:0:0:
256,192,80569,1,0,0:0:0:0:
256,192,80800,1,0,0:0:0:0:
256,192,81031,1,0,0:0:0:0:
256,192,81185,1,0,0:0:0:0:
256,192,81338,1,8,0:0:0:0:
256,192,81415,1,8,0:0:0:0:
256,192,81492,1,0,0:0:0:0:
256,192,81646,1,0,0:0:0:0:
256,192,81800,1,12,0:0:0:0:
256,192,83031,1,0,0:0:0:0:
256,192,83261,1,0,0:0:0:0:
256,192,83492,1,0,0:0:0:0:
256,192,83646,1,0,0:0:0:0:
256,192,83800,1,8,0:0:0:0:
256,192,83851,1,8,0:0:0:0:
256,192,83902,1,8,0:0:0:0:
256,192,83954,1,0,0:0:0:0:
256,192,84108,1,0,0:0:0:0:
256,192,84185,1,0,0:0:0:0:
256,192,84261,1,12,0:0:0:0:
256,192,84492,1,4,0:0:0:0:
256,192,84723,1,12,0:0:0:0:
256,192,84954,1,12,0:0:0:0:
256,192,85185,1,4,0:0:0:0:
256,192,85338,1,4,0:0:0:0:
256,192,85492,1,12,0:0:0:0:
256,192,85723,1,4,0:0:0:0:
256,192,85954,1,12,0:0:0:0:
256,192,86185,1,12,0:0:0:0:
256,192,86415,1,4,0:0:0:0:
256,192,86569,1,4,0:0:0:0:
256,192,86723,1,12,0:0:0:0:
256,192,86954,1,4,0:0:0:0:
256,192,87185,1,12,0:0:0:0:
256,192,87415,1,12,0:0:0:0:
256,192,87646,1,4,0:0:0:0:
256,192,87800,1,12,0:0:0:0:
256,192,87954,1,4,0:0:0:0:
256,192,88877,1,12,0:0:0:0:
256,192,89185,1,4,0:0:0:0:
256,192,89415,1,0,0:0:0:0:
256,192,89492,1,8,0:0:0:0:
256,192,89646,1,8,0:0:0:0:
256,192,89723,1,0,0:0:0:0:
256,192,89800,1,0,0:0:0:0:
256,192,89877,1,8,0:0:0:0:
256,192,90031,1,0,0:0:0:0:
256,192,90108,1,8,0:0:0:0:
256,192,90261,1,0,0:0:0:0:
256,192,90415,1,8,0:0:0:0:
256,192,90646,1,8,0:0:0:0:
256,192,90723,1,0,0:0:0:0:
256,192,90877,1,8,0:0:0:0:
256,192,91031,1,0,0:0:0:0:
256,192,91108,1,8,0:0:0:0:
256,192,91185,1,8,0:0:0:0:
256,192,91338,1,12,0:0:0:0:
256,192,91646,1,0,0:0:0:0:
256,192,91877,1,0,0:0:0:0:
256,192,91954,1,8,0:0:0:0:
256,192,92108,1,8,0:0:0:0:
256,192,92185,1,0,0:0:0:0:
256,192,92261,1,0,0:0:0:0:
256,192,92338,1,8,0:0:0:0:
256,192,92492,1,0,0:0:0:0:
256,192,92569,1,8,0:0:0:0:
256,192,92723,1,0,0:0:0:0:
256,192,92877,1,8,0:0:0:0:
256,192,93031,1,4,0:0:0:0:
256,192,93261,1,4,0:0:0:0:
256,192,93492,1,12,0:0:0:0:
256,192,93646,1,0,0:0:0:0:
256,192,93800,1,12,0:0:0:0:
256,192,94108,1,4,0:0:0:0:
256,192,94338,1,0,0:0:0:0:
256,192,94415,1,8,0:0:0:0:
256,192,94569,1,8,0:0:0:0:
256,192,94646,1,0,0:0:0:0:
256,192,94723,1,0,0:0:0:0:
256,192,94800,1,8,0:0:0:0:
256,192,94954,1,0,0:0:0:0:
256,192,95031,1,8,0:0:0:0:
256,192,95185,1,0,0:0:0:0:
256,192,95338,1,8,0:0:0:0:
256,192,95569,1,8,0:0:0:0:
256,192,95646,1,0,0:0:0:0:
256,192,95800,1,8,0:0:0:0:
256,192,95954,1,0,0:0:0:0:
256,192,96031,1,8,0:0:0:0:
256,192,96108,1,8,0:0:0:0:
256,192,96261,1,12,0:0:0:0:
256,192,96569,1,0,0:0:0:0:
256,192,96800,1,0,0:0:0:0:
256,192,96877,1,8,0:0:0:0:
256,192,97031,1,8,0:0:0:0:
256,192,97108,1,0,0:0:0:0:
256,192,97185,1,0,0:0:0:0:
256,192,97261,1,8,0:0:0:0:
256,192,97415,1,0,0:0:0:0:
256,192,97492,1,8,0:0:0:0:
256,192,97646,1,0,0:0:0:0:
256,192,97800,1,8,0:0:0:0:
256,192,97954,1,0,0:0:0:0:
256,192,98031,1,0,0:0:0:0:
256,192,98108,1,0,0:0:0:0:
256,192,98261,1,0,0:0:0:0:
256,192,98313,1,0,0:0:0:0:
256,192,98364,1,0,0:0:0:0:
256,192,98415,1,8,0:0:0:0:
256,192,98569,1,0,0:0:0:0:
256,192,98723,2,0,L|320:192,2,35
256,192,99031,1,4,0:0:0:0:
256,192,99261,1,0,0:0:0:0:
256,192,99338,1,8,0:0:0:0:
256,192,99492,1,8,0:0:0:0:
256,192,99569,1,0,0:0:0:0:
256,192,99646,1,8,0:0:0:0:
256,192,99723,1,8,0:0:0:0:
256,192,99877,1,0,0:0:0:0:
256,192,99954,1,8,0:0:0:0:
256,192,100108,1,0,0:0:0:0:
256,192,100261,1,8,0:0:0:0:
256,192,100338,1,8,0:0:0:0:
256,192,100492,1,8,0:0:0:0:
256,192,100569,1,0,0:0:0:0:
256,192,100723,1,8,0:0:0:0:
256,192,100877,1,0,0:0:0:0:
256,192,100954,1,8,0:0:0:0:
256,192,101031,1,8,0:0:0:0:
256,192,101185,1,8,0:0:0:0:
256,192,101338,1,0,0:0:0:0:
256,192,101415,1,0,0:0:0:0:
256,192,101492,1,8,0:0:0:0:
256,192,101723,1,0,0:0:0:0:
256,192,101800,1,8,0:0:0:0:
256,192,101954,1,8,0:0:0:0:
256,192,102031,1,0,0:0:0:0:
256,192,102108,1,0,0:0:0:0:
256,192,102185,1,8,0:0:0:0:
256,192,102338,1,0,0:0:0:0:
256,192,102415,1,8,0:0:0:0:
256,192,102569,1,0,0:0:0:0:
256,192,102723,1,8,0:0:0:0:
256,192,102877,1,4,0:0:0:0:
256,192,103108,1,4,0:0:0:0:
256,192,103338,1,12,0:0:0:0:
256,192,103492,1,0,0:0:0:0:
256,192,103646,1,12,0:0:0:0:
256,192,103954,1,4,0:0:0:0:
256,192,104185,1,0,0:0:0:0:
256,192,104261,1,8,0:0:0:0:
256,192,104415,1,8,0:0:0:0:
256,192,104492,1,0,0:0:0:0:
256,192,104569,1,8,0:0:0:0:
256,192,104646,1,8,0:0:0:0:
256,192,104800,1,0,0:0:0:0:
256,192,104877,1,8,0:0:0:0:
256,192,105031,1,0,0:0:0:0:
256,192,105185,1,8,0:0:0:0:
256,192,105261,1,8,0:0:0:0:
256,192,105415,1,8,0:0:0:0:
256,192,105492,1,0,0:0:0:0:
256,192,105646,1,8,0:0:0:0:
256,192,105800,1,0,0:0:0:0:
256,192,105877,1,8,0:0:0:0:
256,192,105954,1,8,0:0:0:0:
256,192,106108,1,8,0:0:0:0:
256,192,106261,1,0,0:0:0:0:
256,192,106415,1,8,0:0:0:0:
256,192,106569,1,8,0:0:0:0:
256,192,106646,1,8,0:0:0:0:
256,192,106723,1,0,0:0:0:0:
256,192,106877,1,8,0:0:0:0:
256,192,106954,1,8,0:0:0:0:
256,192,107031,1,0,0:0:0:0:
256,192,107108,1,8,0:0:0:0:
256,192,107185,1,0,0:0:0:0:
256,192,107261,1,0,0:0:0:0:
256,192,107338,1,8,0:0:0:0:
256,192,107492,1,8,0:0:0:0:
256,192,107569,1,8,0:0:0:0:
256,192,107646,1,0,0:0:0:0:
256,192,107800,1,0,0:0:0:0:
256,192,107851,1,0,0:0:0:0:
256,192,107902,1,0,0:0:0:0:
256,192,107954,1,8,0:0:0:0:
256,192,108108,1,8,0:0:0:0:
256,192,108185,1,0,0:0:0:0:
256,192,108261,1,8,0:0:0:0:
256,192,108415,1,0,0:0:0:0:
256,192,108569,2,0,L|320:192,2,35
256,192,108877,1,12,0:0:0:0:
256,192,109108,1,4,0:0:0:0:
256,192,109338,1,4,0:0:0:0:
256,192,109569,1,4,0:0:0:0:
256,192,109800,1,12,0:0:0:0:
256,192,109954,1,4,0:0:0:0:
256,192,110108,1,12,0:0:0:0:
256,192,110338,1,4,0:0:0:0:
256,192,110569,1,4,0:0:0:0:
256,192,110800,1,4,0:0:0:0:
256,192,111031,1,12,0:0:0:0:
256,192,111185,1,4,0:0:0:0:
256,192,111338,1,12,0:0:0:0:
256,192,111569,1,12,0:0:0:0:
256,192,111800,1,4,0:0:0:0:
256,192,112031,1,4,0:0:0:0:
256,192,112261,1,12,0:0:0:0:
256,192,112415,1,4,0:0:0:0:
256,192,112569,1,12,0:0:0:0:
256,192,113031,1,0,0:0:0:0:
256,192,113108,1,0,0:0:0:0:
256,192,113185,1,12,0:0:0:0:
