osu file format v14

[General]
AudioFilename: audio.mp3
AudioLeadIn: 0
PreviewTime: 58415
Countdown: 0
SampleSet: Normal
StackLeniency: 0.7
Mode: 1
LetterboxInBreaks: 0
WidescreenStoryboard: 0

[Editor]
Bookmarks: 569,5492,10415,15338,20261,30108,35031,39954,44877,49800,54723,59646,68261,69492,70723,71954,79338,84261,89185,108877,112569,113185
DistanceSpacing: 1
BeatDivisor: 4
GridSize: 32
TimelineZoom: 4.299998

[Metadata]
Title:CENSORED!!
TitleUnicode:CENSORED!!
Artist:t+pazolite
ArtistUnicode:t+pazolite
Creator:eiri-
Version:Futsuu
Source:SOUND VOLTEX III GRAVITY WARS
Tags:Ayyri 東方Project Koishi Komeiji 古明地 こいし SDVX MUSECA MÚSECA Touhou 11 Extra Stage Boss Hartmann's Youkai Girl Subterranean Animism ハルトマンの妖怪少女 Chireiden ALiCE'S EMOTiON E.P EP Reitaisai 13 RTS13 Blossom ZUN Team Shanghai Alice 東方地霊殿 Hardcore KONAMI BEMANI tpz
BeatmapID:1818473
BeatmapSetID:870162

[Difficulty]
HPDrainRate:6
CircleSize:2
OverallDifficulty:4
ApproachRate:10
SliderMultiplier:1.4
SliderTickRate:1

[Events]
//Background and Video events
0,0,"Koishi 486.jpg",0,-5
//Break Periods
//Storyboard Layer 0 (Background)
//Storyboard Layer 1 (Fail)
//Storyboard Layer 2 (Pass)
//Storyboard Layer 3 (Foreground)
//Storyboard Sound Samples

[TimingPoints]
569.647208121827,307.692307692308,4,1,0,65,1,0
10415,-100,4,1,0,75,0,0
15338,-100,4,1,0,85,0,0
20261,-100,4,1,0,90,0,1
30108,-100,4,1,0,85,0,0
39954,-100,4,1,0,90,0,0
49800,-100,4,1,0,95,0,0
59646,-100,4,1,0,100,0,1
68261,-100,4,1,0,100,0,0
69492,-100,4,1,0,100,0,1
70723,-100,4,1,0,100,0,0
71954,-100,4,1,0,100,0,1
79338,-100,4,1,0,85,0,0
80569,-100,4,1,0,80,0,0
81800,-100,4,1,0,85,0,0
83031,-100,4,1,0,80,0,0
84261,-100,4,1,0,85,0,0
89185,-100,4,1,0,90,0,1
99031,-100,4,1,0,95,0,1
103954,-100,4,1,0,97,0,1
108877,-100,4,1,0,100,0,0

[HitObjects]
256,192,569,5,8,0:0:0:0:
256,192,723,1,0,0:0:0:0:
256,192,877,1,8,0:0:0:0:
256,192,1185,1,0,0:0:0:0:
256,192,1800,1,8,0:0:0:0:
256,192,2108,1,0,0:0:0:0:
256,192,2415,1,8,0:0:0:0:
256,192,3031,1,0,0:0:0:0:
256,192,3185,1,8,0:0:0:0:
256,192,3338,1,8,0:0:0:0:
256,192,3646,1,8,0:0:0:0:
256,192,4261,1,0,0:0:0:0:
256,192,4569,1,8,0:0:0:0:
256,192,4877,1,0,0:0:0:0:
256,192,5492,1,0,0:0:0:0:
256,192,5800,1,0,0:0:0:0:
256,192,6108,1,8,0:0:0:0:
256,192,6569,1,0,0:0:0:0:
256,192,6723,1,8,0:0:0:0:
256,192,7031,1,0,0:0:0:0:
256,192,7338,1,8,0:0:0:0:
256,192,7954,1,0,0:0:0:0:
256,192,8261,1,0,0:0:0:0:
256,192,8569,1,8,0:0:0:0:
256,192,8877,1,8,0:0:0:0:
256,192,9031,1,8,0:0:0:0:
256,192,9185,1,0,0:0:0:0:
256,192,9800,1,8,0:0:0:0:
256,192,10108,1,0,0:0:0:0:
256,192,10415,1,12,0:0:0:0:
256,192,11646,1,8,0:0:0:0:
256,192,12569,1,0,0:0:0:0:
256,192,12877,1,8,0:0:0:0:
256,192,14108,1,8,0:0:0:0:
256,192,15031,1,0,0:0:0:0:
256,192,15338,1,12,0:0:0:0:
256,192,15800,1,12,0:0:0:0:
256,192,16261,1,4,0:0:0:0:
256,192,16569,1,12,0:0:0:0:
256,192,17031,1,12,0:0:0:0:
256,192,17492,1,4,0:0:0:0:
256,192,17800,1,12,0:0:0:0:
256,192,18261,1,12,0:0:0:0:
256,192,18723,1,12,0:0:0:0:
256,192,19031,1,4,0:0:0:0:
256,192,19954,1,12,0:0:0:0:
256,192,20261,1,4,0:0:0:0:
256,192,20723,1,8,0:0:0:0:
256,192,21185,1,8,0:0:0:0:
256,192,21492,1,8,0:0:0:0:
256,192,22415,1,12,0:0:0:0:
256,192,22723,1,0,0:0:0:0:
256,192,23185,1,8,0:0:0:0:
256,192,23647,1,8,0:0:0:0:
256,192,24108,1,4,0:0:0:0:
256,192,24569,1,4,0:0:0:0:
256,192,24877,1,12,0:0:0:0:
256,192,25185,1,4,0:0:0:0:
256,192,25646,1,8,0:0:0:0:
256,192,26109,1,8,0:0:0:0:
256,192,26416,1,0,0:0:0:0:
256,192,27339,1,12,0:0:0:0:
256,192,27647,1,0,0:0:0:0:
256,192,27800,1,8,0:0:0:0:
256,192,28261,1,8,0:0:0:0:
256,192,28723,1,8,0:0:0:0:
256,192,28877,1,0,0:0:0:0:
256,192,29185,1,0,0:0:0:0:
256,192,29492,1,8,0:0:0:0:
256,192,29800,2,0,L|320:192,2,35
256,192,30108,1,4,0:0:0:0:
256,192,30415,1,8,0:0:0:0:
256,192,30723,1,0,0:0:0:0:
256,192,31338,1,0,0:0:0:0:
256,192,31492,1,0,0:0:0:0:
256,192,31646,1,8,0:0:0:0:
256,192,31954,1,0,0:0:0:0:
256,192,32261,1,8,0:0:0:0:
256,192,32723,1,0,0:0:0:0:
256,192,32877,1,8,0:0:0:0:
256,192,33185,1,8,0:0:0:0:
256,192,33646,1,8,0:0:0:0:
256,192,33954,1,0,0:0:0:0:
256,192,34108,1,8,0:0:0:0:
256,192,34415,1,0,0:0:0:0:
256,192,34723,1,8,0:0:0:0:
256,192,35031,1,0,0:0:0:0:
256,192,35646,1,0,0:0:0:0:
256,192,35800,1,8,0:0:0:0:
256,192,35954,1,0,0:0:0:0:
256,192,36261,1,8,0:0:0:0:
256,192,36877,1,0,0:0:0:0:
256,192,37185,1,0,0:0:0:0:
256,192,37492,1,8,0:0:0:0:
256,192,38108,1,0,0:0:0:0:
256,192,38415,1,8,0:0:0:0:
256,192,38723,1,0,0:0:0:0:
256,192,38877,1,0,0:0:0:0:
256,192,39031,1,8,0:0:0:0:
256,192,39338,1,0,0:0:0:0:
256,192,39646,1,8,0:0:0:0:
256,192,39800,1,8,0:0:0:0:
256,192,39954,1,4,0:0:0:0:
256,192,40569,1,8,0:0:0:0:
256,192,40877,1,0,0:0:0:0:
256,192,41185,1,8,0:0:0:0:
256,192,41646,1,0,0:0:0:0:
256,192,41800,1,8,0:0:0:0:
256,192,42108,1,0,0:0:0:0:
256,192,42415,1,8,0:0:0:0:
256,192,42569,1,0,0:0:0:0:
256,192,42723,1,8,0:0:0:0:
256,192,43031,1,0,0:0:0:0:
256,192,43492,1,8,0:0:0:0:
256,192,43646,1,0,0:0:0:0:
256,192,43954,1,0,0:0:0:0:
256,192,44108,1,0,0:0:0:0:
256,192,44261,1,12,0:0:0:0:
256,192,44877,1,12,0:0:0:0:
256,192,45338,1,4,0:0:0:0:
256,192,45800,1,12,0:0:0:0:
256,192,46108,1,12,0:0:0:0:
256,192,46569,1,4,0:0:0:0:
256,192,47031,1,4,0:0:0:0:
256,192,47338,1,12,0:0:0:0:
256,192,47646,1,0,0:0:0:0:
256,192,48261,1,0,0:0:0:0:
256,192,48569,1,8,0:0:0:0:
256,192,48723,1,8,0:0:0:0:
256,192,48877,1,0,0:0:0:0:
256,192,49185,1,0,0:0:0:0:
256,192,49338,1,0,0:0:0:0:
256,192,49492,1,8,0:0:0:0:
256,192,49800,1,12,0:0:0:0:
256,192,50415,1,0,0:0:0:0:
256,192,50877,1,0,0:0:0:0:
256,192,51031,1,0,0:0:0:0:
256,192,51646,1,0,0:0:0:0:
256,192,51954,1,0,0:0:0:0:
256,192,52108,1,0,0:0:0:0:
256,192,52261,1,0,0:0:0:0:
256,192,52877,1,0,0:0:0:0:
256,192,53492,1,0,0:0:0:0:
256,192,53800,1,0,0:0:0:0:
256,192,54108,1,0,0:0:0:0:
256,192,54261,1,0,0:0:0:0:
256,192,54415,1,0,0:0:0:0:
256,192,54723,1,12,0:0:0:0:
256,192,55338,1,0,0:0:0:0:
256,192,55646,1,0,0:0:0:0:
256,192,55800,1,0,0:0:0:0:
256,192,55954,1,12,0:0:0:0:
256,192,56569,1,0,0:0:0:0:
256,192,56877,1,0,0:0:0:0:
256,192,57031,1,0,0:0:0:0:
256,192,57185,1,12,0:0:0:0:
256,192,57492,1,0,0:0:0:0:
256,192,57800,1,12,0:0:0:0:
256,192,58108,1,0,0:0:0:0:
256,192,58261,1,0,0:0:0:0:
256,192,58415,1,12,0:0:0:0:
256,192,59338,1,12,0:0:0:0:
256,192,59646,1,4,0:0:0:0:
256,192,59954,1,8,0:0:0:0:
256,192,60261,1,0,0:0:0:0:
256,192,60877,1,8,0:0:0:0:
256,192,61185,1,8,0:0:0:0:
256,192,61338,1,8,0:0:0:0:
256,192,61492,1,0,0:0:0:0:
256,192,61800,1,0,0:0:0:0:
256,192,61954,1,8,0:0:0:0:
256,192,62261,1,0,0:0:0:0:
256,192,62569,1,0,0:0:0:0:
256,192,62877,1,0,0:0:0:0:
256,192,63185,1,0,0:0:0:0:
256,192,63338,1,8,0:0:0:0:
256,192,63646,1,8,0:0:0:0:
256,192,63954,1,8,0:0:0:0:
256,192,64108,1,0,0:0:0:0:
256,192,64261,1,8,0:0:0:0:
256,192,64569,1,4,0:0:0:0:
256,192,65184,1,0,0:0:0:0:
256,192,65492,1,8,0:0:0:0:
256,192,65800,1,0,0:0:0:0:
256,192,66108,1,8,0:0:0:0:
256,192,66261,1,8,0:0:0:0:
256,192,66415,1,0,0:0:0:0:
256,192,66723,1,0,0:0:0:0:
256,192,66877,1,8,0:0:0:0:
256,192,67184,1,0,0:0:0:0:
256,192,67492,1,0,0:0:0:0:
256,192,67800,1,0,0:0:0:0:
256,192,67954,1,8,0:0:0:0:
256,192,68261,1,0,0:0:0:0:
256,192,68877,1,8,0:0:0:0:
256,192,69031,1,8,0:0:0:0:
256,192,69184,1,8,0:0:0:0:
256,192,69492,1,4,0:0:0:0:
256,192,70108,1,0,0:0:0:0:
256,192,70415,1,0,0:0:0:0:
256,192,70723,1,8,0:0:0:0:
256,192,71031,1,8,0:0:0:0:
256,192,71185,1,8,0:0:0:0:
256,192,71338,1,0,0:0:0:0:
256,192,71646,1,12,0:0:0:0:
256,192,71954,1,4,0:0:0:0:
256,192,72261,1,8,0:0:0:0:
256,192,72569,1,0,0:0:0:0:
256,192,72877,1,8,0:0:0:0:
256,192,73031,1,8,0:0:0:0:
256,192,73185,1,0,0:0:0:0:
256,192,73492,1,0,0:0:0:0:
256,192,73800,1,8,0:0:0:0:
256,192,74415,1,8,0:0:0:0:
256,192,74723,1,0,0:0:0:0:
256,192,75031,1,8,0:0:0:0:
256,192,75492,1,0,0:0:0:0:
256,192,75646,1,8,0:0:0:0:
256,192,75954,1,8,0:0:0:0:
256,192,76108,1,0,0:0:0:0:
256,192,76261,1,8,0:0:0:0:
256,192,76569,1,0,0:0:0:0:
256,192,76877,1,8,0:0:0:0:
256,192,77185,1,0,0:0:0:0:
256,192,77338,1,8,0:0:0:0:
256,192,77492,1,0,0:0:0:0:
256,192,77800,1,8,0:0:0:0:
256,192,77954,1,0,0:0:0:0:
256,192,78108,1,8,0:0:0:0:
256,192,78415,1,8,0:0:0:0:
256,192,78569,1,8,0:0:0:0:
256,192,78723,1,8,0:0:0:0:
256,192,79031,1,0,0:0:0:0:
256,192,79338,1,12,0:0:0:0:
256,192,80569,1,0,0:0:0:0:
256,192,81185,1,0,0:0:0:0:
256,192,81338,1,8,0:0:0:0:
256,192,81492,1,8,0:0:0:0:
256,192,81800,1,12,0:0:0:0:
256,192,83031,1,0,0:0:0:0:
256,192,83646,1,0,0:0:0:0:
256,192,83800,1,8,0:0:0:0:
256,192,83954,1,8,0:0:0:0:
256,192,84261,1,12,0:0:0:0:
256,192,84723,1,12,0:0:0:0:
256,192,85184,1,4,0:0:0:0:
256,192,85492,1,12,0:0:0:0:
256,192,85954,1,12,0:0:0:0:
256,192,86415,1,4,0:0:0:0:
256,192,86723,1,12,0:0:0:0:
256,192,87184,1,12,0:0:0:0:
256,192,87646,1,4,0:0:0:0:
256,192,87954,1,4,0:0:0:0:
256,192,88877,1,12,0:0:0:0:
256,192,89185,1,4,0:0:0:0:
256,192,89647,1,8,0:0:0:0:
256,192,90109,1,8,0:0:0:0:
256,192,90416,1,8,0:0:0:0:
256,192,91339,1,12,0:0:0:0:
256,192,91647,1,0,0:0:0:0:
256,192,92109,1,8,0:0:0:0:
256,192,92569,1,8,0:0:0:0:
256,192,93032,1,4,0:0:0:0:
256,192,93493,1,4,0:0:0:0:
256,192,93801,1,12,0:0:0:0:
256,192,94108,1,4,0:0:0:0:
256,192,94570,1,8,0:0:0:0:
256,192,95032,1,8,0:0:0:0:
256,192,95339,1,8,0:0:0:0:
256,192,96262,1,12,0:0:0:0:
256,192,96570,1,0,0:0:0:0:
256,192,97032,1,8,0:0:0:0:
256,192,97492,1,8,0:0:0:0:
256,192,97800,1,8,0:0:0:0:
256,192,97954,1,0,0:0:0:0:
256,192,98109,1,8,0:0:0:0:
256,192,98416,1,8,0:0:0:0:
256,192,98724,2,0,L|320:192,2,35
256,192,99031,1,4,0:0:0:0:
256,192,99646,1,8,0:0:0:0:
256,192,100108,1,0,0:0:0:0:
256,192,100415,1,0,0:0:0:0:
256,192,100570,1,8,0:0:0:0:
256,192,100878,1,0,0:0:0:0:
256,192,101185,1,8,0:0:0:0:
256,192,101493,1,8,0:0:0:0:
256,192,101800,1,0,0:0:0:0:
256,192,102108,1,8,0:0:0:0:
256,192,102878,1,4,0:0:0:0:
256,192,103339,1,12,0:0:0:0:
256,192,103647,1,12,0:0:0:0:
256,192,103954,1,4,0:0:0:0:
256,192,104262,1,8,0:0:0:0:
256,192,104569,1,0,0:0:0:0:
256,192,104723,1,0,0:0:0:0:
256,192,104878,1,8,0:0:0:0:
256,192,105338,1,8,0:0:0:0:
256,192,105493,1,0,0:0:0:0:
256,192,105801,1,0,0:0:0:0:
256,192,106108,1,8,0:0:0:0:
256,192,106416,1,0,0:0:0:0:
256,192,106569,1,8,0:0:0:0:
256,192,106877,1,8,0:0:0:0:
256,192,107185,1,8,0:0:0:0:
256,192,107493,1,8,0:0:0:0:
256,192,107647,1,0,0:0:0:0:
256,192,107954,1,8,0:0:0:0:
256,192,108108,1,8,0:0:0:0:
256,192,108261,1,8,0:0:0:0:
256,192,108569,2,0,L|320:192,2,35
256,192,108877,1,12,0:0:0:0:
256,192,109338,1,4,0:0:0:0:
256,192,109800,1,4,0:0:0:0:
256,192,110108,1,12,0:0:0:0:
256,192,110569,1,4,0:0:0:0:
256,192,111031,1,4,0:0:0:0:
256,192,111338,1,12,0:0:0:0:
256,192,111800,1,4,0:0:0:0:
256,192,112261,1,12,0:0:0:0:
256,192,112569,1,4,0:0:0:0:
256,192,113031,1,0,0:0:0:0:
256,192,113185,1,12,0:0:0:0:
