osu file format v14

[General]
AudioFilename: CENSORED!!.mp3
AudioLeadIn: 0
PreviewTime: 89178
Countdown: 0
SampleSet: Normal
StackLeniency: 0.7
Mode: 0
LetterboxInBreaks: 0
WidescreenStoryboard: 1

[Editor]
DistanceSpacing: 1.3
BeatDivisor: 4
GridSize: 32
TimelineZoom: 1

[Metadata]
Title:CENSORED!!
TitleUnicode:CENSORED!!
Artist:t+pazolite
ArtistUnicode:t+pazolite
Creator:Zyl
Version:N*VICE!!
Source:SOUND VOLTEX III GRAVITY WARS
Tags:chireiden 東方地霊殿 Subterranean Animism th11 ハルトマンの妖怪少女 Hartmann's Youkai Girl 古明地 こめいじ こいし 上海アリス幻樂団 Touhou Trent83 alice's emotion Koishi Komeiji sdvx museca ZUN Team Shanghai Alice Blossom Extra stage boss Touhou 11 Subterranean Animism Hartmann's youkai girl reitaisai 13 Electronic Instrumental
BeatmapID:1151171
BeatmapSetID:489566

[Difficulty]
HPDrainRate:4.5
CircleSize:3
OverallDifficulty:4.5
ApproachRate:5
SliderMultiplier:1.2
SliderTickRate:1

[Events]
//Background and Video events
0,0,"MORE CENSORED THAN EVER!!.png",0,0
//Break Periods
2,30314,38761
2,50007,53530
//Storyboard Layer 0 (Background)
//Storyboard Layer 1 (Fail)
//Storyboard Layer 2 (Pass)
//Storyboard Layer 3 (Foreground)
//Storyboard Layer 4 (Overlay)
//Storyboard Sound Samples

[TimingPoints]
577,307.692307692308,4,1,1,40,1,0
4884,-100,4,2,1,40,0,0
10423,-100,4,2,1,70,0,1
10730,-100,4,2,1,70,0,0
19192,-100,4,3,1,70,0,0
19961,-100,4,1,1,70,0,0
20269,-100,4,1,1,70,0,1
20577,-100,4,3,1,70,0,1
22423,-100,4,1,1,70,0,1
22577,-100,4,3,1,70,0,1
22730,-100,4,1,1,70,0,1
23038,-100,4,3,1,70,0,1
24884,-100,4,1,1,70,0,1
25038,-100,4,3,1,70,0,1
25115,-100,4,1,1,70,0,1
25500,-100,4,3,1,70,0,1
27346,-100,4,1,1,70,0,1
27807,-100,4,3,1,70,0,1
28884,-100,4,2,1,70,0,0
29038,-100,4,3,1,70,0,0
29500,-100,4,1,1,70,0,0
30115,-100,4,2,1,70,0,0
38269,-100,4,3,1,70,0,0
39961,-100,4,2,1,60,0,1
40269,-100,4,3,1,70,0,0
42423,-100,4,2,1,70,0,0
42577,-100,4,3,1,70,0,0
44884,-100,4,3,1,70,0,1
45192,-100,4,3,1,70,0,0
49807,-100,4,2,1,70,0,0
52269,-100,4,3,1,70,0,0
53500,-100,4,2,1,70,0,0
54577,-100,4,3,1,40,0,0
57192,-100,4,3,1,50,0,0
57500,-100,4,3,1,60,0,0
57807,-100,4,3,1,70,0,0
58115,-100,4,3,1,80,0,0
58423,-100,4,2,1,70,0,0
59346,-100,4,1,1,70,0,0
59653,-100,4,2,1,70,0,1
60038,-100,4,3,1,70,0,1
60269,-100,4,2,1,70,0,1
60423,-100,4,3,1,70,0,1
60884,-100,4,2,1,70,0,1
61192,-100,4,3,1,70,0,1
61500,-100,4,2,1,70,0,1
61961,-100,4,3,1,70,0,1
62115,-100,4,1,2,70,0,1
64577,-100,4,2,1,70,0,1
64653,-100,4,3,1,70,0,1
64884,-100,4,2,1,70,0,1
64961,-100,4,3,1,70,0,1
65192,-100,4,2,1,70,0,1
65269,-100,4,3,1,70,0,1
65807,-100,4,2,1,70,0,1
65884,-100,4,3,1,70,0,1
66115,-100,4,2,1,70,0,1
66192,-100,4,3,1,70,0,1
66423,-100,4,2,1,70,0,1
66500,-100,4,3,1,70,0,1
66730,-100,4,2,1,70,0,1
67192,-100,4,1,2,70,0,1
68269,-100,4,1,2,70,0,0
69500,-100,4,3,1,70,0,1
70730,-100,4,3,1,80,0,1
71038,-100,4,3,1,90,0,1
71346,-100,4,3,1,100,0,1
71961,-100,4,2,1,70,0,1
72115,-100,4,1,2,70,0,1
72269,-100,4,2,1,70,0,1
72423,-100,4,1,2,70,0,1
72577,-100,4,2,1,70,0,1
72730,-100,4,1,2,70,0,1
72884,-100,4,3,1,70,0,1
73038,-100,4,1,2,70,0,1
73115,-100,4,2,1,70,0,1
73346,-100,4,1,2,70,0,1
73500,-100,4,2,1,70,0,1
73653,-100,4,1,2,70,0,1
73807,-100,4,2,1,70,0,1
73961,-100,4,1,2,70,0,1
74269,-100,4,3,1,70,0,1
76577,-100,4,2,1,70,0,1
76884,-100,4,3,1,70,0,1
78115,-100,4,2,1,70,0,0
79346,-100,4,1,1,70,0,1
79653,-100,4,2,1,70,0,0
81807,-100,4,1,1,70,0,1
82038,-100,4,2,1,70,0,1
82115,-100,4,2,1,70,0,0
84269,-100,4,1,1,70,0,1
84500,-100,4,2,1,70,0,1
84577,-100,4,2,1,70,0,0
88115,-100,4,3,1,70,0,0
88884,-100,4,1,1,70,0,0
89192,-100,4,1,1,70,0,1
89500,-100,4,3,1,70,0,1
91346,-100,4,1,1,70,0,1
91961,-100,4,3,1,70,0,1
93807,-100,4,1,1,70,0,1
93961,-100,4,3,1,70,0,1
94115,-100,4,1,1,70,0,1
94423,-100,4,3,1,70,0,1
96269,-100,4,1,1,70,0,1
96346,-100,4,3,1,70,0,1
96577,-100,4,1,1,70,0,1
96884,-100,4,3,1,70,0,1
98730,-100,4,1,1,70,0,0
99038,-100,4,1,1,70,0,1
99346,-100,4,3,1,70,0,1
100115,-100,4,2,1,70,0,1
100269,-100,4,3,1,70,0,1
101192,-100,4,1,1,70,0,1
101269,-100,4,3,1,70,0,1
101500,-100,4,1,1,70,0,1
101577,-100,4,3,1,70,0,1
103653,-100,4,1,1,70,0,1
103961,-100,4,1,1,70,0,1
104269,-100,4,3,1,70,0,1
105192,-100,4,3,1,70,0,1
105269,-100,4,3,1,70,0,1
106115,-100,4,1,1,70,0,1
106423,-100,4,1,1,70,0,1
106500,-100,4,3,1,70,0,1
106730,-100,4,3,1,80,0,1
107038,-100,4,3,1,90,0,1
107346,-100,4,3,1,100,0,1
107653,-100,4,2,1,70,0,0
107730,-100,4,3,1,70,0,0
108115,-100,4,2,1,70,0,0
108192,-100,4,3,1,70,0,0
108423,-100,4,1,1,70,0,0
108577,-100,4,3,1,70,0,0
108884,-100,4,2,1,70,0,0

[Colours]
Combo1 : 202,0,101
Combo2 : 255,43,149
Combo3 : 255,45,45
Combo4 : 202,0,202
SliderBorder : 255,43,149
SliderTrackOverride : 0,0,0

[HitObjects]
60,81,577,6,0,P|43:138|85:199,1,120
121,130,1038,1,0,0:0:0:0:
121,130,1192,2,0,L|243:121,1,120
319,139,1653,1,0,0:0:0:0:
319,139,1807,2,0,P|365:98|371:32,2,120
290,292,2730,1,0,0:0:0:0:
290,292,3038,6,0,L|153:278,1,120,0|0,0:0|0:0,0:0:0:0:
126,215,3500,1,0,0:0:0:0:
81,151,3653,2,0,L|200:163,1,120,0|0,0:0|0:0,0:0:0:0:
244,98,4115,1,0,0:0:0:0:
244,98,4269,2,0,P|297:80|368:108,2,120,0|0|2,0:0|0:0|0:0,0:0:0:0:
411,262,5346,1,0,0:0:0:0:
469,210,5500,6,0,P|489:258|457:324,1,120,4|4,0:0|0:0,0:0:0:0:
390,343,5961,1,0,0:0:0:0:
390,343,6115,2,0,L|246:354,1,120,8|4,0:0|0:0,0:0:0:0:
193,335,6577,1,0,0:0:0:0:
193,335,6730,2,0,P|163:282|182:223,1,120,4|4,0:0|0:0,0:0:0:0:
277,106,7346,1,8,0:0:0:0:
277,106,7653,2,4,L|360:100,1,60,4|4,0:0|0:0,0:0:0:0:
389,43,7961,6,0,P|414:85|390:162,1,120,4|4,0:0|0:0,0:0:0:0:
327,182,8423,1,0,0:0:0:0:
327,182,8577,2,0,L|192:176,1,120,8|4,0:0|0:0,0:0:0:0:
54,209,9192,2,0,L|61:293,1,60,4|0,0:0|0:0,0:0:0:0:
137,266,9500,2,0,L|132:206,1,60,0|0,0:0|0:0,0:0:0:0:
172,139,9807,2,0,P|221:117|301:132,1,120,8|2,0:0|0:0,0:0:0:0:
430,182,10423,6,0,L|410:370,2,180,4|0|0,0:0|0:0|0:0,0:0:0:0:
323,68,11653,2,0,P|240:32|139:70,2,180,4|0|0,0:0|0:0|0:0,0:0:0:0:
196,159,12884,6,0,P|236:139|207:210,2,180,4|0|0,0:0|0:0|0:0,0:0:0:0:
83,267,14115,2,0,B|152:271|152:271|188:294|188:294|265:300,2,180,4|0|0,0:0|0:0|0:0,0:0:0:0:
226,206,15346,6,0,B|140:178|140:178|50:183,2,180,4|4|4,0:0|0:0|0:0,0:0:0:0:
296,239,16423,1,4,0:0:0:0:
296,239,16577,2,0,B|319:199|282:146|282:146|263:110|282:66,2,180,4|4|4,0:0|0:0|0:0,0:0:0:0:
223,267,17653,1,4,0:0:0:0:
223,267,17807,6,0,L|34:250,2,180,4|4|4,0:0|0:0|0:0,0:0:0:0:
283,316,18884,1,4,0:0:0:0:
283,316,19038,2,0,B|319:283|290:202|290:202|255:130|287:86,1,240,2|4,0:0|0:0,0:0:0:0:
429,21,19961,1,4,0:0:0:0:
429,21,20269,6,0,B|445:84|445:84|412:264,1,240,10|4,0:0|0:0,0:0:0:0:
291,353,21192,1,4,0:0:0:0:
291,353,21346,1,4,0:0:0:0:
291,353,21500,2,4,B|212:351|212:351|175:333|175:333|138:346|138:346|42:338,1,240,4|4,0:0|0:0,0:0:0:0:
22,187,22423,2,0,L|101:177,1,60,8|8,0:0|0:0,0:0:0:0:
136,124,22730,6,0,B|213:121|213:121|240:104|240:104|320:102,2,180,10|0|4,0:0|0:0|0:0,0:0:0:0:
81,179,23807,1,4,0:0:0:0:
81,179,23961,1,4,0:0:0:0:
54,252,24115,2,4,L|73:335,1,60,4|0,0:0|0:0,0:0:0:0:
143,292,24423,2,0,L|187:339,1,60,0|4,0:0|0:0,0:0:0:0:
238,279,24730,2,0,L|317:307,1,60,0|4,0:0|0:0,0:0:0:0:
320,224,25038,1,4,0:0:0:0:
291,151,25192,6,0,B|248:139|199:157|199:157|151:170|103:144,2,180,10|0|4,0:0|0:0|0:0,0:0:0:0:
368,287,26423,2,0,L|387:92,2,180,4|0|12,0:0|0:0|0:0,0:0:0:0:
222,341,27653,6,0,L|150:349,1,60,2|4,0:0|0:0,0:0:0:0:
141,271,27961,2,0,L|200:264,1,60,0|0,0:0|0:0,0:0:0:0:
190,186,28269,2,4,L|118:194,1,60,4|0,0:0|0:0,0:0:0:0:
109,116,28577,2,0,L|168:109,1,60,0|4,0:0|0:0,0:0:0:0:
211,44,28884,6,0,L|334:35,2,120,8|4|0,0:0|0:0|0:0,0:0:0:0:
134,30,29653,1,0,0:0:0:0:
134,30,29807,2,0,L|12:20,1,120,4|12,0:0|0:0,0:0:0:0:
94,167,39961,6,8,L|83:247,2,60,4|0|8,0:0|0:0|0:0,0:0:0:0:
64,93,40423,1,0,0:0:0:0:
111,30,40577,2,0,L|256:37,1,120,12|12,0:0|0:0,0:0:0:0:
369,106,41192,2,0,L|379:35,2,60,4|0|4,0:0|0:0|0:0,0:0:0:0:
421,163,41653,1,0,0:0:0:0:
383,231,41807,2,0,L|252:216,1,120,12|12,0:0|0:0,0:0:0:0:
129,297,42423,6,0,L|207:297,1,60,4|6,0:0|0:0,0:0:0:0:
184,219,42730,2,0,L|124:219,1,60,8|8,0:0|0:0,0:0:0:0:
63,168,43038,2,4,L|55:58,2,90,12|12|12,0:0|0:0|0:0,0:0:0:0:
124,219,43653,2,4,L|184:219,1,60,4|8,0:0|0:0,0:0:0:0:
241,272,43961,2,4,L|301:272,1,60,4|8,0:0|0:0,0:0:0:0:
363,224,44269,2,8,P|448:208|498:283,1,180,8|4,0:0|0:0,0:0:0:0:
419,282,44884,6,0,L|408:88,2,180,4|4|4,0:0|0:0|0:0,0:0:0:0:
273,319,46115,2,0,B|179:313|179:313|156:300|156:300|131:308|131:308|74:301,2,180,4|4|4,0:0|0:0|0:0,0:0:0:0:
421,270,47346,6,4,L|434:144,1,120,4|4,0:0|0:0,0:0:0:0:
388,86,47807,1,4,0:0:0:0:
388,86,47961,2,4,L|301:82,1,60,4|4,0:0|0:0,0:0:0:0:
292,153,48269,2,0,L|205:149,1,60,0|0,0:0|0:0,0:0:0:0:
256,192,48577,12,4,49807,0:0:0:0:
171,93,54730,6,0,L|86:86,1,60,12|4,0:0|0:0,0:0:0:0:
100,165,55038,2,0,L|159:169,1,60,4|4,0:0|0:0,0:0:0:0:
147,247,55346,2,0,L|62:240,1,60,12|4,0:0|0:0,0:0:0:0:
76,319,55654,2,0,L|135:323,1,60,12|4,0:0|0:0,0:0:0:0:
210,301,55961,6,0,P|263:291|331:326,2,120,12|12|12,0:0|0:0|0:0,0:0:0:0:
352,238,56884,2,0,P|378:257|402:280,1,60,12|4,0:0|0:0,0:0:0:0:
431,347,57192,2,0,L|449:87,2,240,12|8|2,0:0|0:0|0:0,0:0:0:0:
283,296,58730,1,4,0:0:0:0:
138,355,59038,1,8,0:0:0:0:
138,355,59346,2,0,L|130:278,1,60,4|0,0:0|0:0,0:0:0:0:
55,276,59653,6,0,P|127:214|210:308,1,240,2|2,0:0|0:0,0:0:0:0:
259,363,60423,2,0,L|337:357,1,60,4|8,0:0|0:0,0:0:0:0:
471,323,60884,2,0,L|491:185,2,120,2|4|2,0:0|0:0|0:0,0:0:0:0:
400,355,61653,1,2,0:0:0:0:
338,306,61807,2,4,P|282:293|259:298,1,60,8|2,0:0|0:0,0:0:0:0:
226,350,62115,6,0,L|139:364,1,60,0|8,0:0|0:0,0:0:0:0:
162,281,62423,2,0,L|74:272,1,60,0|8,0:0|0:0,0:0:0:0:
124,200,62730,2,0,L|47:161,1,60,0|8,0:0|0:0,0:0:0:0:
112,106,63038,2,0,L|56:51,1,60,0|8,0:0|0:0,0:0:0:0:
129,13,63346,2,0,L|179:58,1,60,0|8,0:0|0:0,0:0:0:0:
247,29,63653,2,0,L|274:89,1,60,0|8,0:0|0:0,0:0:0:0:
349,70,63961,2,0,L|354:133,1,60,0|8,0:0|0:0,0:0:0:0:
432,133,64269,2,8,L|417:197,1,60,8|0,0:0|0:0,0:0:0:0:
493,215,64577,6,0,P|471:251|393:267,1,120,2|2,0:0|0:0,0:0:0:0:
338,219,65038,1,4,0:0:0:0:
280,271,65192,2,0,L|136:282,1,120,2|12,0:0|0:0,0:0:0:0:
99,231,65653,1,4,0:0:0:0:
99,231,65807,2,0,P|69:178|96:107,2,120,2|2|2,0:0|0:0|0:0,0:0:0:0:
149,170,66577,1,12,0:0:0:0:
217,207,66730,2,0,L|303:213,1,60,4|2,0:0|0:0,0:0:0:0:
270,132,67038,6,0,L|340:124,1,60,0|8,0:0|0:0,0:0:0:0:
355,199,67346,2,0,L|441:205,1,60,0|8,0:0|0:0,0:0:0:0:
413,124,67654,2,0,L|483:117,2,60,0|8|0,0:0|0:0|0:0,0:0:0:0:
378,53,68115,1,8,0:0:0:0:
302,31,68269,2,0,L|168:31,1,120
53,119,68884,2,0,L|173:119,1,120
289,225,69500,6,0,P|227:214|161:225,1,120,8|8,0:0|0:0,0:0:0:0:
295,316,70115,2,0,P|357:327|423:316,1,120,8|8,0:0|0:0,0:0:0:0:
456,169,70730,2,0,L|457:89,1,60,8|8,0:0|0:0,0:0:0:0:
378,118,71038,2,0,L|356:51,1,60,8|8,0:0|0:0,0:0:0:0:
288,95,71346,2,0,P|239:83|163:111,1,120,8|2,0:0|0:0,0:0:0:0:
22,137,71961,6,0,L|32:208,1,60,8|8,0:0|0:0,0:0:0:0:
105,174,72269,2,0,L|123:241,1,60,4|8,0:0|0:0,0:0:0:0:
191,197,72577,2,0,L|234:257,1,60,4|8,0:0|0:0,0:0:0:0:
272,183,72884,2,0,L|337:205,1,60,4|8,0:0|0:0,0:0:0:0:
339,124,73192,2,0,P|390:93|469:104,2,120,8|4|4,0:0|0:0|0:0,0:0:0:0:
357,199,73961,1,8,0:0:0:0:
406,259,74115,2,0,L|395:334,1,60,8|4,0:0|0:0,0:0:0:0:
321,340,74423,6,4,P|268:355|202:337,1,120,4|4,0:0|0:0,0:0:0:0:
159,276,74884,1,4,0:0:0:0:
124,206,75038,2,0,B|98:165|131:123|131:123|163:75|129:22,1,180,4|4,0:0|0:0,0:0:0:0:
68,75,75653,2,4,P|49:109|37:140,1,60,4|0,0:0|0:0,0:0:0:0:
27,205,75961,2,4,P|46:239|58:270,1,60,4|4,0:0|0:0,0:0:0:0:
9,322,76269,2,4,P|47:337|122:297,1,120,4|2,0:0|0:0,0:0:0:0:
220,190,76884,6,0,P|275:159|345:171,1,120,4|4,0:0|0:0,0:0:0:0:
381,222,77346,1,4,0:0:0:0:
370,299,77500,2,0,P|315:330|245:318,1,120,8|8,0:0|0:0,0:0:0:0:
191,288,77961,1,8,0:0:0:0:
233,222,78115,2,0,L|238:88,1,120
89,52,78730,2,0,L|84:171,1,120
191,288,79346,6,0,P|105:266|23:300,2,180,8|4|4,0:0|0:0|0:0,0:0:0:0:
342,250,80577,2,4,P|392:251|435:216,2,90,4|4|4,0:0|0:0|0:0,0:0:0:0:
367,173,81192,2,4,L|381:95,1,60,4|4,0:0|0:0,0:0:0:0:
299,103,81500,2,4,L|288:162,1,60,4|4,0:0|0:0,0:0:0:0:
211,177,81807,6,0,B|192:236|192:236|215:356,2,180,8|4|4,0:0|0:0|0:0,0:0:0:0:
320,66,83038,2,4,P|364:48|433:57,2,90
296,140,83653,2,4,L|307:220,1,60
381,210,83961,2,4,L|389:269,1,60
340,331,84269,6,0,P|430:340|468:249,2,180,8|4|4,0:0|0:0|0:0,0:0:0:0:
268,299,85346,1,4,0:0:0:0:
268,299,85500,2,0,B|159:289|159:289|79:309,2,180,4|4|4,0:0|0:0|0:0,0:0:0:0:
315,237,86577,1,4,0:0:0:0:
315,237,86730,6,0,B|338:197|301:144|301:144|282:108|301:64,2,180,4|4|4,0:0|0:0|0:0,0:0:0:0:
243,205,87807,1,4,0:0:0:0:
243,205,87961,2,0,P|181:244|225:164,1,240,2|4,0:0|0:0,0:0:0:0:
336,55,88884,1,4,0:0:0:0:
336,55,89192,6,0,B|352:118|352:118|319:298,1,240,10|4,0:0|0:0,0:0:0:0:
166,318,90115,1,4,0:0:0:0:
166,318,90269,1,4,0:0:0:0:
166,318,90423,2,0,P|75:318|151:248,1,240,4|4,0:0|0:0,0:0:0:0:
291,208,91346,2,0,L|365:218,1,60,4|0,0:0|0:0,0:0:0:0:
378,289,91653,6,0,B|395:228|395:228|381:167|381:167|397:98,2,180,10|0|4,0:0|0:0|0:0,0:0:0:0:
316,336,92730,1,4,0:0:0:0:
316,336,92884,1,4,0:0:0:0:
238,348,93038,2,4,L|164:340,1,60,4|0,0:0|0:0,0:0:0:0:
190,263,93346,2,0,L|127:236,1,60,0|4,0:0|0:0,0:0:0:0:
161,166,93653,2,0,L|122:112,1,60,0|4,0:0|0:0,0:0:0:0:
165,49,93961,1,4,0:0:0:0:
165,49,94115,6,0,B|256:62|256:62|352:31,2,180,10|0|4,0:0|0:0|0:0,0:0:0:0:
32,132,95346,2,0,B|50:201|50:201|34:228|34:228|64:317,2,180,4|0|4,0:0|0:0|0:0,0:0:0:0:
165,49,96577,6,0,L|356:30,2,180,10|0|4,0:0|0:0|0:0,0:0:0:0:
38,139,97807,2,4,L|22:208,1,60,4|4,0:0|0:0,0:0:0:0:
99,220,98115,2,4,L|111:285,1,60,4|4,0:0|0:0,0:0:0:0:
188,278,98423,2,4,L|216:331,1,60,4|4,0:0|0:0,0:0:0:0:
284,293,98730,2,0,L|350:315,1,60,4|0,0:0|0:0,0:0:0:0:
411,276,99038,6,0,P|445:222|426:157,1,120,10|4,0:0|0:0,0:0:0:0:
320,63,99653,2,0,B|274:67|274:67|220:50,2,90,4|0|4,0:0|0:0|0:0,0:0:0:0:
386,21,100269,2,0,P|399:66|363:129,1,120,0|4,0:0|0:0,0:0:0:0:
294,160,100730,1,0,0:0:0:0:
216,147,100884,2,4,L|134:157,1,60,4|8,0:0|0:0,0:0:0:0:
97,206,101192,1,4,0:0:0:0:
18,341,101500,6,0,P|67:323|152:348,1,120,10|4,0:0|0:0,0:0:0:0:
287,349,102115,2,0,L|393:328,2,90,4|4|4,0:0|0:0|0:0,0:0:0:0:
233,291,102730,2,0,P|221:257|219:227,1,60,4|4,0:0|0:0,0:0:0:0:
297,233,103038,2,0,P|297:188|310:164,1,60,0|0,0:0|0:0,0:0:0:0:
376,201,103346,2,4,P|389:160|409:135,1,60,4|0,0:0|0:0,0:0:0:0:
444,83,103653,1,4,0:0:0:0:
296,32,103961,6,0,L|188:28,2,90,10|0|0,0:0|0:0|0:0,0:0:0:0:
344,93,104577,2,0,P|379:142|363:210,1,120,4|4,0:0|0:0,0:0:0:0:
302,160,105038,1,0,0:0:0:0:
248,217,105192,2,0,P|212:234|183:240,1,60,4|0,0:0|0:0,0:0:0:0:
187,160,105500,2,0,P|139:164|114:156,1,60,4|0,0:0|0:0,0:0:0:0:
73,105,105807,2,0,P|49:149|74:218,1,120,4|4,0:0|0:0,0:0:0:0:
129,261,106269,1,0,0:0:0:0:
198,295,106423,6,0,L|318:289,1,120,10|4,0:0|0:0,0:0:0:0:
314,211,106884,2,0,L|194:217,1,120,4|4,0:0|0:0,0:0:0:0:
146,154,107346,2,0,P|125:118|122:95,1,60,4|4,0:0|0:0,0:0:0:0:
172,40,107653,2,8,P|244:27|301:45,2,120,4|8|8,0:0|0:0|0:0,0:0:0:0:
122,100,108423,1,8,0:0:0:0:
80,165,108577,2,0,L|77:238,1,60,6|4,0:0|0:0,0:0:0:0:
14,270,108884,6,0,P|48:298|133:278,1,120,12|0,0:0|0:0,0:0:0:0:
186,248,109346,2,0,P|243:235|291:267,1,120,4|0,0:0|0:0,0:0:0:0:
260,339,109807,2,0,P|285:346|330:335,1,60,4|4,0:0|0:0,0:0:0:0:
390,309,110115,2,0,B|399:253|399:253|394:241|394:241|401:186,1,120,4|0,0:0|0:0,0:0:0:0:
321,190,110577,2,0,B|327:140|327:140|322:128|322:128|331:72,1,120,4|4,0:0|0:0,0:0:0:0:
261,37,111038,2,0,P|223:27|197:29,1,60,0|4,0:0|0:0,0:0:0:0:
256,192,111346,12,10,113192,0:0:0:0:
