osu file format v14

[General]
AudioFilename: CENSORED!!.mp3
AudioLeadIn: 0
PreviewTime: 89178
Countdown: 0
SampleSet: Normal
StackLeniency: 0.7
Mode: 0
LetterboxInBreaks: 0
WidescreenStoryboard: 0

[Editor]
DistanceSpacing: 1
BeatDivisor: 4
GridSize: 32
TimelineZoom: 2.150003

[Metadata]
Title:CENSORED!!
TitleUnicode:CENSORED!!
Artist:t+pazolite
ArtistUnicode:t+pazolite
Creator:Zyl
Version:INF*NITE!!
Source:SOUND VOLTEX III GRAVITY WARS
Tags:chireiden 東方地霊殿 Subterranean Animism th11 ハルトマンの妖怪少女 Hartmann's Youkai Girl 古明地 こめいじ こいし 上海アリス幻樂団 Touhou Trent83 alice's emotion Koishi Komeiji sdvx museca ZUN Team Shanghai Alice Blossom Extra stage boss Touhou 11 Subterranean Animism Hartmann's youkai girl reitaisai 13 Electronic Instrumental
BeatmapID:1151133
BeatmapSetID:489566

[Difficulty]
HPDrainRate:7
CircleSize:4
OverallDifficulty:8.5
ApproachRate:9.4
SliderMultiplier:1.8
SliderTickRate:1

[Events]
//Background and Video events
0,0,"MORE CENSORED THAN EVER!!.png",0,0
//Break Periods
//Storyboard Layer 0 (Background)
//Storyboard Layer 1 (Fail)
//Storyboard Layer 2 (Pass)
//Storyboard Layer 3 (Foreground)
//Storyboard Layer 4 (Overlay)
//Storyboard Sound Samples

[TimingPoints]
577,307.692307692308,4,1,1,40,1,0
577,-133.333333333333,4,1,1,40,0,0
4884,-133.333333333333,4,2,1,40,0,0
5500,-100,4,2,1,40,0,0
10423,-100,4,2,1,70,0,1
10730,-100,4,2,1,70,0,0
19192,-83.3333333333333,4,3,1,70,0,0
19346,-71.4285714285714,4,3,1,70,0,0
19500,-62.5,4,3,1,70,0,0
19653,-55.5555555555556,4,3,1,70,0,0
19961,-100,4,1,1,70,0,0
20269,-71.4285714285714,4,1,1,70,0,1
20577,-125,4,3,1,70,0,1
20884,-71.4285714285714,4,3,1,70,0,1
21192,-125,4,3,1,70,0,1
21500,-71.4285714285714,4,3,1,70,0,1
21807,-125,4,3,1,70,0,1
22115,-71.4285714285714,4,3,1,70,0,1
22423,-125,4,3,1,70,0,1
22577,-125,4,3,1,70,0,1
22730,-71.4285714285714,4,1,1,70,0,1
23038,-125,4,3,1,70,0,1
23346,-71.4285714285714,4,3,1,70,0,1
23653,-125,4,3,1,70,0,1
23961,-166.666666666667,4,3,1,70,0,1
24115,-62.5,4,3,1,70,0,1
24346,-83.3333333333333,4,3,1,70,0,1
24577,-100,4,3,1,70,0,1
24807,-125,4,3,1,70,0,1
24884,-125,4,1,1,70,0,1
25038,-166.666666666667,4,3,1,70,0,1
25115,-166.666666666667,4,1,1,70,0,1
25192,-71.4285714285715,4,1,1,70,0,1
25500,-125,4,3,1,70,0,1
25807,-71.4285714285714,4,3,1,70,0,1
26115,-125,4,3,1,70,0,1
26423,-71.4285714285714,4,3,1,70,0,1
26730,-125,4,3,1,70,0,1
27038,-71.4285714285714,4,3,1,70,0,1
27346,-62.5,4,1,1,70,0,1
27807,-100,4,3,1,70,0,1
28038,-83.3333333333333,4,3,1,70,0,1
28269,-71.4285714285714,4,3,1,70,0,1
28500,-62.5,4,3,1,70,0,1
28730,-55.5555555555556,4,3,1,70,0,1
28884,-50,4,2,1,70,0,0
29038,-83.3333333333333,4,3,1,70,0,0
29500,-125,4,1,1,70,0,0
29807,-200,4,1,1,70,0,0
30115,-83.3333333333333,4,2,1,70,0,0
34730,-200,4,2,1,70,0,0
35038,-83.3333333333333,4,2,1,70,0,0
37500,-200,4,2,1,70,0,0
38269,-200,4,3,1,70,0,0
38730,-100,4,3,1,70,0,0
39961,-100,4,2,1,60,0,1
40269,-100,4,3,1,70,0,0
40884,-166.666666666667,4,3,1,70,0,0
41192,-100,4,3,1,70,0,0
42115,-166.666666666667,4,3,1,70,0,0
42423,-166.666666666667,4,2,1,70,0,0
42577,-166.666666666667,4,3,1,70,0,0
43653,-100,4,3,1,70,0,0
44884,-71.4285714285714,4,3,1,70,0,1
45192,-71.4285714285714,4,3,1,70,0,0
45807,-100,4,3,1,70,0,0
46115,-71.4285714285714,4,3,1,70,0,0
49807,-100,4,2,1,70,0,0
52269,-100,4,3,1,70,0,0
53500,-100,4,2,1,70,0,0
54577,-100,4,3,1,40,0,0
57192,-100,4,3,1,50,0,0
57500,-100,4,3,1,60,0,0
57807,-100,4,3,1,70,0,0
58115,-100,4,3,1,80,0,0
58423,-62.5,4,2,1,70,0,0
58730,-71.4285714285714,4,2,1,70,0,0
59038,-83.3333333333333,4,2,1,70,0,0
59346,-55.5555555555556,4,1,1,70,0,0
59653,-71.4285714285714,4,2,1,70,0,1
60038,-71.4285714285714,4,3,1,70,0,1
60269,-71.4285714285714,4,2,1,70,0,1
60423,-71.4285714285714,4,3,1,70,0,1
60884,-71.4285714285714,4,2,1,70,0,1
61192,-71.4285714285714,4,3,1,70,0,1
61500,-71.4285714285714,4,2,1,70,0,1
61807,-100,4,2,1,70,0,1
61961,-166.666666666667,4,3,1,70,0,1
62115,-71.4285714285714,4,1,2,70,0,1
64269,-62.5,4,1,2,70,0,1
64577,-71.4285714285714,4,2,1,70,0,1
64653,-71.4285714285714,4,3,1,70,0,1
64884,-71.4285714285714,4,2,1,70,0,1
64961,-71.4285714285714,4,3,1,70,0,1
65192,-71.4285714285714,4,2,1,70,0,1
65269,-71.4285714285714,4,3,1,70,0,1
65807,-71.4285714285714,4,2,1,70,0,1
65884,-71.4285714285714,4,3,1,70,0,1
66115,-71.4285714285714,4,2,1,70,0,1
66192,-71.4285714285714,4,3,1,70,0,1
66423,-71.4285714285714,4,2,1,70,0,1
66500,-71.4285714285714,4,3,1,70,0,1
66730,-62.5,4,2,1,70,0,1
66884,-166.666666666667,4,2,1,70,0,1
67192,-83.3333333333333,4,1,2,70,0,1
67500,-71.4285714285714,4,1,2,70,0,1
67961,-62.5,4,1,2,70,0,1
68269,-100,4,1,2,70,0,0
69500,-100,4,3,1,70,0,1
70730,-100,4,3,1,80,0,1
71038,-100,4,3,1,90,0,1
71346,-100,4,3,1,100,0,1
71653,-333,4,3,1,100,0,1
71961,-71.4285714285714,4,2,1,70,0,1
72115,-71.4285714285714,4,1,2,70,0,1
72269,-71.4285714285714,4,2,1,70,0,1
72423,-71.4285714285714,4,1,2,70,0,1
72577,-71.4285714285714,4,2,1,70,0,1
72730,-71.4285714285714,4,1,2,70,0,1
72884,-71.4285714285714,4,3,1,70,0,1
73038,-71.4285714285714,4,1,2,70,0,1
73115,-71.4285714285714,4,2,1,70,0,1
73346,-71.4285714285714,4,1,2,70,0,1
73500,-71.4285714285714,4,2,1,70,0,1
73653,-71.4285714285714,4,1,2,70,0,1
73807,-125,4,2,1,70,0,1
73961,-125,4,1,2,70,0,1
74269,-125,4,3,1,70,0,1
74423,-71.4285714285714,4,3,1,70,0,1
75961,-83.3333333333333,4,3,1,70,0,1
76269,-100,4,3,1,70,0,1
76577,-125,4,2,1,70,0,1
76884,-125,4,3,1,70,0,1
78115,-100,4,2,1,70,0,0
79038,-83.3333333333333,4,2,1,70,0,0
79346,-100,4,1,1,70,0,1
79653,-100,4,2,1,70,0,0
80577,-55.5555555555556,4,2,1,70,0,0
80807,-62.5,4,2,1,70,0,0
81192,-71.4285714285714,4,2,1,70,0,0
81500,-83.3333333333333,4,2,1,70,0,0
81653,-100,4,2,1,70,0,0
81807,-100,4,1,1,70,0,1
82038,-100,4,2,1,70,0,1
82115,-100,4,2,1,70,0,0
83038,-55.5555555555556,4,2,1,70,0,0
83269,-62.5,4,2,1,70,0,0
83500,-71.4285714285714,4,2,1,70,0,0
83653,-62.5,4,2,1,70,0,0
83807,-55.5555555555556,4,2,1,70,0,0
83961,-50,4,2,1,70,0,0
84115,-62.5,4,2,1,70,0,0
84269,-100,4,1,1,70,0,1
84500,-100,4,2,1,70,0,1
84577,-100,4,2,1,70,0,0
88115,-83.3333333333333,4,3,1,70,0,0
88269,-71.4285714285714,4,3,1,70,0,0
88423,-62.5,4,3,1,70,0,0
88577,-55.5555555555556,4,3,1,70,0,0
88884,-100,4,1,1,70,0,0
89192,-71.4285714285714,4,1,1,70,0,1
89500,-100,4,3,1,70,0,1
89807,-62.5,4,3,1,70,0,1
90115,-100,4,3,1,70,0,1
90423,-62.5,4,3,1,70,0,1
90730,-100,4,3,1,70,0,1
91038,-62.5,4,3,1,70,0,1
91346,-100,4,1,1,70,0,1
91653,-62.5,4,1,1,70,0,1
91961,-100,4,3,1,70,0,1
92269,-62.5,4,3,1,70,0,1
92577,-100,4,3,1,70,0,1
93038,-62.5,4,3,1,70,0,1
93269,-71.4285714285714,4,3,1,70,0,1
93500,-83.3333333333333,4,3,1,70,0,1
93730,-100,4,3,1,70,0,1
93807,-100,4,1,1,70,0,1
93961,-100,4,3,1,70,0,1
94115,-62.5,4,1,1,70,0,1
94423,-100,4,3,1,70,0,1
94730,-62.5,4,3,1,70,0,1
95038,-100,4,3,1,70,0,1
95346,-62.5,4,3,1,70,0,1
95653,-100,4,3,1,70,0,1
95961,-62.5,4,3,1,70,0,1
96269,-100,4,1,1,70,0,1
96346,-100,4,3,1,70,0,1
96577,-62.5,4,1,1,70,0,1
96884,-100,4,3,1,70,0,1
97192,-62.5,4,3,1,70,0,1
97500,-83.3333333333333,4,3,1,70,0,1
98115,-71.4285714285714,4,3,1,70,0,1
98423,-62.5,4,3,1,70,0,1
98730,-300,4,1,1,70,0,0
99038,-62.5,4,1,1,70,0,1
99346,-62.5,4,3,1,70,0,1
100115,-62.5,4,2,1,70,0,1
100269,-62.5,4,3,1,70,0,1
101192,-62.5,4,1,1,70,0,1
101269,-62.5,4,3,1,70,0,1
101500,-62.5,4,1,1,70,0,1
101577,-62.5,4,3,1,70,0,1
102884,-71.4285714285714,4,3,1,70,0,1
103115,-62.5,4,3,1,70,0,1
103346,-55.5555555555556,4,3,1,70,0,1
103653,-50,4,1,1,70,0,1
103961,-62.5,4,1,1,70,0,1
104269,-62.5,4,3,1,70,0,1
105192,-62.5,4,3,1,70,0,1
105269,-62.5,4,3,1,70,0,1
106115,-100,4,1,1,70,0,1
106423,-83.3333333333333,4,1,1,70,0,1
106500,-83.3333333333333,4,3,1,70,0,1
106730,-71.4285714285714,4,3,1,80,0,1
107038,-62.5,4,3,1,90,0,1
107346,-62.5,4,3,1,100,0,1
107653,-100,4,2,1,70,0,0
107730,-100,4,3,1,70,0,0
108115,-71.4285714285714,4,2,1,70,0,0
108192,-71.4285714285714,4,3,1,70,0,0
108423,-83.3333333333333,4,1,1,70,0,0
108577,-83.3333333333333,4,3,1,70,0,0
108884,-83.3333333333333,4,2,1,70,0,0
111577,-76.9230769230769,4,2,1,70,0,0
111807,-71.4285714285714,4,2,1,70,0,0
112038,-66.6666666666667,4,2,1,70,0,0
112269,-62.5,4,2,1,70,0,0
112423,-58.8235294117647,4,2,1,70,0,0
112577,-55.5555555555556,4,2,1,70,0,0
113192,-83.3333333333333,4,2,1,70,0,0

[Colours]
Combo1 : 255,43,149
Combo2 : 255,45,45
Combo3 : 202,0,202
Combo0 : 202,0,101
SliderBorder : 255,43,149
SliderTrackOverride : 0,0,0

[HitObjects]
90,242,577,6,0,L|177:228,1,67.5000025749208,0|0,0:0|0:0,0:0:0:0:
261,114,884,2,0,L|192:109,1,67.5000025749208,0|0,0:0|0:0,0:0:0:0:
307,234,1192,2,0,L|398:218,1,67.5000025749208,0|0,0:0|0:0,0:0:0:0:
253,58,1500,2,0,L|263:110,1,33.7500012874604,0|0,0:0|0:0,0:0:0:0:
261,114,1653,1,0,0:0:0:0:
261,114,1730,1,0,0:0:0:0:
261,114,1807,6,0,L|101:98,1,135.000005149842,0|0,0:0|0:0,0:0:0:0:
32,246,2423,2,0,L|178:235,1,135.000005149842,0|0,0:0|0:0,0:0:0:0:
292,301,3038,6,0,P|236:294|205:299,1,67.5000025749208,0|0,0:0|0:0,0:0:0:0:
399,221,3346,2,0,P|455:228|483:221,1,67.5000025749208,0|0,0:0|0:0,0:0:0:0:
288,114,3653,2,0,L|280:197,1,67.5000025749208,0|0,0:0|0:0,0:0:0:0:
446,149,3961,2,0,L|440:63,1,67.5000025749208,0|0,0:0|0:0,0:0:0:0:
441,81,4269,6,0,P|381:91|312:36,1,135.000005149842,0|0,0:0|0:0,0:0:0:0:
393,18,4884,1,2,0:0:0:0:
393,18,5346,1,0,0:0:0:0:
393,18,5423,1,0,0:0:0:0:
393,18,5500,6,0,L|403:119,1,90,4|0,0:0|0:0,0:0:0:0:
252,233,5807,2,0,L|260:128,1,90,4|0,0:0|0:0,0:0:0:0:
440,300,6115,2,0,P|396:311|346:299,1,90,8|0,0:0|0:0,0:0:0:0:
166,213,6423,2,0,P|197:213|255:235,1,90,4|0,0:0|0:0,0:0:0:0:
252,233,6653,1,0,0:0:0:0:
252,233,6730,6,0,L|237:338,1,90,4|0,0:0|0:0,0:0:0:0:
85,362,7038,2,0,L|71:257,1,90,4|0,0:0|0:0,0:0:0:0:
268,126,7346,2,4,P|225:135|154:68,1,135,8|0,0:0|0:0,0:0:0:0:
158,83,7653,2,4,L|128:88,5,30,4|0|0|4|0|0,0:0|0:0|0:0|0:0|0:0|0:0,0:0:0:0:
158,83,7961,6,0,L|166:186,1,90,4|0,0:0|0:0,0:0:0:0:
345,246,8269,2,0,L|351:144,1,90,4|0,0:0|0:0,0:0:0:0:
183,320,8577,2,0,P|231:335|278:330,1,90,8|0,0:0|0:0,0:0:0:0:
87,207,8884,2,0,L|97:271,1,45,4|0,0:0|0:0,0:0:0:0:
87,207,9038,1,0,0:0:0:0:
87,207,9115,1,0,0:0:0:0:
87,207,9192,6,0,L|73:103,1,90,4|0,0:0|0:0,0:0:0:0:
277,24,9500,2,0,L|264:125,1,90,0|0,0:0|0:0,0:0:0:0:
431,115,9807,2,0,P|343:84|260:119,1,180,8|2,0:0|0:0,0:0:0:0:
343,336,10423,5,4,0:0:0:0:
431,115,10653,1,0,0:0:0:0:
242,180,10884,5,0,0:0:0:0:
452,227,11115,1,0,0:0:0:0:
423,39,11346,5,0,0:0:0:0:
322,120,11500,1,0,0:0:0:0:
477,263,11653,5,4,0:0:0:0:
351,52,11884,1,0,0:0:0:0:
242,246,12115,5,0,0:0:0:0:
401,174,12346,1,0,0:0:0:0:
210,35,12577,5,0,0:0:0:0:
159,157,12730,1,0,0:0:0:0:
365,108,12884,5,4,0:0:0:0:
144,83,13115,1,0,0:0:0:0:
264,289,13346,5,0,0:0:0:0:
342,82,13577,1,0,0:0:0:0:
159,220,13807,5,0,0:0:0:0:
264,289,13961,1,0,0:0:0:0:
331,94,14115,5,4,0:0:0:0:
138,100,14346,1,0,0:0:0:0:
222,315,14577,5,0,0:0:0:0:
330,135,14807,1,0,0:0:0:0:
143,202,15038,5,0,0:0:0:0:
260,270,15192,1,0,0:0:0:0:
245,34,15346,5,4,0:0:0:0:
64,87,15577,1,0,0:0:0:0:
118,274,15807,5,4,0:0:0:0:
260,106,16038,1,0,0:0:0:0:
66,32,16269,5,4,0:0:0:0:
84,157,16423,1,4,0:0:0:0:
260,106,16577,5,4,0:0:0:0:
30,26,16807,1,0,0:0:0:0:
144,251,17038,5,4,0:0:0:0:
243,26,17269,1,0,0:0:0:0:
36,172,17500,5,4,0:0:0:0:
183,189,17653,1,4,0:0:0:0:
139,15,17807,5,4,0:0:0:0:
53,275,18038,1,0,0:0:0:0:
279,122,18269,5,4,0:0:0:0:
77,35,18500,1,0,0:0:0:0:
128,264,18730,5,4,0:0:0:0:
223,204,18884,1,4,0:0:0:0:
118,25,19038,5,2,0:0:0:0:
38,264,19192,6,4,L|52:327,1,53.9999983520508,4|0,0:0|0:0,0:0:0:0:
101,162,19346,6,4,L|103:239,1,62.9999980773926,4|0,0:0|0:0,0:0:0:0:
23,58,19500,6,4,L|33:139,1,72,4|0,0:0|0:0,0:0:0:0:
118,25,19653,6,4,B|174:57|230:33|230:33|264:15|324:22|352:65,1,242.999992584229,4|0,0:0|0:0,0:0:0:0:
275,105,19961,6,0,L|251:241,1,135,4|0,0:0|0:0,0:0:0:0:
166,279,20269,6,0,B|246:268|246:268|283:286|283:286|361:276,1,188.999994232178,10|0,0:0|0:0,0:0:0:0:
421,318,20577,6,4,L|494:322,1,72,4|0,0:0|0:0,0:0:0:0:
474,29,20884,6,4,B|451:51|451:51|421:44|421:44|376:100|286:58,1,188.999994232178,4|0,0:0|0:0,0:0:0:0:
220,18,21192,6,4,L|230:113,1,72,4|4,0:0|0:0,0:0:0:0:
49,169,21500,6,4,P|135:146|228:180,1,188.999994232178,4|0,0:0|0:0,0:0:0:0:
256,250,21807,6,4,L|250:321,1,72,4|0,0:0|0:0,0:0:0:0:
282,63,22115,6,4,B|186:76|186:76|94:31,1,188.999994232178,4|0,0:0|0:0,0:0:0:0:
129,67,22423,5,8,0:0:0:0:
146,96,22500,1,8,0:0:0:0:
155,129,22577,1,8,0:0:0:0:
154,163,22653,1,8,0:0:0:0:
145,189,22730,6,0,B|159:224|159:224|140:255|140:255|199:283|178:368,1,188.999994232178,10|0,0:0|0:0,0:0:0:0:
106,322,23038,6,4,L|36:307,1,72,4|0,0:0|0:0,0:0:0:0:
15,118,23346,6,4,B|53:131|53:131|85:117|85:117|126:165|195:121,1,188.999994232178,4|0,0:0|0:0,0:0:0:0:
263,89,23653,6,4,L|252:183,1,72,4|4,0:0|0:0,0:0:0:0:
199,272,23961,5,4,0:0:0:0:
199,272,24038,1,4,0:0:0:0:
199,272,24115,6,4,B|136:256|136:256|38:287,1,144,4|0,0:0|0:0,0:0:0:0:
18,214,24346,6,4,L|129:178,1,107.999996704102,4|0,0:0|0:0,0:0:0:0:
108,92,24577,6,4,P|158:100|199:147,1,90,4|0,0:0|0:0,0:0:0:0:
234,186,24807,6,4,P|265:202|322:202,1,72,4|0,0:0|0:0,0:0:0:0:
355,181,25038,6,0,P|373:180|399:186,1,26.9999991760254,4|0,0:0|0:0,0:0:0:0:
422,259,25192,6,0,L|439:66,1,188.999994232178,10|0,0:0|0:0,0:0:0:0:
481,18,25500,6,0,L|382:27,1,72,4|0,0:0|0:0,0:0:0:0:
156,110,25807,6,0,B|217:100|217:100|270:118|270:118|355:104,1,188.999994232178,4|0,0:0|0:0,0:0:0:0:
432,177,26115,6,4,L|414:266,1,72,4|4,0:0|0:0,0:0:0:0:
509,358,26423,6,0,B|474:340|474:340|441:346|441:346|403:304|320:328,1,188.999994232178,4|0,0:0|0:0,0:0:0:0:
259,370,26730,6,0,L|250:283,1,72,4|0,0:0|0:0,0:0:0:0:
121,78,27038,6,0,P|200:51|301:95,1,188.999994232178,4|0,0:0|0:0,0:0:0:0:
331,154,27346,6,0,L|333:242,1,72,12|0,0:0|0:0,0:0:0:0:
176,276,27653,1,2,0:0:0:0:
176,276,27730,1,0,0:0:0:0:
176,276,27807,6,4,P|181:220|162:179,1,90,4|0,0:0|0:0,0:0:0:0:
99,238,28038,6,4,P|96:306|128:348,1,107.999996704102,4|0,0:0|0:0,0:0:0:0:
207,362,28269,6,4,L|343:342,1,125.999996154785,4|0,0:0|0:0,0:0:0:0:
394,283,28500,6,4,B|388:229|388:229|403:198|403:198|394:123,1,144,4|0,0:0|0:0,0:0:0:0:
383,125,28730,1,4,0:0:0:0:
179,49,28884,6,0,L|120:60,1,45,8|0,0:0|0:0,0:0:0:0:
179,49,29038,1,4,0:0:0:0:
179,49,29115,1,4,0:0:0:0:
179,49,29192,6,4,B|179:93|179:93|174:107|174:107|176:173,1,107.999996704102,4|4,0:0|0:0,0:0:0:0:
85,355,29500,6,0,P|93:330|92:309,1,36,0|0,0:0|0:0,0:0:0:0:
88,161,29653,2,0,P|90:179|99:205,1,36,0|0,0:0|0:0,0:0:0:0:
88,161,29807,6,0,L|168:146,1,67.5,4|0,0:0|0:0,0:0:0:0:
181,146,30115,5,12,0:0:0:0:
18,206,30269,1,0,0:0:0:0:
114,54,30423,2,0,P|194:35|268:71,1,161.999995056153,4|0,0:0|0:0,0:0:0:0:
265,100,30730,2,0,P|226:105|180:89,1,53.9999983520508,4|0,0:0|0:0,0:0:0:0:
265,100,30884,1,0,0:0:0:0:
265,100,30961,1,0,0:0:0:0:
265,100,31038,2,0,P|311:87|376:100,1,107.999996704102,4|0,0:0|0:0,0:0:0:0:
208,333,31346,5,4,0:0:0:0:
208,333,31423,2,0,L|199:267,1,53.9999983520508,0|0,0:0|0:0,0:0:0:0:
201,280,31577,1,0,0:0:0:0:
201,280,31653,2,0,P|150:290|97:269,1,107.999996704102,4|0,0:0|0:0,0:0:0:0:
250,146,31961,2,0,L|360:157,1,107.999996704102,4|0,0:0|0:0,0:0:0:0:
191,206,32269,2,0,P|168:140|229:65,1,161.999995056153,4|0,0:0|0:0,0:0:0:0:
250,57,32577,5,4,0:0:0:0:
351,168,32730,1,0,0:0:0:0:
112,204,32884,2,0,L|-13:181,1,107.999996704102,4|0,0:0|0:0,0:0:0:0:
194,169,33192,6,0,P|196:240|154:278,1,107.999996704102,4|0,0:0|0:0,0:0:0:0:
122,319,33423,2,0,P|187:309|232:327,1,107.999996704102,0|0,0:0|0:0,0:0:0:0:
254,333,33653,2,0,P|286:333|320:322,1,53.9999983520508,0|0,0:0|0:0,0:0:0:0:
336,310,33807,5,4,0:0:0:0:
385,88,33961,2,0,L|372:153,1,53.9999983520508,0|0,0:0|0:0,0:0:0:0:
385,88,34115,2,0,P|345:61|275:61,1,107.999996704102,4|0,0:0|0:0,0:0:0:0:
261,77,34346,1,0,0:0:0:0:
241,102,34423,2,4,L|248:181,1,53.9999983520508,4|0,0:0|0:0,0:0:0:0:
167,235,34577,2,0,L|161:179,1,53.9999983520508,0|0,0:0|0:0,0:0:0:0:
102,123,34730,6,0,P|130:107|166:102,1,67.5,4|0,0:0|0:0,0:0:0:0:
102,123,35038,5,4,0:0:0:0:
102,123,35115,2,0,P|89:147|84:182,1,53.9999983520508,0|0,0:0|0:0,0:0:0:0:
95,208,35269,1,0,0:0:0:0:
116,241,35346,2,0,P|130:296|102:355,1,107.999996704102,4|0,0:0|0:0,0:0:0:0:
67,360,35577,1,0,0:0:0:0:
25,335,35653,2,0,P|7:285|22:234,1,107.999996704102,0|4,0:0|0:0,0:0:0:0:
241,279,35961,2,0,P|167:309|88:281,1,161.999995056153,4|0,0:0|0:0,0:0:0:0:
92,284,36269,5,4,0:0:0:0:
58,109,36423,2,0,L|67:175,1,53.9999983520508,0|0,0:0|0:0,0:0:0:0:
148,33,36577,2,0,L|140:93,1,53.9999983520508,4|0,0:0|0:0,0:0:0:0:
233,32,36730,2,0,P|285:18|364:42,1,107.999996704102,0|4,0:0|0:0,0:0:0:0:
389,218,37038,2,0,P|332:226|283:209,1,107.999996704102,0|4,0:0|0:0,0:0:0:0:
460,122,37346,1,0,0:0:0:0:
460,122,37500,6,0,B|455:174|439:198|439:198|447:214|447:214|425:244|424:295,1,180,2|4,0:0|0:0,0:0:0:0:
344,138,38269,1,8,0:0:0:0:
502,278,38423,5,8,0:0:0:0:
352,327,38577,1,8,0:0:0:0:
408,97,38730,5,8,0:0:0:0:
418,266,38884,1,0,0:0:0:0:
237,198,39038,5,8,0:0:0:0:
451,112,39192,1,0,0:0:0:0:
358,324,39346,5,8,0:0:0:0:
257,121,39500,1,8,0:0:0:0:
490,183,39653,1,4,0:0:0:0:
450,197,39730,1,4,0:0:0:0:
408,193,39807,1,4,0:0:0:0:
372,171,39884,1,4,0:0:0:0:
344,138,39961,6,8,P|298:121|227:131,1,90,4|0,0:0|0:0,0:0:0:0:
77,244,40269,2,8,P|119:249|169:230,1,90,8|0,0:0|0:0,0:0:0:0:
30,69,40577,1,12,0:0:0:0:
77,244,40730,1,0,0:0:0:0:
210,90,40884,6,4,L|199:174,1,67.5,12|0,0:0|0:0,0:0:0:0:
235,232,41192,6,0,P|281:246|339:240,1,90,4|0,0:0|0:0,0:0:0:0:
438,63,41500,2,0,P|392:49|334:55,1,90,4|0,0:0|0:0,0:0:0:0:
411,251,41807,1,12,0:0:0:0:
511,92,41961,1,0,0:0:0:0:
327,65,42115,6,4,P|286:77|232:67,1,80.9999975280763,12|0,0:0|0:0,0:0:0:0:
167,145,42423,6,0,L|213:150,1,26.9999991760254,4|0,0:0|0:0,0:0:0:0:
332,215,42577,6,4,L|258:224,1,53.9999983520508,6|8,0:0|0:0,0:0:0:0:
239,244,42807,1,0,0:0:0:0:
226,286,42884,1,8,0:0:0:0:
238,329,42961,1,0,0:0:0:0:
279,348,43038,2,4,L|343:353,1,53.9999983520508,12|8,0:0|0:0,0:0:0:0:
404,285,43269,2,8,L|398:329,1,26.9999991760254,12|8,0:0|0:0,0:0:0:0:
282,107,43500,1,12,0:0:0:0:
282,107,43577,1,12,0:0:0:0:
282,107,43653,6,4,P|271:55|278:-2,1,90,4|8,0:0|0:0,0:0:0:0:
471,114,43961,2,4,L|459:228,1,90,4|8,0:0|0:0,0:0:0:0:
225,207,44269,2,8,L|212:154,1,45,8|8,0:0|0:0,0:0:0:0:
304,252,44423,2,8,L|294:314,1,45,8|8,0:0|0:0,0:0:0:0:
379,204,44577,2,8,L|392:151,1,45,8|8,0:0|0:0,0:0:0:0:
389,120,44730,2,4,L|372:77,2,30,4|4|2,0:0|0:0|0:0,0:0:0:0:
408,129,44884,5,4,0:0:0:0:
209,42,45115,1,4,0:0:0:0:
224,242,45346,5,4,0:0:0:0:
372,37,45577,1,4,0:0:0:0:
131,184,45807,5,4,0:0:0:0:
224,262,45961,1,4,0:0:0:0:
254,25,46115,5,4,0:0:0:0:
51,129,46346,1,4,0:0:0:0:
224,262,46577,5,4,0:0:0:0:
254,25,46730,1,0,0:0:0:0:
210,14,46807,1,4,0:0:0:0:
167,24,46884,1,4,0:0:0:0:
133,53,46961,1,4,0:0:0:0:
114,94,47038,2,4,L|127:228,1,125.999996154785,4|4,0:0|0:0,0:0:0:0:
313,104,47346,6,4,P|248:82|188:107,1,125.999996154785,4|4,0:0|0:0,0:0:0:0:
355,251,47653,1,4,0:0:0:0:
355,251,47730,1,4,0:0:0:0:
355,251,47807,1,4,0:0:0:0:
355,251,47884,1,4,0:0:0:0:
355,251,47961,2,4,L|368:174,1,62.9999980773926,4|4,0:0|0:0,0:0:0:0:
254,143,48115,2,4,L|261:207,1,62.9999980773926,4|4,0:0|0:0,0:0:0:0:
286,285,48269,2,0,P|358:276|425:320,1,125.999996154785,0|0,0:0|0:0,0:0:0:0:
256,192,48577,12,0,49653,0:0:0:0:
201,76,49807,5,4,0:0:0:0:
358,111,49961,1,0,0:0:0:0:
182,145,50115,1,4,0:0:0:0:
315,47,50269,1,0,0:0:0:0:
185,221,50423,5,4,0:0:0:0:
337,214,50577,1,0,0:0:0:0:
182,145,50730,1,4,0:0:0:0:
337,214,50884,1,0,0:0:0:0:
337,214,50961,1,4,0:0:0:0:
337,214,51038,6,0,L|328:335,1,90,4|0,0:0|0:0,0:0:0:0:
205,158,51346,2,0,P|261:145|305:157,1,90,4|0,0:0|0:0,0:0:0:0:
157,319,51653,2,0,L|138:223,1,90,4|0,0:0|0:0,0:0:0:0:
223,69,51961,2,0,L|205:157,1,90,4|0,0:0|0:0,0:0:0:0:
140,17,52269,5,8,0:0:0:0:
340,98,52423,1,0,0:0:0:0:
184,207,52577,5,8,0:0:0:0:
297,17,52730,1,0,0:0:0:0:
378,187,52884,5,8,0:0:0:0:
214,186,53038,1,0,0:0:0:0:
353,61,53192,5,8,0:0:0:0:
395,240,53346,1,0,0:0:0:0:
222,84,53500,2,8,P|148:69|76:131,1,135,4|0,0:0|0:0,0:0:0:0:
32,179,53807,2,0,L|178:157,1,135,4|0,0:0|0:0,0:0:0:0:
190,247,54115,2,0,B|253:231|253:231|370:273,1,180,4|0,0:0|0:0,0:0:0:0:
108,360,54577,1,12,0:0:0:0:
108,360,54653,1,12,0:0:0:0:
108,360,54730,6,0,L|94:260,1,90,12|4,0:0|0:0,0:0:0:0:
222,84,55038,2,0,L|208:184,1,90,4|4,0:0|0:0,0:0:0:0:
34,41,55346,2,0,P|92:21|133:24,1,90,12|4,0:0|0:0,0:0:0:0:
299,166,55653,2,0,P|241:186|200:183,1,90,12|4,0:0|0:0,0:0:0:0:
170,169,55884,1,4,0:0:0:0:
128,150,55961,6,0,P|83:152|42:169,1,90,12|4,0:0|0:0,0:0:0:0:
214,357,56269,2,0,L|225:262,1,90,12|4,0:0|0:0,0:0:0:0:
162,51,56577,2,0,P|200:71|306:45,1,135,12|4,0:0|0:0,0:0:0:0:
321,31,56884,5,12,0:0:0:0:
323,53,56961,1,4,0:0:0:0:
326,75,57038,1,4,0:0:0:0:
329,97,57115,1,4,0:0:0:0:
353,119,57192,5,12,0:0:0:0:
321,117,57269,1,4,0:0:0:0:
292,127,57346,1,4,0:0:0:0:
268,147,57423,1,4,0:0:0:0:
250,184,57500,5,12,0:0:0:0:
256,223,57577,1,4,0:0:0:0:
263,263,57653,1,4,0:0:0:0:
270,303,57730,1,4,0:0:0:0:
291,353,57807,5,8,0:0:0:0:
245,327,57884,1,8,0:0:0:0:
191,328,57961,1,8,0:0:0:0:
146,356,58038,1,8,0:0:0:0:
174,298,58115,5,8,0:0:0:0:
186,237,58192,1,8,0:0:0:0:
155,184,58269,1,8,0:0:0:0:
96,164,58346,1,8,0:0:0:0:
32,137,58423,6,0,B|55:189|37:223|37:223|57:252|57:252|39:295|64:358,1,216,2|0,0:0|0:0,0:0:0:0:
146,294,58730,6,0,P|208:327|306:247,1,188.999994232178,4|0,0:0|0:0,0:0:0:0:
371,218,59038,6,0,B|332:224|306:216|306:216|283:223|283:223|245:213|209:229,1,161.999995056153,8|0,0:0|0:0,0:0:0:0:
170,135,59346,6,0,P|234:144|161:81,1,242.999992584229,4|0,0:0|0:0,0:0:0:0:
377,111,59653,6,0,B|312:127|312:127|226:98,1,125.999996154785,2|0,0:0|0:0,0:0:0:0:
392,255,59961,1,2,0:0:0:0:
392,255,60038,1,4,0:0:0:0:
392,255,60115,2,0,P|454:280|514:255,1,125.999996154785,4|2,0:0|0:0,0:0:0:0:
294,121,60423,1,4,0:0:0:0:
294,121,60500,1,4,0:0:0:0:
294,121,60577,2,8,L|299:197,1,62.9999980773926,8|4,0:0|0:0,0:0:0:0:
204,294,60730,2,8,L|212:218,1,62.9999980773926,8|0,0:0|0:0,0:0:0:0:
204,294,60884,6,0,P|148:318|78:289,1,125.999996154785,2|0,0:0|0:0,0:0:0:0:
44,84,61192,1,4,0:0:0:0:
44,84,61269,1,4,0:0:0:0:
44,84,61346,2,0,L|34:162,1,62.9999980773926,4|0,0:0|0:0,0:0:0:0:
145,65,61500,2,0,L|153:-1,1,62.9999980773926,2|0,0:0|0:0,0:0:0:0:
239,113,61653,2,0,L|229:191,1,62.9999980773926,2|0,0:0|0:0,0:0:0:0:
239,113,61807,6,4,L|236:55,1,45,8|0,0:0|0:0,0:0:0:0:
346,143,61961,6,0,L|336:192,1,26.9999991760254,2|0,0:0|0:0,0:0:0:0:
346,143,62115,5,0,0:0:0:0:
445,333,62269,2,0,L|316:322,1,125.999996154785,8|0,0:0|0:0,0:0:0:0:
220,152,62577,2,0,L|348:142,1,125.999996154785,8|0,0:0|0:0,0:0:0:0:
149,351,62884,2,0,P|121:295|149:232,1,125.999996154785,8|0,0:0|0:0,0:0:0:0:
141,238,63115,1,0,0:0:0:0:
141,238,63192,1,8,0:0:0:0:
141,238,63269,1,0,0:0:0:0:
141,238,63346,6,0,L|279:259,1,125.999996154785,0|8,0:0|0:0,0:0:0:0:
441,120,63653,2,0,L|316:101,1,125.999996154785,0|8,0:0|0:0,0:0:0:0:
141,238,63961,2,0,P|115:170|167:100,1,125.999996154785,0|8,0:0|0:0,0:0:0:0:
312,226,64269,2,8,B|298:285|298:285|303:310|303:310|288:365,1,144,8|0,0:0|0:0,0:0:0:0:
379,172,64577,5,2,0:0:0:0:
341,152,64653,1,4,0:0:0:0:
298,150,64730,1,4,0:0:0:0:
259,167,64807,1,4,0:0:0:0:
233,201,64884,2,0,B|226:231|240:255|240:255|231:273|231:273|245:300|243:342,1,125.999996154785,2|4,0:0|0:0,0:0:0:0:
131,165,65192,2,0,L|121:39,1,125.999996154785,2|4,0:0|0:0,0:0:0:0:
62,232,65500,1,12,0:0:0:0:
101,249,65577,1,4,0:0:0:0:
143,249,65653,1,4,0:0:0:0:
182,232,65730,1,4,0:0:0:0:
213,203,65807,6,0,L|203:64,1,125.999996154785,2|12,0:0|0:0,0:0:0:0:
381,31,66115,2,0,B|376:57|386:79|386:79|378:96|378:96|392:121|385:176,1,125.999996154785,2|4,0:0|0:0,0:0:0:0:
363,189,66346,1,4,0:0:0:0:
332,215,66423,2,0,P|266:225|195:186,1,125.999996154785,2|12,0:0|0:0,0:0:0:0:
333,285,66730,2,0,P|338:248|328:205,1,72,4|0,0:0|0:0,0:0:0:0:
212,202,66884,2,0,L|207:247,1,26.9999991760254,2|0,0:0|0:0,0:0:0:0:
212,202,67038,5,0,0:0:0:0:
356,123,67192,2,0,P|373:70|360:18,1,107.999996704102,8|0,0:0|0:0,0:0:0:0:
212,202,67500,2,0,L|227:332,1,125.999996154785,8|0,0:0|0:0,0:0:0:0:
435,191,67807,1,8,0:0:0:0:
435,191,67884,1,8,0:0:0:0:
435,191,67961,2,0,B|368:171|368:171|285:182,1,144,0|8,0:0|0:0,0:0:0:0:
256,192,68269,12,0,69346,0:0:0:0:
336,219,69500,5,8,0:0:0:0:
136,147,69653,1,0,0:0:0:0:
326,122,69807,5,8,0:0:0:0:
263,311,69961,1,0,0:0:0:0:
194,66,70115,5,8,0:0:0:0:
404,107,70269,1,0,0:0:0:0:
256,284,70423,5,8,0:0:0:0:
327,24,70577,1,0,0:0:0:0:
327,24,70653,1,0,0:0:0:0:
327,24,70730,5,8,0:0:0:0:
350,280,70884,1,8,0:0:0:0:
91,170,71038,5,8,0:0:0:0:
402,72,71192,1,8,0:0:0:0:
256,352,71346,5,8,0:0:0:0:
193,58,71653,6,0,L|196:104,1,40.5405405405405,2|0,0:0|0:0,0:0:0:0:
174,42,71961,6,0,L|316:55,1,125.999996154785,8|8,0:0|0:0,0:0:0:0:
11,209,72269,2,0,L|136:197,1,125.999996154785,4|8,0:0|0:0,0:0:0:0:
256,352,72577,2,0,P|280:292|253:232,1,125.999996154785,4|8,0:0|0:0,0:0:0:0:
48,14,72884,1,4,0:0:0:0:
27,50,72961,1,4,0:0:0:0:
28,93,73038,1,8,0:0:0:0:
51,128,73115,1,4,0:0:0:0:
90,144,73192,6,0,B|153:132|153:132|232:151,1,125.999996154785,8|8,0:0|0:0,0:0:0:0:
350,300,73500,2,0,B|413:312|413:312|492:293,1,125.999996154785,4|8,0:0|0:0,0:0:0:0:
293,140,73807,2,0,L|298:226,1,72,4|8,0:0|0:0,0:0:0:0:
239,68,74115,1,8,0:0:0:0:
187,226,74269,1,4,0:0:0:0:
187,226,74346,1,4,0:0:0:0:
187,226,74423,6,4,L|38:242,1,125.999996154785,4|4,0:0|0:0,0:0:0:0:
293,140,74730,2,4,L|418:153,1,125.999996154785,4|4,0:0|0:0,0:0:0:0:
192,17,75038,1,4,0:0:0:0:
194,51,75115,1,4,0:0:0:0:
197,85,75192,1,4,0:0:0:0:
200,120,75269,1,4,0:0:0:0:
203,148,75346,2,4,L|211:223,1,62.9999980773926,4|4,0:0|0:0,0:0:0:0:
318,310,75500,2,4,L|311:247,1,62.9999980773926,4|4,0:0|0:0,0:0:0:0:
318,310,75653,6,4,P|380:291|445:317,1,125.999996154785,4|0,0:0|0:0,0:0:0:0:
317,309,75961,6,4,P|258:326|203:309,1,107.999996704102,4|4,0:0|0:0,0:0:0:0:
250,150,76269,6,4,L|260:266,1,90,4|4,0:0|0:0,0:0:0:0:
365,106,76577,6,4,L|373:6,1,72,2|0,0:0|0:0,0:0:0:0:
423,165,76884,5,4,0:0:0:0:
391,182,76961,1,4,0:0:0:0:
356,186,77038,1,4,0:0:0:0:
321,176,77115,1,4,0:0:0:0:
293,151,77192,5,4,0:0:0:0:
301,190,77269,1,4,0:0:0:0:
309,228,77346,1,4,0:0:0:0:
317,267,77423,1,8,0:0:0:0:
337,304,77500,5,8,0:0:0:0:
293,285,77576,1,8,0:0:0:0:
246,287,77653,1,8,0:0:0:0:
204,308,77730,1,8,0:0:0:0:
162,336,77807,5,8,0:0:0:0:
149,284,77884,1,8,0:0:0:0:
138,235,77961,1,8,0:0:0:0:
129,186,78038,1,8,0:0:0:0:
129,186,78115,6,4,P|87:165|14:177,1,90,2|4,0:0|0:0,0:0:0:0:
231,114,78423,1,4,0:0:0:0:
231,114,78500,1,4,0:0:0:0:
231,114,78577,2,4,L|223:180,1,45,4|0,0:0|0:0,0:0:0:0:
231,114,78730,2,0,L|225:13,1,90,2|0,0:0|0:0,0:0:0:0:
492,135,79038,6,0,B|424:122|424:122|411:130|411:130|329:115,1,161.999995056153,8|0,0:0|0:0,0:0:0:0:
319,97,79346,5,8,0:0:0:0:
404,262,79577,1,0,0:0:0:0:
201,217,79807,5,4,0:0:0:0:
399,117,80038,1,0,0:0:0:0:
282,297,80269,6,4,L|292:351,1,45,4|4,0:0|0:0,0:0:0:0:
198,245,80423,2,4,L|208:299,1,45,4|4,0:0|0:0,0:0:0:0:
129,212,80577,6,4,B|113:151|113:151|118:120|118:120|101:42,1,161.999995056153,4|0,0:0|0:0,0:0:0:0:
29,42,80807,6,4,B|90:28|90:28|104:33|104:33|180:18,1,144,4|0,0:0|0:0,0:0:0:0:
258,97,81038,6,4,P|197:88|167:103,1,72,4|0,0:0|0:0,0:0:0:0:
193,153,81192,6,4,L|186:68,1,62.9999980773926,4|0,0:0|0:0,0:0:0:0:
193,153,81346,1,4,0:0:0:0:
193,153,81423,1,4,0:0:0:0:
116,142,81500,6,4,L|122:225,1,53.9999983520508,4|0,0:0|0:0,0:0:0:0:
46,246,81653,6,4,L|42:186,1,45,4|0,0:0|0:0,0:0:0:0:
46,246,81807,5,8,0:0:0:0:
218,328,82038,1,0,0:0:0:0:
190,127,82269,5,4,0:0:0:0:
230,344,82500,1,0,0:0:0:0:
345,209,82730,6,4,L|335:273,1,45,4|4,0:0|0:0,0:0:0:0:
416,237,82884,2,4,L|422:192,1,45,4|4,0:0|0:0,0:0:0:0:
332,131,83038,6,4,B|261:140|261:140|241:131|241:131|155:147,1,161.999995056153,4|0,0:0|0:0,0:0:0:0:
225,195,83269,6,4,B|213:128|213:128|222:108|222:108|206:22,1,144,4|0,0:0|0:0,0:0:0:0:
213,55,83500,6,4,L|229:140,1,62.9999980773926,4|0,0:0|0:0,0:0:0:0:
225,195,83653,6,4,L|213:271,1,72.8639984130859,4|0,0:0|0:0,0:0:0:0:
152,341,83807,6,4,P|189:333|232:345,1,80.9999975280763,4|0,0:0|0:0,0:0:0:0:
288,276,83961,6,4,P|337:286|380:274,1,90.7200012207031,4|0,0:0|0:0,0:0:0:0:
332,131,84115,6,4,L|337:202,1,72,4|0,0:0|0:0,0:0:0:0:
332,131,84269,5,8,0:0:0:0:
149,42,84500,1,4,0:0:0:0:
221,261,84730,5,4,0:0:0:0:
333,48,84961,1,4,0:0:0:0:
77,127,85192,5,4,0:0:0:0:
136,253,85346,1,4,0:0:0:0:
264,31,85500,5,4,0:0:0:0:
77,127,85730,1,4,0:0:0:0:
260,227,85961,5,4,0:0:0:0:
154,26,86192,1,4,0:0:0:0:
136,253,86423,5,4,0:0:0:0:
260,227,86577,1,4,0:0:0:0:
84,49,86730,5,4,0:0:0:0:
125,276,86961,1,4,0:0:0:0:
307,154,87192,5,4,0:0:0:0:
70,144,87423,1,4,0:0:0:0:
172,335,87653,5,4,0:0:0:0:
217,210,87807,1,4,0:0:0:0:
20,92,87961,5,2,0:0:0:0:
20,92,88115,6,4,L|97:84,1,53.9999983520508,4|0,0:0|0:0,0:0:0:0:
147,159,88269,6,4,L|232:148,1,62.9999980773926,4|0,0:0|0:0,0:0:0:0:
256,56,88423,6,4,L|359:43,1,72,4|0,0:0|0:0,0:0:0:0:
405,110,88577,6,4,P|482:153|391:150,1,242.999992584229,4|0,0:0|0:0,0:0:0:0:
315,158,88884,6,0,P|334:215|414:261,1,135,4|0,0:0|0:0,0:0:0:0:
408,172,89192,6,0,B|371:198|371:198|342:185|342:185|286:218|219:174,1,188.999994232178,10|0,0:0|0:0,0:0:0:0:
166,71,89500,6,0,L|142:178,1,90,4|0,0:0|0:0,0:0:0:0:
24,364,89807,6,0,B|76:349|76:349|108:360|108:360|169:324|252:348,1,216,4|0,0:0|0:0,0:0:0:0:
374,277,90115,6,4,P|328:292|276:287,1,90,4|4,0:0|0:0,0:0:0:0:
166,71,90423,6,0,B|200:57|226:66|226:66|260:49|260:49|286:67|286:67|325:80|377:62,1,216,4|0,0:0|0:0,0:0:0:0:
507,116,90730,6,0,L|399:139,1,90,4|0,0:0|0:0,0:0:0:0:
274,350,91038,6,0,B|217:364|183:344|183:344|150:355|150:355|121:339|46:349,1,216,4|0,0:0|0:0,0:0:0:0:
36,329,91346,5,4,0:0:0:0:
19,287,91423,1,0,0:0:0:0:
20,242,91500,1,0,0:0:0:0:
39,202,91577,1,0,0:0:0:0:
67,172,91653,6,0,B|106:161|143:179|143:179|166:162|166:162|188:183|188:183|222:172|286:195,1,216,10|0,0:0|0:0,0:0:0:0:
401,269,91961,6,0,P|359:276|305:252,1,90,4|0,0:0|0:0,0:0:0:0:
496,25,92269,6,0,B|477:86|495:132|495:132|479:160|479:160|486:193|475:233,1,216,4|0,0:0|0:0,0:0:0:0:
391,358,92577,6,4,L|401:263,1,90,4|4,0:0|0:0,0:0:0:0:
496,25,92884,5,4,0:0:0:0:
496,25,92961,1,4,0:0:0:0:
496,25,93038,6,4,P|421:15|348:47,1,144,4|0,0:0|0:0,0:0:0:0:
366,181,93269,6,4,P|418:210|508:184,1,125.999996154785,4|0,0:0|0:0,0:0:0:0:
356,64,93500,6,4,L|228:79,1,107.999996704102,4|0,0:0|0:0,0:0:0:0:
165,180,93730,6,4,L|210:174,1,45,4|4,0:0|0:0,0:0:0:0:
119,97,93884,6,0,L|75:91,1,45,0|4,0:0|0:0,0:0:0:0:
40,353,94115,6,0,B|132:335|132:335|158:347|158:347|263:328,1,216,10|0,0:0|0:0,0:0:0:0:
165,180,94423,6,0,P|173:228|213:266,1,90,4|0,0:0|0:0,0:0:0:0:
466,109,94730,6,0,B|423:109|403:94|403:94|377:103|377:103|321:46|236:95,1,216,4|0,0:0|0:0,0:0:0:0:
291,253,95038,6,4,L|311:149,1,90,4|4,0:0|0:0,0:0:0:0:
40,355,95346,6,0,B|88:362|117:341|117:341|143:356|143:356|259:344,1,216,4|0,0:0|0:0,0:0:0:0:
291,253,95653,6,0,P|245:241|196:257,1,90,4|0,0:0|0:0,0:0:0:0:
394,60,95961,6,0,B|388:124|412:154|412:154|400:178|400:178|426:214|423:291,1,216,4|0,0:0|0:0,0:0:0:0:
411,298,96269,5,4,0:0:0:0:
372,320,96346,1,0,0:0:0:0:
328,326,96423,1,4,0:0:0:0:
285,314,96500,1,0,0:0:0:0:
255,291,96577,6,0,B|205:264|159:297|159:297|108:335|35:293,1,216,10|0,0:0|0:0,0:0:0:0:
120,139,96884,6,0,L|102:250,1,90,4|0,0:0|0:0,0:0:0:0:
21,23,97192,6,0,B|79:17|109:46|109:46|129:35|129:35|168:69|243:51,1,216,4|0,0:0|0:0,0:0:0:0:
374,98,97500,6,0,P|311:95|261:127,1,107.999996704102,4|4,0:0|0:0,0:0:0:0:
399,282,97807,6,4,L|405:221,1,53.9999983520508,4|0,0:0|0:0,0:0:0:0:
399,282,97961,1,4,0:0:0:0:
315,319,98038,2,0,L|321:258,1,53.9999983520508,4|4,0:0|0:0,0:0:0:0:
315,319,98192,1,0,0:0:0:0:
315,319,98269,1,4,0:0:0:0:
67,179,98423,6,4,L|210:167,1,144,4|4,0:0|0:0,0:0:0:0:
264,226,98653,1,8,0:0:0:0:
264,226,98730,6,0,L|255:280,1,45,4|0,0:0|0:0,0:0:0:0:
264,226,99038,6,0,B|216:254|168:239|168:239|146:248|146:248|101:236|54:249,1,216,10|0,0:0|0:0,0:0:0:0:
7,147,99346,6,0,P|77:127|166:176,1,144,4|8,0:0|0:0,0:0:0:0:
279,354,99653,2,0,B|324:351|348:326|348:326|376:348|445:334,1,144,4|0,0:0|0:0,0:0:0:0:
441,329,99884,1,0,0:0:0:0:
468,314,99961,2,4,B|461:273|475:253|475:253|472:229|472:229|485:209|480:162,1,144,4|4,0:0|0:0,0:0:0:0:
306,48,100269,5,0,0:0:0:0:
253,30,100346,1,0,0:0:0:0:
198,37,100423,1,0,0:0:0:0:
152,68,100500,1,0,0:0:0:0:
125,115,100577,2,0,B|106:164|125:198|125:198|106:221|106:221|131:261|119:332,1,216,4|0,0:0|0:0,0:0:0:0:
192,275,100884,2,4,P|127:240|51:272,1,144,4|8,0:0|0:0,0:0:0:0:
172,99,101192,1,4,0:0:0:0:
217,104,101269,1,0,0:0:0:0:
262,109,101346,1,0,0:0:0:0:
306,115,101423,1,0,0:0:0:0:
306,115,101500,6,0,B|292:200|292:200|301:228|301:228|284:342,1,216,10|0,0:0|0:0,0:0:0:0:
192,275,101807,2,0,P|174:206|216:145,1,144,4|0,0:0|0:0,0:0:0:0:
403,210,102115,2,0,L|250:221,1,144,4|8,0:0|0:0,0:0:0:0:
351,302,102346,2,0,P|385:311|421:309,1,72,4|0,0:0|0:0,0:0:0:0:
123,322,102577,2,0,L|134:233,1,72,4|0,0:0|0:0,0:0:0:0:
96,344,102730,6,0,B|145:332|188:355|188:355|216:342|216:342|255:368|325:362,1,216,4|0,0:0|0:0,0:0:0:0:
407,141,103038,2,0,P|342:145|291:189,1,125.999996154785,0|0,0:0|0:0,0:0:0:0:
288,211,103269,1,0,0:0:0:0:
292,242,103346,6,4,L|306:327,1,80.9999975280763,4|0,0:0|0:0,0:0:0:0:
184,280,103500,2,0,L|170:200,1,80.9999975280763,0|4,0:0|0:0,0:0:0:0:
286,97,103653,6,4,B|228:120|187:103|187:103|164:115|164:115|99:89|11:133,1,270,4|0,0:0|0:0,0:0:0:0:
9,166,103961,5,10,0:0:0:0:
8,223,104038,1,0,0:0:0:0:
47,265,104115,1,0,0:0:0:0:
104,271,104192,1,0,0:0:0:0:
150,260,104269,6,0,B|190:246|215:258|215:258|228:246|228:246|259:271|316:262,1,144,4|0,0:0|0:0,0:0:0:0:
312,289,104500,1,0,0:0:0:0:
348,317,104577,2,0,P|400:293|499:316,1,144,4|0,0:0|0:0,0:0:0:0:
355,152,104884,2,0,P|285:166|219:140,1,144,4|0,0:0|0:0,0:0:0:0:
432,38,105192,5,4,0:0:0:0:
432,38,105346,2,0,L|437:130,1,72,0|0,0:0|0:0,0:0:0:0:
438,153,105500,1,4,0:0:0:0:
436,208,105577,1,0,0:0:0:0:
416,260,105653,1,0,0:0:0:0:
427,315,105730,1,0,0:0:0:0:
427,315,105807,2,0,B|365:322|328:299|328:299|315:309|315:309|194:291,1,216,4|0,0:0|0:0,0:0:0:0:
141,345,106115,6,0,P|170:276|139:191,1,135,4|0,0:0|0:0,0:0:0:0:
135,197,106423,5,10,0:0:0:0:
114,172,106500,1,4,0:0:0:0:
109,141,106577,1,4,0:0:0:0:
118,111,106653,1,4,0:0:0:0:
141,87,106730,5,4,0:0:0:0:
180,101,106807,1,4,0:0:0:0:
223,97,106884,1,4,0:0:0:0:
258,74,106961,1,4,0:0:0:0:
282,42,107038,5,4,0:0:0:0:
286,92,107115,1,4,0:0:0:0:
290,143,107192,1,4,0:0:0:0:
294,193,107269,1,4,0:0:0:0:
272,236,107346,5,4,0:0:0:0:
325,208,107423,1,4,0:0:0:0:
385,205,107500,1,4,0:0:0:0:
441,227,107577,1,4,0:0:0:0:
478,255,107653,6,8,L|489:326,1,45,4|0,0:0|0:0,0:0:0:0:
470,332,107807,1,8,0:0:0:0:
438,340,107884,1,8,0:0:0:0:
407,333,107961,1,8,0:0:0:0:
272,236,108115,6,8,L|183:247,1,62.9999980773926,4|0,0:0|0:0,0:0:0:0:
53,200,108269,2,0,L|131:188,1,62.9999980773926,8|0,0:0|0:0,0:0:0:0:
248,115,108423,6,0,L|168:126,1,53.9999983520508,8|0,0:0|0:0,0:0:0:0:
154,97,108577,5,6,0:0:0:0:
199,68,108653,1,4,0:0:0:0:
252,59,108730,1,4,0:0:0:0:
304,73,108807,1,4,0:0:0:0:
336,110,108884,5,12,0:0:0:0:
247,335,109115,1,4,0:0:0:0:
116,109,109346,5,4,0:0:0:0:
351,195,109577,1,4,0:0:0:0:
139,351,109807,6,0,L|125:214,1,107.999996704102,4|4,0:0|0:0,0:0:0:0:
346,338,110115,5,4,0:0:0:0:
52,373,110346,1,4,0:0:0:0:
206,65,110577,5,4,0:0:0:0:
388,285,110807,1,4,0:0:0:0:
334,288,110884,1,4,0:0:0:0:
280,292,110961,1,4,0:0:0:0:
226,296,111038,2,0,L|91:308,1,107.999996704102,0|4,0:0|0:0,0:0:0:0:
61,111,111346,6,0,P|118:133|188:109,1,107.999996704102,14|0,0:0|0:0,0:0:0:0:
217,183,111577,6,0,L|209:67,1,116.999994644165,4|0,0:0|0:0,0:0:0:0:
156,18,111807,6,0,P|207:36|297:14,1,125.999996154785,12|0,0:0|0:0,0:0:0:0:
346,73,112038,6,0,L|352:207,1,135.000005149842,4|0,0:0|0:0,0:0:0:0:
417,263,112269,6,0,L|428:346,1,72,12|0,0:0|0:0,0:0:0:0:
491,234,112423,6,0,L|482:154,1,76.6529998779297,4|0,0:0|0:0,0:0:0:0:
417,263,112577,6,0,B|373:241|266:277|266:277|166:309|88:231,1,323.999990112305,12|0,0:0|0:0,0:0:0:0:
285,115,113038,5,0,0:0:0:0:
285,115,113115,1,0,0:0:0:0:
285,115,113192,2,0,P|263:73|271:172,1,377.999988464356,10|0,0:0|0:0,0:0:0:0:
246,193,113807,5,0,0:0:0:0:
