osu file format v14

[General]
AudioFilename: CENSORED!!.mp3
AudioLeadIn: 0
PreviewTime: 89178
Countdown: 0
SampleSet: Normal
StackLeniency: 0.7
Mode: 0
LetterboxInBreaks: 0
WidescreenStoryboard: 1

[Editor]
DistanceSpacing: 1
BeatDivisor: 4
GridSize: 16
TimelineZoom: 1.5

[Metadata]
Title:CENSORED!!
TitleUnicode:CENSORED!!
Artist:t+pazolite
ArtistUnicode:t+pazolite
Creator:Zyl
Version:EXH*UST!!
Source:SOUND VOLTEX III GRAVITY WARS
Tags:chireiden 東方地霊殿 Subterranean Animism th11 ハルトマンの妖怪少女 Hartmann's Youkai Girl 古明地 こめいじ こいし 上海アリス幻樂団 Touhou Trent83 alice's emotion Koishi Komeiji sdvx museca ZUN Team Shanghai Alice Blossom Extra stage boss Touhou 11 Subterranean Animism Hartmann's youkai girl reitaisai 13 Electronic Instrumental
BeatmapID:1535953
BeatmapSetID:489566

[Difficulty]
HPDrainRate:6
CircleSize:3.5
OverallDifficulty:7
ApproachRate:8.8
SliderMultiplier:1.5
SliderTickRate:1

[Events]
//Background and Video events
0,0,"MORE CENSORED THAN EVER!!.png",0,0
//Break Periods
2,30315,39332
2,50007,53948
//Storyboard Layer 0 (Background)
//Storyboard Layer 1 (Fail)
//Storyboard Layer 2 (Pass)
//Storyboard Layer 3 (Foreground)
//Storyboard Layer 4 (Overlay)
//Storyboard Sound Samples

[TimingPoints]
577,307.692307692308,4,1,1,40,1,0
577,-133.333333333333,4,1,1,40,0,0
4884,-100,4,2,1,40,0,0
5500,-100,4,2,1,40,0,0
10423,-100,4,2,1,70,0,1
10730,-100,4,2,1,70,0,0
19192,-100,4,3,1,70,0,0
19346,-100,4,3,1,70,0,0
19500,-100,4,3,1,70,0,0
19653,-100,4,3,1,70,0,0
19961,-100,4,1,1,70,0,0
20269,-100,4,1,1,70,0,1
20577,-100,4,3,1,70,0,1
22423,-100,4,1,1,70,0,1
22577,-100,4,3,1,70,0,1
22730,-100,4,1,1,70,0,1
23038,-100,4,3,1,70,0,1
24346,-100,4,3,1,70,0,1
24577,-100,4,3,1,70,0,1
24807,-100,4,3,1,70,0,1
24884,-100,4,1,1,70,0,1
24961,-100,4,1,1,70,0,1
25038,-100,4,3,1,70,0,1
25115,-100,4,1,1,70,0,1
25192,-100,4,1,1,70,0,1
25500,-100,4,3,1,70,0,1
27346,-100,4,1,1,70,0,1
27807,-100,4,3,1,70,0,1
28038,-100,4,3,1,70,0,1
28269,-100,4,3,1,70,0,1
28500,-100,4,3,1,70,0,1
28884,-100,4,2,1,70,0,0
29038,-100,4,3,1,70,0,0
29500,-100,4,1,1,70,0,0
29807,-200,4,1,1,70,0,0
30115,-200,4,2,1,70,0,0
38269,-200,4,3,1,70,0,0
39961,-100,4,2,1,60,0,1
40269,-100,4,3,1,70,0,0
41192,-100,4,3,1,70,0,0
42423,-100,4,2,1,70,0,0
42577,-100,4,3,1,70,0,0
44884,-100,4,3,1,70,0,1
45192,-100,4,3,1,70,0,0
49807,-100,4,2,1,70,0,0
52269,-100,4,3,1,70,0,0
53500,-100,4,2,1,70,0,0
54577,-100,4,3,1,40,0,0
57192,-100,4,3,1,50,0,0
57500,-100,4,3,1,60,0,0
57807,-100,4,3,1,70,0,0
58115,-100,4,3,1,80,0,0
58423,-100,4,2,1,70,0,0
58730,-100,4,2,1,70,0,0
59038,-100,4,2,1,70,0,0
59346,-100,4,1,1,70,0,0
59653,-100,4,2,1,70,0,1
60038,-100,4,3,1,70,0,1
60269,-100,4,2,1,70,0,1
60423,-100,4,3,1,70,0,1
60884,-100,4,2,1,70,0,1
61192,-100,4,3,1,70,0,1
61500,-100,4,2,1,70,0,1
61961,-200,4,3,1,70,0,1
62115,-100,4,1,2,70,0,1
64577,-100,4,2,1,70,0,1
64653,-100,4,3,1,70,0,1
64884,-100,4,2,1,70,0,1
64961,-100,4,3,1,70,0,1
65192,-100,4,2,1,70,0,1
65269,-100,4,3,1,70,0,1
65807,-100,4,2,1,70,0,1
65884,-100,4,3,1,70,0,1
66115,-100,4,2,1,70,0,1
66192,-100,4,3,1,70,0,1
66423,-100,4,2,1,70,0,1
66500,-100,4,3,1,70,0,1
66730,-100,4,2,1,70,0,1
67192,-100,4,1,2,70,0,1
68269,-100,4,1,2,70,0,0
69500,-100,4,3,1,70,0,1
70730,-100,4,3,1,80,0,1
71038,-100,4,3,1,90,0,1
71346,-100,4,3,1,100,0,1
71961,-100,4,2,1,70,0,1
72115,-100,4,1,2,70,0,1
72269,-100,4,2,1,70,0,1
72423,-100,4,1,2,70,0,1
72577,-100,4,2,1,70,0,1
72730,-100,4,1,2,70,0,1
72884,-100,4,3,1,70,0,1
73038,-100,4,1,2,70,0,1
73115,-100,4,2,1,70,0,1
73346,-100,4,1,2,70,0,1
73500,-100,4,2,1,70,0,1
73653,-100,4,1,2,70,0,1
73807,-100,4,2,1,70,0,1
73961,-100,4,1,2,70,0,1
74269,-100,4,3,1,70,0,1
76577,-100,4,2,1,70,0,1
76884,-100,4,3,1,70,0,1
78115,-100,4,2,1,70,0,0
79346,-100,4,1,1,70,0,1
79653,-100,4,2,1,70,0,0
81807,-100,4,1,1,70,0,1
82038,-100,4,2,1,70,0,1
82115,-100,4,2,1,70,0,0
84269,-100,4,1,1,70,0,1
84500,-100,4,2,1,70,0,1
84577,-100,4,2,1,70,0,0
88115,-100,4,3,1,70,0,0
88269,-100,4,3,1,70,0,0
88423,-100,4,3,1,70,0,0
88577,-100,4,3,1,70,0,0
88884,-100,4,1,1,70,0,0
89192,-100,4,1,1,70,0,1
89500,-100,4,3,1,70,0,1
91346,-100,4,1,1,70,0,1
91961,-100,4,3,1,70,0,1
93269,-100,4,3,1,70,0,1
93500,-100,4,3,1,70,0,1
93730,-100,4,3,1,70,0,1
93807,-100,4,1,1,70,0,1
93884,-100,4,1,1,70,0,1
93961,-100,4,3,1,70,0,1
94115,-100,4,1,1,70,0,1
94423,-100,4,3,1,70,0,1
96269,-100,4,1,1,70,0,1
96346,-100,4,3,1,70,0,1
96577,-100,4,1,1,70,0,1
96884,-100,4,3,1,70,0,1
97807,-100,4,3,1,70,0,1
98115,-90.9090909090909,4,3,1,70,0,1
98423,-83.3333333333333,4,3,1,70,0,1
98730,-76.9230769230769,4,1,1,70,0,0
99038,-76.9230769230769,4,1,1,70,0,1
99346,-76.9230769230769,4,3,1,70,0,1
100115,-76.9230769230769,4,2,1,70,0,1
100269,-76.9230769230769,4,3,1,70,0,1
101192,-76.9230769230769,4,1,1,70,0,1
101269,-76.9230769230769,4,3,1,70,0,1
101423,-125,4,3,1,70,0,1
101500,-125,4,1,1,70,0,1
101577,-125,4,3,1,70,0,1
102884,-76.9230769230769,4,3,1,70,0,1
103115,-71.4285714285714,4,3,1,70,0,1
103346,-66.6666666666667,4,3,1,70,0,1
103653,-62.5,4,1,1,70,0,1
103961,-76.9230769230769,4,1,1,70,0,1
104269,-76.9230769230769,4,3,1,70,0,1
105192,-76.9230769230769,4,3,1,70,0,1
105269,-76.9230769230769,4,3,1,70,0,1
106115,-76.9230769230769,4,1,1,70,0,1
106423,-76.9230769230769,4,1,1,70,0,1
106500,-76.9230769230769,4,3,1,70,0,1
106730,-76.9230769230769,4,3,1,80,0,1
106884,-71.4285714285714,4,3,1,80,0,1
107038,-71.4285714285714,4,3,1,90,0,1
107115,-66.6666666666667,4,3,1,90,0,1
107346,-62.5,4,3,1,100,0,1
107653,-76.9230769230769,4,2,1,70,0,0
107730,-76.9230769230769,4,3,1,70,0,0
108115,-76.9230769230769,4,2,1,70,0,0
108192,-76.9230769230769,4,3,1,70,0,0
108423,-76.9230769230769,4,1,1,70,0,0
108577,-100,4,3,1,70,0,0
108884,-100,4,2,1,70,0,0

[Colours]
Combo1 : 202,0,101
Combo2 : 255,43,149
Combo3 : 255,45,45
Combo4 : 202,0,202
SliderBorder : 255,43,149
SliderTrackOverride : 0,0,0

[HitObjects]
68,168,577,6,0,L|134:175,1,56.2500021457673,0|0,0:0|0:0,0:0:0:0:
234,243,884,2,0,L|300:236,1,56.2500021457673,0|0,0:0|0:0,0:0:0:0:
222,262,1192,2,0,P|212:302|218:337,1,56.2500021457673,0|0,0:0|0:0,0:0:0:0:
358,367,1500,2,0,P|368:327|362:292,1,56.2500021457673,0|0,0:0|0:0,0:0:0:0:
356,296,1730,1,0,0:0:0:0:
345,273,1807,6,0,L|343:148,1,112.500004291535,0|0,0:0|0:0,0:0:0:0:
231,20,2423,2,0,L|229:145,1,112.500004291535,0|0,0:0|0:0,0:0:0:0:
91,237,3038,6,0,P|135:234|166:226,1,56.2500021457673,0|0,0:0|0:0,0:0:0:0:
68,114,3346,2,0,P|40:109|12:108,1,56.2500021457673,0|0,0:0|0:0,0:0:0:0:
75,259,3653,2,0,L|78:325,1,56.2500021457673,0|0,0:0|0:0,0:0:0:0:
146,139,3961,2,0,L|143:68,1,56.2500021457673,0|0,0:0|0:0,0:0:0:0:
260,217,4269,6,0,P|301:225|372:186,1,112.500004291535,0|0,0:0|0:0,0:0:0:0:
210,36,4884,2,0,B|225:103|225:103|223:123|223:123|240:208,1,150,2|0,0:0|0:0,0:0:0:0:
241,200,5346,1,0,0:0:0:0:
241,200,5423,1,0,0:0:0:0:
241,200,5500,6,0,P|187:198|148:211,1,75,4|0,0:0|0:0,0:0:0:0:
292,287,5807,2,0,P|328:293|366:289,1,75,4|0,0:0|0:0,0:0:0:0:
420,149,6115,2,0,L|431:237,1,75,8|0,0:0|0:0,0:0:0:0:
346,40,6423,2,0,L|335:128,1,75,4|0,0:0|0:0,0:0:0:0:
325,128,6653,1,0,0:0:0:0:
312,139,6730,6,0,P|277:121|207:122,1,75,4|0,0:0|0:0,0:0:0:0:
124,206,7038,2,0,P|89:224|19:223,1,75,4|0,0:0|0:0,0:0:0:0:
185,127,7346,2,4,L|166:291,1,150,8|4,0:0|0:0,0:0:0:0:
169,296,7730,1,4,0:0:0:0:
182,316,7807,1,4,0:0:0:0:
205,327,7884,1,4,0:0:0:0:
229,328,7961,6,0,L|313:324,1,75,4|0,0:0|0:0,0:0:0:0:
424,197,8269,2,0,L|349:200,1,75,4|0,0:0|0:0,0:0:0:0:
454,346,8577,2,0,P|464:300|453:258,1,75,8|0,0:0|0:0,0:0:0:0:
277,157,8884,2,0,P|267:203|278:245,1,75,4|0,0:0|0:0,0:0:0:0:
279,242,9115,1,0,0:0:0:0:
294,254,9192,6,0,L|197:246,1,75,4|0,0:0|0:0,0:0:0:0:
128,149,9500,2,0,L|31:141,1,75,0|0,0:0|0:0,0:0:0:0:
202,59,9807,2,0,P|246:84|354:40,1,150,8|2,0:0|0:0,0:0:0:0:
409,135,10423,6,0,L|427:259,2,112.5,4|0|0,0:0|0:0|0:0,0:0:0:0:
488,312,11115,2,0,P|435:334|363:315,1,112.5,0|0,0:0|0:0,0:0:0:0:
296,268,11500,1,0,0:0:0:0:
296,268,11653,6,0,L|285:132,2,112.5,4|0|0,0:0|0:0|0:0,0:0:0:0:
130,348,12346,2,0,P|191:349|252:313,1,112.5,0|0,0:0|0:0,0:0:0:0:
72,281,12730,1,0,0:0:0:0:
72,281,12884,6,0,L|63:157,2,112.5,4|0|0,0:0|0:0|0:0,0:0:0:0:
146,191,13577,2,0,L|139:69,1,112.5,0|0,0:0|0:0,0:0:0:0:
96,15,13961,1,0,0:0:0:0:
96,15,14115,6,0,P|145:38|227:21,1,112.5,4|0,0:0|0:0,0:0:0:0:
311,107,14577,2,0,P|360:84|442:101,1,112.5,0|0,0:0|0:0,0:0:0:0:
305,262,15038,2,0,L|295:171,1,75,0|0,0:0|0:0,0:0:0:0:
242,329,15346,6,0,P|299:352|373:327,1,112.5,4|0,0:0|0:0,0:0:0:0:
190,228,15807,2,0,P|133:205|59:230,1,112.5,4|0,0:0|0:0,0:0:0:0:
134,361,16269,2,0,L|129:282,1,75,4|4,0:0|0:0,0:0:0:0:
92,100,16577,6,0,L|84:213,1,112.5,4|0,0:0|0:0,0:0:0:0:
224,55,17038,2,0,P|267:69|350:49,1,112.5,4|0,0:0|0:0,0:0:0:0:
423,154,17500,2,0,L|432:240,1,75,4|4,0:0|0:0,0:0:0:0:
362,309,17807,6,0,P|418:289|489:307,1,112.5,4|0,0:0|0:0,0:0:0:0:
336,205,18269,2,0,P|280:185|209:203,1,112.5,4|0,0:0|0:0,0:0:0:0:
286,347,18730,2,0,L|279:273,1,75,4|4,0:0|0:0,0:0:0:0:
228,192,19038,5,2,0:0:0:0:
228,192,19192,2,4,P|214:151|218:113,2,75,4|4|4,0:0|0:0|0:0,0:0:0:0:
298,63,19653,2,4,L|132:82,1,150,4|4,0:0|0:0,0:0:0:0:
331,213,20269,6,0,L|341:104,1,75,10|0,0:0|0:0,0:0:0:0:
251,268,20577,2,4,L|261:377,1,75,4|0,0:0|0:0,0:0:0:0:
170,220,20884,2,4,P|236:180|317:202,1,150,4|4,0:0|0:0,0:0:0:0:
257,342,21346,1,4,0:0:0:0:
157,235,21500,6,4,L|148:142,1,75,4|0,0:0|0:0,0:0:0:0:
245,27,21807,2,4,L|236:120,1,75,4|0,0:0|0:0,0:0:0:0:
342,182,22115,2,4,P|394:217|482:180,1,150,4|8,0:0|0:0,0:0:0:0:
402,64,22577,1,8,0:0:0:0:
402,64,22653,1,8,0:0:0:0:
402,64,22730,6,0,L|414:160,1,75,10|0,0:0|0:0,0:0:0:0:
282,246,23038,2,4,L|270:342,1,75,4|0,0:0|0:0,0:0:0:0:
209,197,23346,2,4,P|270:162|355:194,1,150,4|4,0:0|0:0,0:0:0:0:
269,342,23807,1,4,0:0:0:0:
186,193,23961,5,4,0:0:0:0:
186,193,24038,1,4,0:0:0:0:
186,193,24115,2,4,L|169:91,1,75,4|0,0:0|0:0,0:0:0:0:
169,95,24346,6,4,P|203:107|260:93,1,75,4|0,0:0|0:0,0:0:0:0:
259,117,24577,6,4,L|243:25,1,75,4|0,0:0|0:0,0:0:0:0:
226,24,24807,6,4,B|268:31|268:31|322:23,1,75,4|0,0:0|0:0,0:0:0:0:
319,42,25038,5,4,0:0:0:0:
399,145,25192,6,0,L|409:228,1,75,10|0,0:0|0:0,0:0:0:0:
309,335,25500,2,0,L|319:252,1,75,4|0,0:0|0:0,0:0:0:0:
181,220,25807,2,0,P|234:199|322:253,1,150,4|4,0:0|0:0,0:0:0:0:
203,357,26269,1,4,0:0:0:0:
78,232,26423,6,0,P|114:224|152:229,1,75,4|0,0:0|0:0,0:0:0:0:
272,124,26730,2,0,P|234:119|198:127,1,75,4|0,0:0|0:0,0:0:0:0:
335,189,27038,2,0,P|359:136|316:42,1,150,4|12,0:0|0:0,0:0:0:0:
174,140,27500,1,0,0:0:0:0:
330,214,27653,1,2,0:0:0:0:
330,214,27730,1,0,0:0:0:0:
330,214,27807,6,4,P|374:206|420:214,1,75,4|0,0:0|0:0,0:0:0:0:
419,224,28038,6,4,L|426:309,1,75,4|0,0:0|0:0,0:0:0:0:
421,320,28269,6,4,B|388:335|388:335|346:379,1,75,4|0,0:0|0:0,0:0:0:0:
339,348,28500,6,4,P|285:325|250:325,1,75,4|0,0:0|0:0,0:0:0:0:
243,325,28730,1,4,0:0:0:0:
243,325,28884,5,8,0:0:0:0:
330,214,29038,1,4,0:0:0:0:
330,214,29115,1,4,0:0:0:0:
330,214,29192,6,4,L|339:309,1,75
210,154,29500,2,0,L|203:98,1,37.5
278,83,29653,2,0,L|293:16,1,37.5
368,24,29807,6,0,P|400:33|437:33,1,56.25,4|0,0:0|0:0,0:0:0:0:
445,30,30115,5,12,0:0:0:0:
199,95,39961,6,8,L|192:188,1,75,4|0,0:0|0:0,0:0:0:0:
277,265,40269,2,8,L|284:358,1,75,8|0,0:0|0:0,0:0:0:0:
415,229,40577,2,0,P|373:216|322:220,1,75,12|0,0:0|0:0,0:0:0:0:
191,292,40884,2,4,L|70:284,1,112.5,12|0,0:0|0:0,0:0:0:0:
60,271,41192,6,0,L|45:182,1,75,4|0,0:0|0:0,0:0:0:0:
138,53,41500,2,0,L|125:126,1,75,4|0,0:0|0:0,0:0:0:0:
254,77,41807,1,12,0:0:0:0:
137,36,41961,1,0,0:0:0:0:
262,158,42115,2,4,L|268:275,1,112.5,12|0,0:0|0:0,0:0:0:0:
267,287,42423,6,0,P|301:273|356:275,1,75,4|6,0:0|0:0,0:0:0:0:
450,195,42730,1,8,0:0:0:0:
450,195,42807,1,0,0:0:0:0:
450,195,42884,1,8,0:0:0:0:
367,73,43038,2,4,L|374:160,1,75,12|8,0:0|0:0,0:0:0:0:
368,164,43269,1,12,0:0:0:0:
351,176,43346,2,0,P|302:164|254:177,1,75,8|12,0:0|0:0,0:0:0:0:
188,216,43653,5,4,0:0:0:0:
188,216,43807,1,8,0:0:0:0:
275,327,43961,5,4,0:0:0:0:
275,327,44115,1,8,0:0:0:0:
351,176,44269,2,8,L|342:128,2,37.5,8|8|8,0:0|0:0|0:0,0:0:0:0:
219,224,44500,6,0,L|210:272,2,37.5,8|8|8,0:0|0:0|0:0,0:0:0:0:
326,260,44730,1,4,0:0:0:0:
326,260,44884,6,0,L|450:251,1,112.5,4|4,0:0|0:0,0:0:0:0:
232,345,45346,2,0,L|108:336,1,112.5,4|4,0:0|0:0,0:0:0:0:
241,156,45807,2,0,L|248:249,1,75,4|4,0:0|0:0,0:0:0:0:
169,87,46115,6,0,P|219:62|300:80,1,112.5,4|4,0:0|0:0,0:0:0:0:
469,172,46577,2,0,P|419:197|338:179,1,112.5,4|4,0:0|0:0,0:0:0:0:
345,180,46884,1,4,0:0:0:0:
322,163,46961,1,4,0:0:0:0:
301,158,47038,2,4,L|210:168,1,75,4|4,0:0|0:0,0:0:0:0:
123,276,47346,6,4,L|214:266,1,75,4|4,0:0|0:0,0:0:0:0:
57,193,47653,1,4,0:0:0:0:
57,193,47730,1,4,0:0:0:0:
57,193,47807,1,4,0:0:0:0:
29,345,47961,2,4,L|22:256,1,75,4|4,0:0|0:0,0:0:0:0:
70,97,48269,2,0,L|75:171,1,75,0|0,0:0|0:0,0:0:0:0:
256,192,48577,12,4,49807,0:0:0:0:
223,263,54577,5,12,0:0:0:0:
223,263,54653,1,12,0:0:0:0:
223,263,54730,6,0,L|211:353,1,75,12|4,0:0|0:0,0:0:0:0:
313,203,55038,2,0,L|301:113,1,75,4|4,0:0|0:0,0:0:0:0:
233,65,55346,1,12,0:0:0:0:
186,183,55500,1,4,0:0:0:0:
253,47,55653,2,0,P|301:49|350:34,1,75,12|4,0:0|0:0,0:0:0:0:
348,33,55884,1,4,0:0:0:0:
370,20,55961,6,0,L|374:120,1,75,12|4,0:0|0:0,0:0:0:0:
468,243,56269,2,0,L|472:143,1,75,12|4,0:0|0:0,0:0:0:0:
337,274,56577,2,0,L|215:295,1,112.5,12|4,0:0|0:0,0:0:0:0:
217,308,56884,2,0,P|196:249|216:176,1,112.5,12|4,0:0|0:0,0:0:0:0:
256,192,57192,12,2,58423,0:0:0:0:
256,192,58730,5,4,0:0:0:0:
256,192,59038,1,8,0:0:0:0:
157,270,59346,2,0,L|166:368,1,75,4|0,0:0|0:0,0:0:0:0:
89,169,59653,6,0,L|98:71,1,75,2|0,0:0|0:0,0:0:0:0:
243,178,59961,2,0,L|252:276,1,75,2|4,0:0|0:0,0:0:0:0:
165,126,60269,2,0,P|214:86|310:113,1,150,2|8,0:0|0:0,0:0:0:0:
259,271,60730,1,8,0:0:0:0:
259,271,60807,1,0,0:0:0:0:
259,271,60884,6,0,L|163:262,1,75,2|0,0:0|0:0,0:0:0:0:
321,192,61192,2,0,L|395:184,1,75,4|4,0:0|0:0,0:0:0:0:
277,39,61500,2,0,L|271:139,2,75,2|2|8,0:0|0:0|0:0,0:0:0:0:
269,32,61961,1,2,0:0:0:0:
201,162,62115,5,0,0:0:0:0:
408,181,62269,2,0,P|373:169|321:179,1,75,8|0,0:0|0:0,0:0:0:0:
177,283,62577,2,0,P|214:286|249:274,1,75,8|0,0:0|0:0,0:0:0:0:
104,194,62884,2,0,L|96:293,1,75,8|0,0:0|0:0,0:0:0:0:
205,131,63192,1,8,0:0:0:0:
288,140,63346,5,0,0:0:0:0:
240,207,63500,1,8,0:0:0:0:
260,67,63653,5,0,0:0:0:0:
319,215,63807,1,8,0:0:0:0:
158,196,63961,5,0,0:0:0:0:
341,72,64115,1,8,0:0:0:0:
235,284,64269,5,8,0:0:0:0:
176,59,64423,1,0,0:0:0:0:
43,195,64577,5,2,0:0:0:0:
43,195,64653,1,4,0:0:0:0:
43,195,64730,2,0,L|56:288,1,75,4|2,0:0|0:0,0:0:0:0:
152,360,65038,2,0,L|165:267,1,75,4|2,0:0|0:0,0:0:0:0:
281,207,65346,1,4,0:0:0:0:
281,207,65423,1,0,0:0:0:0:
281,207,65500,2,0,P|315:196|372:211,1,75,12|4,0:0|0:0,0:0:0:0:
480,338,65807,6,0,P|443:343|407:332,1,75,2|12,0:0|0:0,0:0:0:0:
486,173,66115,2,0,L|489:257,1,75,2|4,0:0|0:0,0:0:0:0:
405,60,66423,2,0,L|402:144,1,75,2|12,0:0|0:0,0:0:0:0:
250,103,66730,1,4,0:0:0:0:
400,45,66884,1,2,0:0:0:0:
364,218,67038,6,0,L|376:310,1,75,0|8,0:0|0:0,0:0:0:0:
248,325,67346,2,0,L|260:233,1,75,0|8,0:0|0:0,0:0:0:0:
331,364,67653,1,0,0:0:0:0:
160,362,67807,1,8,0:0:0:0:
160,362,67884,1,8,0:0:0:0:
160,362,67961,2,0,L|99:357,1,37.5,0|0,0:0|0:0,0:0:0:0:
63,287,68115,2,0,L|2:292,1,37.5,8|0,0:0|0:0,0:0:0:0:
256,192,68269,12,0,69346,0:0:0:0:
159,160,69500,6,0,L|146:61,1,75,8|0,0:0|0:0,0:0:0:0:
243,218,69807,2,0,L|250:310,1,75,8|0,0:0|0:0,0:0:0:0:
336,178,70115,2,0,L|343:86,1,75,8|0,0:0|0:0,0:0:0:0:
476,230,70423,2,0,P|436:238|379:231,1,75,8|0,0:0|0:0,0:0:0:0:
486,137,70730,5,8,0:0:0:0:
486,137,70884,1,8,0:0:0:0:
486,322,71038,5,8,0:0:0:0:
486,322,71192,1,8,0:0:0:0:
305,244,71346,5,8,0:0:0:0:
298,226,71653,2,0,L|304:343,1,112.5,2|0,0:0|0:0,0:0:0:0:
287,319,71961,6,0,P|245:308|201:309,1,75,8|8,0:0|0:0,0:0:0:0:
49,219,72269,2,0,P|91:230|135:229,1,75,4|8,0:0|0:0,0:0:0:0:
35,126,72577,1,4,0:0:0:0:
35,126,72730,1,8,0:0:0:0:
37,302,72884,1,4,0:0:0:0:
72,313,72960,1,4,0:0:0:0:
109,318,73037,1,8,0:0:0:0:
147,317,73114,1,4,0:0:0:0:
179,311,73192,6,0,L|262:313,1,75,8|8,0:0|0:0,0:0:0:0:
417,231,73500,2,0,L|334:229,1,75,4|8,0:0|0:0,0:0:0:0:
209,93,73807,2,0,P|200:135|267:220,1,150,4|8,0:0|0:0,0:0:0:0:
364,63,74269,1,4,0:0:0:0:
364,63,74346,1,4,0:0:0:0:
364,63,74423,6,4,L|283:56,1,75,4|4,0:0|0:0,0:0:0:0:
180,109,74730,2,4,L|99:102,1,75,4|4,0:0|0:0,0:0:0:0:
38,189,75038,2,0,L|30:231,3,37.5,4|4|4|4,0:0|0:0|0:0|0:0,0:0:0:0:
58,260,75346,2,4,L|50:302,3,37.5,4|4|4|4,0:0|0:0|0:0|0:0,0:0:0:0:
91,300,75653,2,4,L|184:299,1,75,4|0,0:0|0:0,0:0:0:0:
290,363,75961,2,4,L|383:362,1,75,4|4,0:0|0:0,0:0:0:0:
453,268,76269,2,4,L|446:153,1,112.5,4|0,0:0|0:0,0:0:0:0:
441,137,76577,2,4,P|394:147|343:133,1,75,2|0,0:0|0:0,0:0:0:0:
272,64,76884,6,0,B|238:52|238:52|164:58,1,75,4|4,0:0|0:0,0:0:0:0:
101,139,77192,2,0,B|62:144|62:144|-7:133,1,75,4|4,0:0|0:0,0:0:0:0:
89,228,77500,2,0,L|76:269,3,37.5,8|8|8|8,0:0|0:0|0:0|0:0,0:0:0:0:
178,323,77807,2,0,L|191:364,3,37.5,8|8|8|8,0:0|0:0|0:0|0:0,0:0:0:0:
256,192,78115,12,8,79038,0:0:0:0:
120,137,79346,6,0,L|114:277,1,112.5,8|0,0:0|0:0,0:0:0:0:
208,306,79807,2,0,P|169:342|86:348,1,112.5,4|0,0:0|0:0,0:0:0:0:
32,265,80269,1,4,0:0:0:0:
32,265,80423,1,4,0:0:0:0:
121,135,80577,6,4,L|245:128,1,112.5,4|4,0:0|0:0,0:0:0:0:
359,206,81038,2,4,L|272:211,2,75,4|4|4,0:0|0:0|0:0,0:0:0:0:
383,188,81423,1,4,0:0:0:0:
401,162,81500,2,4,P|410:122|402:59,1,75,4|4,0:0|0:0,0:0:0:0:
474,231,81807,6,0,L|480:362,1,112.5,8|0,0:0|0:0,0:0:0:0:
363,340,82269,2,0,L|357:227,1,112.5,4|0,0:0|0:0,0:0:0:0:
261,159,82730,2,4,P|215:166|162:157,1,75,4|4,0:0|0:0,0:0:0:0:
132,228,83038,6,4,L|115:90,1,112.5,4|4,0:0|0:0,0:0:0:0:
46,213,83500,2,4,P|61:278|80:301,1,75,4|4,0:0|0:0,0:0:0:0:
64,283,83807,2,0,L|118:298,1,37.5
132,228,83961,2,0,P|188:216|241:222,1,75
361,262,84269,6,0,L|489:272,1,112.5,8|4,0:0|0:0,0:0:0:0:
365,153,84730,2,0,L|252:161,1,112.5,4|4,0:0|0:0,0:0:0:0:
151,36,85192,2,0,P|160:83|176:124,1,75,4|4,0:0|0:0,0:0:0:0:
264,23,85500,6,0,L|393:31,1,112.5,4|4,0:0|0:0,0:0:0:0:
477,159,85961,2,0,L|348:151,1,112.5,4|4,0:0|0:0,0:0:0:0:
329,293,86423,2,0,P|315:245|316:198,1,75,4|4,0:0|0:0,0:0:0:0:
396,333,86730,6,0,L|261:358,1,112.5,4|4,0:0|0:0,0:0:0:0:
135,295,87192,2,0,L|270:270,1,112.5,4|4,0:0|0:0,0:0:0:0:
302,135,87653,2,0,P|306:183|297:228,1,75,4|4,0:0|0:0,0:0:0:0:
228,79,87961,1,2,0:0:0:0:
228,79,88115,6,4,P|281:47|320:45,2,75,4|4|4,0:0|0:0|0:0,0:0:0:0:
159,185,88577,2,4,P|105:189|30:129,1,150,4|4,0:0|0:0,0:0:0:0:
116,26,89192,6,0,L|125:116,1,75,10|0,0:0|0:0,0:0:0:0:
235,153,89500,2,0,L|228:79,1,75,4|0,0:0|0:0,0:0:0:0:
316,193,89807,2,0,P|263:234|179:222,1,150,4|4,0:0|0:0,0:0:0:0:
228,79,90269,1,4,0:0:0:0:
316,193,90423,6,0,L|322:97,1,75,4|0,0:0|0:0,0:0:0:0:
399,16,90730,2,0,L|405:112,1,75,4|0,0:0|0:0,0:0:0:0:
451,196,91038,2,0,P|408:219|304:179,1,150,4|4,0:0|0:0,0:0:0:0:
403,90,91500,1,0,0:0:0:0:
456,270,91653,6,0,L|451:196,1,75,10|0,0:0|0:0,0:0:0:0:
345,294,91961,2,0,L|350:368,1,75,4|0,0:0|0:0,0:0:0:0:
265,246,92269,2,0,P|305:214|412:228,1,150,4|4,0:0|0:0,0:0:0:0:
350,368,92730,1,4,0:0:0:0:
215,324,92884,5,4,0:0:0:0:
215,324,92961,1,4,0:0:0:0:
215,324,93038,2,4,P|166:309|121:313,1,75,4|0,0:0|0:0,0:0:0:0:
132,328,93269,6,4,P|154:269|151:226,1,75,4|0,0:0|0:0,0:0:0:0:
156,232,93500,6,4,L|83:246,1,75,4|0,0:0|0:0,0:0:0:0:
63,253,93730,6,4,P|76:202|70:164,1,75,4|0,0:0|0:0,0:0:0:0:
57,159,93961,5,4,0:0:0:0:
4,53,94115,6,0,L|99:39,1,75,10|0,0:0|0:0,0:0:0:0:
153,121,94423,2,0,L|58:135,1,75,4|0,0:0|0:0,0:0:0:0:
212,57,94730,2,0,P|236:104|198:195,1,150,4|4,0:0|0:0,0:0:0:0:
78,131,95192,1,4,0:0:0:0:
24,271,95346,6,0,L|14:184,1,75,4|0,0:0|0:0,0:0:0:0:
131,274,95653,2,0,L|121:361,1,75,4|0,0:0|0:0,0:0:0:0:
212,251,95961,2,0,P|186:211|77:206,1,150,4|4,0:0|0:0,0:0:0:0:
122,348,96423,1,4,0:0:0:0:
122,348,96500,1,0,0:0:0:0:
122,348,96577,6,0,P|178:334|230:340,1,75,10|0,0:0|0:0,0:0:0:0:
284,265,96884,2,0,P|247:262|212:251,1,75,4|0,0:0|0:0,0:0:0:0:
328,187,97192,2,0,P|370:241|349:333,1,150,4|4,0:0|0:0,0:0:0:0:
212,251,97653,1,4,0:0:0:0:
310,79,97807,6,4,L|317:153,1,75,4|4,0:0|0:0,0:0:0:0:
222,91,98115,2,4,L|230:179,1,82.5000025177003,4|4,0:0|0:0,0:0:0:0:
130,102,98423,2,4,L|139:193,1,89.9999972534181,4|4,0:0|0:0,0:0:0:0:
42,114,98731,2,0,L|54:222,1,97.4999955368044,4|0,0:0|0:0,0:0:0:0:
114,349,99038,6,0,L|125:242,1,97.4999955368044,10|0,0:0|0:0,0:0:0:0:
224,190,99346,2,0,L|235:297,1,97.4999955368044,4|8,0:0|0:0,0:0:0:0:
139,146,99653,2,0,P|178:109|309:145,1,194.999991073609,4|4,0:0|0:0,0:0:0:0:
233,286,100115,1,4,0:0:0:0:
82,235,100269,5,0,0:0:0:0:
82,235,100346,2,0,P|52:228|12:227,2,48.7499977684022,0|0|0,0:0|0:0|0:0,0:0:0:0:
79,211,100577,2,0,L|65:92,1,97.4999955368044,4|0,0:0|0:0,0:0:0:0:
68,98,100807,1,0,0:0:0:0:
81,82,100884,2,4,P|140:58|197:83,1,97.4999955368044,4|8,0:0|0:0,0:0:0:0:
334,82,101192,2,0,P|275:106|218:81,1,97.4999955368044,4|0,0:0|0:0,0:0:0:0:
243,99,101423,1,0,0:0:0:0:
243,99,101500,5,10,0:0:0:0:
320,182,101653,1,8,0:0:0:0:
354,300,101807,2,0,L|346:200,1,90,4|0,0:0|0:0,0:0:0:0:
320,182,102115,6,0,P|259:195|237:193,1,60,4|8,0:0|0:0,0:0:0:0:
236,188,102346,2,0,P|182:178|154:181,1,60,4|0,0:0|0:0,0:0:0:0:
153,189,102577,1,4,0:0:0:0:
224,321,102730,5,4,0:0:0:0:
224,321,102884,6,4,P|176:308|112:307,1,97.4999955368044,4|0,0:0|0:0,0:0:0:0:
108,324,103115,6,4,L|97:207,1,104.999996795654,4|0,0:0|0:0,0:0:0:0:
102,194,103346,6,4,B|156:206|156:206|227:195,1,112.500004291535,4|0,0:0|0:0,0:0:0:0:
236,188,103577,1,4,0:0:0:0:
236,188,103653,6,4,P|224:134|226:60,1,120,4|0,0:0|0:0,0:0:0:0:
321,132,103961,5,10,0:0:0:0:
321,132,104038,2,0,L|312:196,2,48.7499977684022,0|0|0,0:0|0:0|0:0,0:0:0:0:
341,118,104269,2,0,L|343:242,1,97.4999955368044,4|0,0:0|0:0,0:0:0:0:
330,233,104500,1,0,0:0:0:0:
313,248,104577,2,0,P|372:241|434:262,1,97.4999955368044,4|0,0:0|0:0,0:0:0:0:
269,348,104884,2,0,P|219:338|140:346,1,97.4999955368044,4|0,0:0|0:0,0:0:0:0:
48,252,105192,6,0,P|97:253|145:244,1,97.4999955368044,4|0,0:0|0:0,0:0:0:0:
177,223,105423,1,0,0:0:0:0:
177,223,105500,2,0,L|159:159,2,48.7499977684022,4|0|0,0:0|0:0|0:0,0:0:0:0:
246,44,105807,2,0,L|240:156,1,97.4999955368044,4|0,0:0|0:0,0:0:0:0:
360,237,106115,2,0,L|354:139,1,97.4999955368044,4|0,0:0|0:0,0:0:0:0:
455,107,106423,5,10,0:0:0:0:
455,107,106500,1,4,0:0:0:0:
455,107,106577,2,0,P|380:109|322:60,1,146.249993305207,4|4,0:0|0:0,0:0:0:0:
410,31,106884,6,0,L|230:38,1,157.499995193482,4|4,0:0|0:0,0:0:0:0:
188,6,107192,6,0,L|219:125,1,112.500004291535,4|4,0:0|0:0,0:0:0:0:
360,237,107500,2,0,P|316:222|270:226,1,60,4|4,0:0|0:0,0:0:0:0:
282,228,107653,5,4,0:0:0:0:
217,345,107807,2,0,L|212:286,2,48.7499977684022,8|8|8,0:0|0:0|0:0,0:0:0:0:
275,130,108115,2,8,L|282:231,1,97.4999955368044,4|8,0:0|0:0,0:0:0:0:
275,246,108346,1,0,0:0:0:0:
266,262,108423,1,8,0:0:0:0:
253,275,108500,1,0,0:0:0:0:
238,283,108577,6,0,L|95:273,1,112.5,6|4,0:0|0:0,0:0:0:0:
109,265,108884,6,0,L|88:131,1,112.5,12|4,0:0|0:0,0:0:0:0:
217,33,109346,2,0,L|196:167,1,112.5,4|4,0:0|0:0,0:0:0:0:
117,30,109807,1,4,0:0:0:0:
117,30,109961,1,4,0:0:0:0:
117,30,110115,6,0,B|97:70|97:70|108:152,1,112.5,4|4,0:0|0:0,0:0:0:0:
262,189,110577,2,0,B|282:149|282:149|271:67,1,112.5,4|4,0:0|0:0,0:0:0:0:
257,66,110884,1,4,0:0:0:0:
236,56,110961,1,4,0:0:0:0:
212,47,111038,6,0,P|276:55|334:28,1,112.5,0|0,0:0|0:0,0:0:0:0:
256,192,111346,12,10,113192,0:0:0:0:
