osu file format v14

[General]
AudioFilename: CENSORED!!.mp3
AudioLeadIn: 0
PreviewTime: 89178
Countdown: 0
SampleSet: Normal
StackLeniency: 0.7
Mode: 0
LetterboxInBreaks: 0
WidescreenStoryboard: 1

[Editor]
DistanceSpacing: 1
BeatDivisor: 4
GridSize: 32
TimelineZoom: 1.050003

[Metadata]
Title:CENSORED!!
TitleUnicode:CENSORED!!
Artist:t+pazolite
ArtistUnicode:t+pazolite
Creator:Zyl
Version:B*GINNER!!
Source:SOUND VOLTEX III GRAVITY WARS
Tags:chireiden 東方地霊殿 Subterranean Animism th11 ハルトマンの妖怪少女 Hartmann's Youkai Girl 古明地 こめいじ こいし 上海アリス幻樂団 Touhou Trent83 alice's emotion Koishi Komeiji sdvx museca ZUN Team Shanghai Alice Blossom Extra stage boss Touhou 11 Subterranean Animism Hartmann's youkai girl reitaisai 13 Electronic Instrumental
BeatmapID:1529409
BeatmapSetID:489566

[Difficulty]
HPDrainRate:2
CircleSize:2
OverallDifficulty:1
ApproachRate:2
SliderMultiplier:0.999999999999999
SliderTickRate:1

[Events]
//Background and Video events
0,0,"MORE CENSORED THAN EVER!!.png",0,0
//Break Periods
2,30315,38401
2,50007,53170
//Storyboard Layer 0 (Background)
//Storyboard Layer 1 (Fail)
//Storyboard Layer 2 (Pass)
//Storyboard Layer 3 (Foreground)
//Storyboard Layer 4 (Overlay)
//Storyboard Sound Samples

[TimingPoints]
577,307.692307692308,4,1,1,40,1,0
577,-100,4,1,1,40,0,0
4884,-100,4,2,1,40,0,0
10423,-100,4,2,1,70,0,1
10730,-100,4,2,1,70,0,0
19192,-100,4,3,1,70,0,0
19346,-100,4,3,1,70,0,0
19500,-100,4,3,1,70,0,0
19653,-100,4,3,1,70,0,0
19961,-100,4,1,1,70,0,0
20269,-100,4,1,1,70,0,1
20577,-100,4,3,1,70,0,1
22423,-100,4,1,1,70,0,1
22577,-100,4,3,1,70,0,1
22730,-100,4,1,1,70,0,1
23038,-100,4,3,1,70,0,1
24346,-100,4,3,1,70,0,1
24577,-100,4,3,1,70,0,1
24807,-100,4,3,1,70,0,1
24884,-100,4,1,1,70,0,1
24961,-100,4,1,1,70,0,1
25038,-100,4,3,1,70,0,1
25115,-100,4,1,1,70,0,1
25192,-100,4,1,1,70,0,1
25500,-100,4,3,1,70,0,1
27346,-100,4,1,1,70,0,1
27807,-100,4,3,1,70,0,1
28038,-100,4,3,1,70,0,1
28269,-100,4,3,1,70,0,1
28500,-100,4,3,1,70,0,1
28884,-100,4,2,1,70,0,0
29038,-100,4,3,1,70,0,0
29500,-100,4,1,1,70,0,0
30115,-100,4,2,1,70,0,0
38269,-100,4,3,1,70,0,0
39961,-100,4,2,1,60,0,1
40269,-100,4,3,1,70,0,0
41192,-100,4,3,1,70,0,0
41807,-100,4,3,1,70,0,0
42423,-100,4,2,1,70,0,0
42577,-100,4,3,1,70,0,0
44884,-100,4,3,1,70,0,1
45192,-100,4,3,1,70,0,0
49807,-100,4,2,1,70,0,0
52269,-100,4,3,1,70,0,0
53500,-100,4,2,1,70,0,0
54577,-100,4,3,1,40,0,0
57192,-100,4,3,1,50,0,0
57500,-100,4,3,1,60,0,0
57807,-100,4,3,1,70,0,0
58115,-100,4,3,1,80,0,0
58423,-100,4,2,1,70,0,0
58730,-100,4,2,1,70,0,0
59038,-100,4,2,1,70,0,0
59346,-100,4,1,1,70,0,0
59653,-100,4,2,1,70,0,1
60038,-100,4,3,1,70,0,1
60269,-100,4,2,1,70,0,1
60423,-100,4,3,1,70,0,1
60884,-100,4,2,1,70,0,1
61192,-100,4,3,1,70,0,1
61500,-100,4,2,1,70,0,1
61961,-100,4,3,1,70,0,1
62115,-100,4,1,2,70,0,1
64577,-100,4,2,1,70,0,1
64653,-100,4,3,1,70,0,1
64884,-100,4,2,1,70,0,1
64961,-100,4,3,1,70,0,1
65192,-100,4,2,1,70,0,1
65269,-100,4,3,1,70,0,1
65807,-100,4,2,1,70,0,1
65884,-100,4,3,1,70,0,1
66115,-100,4,2,1,70,0,1
66192,-100,4,3,1,70,0,1
66423,-100,4,2,1,70,0,1
66500,-100,4,3,1,70,0,1
66730,-100,4,2,1,70,0,1
67192,-100,4,1,2,70,0,1
68269,-100,4,1,2,70,0,0
69500,-100,4,3,1,70,0,1
70730,-100,4,3,1,80,0,1
71038,-100,4,3,1,90,0,1
71346,-100,4,3,1,100,0,1
71961,-100,4,2,1,70,0,1
72115,-100,4,1,2,70,0,1
72269,-100,4,2,1,70,0,1
72423,-100,4,1,2,70,0,1
72577,-100,4,2,1,70,0,1
72730,-100,4,1,2,70,0,1
72884,-100,4,3,1,70,0,1
73038,-100,4,1,2,70,0,1
73115,-100,4,2,1,70,0,1
73346,-100,4,1,2,70,0,1
73500,-100,4,2,1,70,0,1
73653,-100,4,1,2,70,0,1
73807,-100,4,2,1,70,0,1
73961,-100,4,1,2,70,0,1
74269,-100,4,3,1,70,0,1
75038,-100,4,3,1,70,0,1
75653,-100,4,3,1,70,0,1
76577,-100,4,2,1,70,0,1
76884,-100,4,3,1,70,0,1
77192,-100,4,3,1,70,0,1
77500,-100,4,3,1,70,0,1
77807,-100,4,3,1,70,0,1
78115,-100,4,2,1,70,0,0
79346,-100,4,1,1,70,0,1
79653,-100,4,2,1,70,0,0
81807,-100,4,1,1,70,0,1
82038,-100,4,2,1,70,0,1
82115,-100,4,2,1,70,0,0
84269,-100,4,1,1,70,0,1
84500,-100,4,2,1,70,0,1
84577,-100,4,2,1,70,0,0
88115,-100,4,3,1,70,0,0
88269,-100,4,3,1,70,0,0
88423,-100,4,3,1,70,0,0
88577,-100,4,3,1,70,0,0
88884,-100,4,1,1,70,0,0
89192,-100,4,1,1,70,0,1
89500,-100,4,3,1,70,0,1
91346,-100,4,1,1,70,0,1
91961,-100,4,3,1,70,0,1
93038,-100,4,3,1,70,0,1
93269,-100,4,3,1,70,0,1
93500,-100,4,3,1,70,0,1
93730,-100,4,3,1,70,0,1
93807,-100,4,1,1,70,0,1
93884,-100,4,1,1,70,0,1
93961,-100,4,3,1,70,0,1
94115,-100,4,1,1,70,0,1
94423,-100,4,3,1,70,0,1
96269,-100,4,1,1,70,0,1
96346,-100,4,3,1,70,0,1
96577,-100,4,1,1,70,0,1
96884,-100,4,3,1,70,0,1
97807,-100,4,3,1,70,0,1
98115,-100,4,3,1,70,0,1
98423,-100,4,3,1,70,0,1
98730,-100,4,1,1,70,0,0
99038,-100,4,1,1,70,0,1
99346,-100,4,3,1,70,0,1
100115,-100,4,2,1,70,0,1
100269,-100,4,3,1,70,0,1
101192,-100,4,1,1,70,0,1
101269,-100,4,3,1,70,0,1
101500,-100,4,1,1,70,0,1
101577,-100,4,3,1,70,0,1
103653,-100,4,1,1,70,0,1
103961,-100,4,1,1,70,0,1
104269,-100,4,3,1,70,0,1
105192,-100,4,3,1,70,0,1
105269,-100,4,3,1,70,0,1
106115,-100,4,1,1,70,0,1
106423,-100,4,1,1,70,0,1
106500,-100,4,3,1,70,0,1
106730,-100,4,3,1,80,0,1
106884,-100,4,3,1,80,0,1
107038,-100,4,3,1,90,0,1
107192,-100,4,3,1,90,0,1
107346,-100,4,3,1,100,0,1
107500,-100,4,3,1,100,0,1
107653,-100,4,2,1,70,0,0
107730,-100,4,3,1,70,0,0
108115,-100,4,2,1,70,0,0
108192,-100,4,3,1,70,0,0
108423,-100,4,1,1,70,0,0
108577,-100,4,3,1,70,0,0
108884,-100,4,2,1,70,0,0

[Colours]
Combo1 : 202,0,101
Combo2 : 255,43,149
Combo3 : 255,45,45
Combo4 : 202,0,202
SliderBorder : 255,43,149
SliderTrackOverride : 0,0,0

[HitObjects]
54,55,577,6,0,L|77:271,1,200,0|0,0:0|0:0,0:0:0:0:
144,325,1500,1,0,0:0:0:0:
144,325,1807,2,0,P|200:295|328:331,1,200,0|0,0:0|0:0,0:0:0:0:
408,273,2730,1,0,0:0:0:0:
408,273,3038,6,0,B|386:216|386:216|402:64,1,200,0|0,0:0|0:0,0:0:0:0:
313,28,3961,1,0,0:0:0:0:
313,28,4269,2,0,P|224:68|115:27,1,200,0|2,0:0|0:0,0:0:0:0:
43,220,5500,6,0,L|26:335,2,99.9999999999999,4|4|8,0:0|0:0|0:0,0:0:0:0:
120,156,6423,1,4,0:0:0:0:
168,243,6730,2,0,L|151:358,2,99.9999999999999,4|4|8,0:0|0:0|0:0,0:0:0:0:
243,177,7653,1,4,0:0:0:0:
314,246,7961,6,0,P|358:261|429:254,1,99.9999999999999,4|4,0:0|0:0,0:0:0:0:
437,162,8577,2,0,P|393:147|322:154,1,99.9999999999999,8|4,0:0|0:0,0:0:0:0:
243,177,9192,2,0,L|139:182,1,99.9999999999999,4|0,0:0|0:0,0:0:0:0:
123,280,9807,2,0,L|222:275,1,99.9999999999999,8|2,0:0|0:0,0:0:0:0:
314,246,10423,6,0,P|341:168|177:99,1,300,4|0,0:0|0:0,0:0:0:0:
95,150,11653,2,0,B|107:224|107:224|86:282|86:282|107:351|107:351|123:309|179:297,1,300,4|0,0:0|0:0,0:0:0:0:
274,317,12884,6,0,B|484:345|484:345|440:319|440:319|410:279,1,300,4|0,0:0|0:0,0:0:0:0:
359,211,14115,2,0,B|208:224|208:224|58:176,1,300,4|0,0:0|0:0,0:0:0:0:
23,88,15346,6,0,B|85:80|159:112|159:112|177:93|177:93|248:115|325:92,1,300,4|4,0:0|0:0,0:0:0:0:
318,195,16577,2,0,B|256:187|182:219|182:219|164:200|164:200|93:222|16:199,1,300,4|4,0:0|0:0,0:0:0:0:
25,302,17807,6,0,B|88:331|148:319|148:319|182:309|182:309|239:351|330:323,1,300,4|4,0:0|0:0,0:0:0:0:
408,294,19038,2,0,B|391:239|419:198|419:198|439:152|418:91,1,200,2|4,0:0|0:0,0:0:0:0:
348,31,19961,1,4,0:0:0:0:
276,100,20269,6,0,B|133:130|133:130|109:168|109:168|71:143|71:143|8:156,1,300,10|4,0:0|0:0,0:0:0:0:
50,247,21500,2,4,B|89:269|162:272|192:215|192:215|227:233|227:233|268:202|330:213,1,300,4|8,0:0|0:0,0:0:0:0:
402,269,22730,6,0,B|443:324|443:324|434:231|434:231|459:157|459:157|447:87,1,300,10|4,0:0|0:0,0:0:0:0:
363,45,23961,1,4,0:0:0:0:
291,114,24269,2,0,B|256:141|256:141|203:124|203:124|156:150|106:126,1,200,0|4,0:0|0:0,0:0:0:0:
20,176,25192,6,0,B|37:255|37:255|27:337|27:337|70:299,1,200,10|4,0:0|0:0,0:0:0:0:
134,252,26115,1,4,0:0:0:0:
221,300,26423,2,0,B|314:335|314:335|416:306,1,200,4|4,0:0|0:0,0:0:0:0:
499,261,27346,1,12,0:0:0:0:
256,192,27653,12,8,28884,0:0:0:0:
256,192,30115,5,12,0:0:0:0:
71,81,39961,6,8,B|106:72|143:93|143:93|181:70|181:70|257:135|348:78,1,300,4|12,0:0|0:0,0:0:0:0:
436,33,41192,2,0,B|445:134|445:134|438:183|438:183|452:230|452:230|434:286|463:347,1,300,4|12,0:0|0:0,0:0:0:0:
356,343,42423,6,0,B|322:332|322:332|279:349|241:332|241:332|217:356|217:356|224:323|228:293|217:264|199:237|159:211|158:211,1,300,4|8,0:0|0:0,0:0:0:0:
79,250,43653,2,4,L|71:361,2,99.9999999999999,4|4|8,0:0|0:0|0:0,0:0:0:0:
40,157,44577,1,8,0:0:0:0:
38,54,44884,6,0,B|86:62|86:62|111:52|139:48|166:57|166:57|136:89|136:129|136:129|128:171|128:171|150:182|170:224,1,300,4|4,0:0|0:0,0:0:0:0:
160,304,46115,2,0,B|211:279|211:279|244:296|295:295|295:295|276:310|274:344|274:344|317:331|377:345,1,300,4|4,0:0|0:0,0:0:0:0:
471,320,47346,6,4,B|479:269|479:269|465:225|465:225|479:195|476:138|476:138|441:104|440:65|440:65|420:24,1,300,4|0,0:0|0:0,0:0:0:0:
256,192,48577,12,4,49807,0:0:0:0:
202,49,54730,6,0,L|214:261,1,200,12|12,0:0|0:0,0:0:0:0:
216,348,55653,1,12,0:0:0:0:
315,341,55961,2,0,L|303:141,1,200,12|12,0:0|0:0,0:0:0:0:
295,41,56884,1,12,0:0:0:0:
256,192,57192,12,2,58423,0:0:0:0:
188,118,59653,6,0,P|234:97|351:174,1,200,2|2,0:0|0:0,0:0:0:0:
350,269,60577,1,8,0:0:0:0:
256,304,60884,2,0,L|49:313,1,200,2|2,0:0|0:0,0:0:0:0:
27,216,61807,1,8,0:0:0:0:
23,115,62115,6,0,B|18:25|18:25|58:45|58:45|101:36|101:36|136:71|174:72|217:44,1,300,0|0,0:0|0:0,0:0:0:0:
310,33,63346,2,0,B|376:23|376:23|426:42|426:42|396:89|396:89|383:118|386:172|416:209,1,300,0|8,0:0|0:0,0:0:0:0:
454,298,64577,6,0,B|392:290|338:316|338:316|302:297|229:306|229:306|247:278|249:237,1,300,2|12,0:0|0:0,0:0:0:0:
346,217,65807,2,0,B|347:178|365:150|365:150|292:159|256:140|256:140|202:166|140:158,1,300,2|4,0:0|0:0,0:0:0:0:
71,86,67038,6,0,P|45:129|50:188,1,99.9999999999999,0|0,0:0|0:0,0:0:0:0:
115,250,67653,2,0,P|141:207|136:148,1,99.9999999999999,0|0,0:0|0:0,0:0:0:0:
71,85,68269,2,0,P|164:65|232:132,1,200,0|0,0:0|0:0,0:0:0:0:
231,232,69192,1,0,0:0:0:0:
231,232,69500,6,0,L|220:352,1,99.9999999999999,8|8,0:0|0:0,0:0:0:0:
319,354,70115,2,0,L|328:254,1,99.9999999999999,8|8,0:0|0:0,0:0:0:0:
381,169,70730,2,0,B|426:155|426:155|486:161,2,99.9999999999999,8|8|8,0:0|0:0|0:0,0:0:0:0:
298,112,71653,1,2,0:0:0:0:
225,43,71961,6,0,P|160:71|35:31,1,200,8|4,0:0|0:0,0:0:0:0:
23,134,72884,1,4,0:0:0:0:
23,134,73192,2,0,L|12:240,2,99.9999999999999,8|4|4,0:0|0:0|0:0,0:0:0:0:
109,184,74115,1,8,0:0:0:0:
109,184,74423,6,4,L|98:295,1,99.9999999999999,4|4,0:0|0:0,0:0:0:0:
187,330,75038,2,0,L|201:231,1,99.9999999999999,4|4,0:0|0:0,0:0:0:0:
267,156,75653,2,4,P|315:141|377:153,2,99.9999999999999,4|4|4,0:0|0:0|0:0,0:0:0:0:
201,230,76577,1,2,0:0:0:0:
136,305,76884,6,0,B|81:259|98:191|133:152|133:152|161:142|161:142|129:112|138:49,1,300,4|8,0:0|0:0,0:0:0:0:
235,31,78115,2,4,P|292:26|345:35,2,99.9999999999999,2|4|2,0:0|0:0|0:0,0:0:0:0:
137,51,79038,1,8,0:0:0:0:
72,127,79346,6,0,P|70:263|206:275,1,300,8|4,0:0|0:0,0:0:0:0:
303,300,80576,2,4,B|249:311|233:353|233:353|212:284|212:284|233:226|233:226|221:152,1,300,4|4,0:0|0:0,0:0:0:0:
177,63,81807,6,0,B|387:35|387:35|343:61|343:61|313:101,1,300,8|4,0:0|0:0,0:0:0:0:
416,120,83038,2,4,B|316:214|316:214|373:281|373:281|432:223,1,300,4|4,0:0|0:0,0:0:0:0:
481,313,84269,6,0,B|419:305|345:337|345:337|327:318|327:318|256:340|179:317,1,300,8|4,0:0|0:0,0:0:0:0:
97,344,85500,2,0,B|86:304|103:238|170:215|213:224|213:224|197:177|197:177|212:157|216:114,1,300,4|4,0:0|0:0,0:0:0:0:
132,70,86730,6,0,B|175:93|235:81|235:81|269:71|269:71|303:143|402:128|417:85,1,300,4|4,0:0|0:0,0:0:0:0:
434,198,87961,2,0,B|417:143|445:102|445:102|465:56|444:-5,1,200,2|4,0:0|0:0,0:0:0:0:
351,33,88884,1,4,0:0:0:0:
277,100,89192,6,0,B|183:106|117:41|117:41|157:111|152:182,1,300,10|4,0:0|0:0,0:0:0:0:
245,195,90423,2,0,B|240:242|280:312|280:312|214:247|120:253,1,300,4|4,0:0|0:0,0:0:0:0:
60,332,91653,6,0,L|41:176,2,150,10|0|4,0:0|0:0|0:0,0:0:0:0:
154,364,92884,2,0,B|177:344|210:349|210:349|238:326|276:345|276:345|343:332|343:332|360:309|395:294|395:294|438:309,1,300,4|4,0:0|0:0,0:0:0:0:
422,206,94115,6,0,B|435:158|435:158|421:112|421:112|434:43,2,150,10|0|4,0:0|0:0|0:0,0:0:0:0:
325,238,95346,2,0,B|315:186|315:186|329:140|329:140|316:92,2,150,4|0|4,0:0|0:0|0:0,0:0:0:0:
242,294,96577,6,0,P|173:322|94:290,2,150,10|0|4,0:0|0:0|0:0,0:0:0:0:
325,238,97807,2,4,B|380:288|368:324|368:324|399:305|454:280|454:280|454:261|441:223|441:223|403:189,1,300,4|4,0:0|0:0,0:0:0:0:
325,138,99038,6,0,P|307:85|322:24,2,99.9999999999999,10|4|4,0:0|0:0|0:0,0:0:0:0:
408,194,99961,1,4,0:0:0:0:
321,244,100269,2,0,P|242:224|161:314,1,200,0|4,0:0|0:0,0:0:0:0:
260,325,101192,1,4,0:0:0:0:
260,325,101500,6,0,P|308:346|371:331,2,99.9999999999999,10|4|4,0:0|0:0|0:0,0:0:0:0:
192,251,102423,1,0,0:0:0:0:
192,251,102730,2,0,B|166:238|131:243|131:243|134:212|128:170|128:170|47:146|47:146|45:240,1,300,4|4,0:0|0:0,0:0:0:0:
68,323,103961,6,0,P|104:342|172:339,2,99.9999999999999,10|4|4,0:0|0:0|0:0,0:0:0:0:
45,225,104884,1,4,0:0:0:0:
94,137,105192,2,0,B|138:118|185:141|185:141|243:175|304:140,1,200,4|4,0:0|0:0,0:0:0:0:
359,80,106115,1,4,0:0:0:0:
431,149,106423,6,0,L|433:258,1,99.9999999999999,10|4,0:0|0:0,0:0:0:0:
335,224,107038,2,0,L|307:328,1,99.9999999999999,4|4,0:0|0:0,0:0:0:0:
225,265,107653,2,8,L|133:325,1,99.9999999999999,4|8,0:0|0:0,0:0:0:0:
120,221,108269,2,0,L|16:218,1,99.9999999999999,8|6,0:0|0:0,0:0:0:0:
32,118,108884,6,0,B|106:74|176:111|176:111|252:158|330:107,1,300,12|4,0:0|0:0,0:0:0:0:
361,25,110115,2,0,B|426:73|426:157|365:200|365:200|374:248|374:248|352:295|352:295,1,300,4|0,0:0|0:0,0:0:0:0:
256,192,111346,12,10,113192,0:0:0:0:
