osu file format v14

[General]
AudioFilename: t+pazolite - CENSORED!!.mp3
AudioLeadIn: 0
PreviewTime: 71513
Countdown: 0
SampleSet: Soft
StackLeniency: 0.6
Mode: 0
LetterboxInBreaks: 0
WidescreenStoryboard: 1

[Editor]
DistanceSpacing: 1.2
BeatDivisor: 2
GridSize: 8
TimelineZoom: 3.800004

[Metadata]
Title:CENSORED!!
TitleUnicode:CENSORED!!
Artist:t+pazolite
ArtistUnicode:t+pazolite
Creator:PandaHero
Version:Normal!!
Source:SOUND VOLTEX III GRAVITY WARS
Tags:-Light- Arutsuki tokiko mirash 東方Project SDVX konami bemani remix Koishi Komeiji's Theme Extra Stage Boss Hartmann's Youkai Girl Touhou 11 Chireiden C.H.S Blossom CENSORED!! E.P. ZUN Team Shanghai Alice MÚSECA ハルトマンの妖怪少女 東方地霊殿 ~ Subterranean Animism Happy Hardcore
BeatmapID:1277247
BeatmapSetID:589304

[Difficulty]
HPDrainRate:3
CircleSize:2.5
OverallDifficulty:3
ApproachRate:5
SliderMultiplier:0.899999999999999
SliderTickRate:1

[Events]
//Background and Video events
0,0,"bgggg.png",0,0
//Break Periods
2,30327,36313
2,50020,53543
//Storyboard Layer 0 (Background)
//Storyboard Layer 1 (Fail)
//Storyboard Layer 2 (Pass)
//Storyboard Layer 3 (Foreground)
//Storyboard Sound Samples

[TimingPoints]
590,307.692307692308,4,2,0,40,1,0
590,-100,4,2,0,40,0,0
5513,-100,4,2,0,70,0,0
10436,-100,4,1,0,70,0,0
15359,-100,4,1,0,70,0,0
19051,-100,4,1,0,70,0,0
19359,-100,4,1,0,70,0,0
19974,-100,4,1,0,70,0,0
20282,-100,4,1,0,70,0,1
20359,-100,4,1,0,70,0,0
22436,-100,4,1,0,70,0,0
22743,-100,4,1,0,70,0,0
23820,-100,4,1,0,70,0,0
25205,-100,4,1,0,70,0,0
27359,-100,4,1,0,70,0,0
27666,-100,4,3,0,70,0,0
28897,-100,4,1,0,70,0,0
29820,-100,4,1,0,70,0,0
30128,-100,4,1,0,70,0,0
37513,-100,4,2,0,30,0,0
37820,-100,4,2,0,40,0,0
38128,-100,4,2,0,50,0,0
38436,-100,4,2,0,60,0,0
38743,-100,4,2,0,70,0,0
39051,-100,4,2,0,80,0,0
39666,-100,4,1,0,70,0,0
39974,-100,4,1,0,70,0,1
40051,-100,4,1,0,70,0,0
41205,-100,4,1,0,70,0,1
41282,-100,4,1,0,70,0,0
42436,-100,4,1,0,70,0,1
42513,-100,4,1,0,70,0,0
47359,-100,4,1,0,75,0,0
49820,-100,4,2,0,70,0,0
54743,-100,4,1,0,70,0,0
55974,-100,4,1,0,75,0,0
57205,-100,4,1,0,80,0,0
58436,-100,4,1,0,70,0,0
58743,-100,4,1,0,70,0,0
59051,-100,4,1,0,70,0,0
59359,-100,4,1,0,70,0,0
59666,-100,4,1,0,80,0,1
68282,-100,4,1,0,80,0,1
69513,-100,4,1,0,70,0,0
71666,-100,4,2,0,70,0,1
71743,-100,4,2,0,70,0,0
71974,-100,4,1,0,70,0,1
79051,-100,4,1,0,70,0,1
79359,-100,4,2,0,60,0,0
80590,-100,4,1,0,70,0,0
81820,-100,4,2,0,60,0,0
83051,-100,4,1,0,70,0,0
84282,-100,4,1,0,70,0,0
87974,-100,4,1,0,70,0,0
88128,-100,4,1,0,70,0,0
88282,-100,4,1,0,70,0,0
88436,-100,4,1,0,70,0,0
88590,-100,4,1,0,70,0,0
88897,-100,4,1,0,70,0,0
89205,-100,4,1,0,70,0,1
89282,-100,4,1,0,70,0,0
91359,-100,4,1,0,70,0,0
91666,-100,4,1,0,70,0,0
92743,-100,4,1,0,70,0,0
94128,-100,4,1,0,70,0,0
96282,-100,4,1,0,70,0,0
96590,-100,4,1,0,70,0,0
97820,-100,4,1,0,70,0,0
98128,-100,4,1,0,70,0,0
98436,-100,4,1,0,70,0,0
98743,-100,4,2,0,70,0,0
99051,-100,4,1,0,70,0,1
99128,-100,4,1,0,70,0,0
103666,-100,4,1,0,70,0,0
103974,-100,4,1,0,70,0,0
108590,-100,4,1,0,70,0,0
108897,-100,4,1,0,70,0,0
112590,-100,4,1,0,70,0,0
113820,-100,4,2,0,50,0,0
114128,-100,4,2,0,40,0,0
114436,-100,4,2,0,30,0,0
114743,-100,4,2,0,20,0,0
115051,-100,4,2,0,5,0,0

[Colours]
Combo1 : 255,128,0
Combo2 : 0,255,0
Combo3 : 255,0,0
Combo4 : 128,0,255

[HitObjects]
132,60,590,6,0,P|46:160|159:336,1,360,2|0,0:0|0:0,0:0:0:0:
380,60,3051,2,0,P|466:160|353:336,1,360,2|0,0:0|0:0,0:0:0:0:
255,39,5513,5,2,0:0:0:0:
255,146,5820,1,2,0:0:0:0:
255,254,6128,2,0,L|255:362,1,89.9999999999999,0|0,1:0|0:0,0:0:0:0:
153,305,6743,1,2,0:0:0:0:
119,202,7051,2,0,P|110:157|108:109,2,89.9999999999999,2|0|0,0:0|1:0|1:0,0:0:0:0:
222,231,7974,5,2,0:0:0:0:
311,171,8282,1,2,0:0:0:0:
331,64,8590,2,0,P|377:84|412:128,1,89.9999999999999,0|0,1:0|0:0,0:0:0:0:
461,203,9205,2,0,B|377:226|427:311|333:331,1,180,2|0,0:0|1:0,0:0:0:0:
237,346,10128,1,0,0:0:0:0:
130,324,10436,6,0,L|92:186,2,135,0|0|2,0:0|0:0|1:2,0:0:0:0:
202,244,11666,2,0,L|164:106,2,135,0|0|2,0:0|0:0|0:2,0:0:0:0:
310,244,12897,2,0,L|345:113,2,135,0|0|2,0:0|0:0|0:2,0:0:0:0:
382,324,14127,2,0,L|417:193,2,135,0|0|2,0:0|0:0|0:2,0:0:0:0:
274,335,15359,6,0,L|121:336,1,135,2|2,0:2|0:2,0:0:0:0:
33,212,16282,1,0,0:2:0:0:
33,212,16590,6,0,L|186:212,1,135,2|2,0:2|0:2,0:0:0:0:
266,82,17513,1,0,0:0:0:0:
266,82,17820,6,0,L|117:83,1,135,2|2,0:2|0:2,0:0:0:0:
31,211,18743,1,0,0:0:0:0:
104,290,19051,1,0,0:0:0:0:
210,49,20282,6,0,L|293:49,1,67.4999999999999,4|0,0:0|2:0,0:0:0:0:
332,110,20743,2,0,L|415:110,1,67.4999999999999,2|2,2:0|2:0,0:0:0:0:
470,151,21205,1,2,0:2:0:0:
470,261,21513,6,0,L|385:262,1,67.4999999999999,2|0,0:2|2:0,0:0:0:0:
338,311,21974,2,0,L|253:312,1,67.4999999999999,2|2,2:0|2:0,0:0:0:0:
195,343,22436,2,2,L|195:286,1,45,2|0,0:2|0:0,0:0:0:0:
194,243,22743,6,0,L|194:158,1,67.4999999999999,0|0,0:0|2:0,0:0:0:0:
118,146,23205,2,0,L|118:61,1,67.4999999999999,2|2,2:0|2:0,0:0:0:0:
40,55,23666,1,2,0:2:0:0:
37,163,23974,5,0,0:0:0:0:
38,217,24128,2,0,L|38:327,1,89.9999999999999,2|2,0:0|0:0,0:0:0:0:
139,345,24743,2,2,L|199:345,1,45
133,250,25205,6,0,L|133:168,1,67.4999999999999,4|0,0:0|2:0,0:0:0:0:
212,166,25666,2,0,L|212:84,1,67.4999999999999,2|2,2:0|2:0,0:0:0:0:
268,39,26128,1,2,0:2:0:0:
376,35,26436,6,0,L|462:35,1,67.4999999999999,2|0,0:2|2:0,0:0:0:0:
505,86,26897,2,0,L|437:86,1,67.4999999999999,2|2,2:0|2:0,0:0:0:0:
371,133,27359,2,2,L|416:133,1,45,2|0,0:2|0:0,0:0:0:0:
449,175,27666,5,4,0:3:0:0:
356,230,27974,1,4,0:3:0:0:
283,149,28282,2,0,L|223:64,1,89.9999999999999,4|2,0:3|0:2,0:0:0:0:
148,144,28897,2,0,B|148:257|148:257|231:345|231:345|374:345,1,360,4|4,0:3|0:0,0:0:0:0:
256,192,37513,12,2,39359,0:0:0:0:
473,41,39974,6,0,P|477:84|473:149,1,89.9999999999999,4|0,0:0|0:0,0:0:0:0:
452,236,40590,1,0,0:0:0:0:
362,295,40897,1,2,0:0:0:0:
268,240,41205,6,0,P|221:268|181:320,1,89.9999999999999,4|0,0:0|0:0,0:0:0:0:
117,366,41820,1,0,0:0:0:0:
38,291,42128,1,2,0:0:0:0:
39,182,42436,6,0,P|82:154|139:124,1,89.9999999999999,6|0,0:0|2:0,0:0:0:0:
205,75,43051,2,0,L|275:32,2,67.4999999999999,2|2|0,0:0|0:0|0:0,0:0:0:0:
206,129,43666,5,4,0:0:0:0:
205,237,43974,1,0,0:0:0:0:
297,293,44282,2,0,P|342:273|383:239,1,89.9999999999999,4|2,0:0|3:0,0:0:0:0:
421,150,44897,6,0,P|391:94|323:39,1,135,6|2,0:2|0:2,0:0:0:0:
175,52,45820,1,2,0:0:0:0:
175,52,46128,2,0,P|124:96|92:154,1,135,6|2,0:2|0:2,0:0:0:0:
48,310,47051,1,2,0:0:0:0:
48,310,47359,2,0,P|181:276|292:354,1,270,6|2,0:2|0:2,0:0:0:0:
256,192,48590,12,6,49820,1:2:0:0:
255,40,54743,5,4,0:0:0:0:
255,40,55974,1,4,0:0:0:0:
255,40,57205,5,4,0:0:0:0:
70,151,57820,1,4,0:0:0:0:
255,262,58436,5,6,0:2:0:0:
255,154,58743,1,6,0:2:0:0:
158,203,59051,1,6,0:2:0:0:
255,262,59359,1,6,0:2:0:0:
346,200,59666,6,0,L|435:142,2,89.9999999999999,6|10|0,0:2|0:2|0:0,0:0:0:0:
344,251,60436,2,0,L|429:304,1,89.9999999999999,2|0,1:3|1:3,0:0:0:0:
457,337,60897,1,2,0:2:0:0:
497,236,61205,1,10,0:2:0:0:
421,150,61513,2,0,L|336:208,1,89.9999999999999,2|2,0:2|0:2,0:0:0:0:
250,236,62128,5,6,0:2:0:0:
225,187,62282,2,0,L|187:88,1,89.9999999999999,0|0,0:0|0:0,0:0:0:0:
89,81,62897,2,0,L|127:180,1,89.9999999999999,2|0,0:3|0:3,0:0:0:0:
64,257,63513,2,0,L|31:172,1,89.9999999999999,0|2,0:0|0:2,0:0:0:0:
89,81,64128,2,0,L|107:127,1,45,2|2,0:2|0:2,0:0:0:0:
147,223,64590,6,0,L|187:320,2,89.9999999999999,6|10|0,0:2|0:2|0:0,0:0:0:0:
148,168,65359,2,0,L|234:132,1,89.9999999999999,2|0,0:3|0:3,0:0:0:0:
265,91,65820,1,2,0:2:0:0:
363,45,66128,1,10,0:2:0:0:
453,104,66436,2,0,P|457:157|456:204,1,89.9999999999999,2|2,0:2|0:2,0:0:0:0:
424,296,67051,5,6,0:2:0:0:
397,343,67205,2,0,P|347:322|298:311,1,89.9999999999999
204,311,67820,2,0,P|160:322|119:340,1,89.9999999999999
65,345,68282,2,0,P|34:259|61:163,1,180,4|4,0:2|0:2,0:0:0:0:
224,39,69513,6,0,L|311:102,1,89.9999999999999,6|2,0:2|0:2,0:0:0:0:
296,199,70128,2,0,L|209:262,1,89.9999999999999,2|2,0:2|0:2,0:0:0:0:
133,312,70743,1,2,0:2:0:0:
40,255,71051,1,2,0:2:0:0:
79,154,71359,1,2,0:2:0:0:
186,150,71666,5,4,0:0:0:0:
223,251,71974,6,0,P|231:298|254:354,1,89.9999999999999,6|10,0:2|0:2,0:0:0:0:
351,361,72590,2,0,P|387:330|424:282,1,89.9999999999999,2|10,0:2|0:2,0:0:0:0:
386,193,73205,2,0,P|349:223|312:271,2,89.9999999999999,2|10|2,0:2|0:2|0:2,0:0:0:0:
255,20,74436,6,0,P|135:73|75:204,1,270,6|0,0:2|0:0,0:0:0:0:
62,299,75666,2,0,B|198:289|198:289|324:346,1,270,6|10,0:2|0:2,0:0:0:0:
427,348,76897,2,0,P|469:222|422:99,1,270,6|10,0:2|0:2,0:0:0:0:
330,42,78128,2,0,B|258:95|258:95|215:180,1,180,6|2,0:2|2:0,0:0:0:0:
356,341,79359,5,4,1:0:0:0:
43,246,80590,2,0,P|35:278|35:317,2,67.4999999999999,0|0|0,0:0|0:0|0:0,0:0:0:0:
65,196,81205,1,0,0:0:0:0:
215,41,81820,5,0,1:0:0:0:
467,292,83051,2,0,P|475:260|475:221,2,67.4999999999999,0|0|0,0:0|0:0|0:0,0:0:0:0:
442,340,83666,2,0,P|395:331|335:340,1,89.9999999999999,0|2,0:0|3:0,0:0:0:0:
245,349,84282,6,0,P|177:353|106:333,1,135,4|0,0:2|0:0,0:0:0:0:
7,213,85205,1,2,0:2:0:0:
7,213,85513,6,0,P|75:217|146:197,1,135,4|0,0:2|0:0,0:0:0:0:
240,73,86436,1,2,0:2:0:0:
240,73,86743,6,0,P|172:77|101:57,1,135,4|0,0:2|0:0,0:0:0:0:
18,195,87666,1,0,0:0:0:0:
111,248,87974,1,6,0:2:0:0:
302,335,89205,6,0,L|219:335,1,67.4999999999999,6|0,0:2|2:0,0:0:0:0:
180,274,89666,2,0,L|97:274,1,67.4999999999999,2|2,2:2|2:2,0:0:0:0:
42,233,90128,1,2,0:2:0:0:
42,123,90436,6,0,L|127:122,1,67.4999999999999,2|0,0:2|2:0,0:0:0:0:
174,73,90897,2,0,L|259:72,1,67.4999999999999,2|2,2:2|2:2,0:0:0:0:
317,41,91359,2,0,L|317:98,1,45,2|0,0:1|0:0,0:0:0:0:
318,141,91666,6,0,L|318:226,1,67.4999999999999,6|0,0:2|2:0,0:0:0:0:
394,238,92128,2,0,L|394:323,1,67.4999999999999,2|0,2:2|0:0,0:0:0:0:
472,324,92589,1,2,0:2:0:0:
474,215,92897,5,2,0:2:0:0:
473,160,93051,2,0,L|473:43,1,89.9999999999999,2|2,0:0|0:0,0:0:0:0:
369,38,93666,2,0,L|309:38,1,45,2|2,0:0|0:0,0:0:0:0:
379,134,94128,6,0,L|379:216,1,67.4999999999999,6|0,0:2|2:0,0:0:0:0:
300,218,94589,2,0,L|300:300,1,67.4999999999999,2|2,2:2|2:2,0:0:0:0:
244,345,95051,1,2,0:2:0:0:
136,349,95359,6,0,L|50:349,1,67.4999999999999,2|0,0:2|2:0,0:0:0:0:
7,298,95820,2,0,L|75:298,1,67.4999999999999,2|2,2:2|2:2,0:0:0:0:
141,251,96282,2,2,L|96:251,1,45,2|0,0:2|0:0,0:0:0:0:
68,204,96590,6,0,L|68:125,1,67.4999999999999,6|0,0:2|2:0,0:0:0:0:
142,104,97051,2,0,L|142:26,1,67.4999999999999,2|2,2:2|2:2,0:0:0:0:
222,48,97513,2,0,L|223:97,1,45,2|2,0:2|0:2,0:0:0:0:
224,147,97820,6,0,P|272:143|325:152,2,89.9999999999999,6|6|6,0:2|0:2|0:2,0:0:0:0:
132,204,98743,1,2,0:2:0:0:
150,310,99051,6,0,L|216:350,1,67.4999999999999,6|0,0:2|2:0,0:0:0:0:
289,347,99513,2,0,L|346:312,1,67.4999999999999,2|0,0:2|2:0,0:0:0:0:
418,348,99974,1,2,0:2:0:0:
481,260,100282,6,0,L|485:185,1,67.4999999999999,2|0,0:2|2:0,0:0:0:0:
416,147,100743,2,0,L|419:79,1,67.4999999999999,2|0,0:2|0:0,0:0:0:0:
353,30,101205,1,2,0:2:0:0:
350,138,101513,6,0,L|289:168,1,67.4999999999999,6|0,0:2|2:0,0:0:0:0:
208,165,101974,2,0,L|147:135,1,67.4999999999999,2|0,0:2|2:0,0:0:0:0:
72,103,102436,1,2,0:2:0:0:
31,202,102743,5,2,0:2:0:0:
59,247,102897,2,0,L|109:315,1,67.4999999999999,2|0,1:2|2:0,0:0:0:0:
179,287,103359,2,0,L|213:331,1,45,0|2,1:2|0:2,0:0:0:0:
254,347,103666,1,2,0:0:0:0:
361,352,103974,6,0,P|395:343|430:324,1,67.4999999999999,6|0,0:2|2:0,0:0:0:0:
430,247,104436,2,0,P|396:238|361:219,1,67.4999999999999,2|0,0:2|2:0,0:0:0:0:
301,176,104897,1,2,0:2:0:0:
223,250,105205,6,0,P|192:265|160:273,1,67.4999999999999,2|0,0:2|2:0,0:0:0:0:
93,228,105666,2,0,P|60:236|30:251,1,67.4999999999999,2|0,0:2|2:0,0:0:0:0:
6,329,106128,1,2,0:2:0:0:
111,353,106436,6,0,P|168:359|220:348,1,89.9999999999999,6|0,0:2|0:0,0:0:0:0:
265,268,107051,1,6,0:2:0:0:
206,177,107359,1,0,0:0:0:0:
98,173,107666,2,0,B|53:259|53:259|97:361|97:361|142:309,1,270,4|4,0:3|0:3,0:0:0:0:
206,230,108897,6,0,P|260:173|338:140,1,157.5,6|0,0:2|0:0,0:0:0:0:
462,173,109820,1,2,0:2:0:0:
489,277,110128,6,0,P|435:220|357:187,1,157.5,6|0,0:2|0:0,0:0:0:0:
233,220,111051,1,4,3:3:0:0:
205,324,111359,6,0,P|259:267|337:234,1,157.5,6|0,0:2|0:0,0:0:0:0:
461,267,112282,1,2,0:2:0:0:
392,351,112590,6,0,P|391:255|348:173,1,180,6|4,0:2|3:3,0:0:0:0:
256,192,113282,12,0,115051,0:0:0:0:
