osu file format v14

[General]
AudioFilename: t+pazolite - CENSORED!!.mp3
AudioLeadIn: 0
PreviewTime: 71513
Countdown: 0
SampleSet: Soft
StackLeniency: 0.7
Mode: 0
LetterboxInBreaks: 0
WidescreenStoryboard: 0

[Editor]
Bookmarks: 3051
DistanceSpacing: 0.8
BeatDivisor: 1
GridSize: 8
TimelineZoom: 3.800004

[Metadata]
Title:CENSORED!!
TitleUnicode:CENSORED!!
Artist:t+pazolite
ArtistUnicode:t+pazolite
Creator:PandaHero
Version:Easy!!
Source:SOUND VOLTEX III GRAVITY WARS
Tags:-Light- Arutsuki tokiko mirash 東方Project SDVX konami bemani remix Koishi Komeiji's Theme Extra Stage Boss Hartmann's Youkai Girl Touhou 11 Chireiden C.H.S Blossom CENSORED!! E.P. ZUN Team Shanghai Alice MÚSECA ハルトマンの妖怪少女 東方地霊殿 ~ Subterranean Animism Happy Hardcore
BeatmapID:1278789
BeatmapSetID:589304

[Difficulty]
HPDrainRate:2
CircleSize:2
OverallDifficulty:2
ApproachRate:4
SliderMultiplier:0.599999999999999
SliderTickRate:1

[Events]
//Background and Video events
0,0,"bgggg.png",0,0
//Break Periods
2,30328,38534
2,50020,53303
//Storyboard Layer 0 (Background)
//Storyboard Layer 1 (Fail)
//Storyboard Layer 2 (Pass)
//Storyboard Layer 3 (Foreground)
//Storyboard Sound Samples

[TimingPoints]
590,307.692307692308,4,2,0,40,1,0
590,-100,4,2,0,40,0,0
5513,-100,4,2,0,70,0,0
10436,-100,4,1,0,70,0,0
15359,-100,4,1,0,70,0,0
19051,-100,4,1,0,70,0,0
19359,-100,4,1,0,70,0,0
19974,-100,4,1,0,70,0,0
20282,-100,4,1,0,70,0,1
20359,-100,4,1,0,70,0,0
22436,-100,4,1,0,70,0,0
22743,-100,4,1,0,70,0,0
23820,-100,4,1,0,70,0,0
25205,-100,4,1,0,70,0,0
27359,-100,4,1,0,70,0,0
27666,-100,4,3,0,70,0,0
28897,-100,4,1,0,70,0,0
29820,-100,4,1,0,70,0,0
30128,-100,4,1,0,70,0,0
37513,-100,4,2,0,30,0,0
37820,-100,4,2,0,40,0,0
38128,-100,4,2,0,50,0,0
38436,-100,4,2,0,60,0,0
38743,-100,4,2,0,70,0,0
39051,-100,4,2,0,80,0,0
39666,-100,4,1,0,70,0,0
39974,-100,4,1,0,70,0,1
40051,-100,4,1,0,70,0,0
41205,-100,4,1,0,70,0,1
41282,-100,4,1,0,70,0,0
42436,-100,4,1,0,70,0,1
42513,-100,4,1,0,70,0,0
47359,-100,4,1,0,75,0,0
49820,-100,4,2,0,70,0,0
54743,-100,4,1,0,70,0,0
55974,-100,4,1,0,75,0,0
57205,-100,4,1,0,80,0,0
58436,-100,4,1,0,70,0,0
58743,-100,4,1,0,70,0,0
59051,-100,4,1,0,70,0,0
59359,-100,4,1,0,70,0,0
59666,-100,4,1,0,80,0,1
68282,-100,4,1,0,80,0,1
69513,-100,4,1,0,70,0,0
71666,-100,4,2,0,70,0,1
71743,-100,4,2,0,70,0,0
71974,-100,4,1,0,70,0,1
79051,-100,4,1,0,70,0,1
79359,-100,4,2,0,60,0,0
80590,-100,4,1,0,70,0,0
81820,-100,4,2,0,60,0,0
83051,-100,4,1,0,70,0,0
84282,-100,4,1,0,70,0,0
87974,-100,4,1,0,70,0,0
88128,-100,4,1,0,70,0,0
88282,-100,4,1,0,70,0,0
88436,-100,4,1,0,70,0,0
88590,-100,4,1,0,70,0,0
88897,-100,4,1,0,70,0,0
89205,-100,4,1,0,70,0,1
89282,-100,4,1,0,70,0,0
91359,-100,4,1,0,70,0,0
91666,-100,4,1,0,70,0,0
92743,-100,4,1,0,70,0,0
94128,-100,4,1,0,70,0,0
96282,-100,4,1,0,70,0,0
96590,-100,4,1,0,70,0,0
97820,-100,4,1,0,70,0,0
98128,-100,4,1,0,70,0,0
98436,-100,4,1,0,70,0,0
98743,-100,4,2,0,70,0,0
99051,-100,4,1,0,70,0,1
99128,-100,4,1,0,70,0,0
103666,-100,4,1,0,70,0,0
103974,-100,4,1,0,70,0,0
108590,-100,4,1,0,70,0,0
108897,-100,4,1,0,70,0,0
112590,-100,4,1,0,70,0,0
113820,-100,4,2,0,50,0,0
114128,-100,4,2,0,40,0,0
114436,-100,4,2,0,30,0,0
114743,-100,4,2,0,20,0,0
115051,-100,4,2,0,5,0,0

[Colours]
Combo1 : 255,128,0
Combo2 : 0,255,0
Combo3 : 255,0,0
Combo4 : 128,0,255

[HitObjects]
40,44,590,6,0,P|151:84|232:196,1,240,2|0,0:0|0:0,0:0:0:0:
275,258,2436,1,0,0:0:0:0:
315,344,3051,2,0,P|397:253|392:128,1,240,2|0,0:0|0:0,0:0:0:0:
356,53,4897,1,0,0:0:0:0:
259,53,5513,6,0,L|259:210,1,120,2|0,0:0|1:0,0:0:0:0:
170,135,6743,2,0,L|170:292,1,120,2|0,0:0|1:0,0:0:0:0:
79,222,7974,2,0,L|79:379,1,120,2|0,0:0|1:0,0:0:0:0:
175,342,9205,2,0,P|241:328|312:342,1,120,2|0,0:0|1:0,0:0:0:0:
388,340,10436,6,0,P|436:258|424:132,1,180,0|2,0:0|1:2,0:0:0:0:
429,127,11666,2,0,B|325:69|353:163|242:108,1,180,0|2,0:0|0:2,0:0:0:0:
214,93,12897,2,0,B|213:288,1,180,0|2,0:0|0:2,0:0:0:0:
203,320,14128,2,0,P|111:329|63:244,1,180,0|2,0:0|0:2,0:0:0:0:
46,220,15359,6,0,B|72:106|72:106|205:19,2,240,2|2|2,0:2|0:2|0:2,0:0:0:0:
191,345,19051,1,0,0:0:0:0:
352,241,20282,6,0,L|373:153,1,59.9999999999999,4|0,0:0|0:0,0:0:0:0:
377,136,20897,1,0,0:0:0:0:
384,88,21205,1,2,0:2:0:0:
337,72,21513,6,0,L|262:57,1,59.9999999999999,2|0,0:2|0:0,0:0:0:0:
230,55,22128,1,0,0:0:0:0:
182,49,22436,1,2,0:2:0:0:
160,92,22743,6,0,P|158:127|174:176,1,59.9999999999999
197,185,23359,2,0,P|200:222|183:262,1,59.9999999999999,0|2,0:0|0:2,0:0:0:0:
160,277,23974,2,0,P|158:312|174:361,3,59.9999999999999,0|0|0|2,0:0|0:0|0:0|0:0,0:0:0:0:
209,346,25205,5,4,0:0:0:0:
256,351,25513,1,0,0:0:0:0:
303,342,25820,2,0,P|335:330|390:332,1,59.9999999999999,0|2,0:0|0:2,0:0:0:0:
395,294,26436,5,2,0:2:0:0:
428,260,26743,1,0,0:0:0:0:
443,214,27051,2,0,P|443:175|437:128,1,59.9999999999999,0|2,0:0|0:2,0:0:0:0:
429,107,27666,6,0,P|333:63|229:139,1,240,4|4,0:3|0:3,0:0:0:0:
241,180,29205,1,0,0:0:0:0:
252,226,29513,2,0,L|267:297,1,59.9999999999999
238,324,30128,5,4,0:0:0:0:
48,48,39974,6,0,L|65:198,1,120,4|0,0:0|0:0,0:0:0:0:
69,214,40897,1,2,0:0:0:0:
96,253,41205,2,0,L|214:347,1,120,4|0,0:0|0:0,0:0:0:0:
237,336,42128,1,2,0:0:0:0:
285,336,42436,6,0,P|366:317|431:207,1,180,6|0,0:0|0:0,0:0:0:0:
429,196,43666,2,0,L|356:72,1,120,4|4,0:0|0:0,0:0:0:0:
283,47,44897,6,0,P|221:144|223:278,2,240,6|6|6,0:2|0:2|0:2,0:0:0:0:
378,34,47974,1,0,0:0:0:0:
446,100,48590,2,0,L|446:356,1,240,0|6,0:0|1:2,0:0:0:0:
21,47,54743,6,0,L|169:54,1,120,4|0,0:0|0:0,0:0:0:0:
188,136,55974,2,0,L|336:143,1,120,4|0,0:0|0:0,0:0:0:0:
362,220,57205,2,0,L|510:227,1,120,4|4,0:0|0:0,0:0:0:0:
479,321,58436,5,6,0:2:0:0:
432,330,58743,1,6,0:2:0:0:
385,340,59051,1,6,0:2:0:0:
289,344,59666,6,0,L|203:306,1,59.9999999999999,6|10,0:2|0:2,0:0:0:0:
189,301,60282,1,0,0:0:0:0:
144,282,60590,1,0,0:0:0:0:
103,257,60897,6,0,L|20:214,1,59.9999999999999,2|10,0:2|0:2,0:0:0:0:
48,181,61513,2,0,L|92:107,1,59.9999999999999,2|2,0:2|0:2,0:0:0:0:
92,83,62128,6,0,L|177:114,1,59.9999999999999,6|0,0:2|0:0,0:0:0:0:
192,122,62743,1,0,0:0:0:0:
237,136,63051,1,0,0:0:0:0:
282,119,63359,6,0,L|361:86,1,59.9999999999999
381,78,63974,1,0,0:0:0:0:
428,83,64282,1,2,0:2:0:0:
464,114,64590,6,0,L|456:209,1,59.9999999999999,6|10,0:2|0:2,0:0:0:0:
453,221,65205,1,0,0:0:0:0:
449,268,65513,1,0,0:0:0:0:
442,315,65820,6,0,L|366:275,1,59.9999999999999,2|10,0:2|0:2,0:0:0:0:
343,304,66436,2,0,L|289:331,1,59.9999999999999,2|2,0:2|0:2,0:0:0:0:
242,342,67051,6,0,L|151:284,1,59.9999999999999,6|0,0:2|0:0,0:0:0:0:
149,285,67666,1,0,0:0:0:0:
101,294,67974,1,0,0:0:0:0:
54,281,68282,6,0,P|45:220|73:152,1,120,4|4,0:2|0:2,0:0:0:0:
136,102,69513,6,0,P|186:66|261:40,2,120,6|2|2,0:2|0:2|0:2,0:0:0:0:
85,183,71359,1,2,0:2:0:0:
177,211,71974,6,0,L|237:270,1,59.9999999999999,6|10,0:2|0:2,0:0:0:0:
267,259,72590,2,0,L|327:318,1,59.9999999999999,2|10,0:2|0:2,0:0:0:0:
357,306,73205,2,0,L|417:365,2,59.9999999999999,2|10|2,0:2|0:2|0:2,0:0:0:0:
448,277,74436,6,0,P|479:186|464:70,1,180,6|0,0:2|0:0,0:0:0:0:
457,58,75666,2,0,P|367:78|262:38,1,180,6|10,0:2|0:2,0:0:0:0:
237,45,76897,2,0,P|145:97|201:319,1,359.999999999999,6|2,0:2|2:0,0:0:0:0:
279,346,79359,5,4,1:0:0:0:
171,187,80590,2,0,P|257:212|361:179,1,180,0|0,0:0|0:0,0:0:0:0:
381,162,81820,5,0,1:0:0:0:
229,43,83051,2,0,P|197:131|220:238,1,180,0|2,0:0|3:0,0:0:0:0:
233,256,84282,6,0,P|350:301|473:235,2,240,4|4|4,0:2|0:2|0:2,0:0:0:0:
124,97,87974,1,6,0:2:0:0:
316,97,89205,6,0,L|370:169,1,59.9999999999999,6|0,0:2|0:0,0:0:0:0:
378,185,89820,1,0,0:0:0:0:
404,225,90128,1,2,0:2:0:0:
370,259,90436,6,0,L|307:302,1,59.9999999999999,2|0,0:2|0:0,0:0:0:0:
280,319,91051,1,0,0:0:0:0:
238,343,91359,1,2,0:1:0:0:
193,324,91666,6,0,P|178:292|173:241,1,59.9999999999999,6|0,0:2|0:0,0:0:0:0:
192,223,92282,2,0,P|207:191|212:140,1,59.9999999999999,0|2,0:0|0:2,0:0:0:0:
181,130,92897,2,0,P|166:98|161:47,3,59.9999999999999,2|0|0|0,0:2|0:0|0:0|0:0,0:0:0:0:
199,44,94128,5,6,0:2:0:0:
245,30,94436,1,0,0:0:0:0:
290,44,94743,2,0,P|316:56|353:95,1,59.9999999999999,0|2,0:0|0:2,0:0:0:0:
384,58,95359,5,2,0:2:0:0:
431,61,95666,1,0,0:0:0:0:
471,87,95974,2,0,P|468:133|459:184,1,59.9999999999999,0|2,0:0|0:2,0:0:0:0:
481,192,96590,6,0,L|437:293,1,59.9999999999999,6|0,0:2|0:0,0:0:0:0:
430,287,97205,2,0,L|355:294,1,59.9999999999999,0|2,0:0|0:2,0:0:0:0:
325,310,97820,5,6,0:2:0:0:
281,330,98128,1,6,0:2:0:0:
236,311,98436,1,6,0:2:0:0:
144,281,99051,6,0,L|60:338,1,59.9999999999999,6|0,0:2|0:0,0:0:0:0:
52,338,99666,1,0,0:0:0:0:
22,299,99974,1,2,0:2:0:0:
11,252,100282,2,0,P|16:211|36:161,3,59.9999999999999,2|0|0|2,0:2|0:0|0:0|0:2,0:0:0:0:
38,148,101513,5,6,0:2:0:0:
84,137,101820,1,0,0:0:0:0:
131,142,102128,2,0,P|166:156|191:178,1,59.9999999999999,0|2,0:0|0:2,0:0:0:0:
226,190,102743,6,0,L|309:195,1,59.9999999999999,2|0,0:2|0:0,0:0:0:0:
326,167,103359,2,0,L|410:171,1,59.9999999999999,0|2,1:2|0:0,0:0:0:0:
428,147,103974,5,6,0:2:0:0:
426,98,104282,1,0,0:0:0:0:
402,55,104590,2,0,P|368:35|325:26,1,59.9999999999999,0|2,0:0|0:2,0:0:0:0:
300,26,105205,5,2,0:2:0:0:
262,55,105513,1,0,0:0:0:0:
247,100,105820,2,0,P|245:141|257:191,1,59.9999999999999,0|2,0:0|0:2,0:0:0:0:
278,196,106436,6,0,L|300:279,1,59.9999999999999,6|0,0:2|0:0,0:0:0:0:
255,283,107051,2,0,L|282:380,1,59.9999999999999,6|0,0:2|0:0,0:0:0:0:
224,351,107666,2,0,P|130:309|87:222,1,180,4|4,0:3|0:3,0:0:0:0:
91,197,108897,6,0,P|140:98|216:66,1,180,6|2,0:2|0:2,0:0:0:0:
240,92,110128,2,0,P|331:116|413:89,1,180,6|4,0:2|3:3,0:0:0:0:
452,113,111359,2,0,B|337:250|470:207|352:354,1,240,6|6,0:2|0:2,0:0:0:0:
276,348,113205,1,4,3:3:0:0:
256,192,113282,12,0,115051,0:0:0:0:
