osu file format v14

[General]
AudioFilename: censored.mp3
AudioLeadIn: 0
PreviewTime: 88912
Countdown: 0
SampleSet: Soft
StackLeniency: 0.7
Mode: 3
LetterboxInBreaks: 0
SpecialStyle: 0
WidescreenStoryboard: 0

[Editor]
DistanceSpacing: 1
BeatDivisor: 4
GridSize: 32
TimelineZoom: 1.9

[Metadata]
Title:CENSORED!!
TitleUnicode:CENSORED!!
Artist:t+pazolite
ArtistUnicode:t+pazolite
Creator:Kuo Kyoka
Version:DECADE's GRAVITY!!
Source:SOUND VOLTEX III GRAVITY WARS
Tags:東方Project SDVX KONAMI BEMANI Remix Koishi Komeiji's Theme Extra Stage Boss Hartmann's Youkai Girl Touhou 11 Chireiden C.H.S Blossom CENSORED!! E.P. ZUN Team Shanghai Alice MÚSECA ハルトマンの妖怪少女 東方地霊殿 ~ Subterranean Animism Happy Hardcore [_A_v_a_l_o_n_] SanadaYukimura SY Critical_Star DE-CADE
BeatmapID:1017257
BeatmapSetID:476221

[Difficulty]
HPDrainRate:8
CircleSize:4
OverallDifficulty:8
ApproachRate:5
SliderMultiplier:1.4
SliderTickRate:1

[Events]
//Background and Video events
0,0,"bg.png",0,0
//Break Periods
//Storyboard Layer 0 (Background)
//Storyboard Layer 1 (Fail)
//Storyboard Layer 2 (Pass)
//Storyboard Layer 3 (Foreground)
//Storyboard Sound Samples
Sample,7938,0,"drum.wav",45
Sample,19143,0,"drum.wav",45
Sample,19989,0,"boom.wav",60
Sample,20605,0,"kick.wav",55
Sample,21220,0,"kick.wav",55
Sample,21835,0,"kick.wav",55
Sample,22451,0,"kick.wav",55
Sample,22451,0,"hou.wav",50
Sample,24758,0,"hou.wav",50
Sample,24912,0,"hou.wav",50
Sample,25528,0,"snare.wav",60
Sample,26143,0,"snare.wav",60
Sample,26758,0,"kick.wav",55
Sample,27374,0,"hou.wav",50
Sample,27374,0,"kick.wav",55
Sample,39681,0,"drum.wav",45
Sample,39835,0,"drum.wav",45
Sample,39989,0,"kick.wav",55
Sample,41066,0,"hihat.wav",35
Sample,42297,0,"hihat.wav",35
Sample,45989,0,"drum.wav",45
Sample,46028,0,"drum.wav",45
Sample,46066,0,"drum.wav",45
Sample,46105,0,"drum.wav",45
Sample,46143,0,"drum.wav",45
Sample,47066,0,"drum.wav",45
Sample,47105,0,"drum.wav",45
Sample,47143,0,"drum.wav",45
Sample,47181,0,"drum.wav",45
Sample,47258,0,"drum.wav",45
Sample,47297,0,"drum.wav",45
Sample,47335,0,"drum.wav",45
Sample,48335,0,"drum.wav",45
Sample,48374,0,"drum.wav",45
Sample,48412,0,"drum.wav",45
Sample,48489,0,"drum.wav",45
Sample,48528,0,"drum.wav",45
Sample,48566,0,"drum.wav",45
Sample,48605,0,"kick.wav",55
Sample,49835,0,"drum.wav",45
Sample,69528,0,"kick.wav",55
Sample,80374,0,"drum.wav",45
Sample,80528,0,"drum.wav",45
Sample,81835,0,"boom.wav",60
Sample,84297,0,"crash.wav",55
Sample,89528,0,"snare.wav",60
Sample,90143,0,"snare.wav",60
Sample,90758,0,"kick.wav",55
Sample,91374,0,"kick.wav",55
Sample,91374,0,"hou.wav",50
Sample,93681,0,"hou.wav",50
Sample,93835,0,"hou.wav",50
Sample,94451,0,"snare.wav",60
Sample,95066,0,"snare.wav",60
Sample,95681,0,"kick.wav",55
Sample,96297,0,"hou.wav",50
Sample,96297,0,"kick.wav",55
Sample,99066,0,"boom.wav",60
Sample,101220,0,"hou.wav",50
Sample,103835,0,"kick.wav",55
Sample,104912,0,"drum.wav",45
Sample,105066,0,"drum.wav",45
Sample,105374,0,"drum.wav",45
Sample,105528,0,"drum.wav",45
Sample,105681,0,"drum.wav",45
Sample,105989,0,"drum.wav",45
Sample,106143,0,"drum.wav",45
Sample,106297,0,"drum.wav",45
Sample,107874,0,"drum.wav",45
Sample,107912,0,"drum.wav",45
Sample,107951,0,"drum.wav",45
Sample,111220,0,"crash.wav",55
Sample,112489,0,"drum.wav",45
Sample,112528,0,"drum.wav",45
Sample,112566,0,"drum.wav",45
Sample,112605,0,"crash.wav",55
Sample,113220,0,"boom.wav",60

[TimingPoints]
605,307.692307692308,4,2,1,10,1,0
20297,-100,4,2,1,10,0,1
30143,-100,4,2,1,10,0,0
59681,-100,4,2,1,10,0,1
69528,-100,4,2,1,10,0,0
71989,-100,4,2,1,10,0,1
79374,-100,4,2,1,10,0,0
89220,-100,4,2,1,10,0,1
98758,-100,4,2,1,10,0,0
99066,-100,4,2,1,10,0,1
108912,-100,4,2,1,10,0,0

[HitObjects]
64,192,605,5,0,0:0:0:0:
448,192,605,1,0,0:0:0:0:
320,192,758,1,0,0:0:0:0:
64,192,912,1,0,0:0:0:0:
192,192,1066,1,0,0:0:0:0:
320,192,1220,1,0,0:0:0:0:
448,192,1374,1,0,0:0:0:0:
192,192,1528,1,0,0:0:0:0:
448,192,1681,1,0,0:0:0:0:
320,192,1758,1,0,0:0:0:0:
192,192,1835,1,0,0:0:0:0:
64,192,1835,128,0,2451:0:0:0:0:
320,192,2143,128,0,2451:0:0:0:0:
448,192,2451,128,0,3066:0:0:0:0:
192,192,2758,128,0,3066:0:0:0:0:
64,192,3066,1,0,0:0:0:0:
320,192,3066,1,0,0:0:0:0:
192,192,3220,1,0,0:0:0:0:
320,192,3374,1,0,0:0:0:0:
448,192,3528,1,0,0:0:0:0:
192,192,3681,1,0,0:0:0:0:
320,192,3835,1,0,0:0:0:0:
192,192,3989,1,0,0:0:0:0:
64,192,4143,1,0,0:0:0:0:
192,192,4297,1,0,0:0:0:0:
448,192,4297,128,0,4912:0:0:0:0:
64,192,4605,128,0,4912:0:0:0:0:
320,192,4912,128,0,5220:0:0:0:0:
448,192,5374,1,0,0:0:0:0:
320,192,5451,1,0,0:0:0:0:
192,192,5528,1,0,0:0:0:55:kick.wav
64,192,5528,128,0,6758:0:0:0:0:
320,192,5681,1,0,0:0:0:0:
448,192,5835,1,0,0:0:0:55:kick.wav
320,192,5989,1,0,0:0:0:0:
192,192,6143,1,0,0:0:0:45:drum.wav
448,192,6143,1,0,0:0:0:0:
448,192,6297,1,0,0:0:0:0:
320,192,6451,1,0,0:0:0:0:
448,192,6605,1,0,0:0:0:0:
320,192,6681,1,0,0:0:0:0:
192,192,6758,128,0,7681:0:0:0:0:
448,192,6758,1,0,0:0:0:0:
320,192,6912,1,0,0:0:0:0:
64,192,7066,1,0,0:0:0:55:kick.wav
448,192,7220,1,0,0:0:0:0:
320,192,7374,1,0,0:0:0:45:drum.wav
448,192,7374,1,0,0:0:0:0:
448,192,7681,1,0,0:0:0:45:drum.wav
64,192,7681,1,0,0:0:0:0:
320,192,7733,1,0,0:0:0:45:drum.wav
192,192,7784,1,0,0:0:0:45:drum.wav
64,192,7835,1,0,0:0:0:45:drum.wav
320,192,7887,1,0,0:0:0:45:drum.wav
448,192,7989,128,0,9220:0:0:0:45:drum.wav
192,192,7989,1,0,0:0:0:55:kick.wav
64,192,8143,1,0,0:0:0:0:
320,192,8297,1,0,0:0:0:55:kick.wav
64,192,8451,1,0,0:0:0:0:
192,192,8605,1,0,0:0:0:45:drum.wav
64,192,8605,1,0,0:0:0:0:
320,192,8758,1,0,0:0:0:0:
64,192,8912,1,0,0:0:0:0:
320,192,9066,1,0,0:0:0:0:
192,192,9220,128,0,9835:0:0:0:0:
320,192,9220,1,0,0:0:0:0:
448,192,9374,1,0,0:0:0:0:
64,192,9528,128,0,9681:0:0:0:55:kick.wav
448,192,9681,1,0,0:0:0:0:
320,192,9835,128,0,10297:0:0:0:45:drum.wav
192,192,10143,128,0,10297:0:0:0:0:
64,192,10451,1,0,0:0:0:55:kick.wav
448,192,10451,1,0,0:0:0:55:crash.wav
192,192,10451,1,0,0:0:0:0:
64,192,10681,1,0,0:0:0:0:
320,192,10681,128,0,10835:0:0:0:0:
448,192,10912,1,0,0:0:0:0:
192,192,10912,128,0,11066:0:0:0:0:
64,192,11143,128,0,11297:0:0:0:0:
320,192,11143,1,0,0:0:0:0:
192,192,11374,128,0,11528:0:0:0:0:
320,192,11528,128,0,11681:0:0:0:0:
448,192,11681,1,0,0:0:0:0:
64,192,11681,1,0,0:0:0:0:
192,192,11912,1,0,0:0:0:0:
320,192,11912,1,0,0:0:0:0:
448,192,12143,1,0,0:0:0:0:
320,192,12143,1,0,0:0:0:0:
64,192,12374,1,0,0:0:0:0:
448,192,12374,1,0,0:0:0:0:
192,192,12605,128,0,12758:0:0:0:0:
320,192,12758,128,0,12912:0:0:0:0:
64,192,12912,1,0,0:0:0:0:
448,192,12912,1,0,0:0:0:0:
320,192,13143,128,0,13297:0:0:0:0:
64,192,13143,1,0,0:0:0:0:
192,192,13374,128,0,13528:0:0:0:0:
448,192,13374,1,0,0:0:0:0:
64,192,13605,128,0,13758:0:0:0:0:
320,192,13605,1,0,0:0:0:0:
192,192,13835,128,0,13989:0:0:0:0:
320,192,13989,128,0,14143:0:0:0:0:
448,192,14143,1,0,0:0:0:0:
64,192,14143,1,0,0:0:0:0:
192,192,14374,1,0,0:0:0:0:
320,192,14374,1,0,0:0:0:0:
192,192,14605,1,0,0:0:0:0:
64,192,14605,1,0,0:0:0:0:
448,192,14835,1,0,0:0:0:0:
320,192,14835,1,0,0:0:0:0:
192,192,15066,128,0,15220:0:0:0:0:
320,192,15220,128,0,15374:0:0:0:0:
448,192,15374,1,0,0:0:0:55:kick.wav
64,192,15374,128,0,15528:0:0:0:55:crash.wav
448,192,15605,1,0,0:0:0:55:crash.wav
192,192,15605,128,0,15758:0:0:0:55:kick.wav
448,192,15835,1,0,0:0:0:55:crash.wav
320,192,15835,128,0,15989:0:0:0:55:kick.wav
448,192,16066,1,0,0:0:0:55:crash.wav
64,192,16066,1,0,0:0:0:55:kick.wav
448,192,16297,1,0,0:0:0:55:crash.wav
192,192,16297,1,0,0:0:0:55:kick.wav
448,192,16451,1,0,0:0:0:55:crash.wav
192,192,16451,1,0,0:0:0:55:kick.wav
64,192,16605,1,0,0:0:0:55:kick.wav
448,192,16605,128,0,16758:0:0:0:55:crash.wav
64,192,16835,1,0,0:0:0:55:kick.wav
192,192,16835,128,0,16989:0:0:0:55:crash.wav
64,192,17066,1,0,0:0:0:55:kick.wav
320,192,17066,128,0,17220:0:0:0:55:crash.wav
64,192,17297,1,0,0:0:0:55:kick.wav
448,192,17297,1,0,0:0:0:55:crash.wav
64,192,17528,1,0,0:0:0:55:crash.wav
192,192,17528,1,0,0:0:0:55:kick.wav
64,192,17681,1,0,0:0:0:55:crash.wav
320,192,17681,1,0,0:0:0:55:kick.wav
448,192,17835,1,0,0:0:0:55:crash.wav
64,192,17835,128,0,17989:0:0:0:55:kick.wav
448,192,18066,1,0,0:0:0:55:crash.wav
192,192,18066,128,0,18220:0:0:0:55:kick.wav
448,192,18297,1,0,0:0:0:55:crash.wav
320,192,18297,128,0,18451:0:0:0:55:kick.wav
64,192,18528,1,0,0:0:0:55:crash.wav
448,192,18528,1,0,0:0:0:55:kick.wav
64,192,18758,1,0,0:0:0:55:kick.wav
320,192,18758,1,0,0:0:0:55:crash.wav
64,192,18912,1,0,0:0:0:55:kick.wav
448,192,18912,1,0,0:0:0:55:crash.wav
64,192,19066,1,0,0:0:0:55:kick.wav
448,192,19066,1,0,0:0:0:55:crash.wav
192,192,19066,1,0,0:0:0:45:drum.wav
320,192,19220,1,0,0:0:0:45:drum.wav
192,192,19297,1,0,0:0:0:45:drum.wav
320,192,19374,1,0,0:0:0:45:drum.wav
448,192,19451,1,0,0:0:0:45:drum.wav
320,192,19528,1,0,0:0:0:45:drum.wav
192,192,19605,1,0,0:0:0:45:drum.wav
64,192,19681,1,0,0:0:0:45:drum.wav
192,192,19758,1,0,0:0:0:45:drum.wav
320,192,19835,1,0,0:0:0:45:drum.wav
192,192,19912,1,0,0:0:0:45:drum.wav
320,192,19989,1,0,0:0:0:45:drum.wav
448,192,19989,1,0,0:0:0:50:hou.wav
448,192,20297,1,0,0:0:0:55:crash.wav
192,192,20297,1,0,0:0:0:55:kick.wav
64,192,20297,128,0,22451:0:0:0:0:
320,192,20451,1,0,0:0:0:35:hihat.wav
448,192,20528,1,0,0:0:0:0:
192,192,20605,1,0,0:0:0:60:snare.wav
320,192,20758,128,0,20912:0:0:0:35:hihat.wav
448,192,20912,1,0,0:0:0:55:kick.wav
320,192,21066,1,0,0:0:0:35:hihat.wav
192,192,21220,128,0,21374:0:0:0:60:snare.wav
448,192,21374,128,0,21528:0:0:0:35:hihat.wav
320,192,21528,1,0,0:0:0:55:kick.wav
192,192,21528,1,0,0:0:0:0:
448,192,21681,1,0,0:0:0:35:hihat.wav
320,192,21758,1,0,0:0:0:0:
192,192,21835,1,0,0:0:0:60:snare.wav
320,192,21989,128,0,22143:0:0:0:35:hihat.wav
448,192,22143,1,0,0:0:0:55:kick.wav
192,192,22297,128,0,22451:0:0:0:35:hihat.wav
448,192,22451,1,0,0:0:0:60:snare.wav
320,192,22528,1,0,0:0:0:0:
192,192,22605,1,0,0:0:0:35:hihat.wav
320,192,22681,1,0,0:0:0:0:
64,192,22758,1,0,0:0:0:55:kick.wav
448,192,22758,1,0,0:0:0:0:
192,192,22912,1,0,0:0:0:35:hihat.wav
320,192,22989,1,0,0:0:0:0:
64,192,23066,1,0,0:0:0:55:kick.wav
192,192,23066,1,0,0:0:0:60:snare.wav
448,192,23220,128,0,23374:0:0:0:35:hihat.wav
64,192,23374,1,0,0:0:0:55:kick.wav
320,192,23374,1,0,0:0:0:0:
192,192,23451,1,0,0:0:0:0:
64,192,23528,1,0,0:0:0:35:hihat.wav
320,192,23681,1,0,0:0:0:55:kick.wav
448,192,23681,128,0,23835:0:0:0:60:snare.wav
64,192,23835,128,0,23989:0:0:0:35:hihat.wav
192,192,23989,1,0,0:0:0:55:kick.wav
448,192,23989,1,0,0:0:0:0:
320,192,24066,1,0,0:0:0:0:
448,192,24143,1,0,0:0:0:35:hihat.wav
192,192,24143,1,0,0:0:0:50:hou.wav
64,192,24297,1,0,0:0:0:60:snare.wav
320,192,24297,1,0,0:0:0:55:kick.wav
192,192,24374,1,0,0:0:0:0:
448,192,24451,1,0,0:0:0:35:hihat.wav
320,192,24451,1,0,0:0:0:50:hou.wav
192,192,24605,1,0,0:0:0:55:kick.wav
64,192,24605,1,0,0:0:0:0:
448,192,24758,1,0,0:0:0:35:hihat.wav
64,192,24758,1,0,0:0:0:55:kick.wav
192,192,24835,1,0,0:0:0:0:
320,192,24835,1,0,0:0:0:0:
64,192,24912,1,0,0:0:0:60:snare.wav
448,192,24912,1,0,0:0:0:55:kick.wav
320,192,25066,128,0,25220:0:0:0:35:hihat.wav
64,192,25220,1,0,0:0:0:55:kick.wav
448,192,25220,128,0,27374:0:0:0:55:crash.wav
192,192,25374,1,0,0:0:0:35:hihat.wav
320,192,25451,1,0,0:0:0:0:
64,192,25528,1,0,0:0:0:55:kick.wav
192,192,25681,128,0,25835:0:0:0:35:hihat.wav
64,192,25835,1,0,0:0:0:55:kick.wav
320,192,25989,1,0,0:0:0:35:hihat.wav
192,192,26143,128,0,26297:0:0:0:55:kick.wav
320,192,26297,128,0,26451:0:0:0:35:hihat.wav
64,192,26451,1,0,0:0:0:55:kick.wav
192,192,26451,1,0,0:0:0:0:
320,192,26605,1,0,0:0:0:35:hihat.wav
192,192,26681,1,0,0:0:0:0:
64,192,26758,1,0,0:0:0:60:snare.wav
192,192,26912,128,0,27066:0:0:0:35:hihat.wav
320,192,27066,1,0,0:0:0:55:kick.wav
64,192,27220,128,0,27374:0:0:0:35:hihat.wav
192,192,27374,1,0,0:0:0:60:snare.wav
320,192,27451,1,0,0:0:0:0:
448,192,27528,1,0,0:0:0:35:hihat.wav
320,192,27605,1,0,0:0:0:0:
64,192,27681,1,0,0:0:0:55:kick.wav
192,192,27681,1,0,0:0:0:45:drum.wav
64,192,27835,1,0,0:0:0:55:kick.wav
320,192,27835,1,0,0:0:0:45:drum.wav
64,192,27989,1,0,0:0:0:55:kick.wav
448,192,27989,1,0,0:0:0:45:drum.wav
192,192,28143,1,0,0:0:0:55:kick.wav
320,192,28143,1,0,0:0:0:45:drum.wav
192,192,28297,1,0,0:0:0:55:kick.wav
448,192,28297,1,0,0:0:0:45:drum.wav
192,192,28451,1,0,0:0:0:55:kick.wav
320,192,28451,1,0,0:0:0:45:drum.wav
64,192,28528,1,0,0:0:0:55:kick.wav
448,192,28528,1,0,0:0:0:45:drum.wav
320,192,28605,1,0,0:0:0:55:kick.wav
192,192,28605,1,0,0:0:0:45:drum.wav
448,192,28758,1,0,0:0:0:55:kick.wav
320,192,28758,1,0,0:0:0:45:drum.wav
64,192,28912,1,0,0:0:0:55:kick.wav
448,192,29066,1,0,0:0:0:45:drum.wav
320,192,29117,1,0,0:0:0:45:drum.wav
192,192,29169,1,0,0:0:0:45:drum.wav
448,192,29220,1,0,0:0:0:45:drum.wav
448,192,29374,1,0,0:0:0:45:drum.wav
64,192,29528,1,0,0:0:0:45:drum.wav
192,192,29605,1,0,0:0:0:45:drum.wav
320,192,29681,1,0,0:0:0:45:drum.wav
192,192,29758,1,0,0:0:0:0:
320,192,29835,128,0,30143:0:0:0:0:
448,192,30143,1,0,0:0:0:55:crash.wav
64,192,30143,1,0,0:0:0:55:kick.wav
192,192,30143,1,0,0:0:0:60:boom.wav
320,192,30297,1,0,0:0:0:35:hihat.wav
64,192,30451,1,0,0:0:0:55:kick.wav
448,192,30451,1,0,0:0:0:60:snare.wav
192,192,30605,1,0,0:0:0:35:hihat.wav
192,192,30758,1,0,0:0:0:55:kick.wav
320,192,30758,1,0,0:0:0:0:
448,192,30912,1,0,0:0:0:35:hihat.wav
64,192,31066,1,0,0:0:0:55:kick.wav
448,192,31066,1,0,0:0:0:60:snare.wav
320,192,31220,1,0,0:0:0:35:hihat.wav
192,192,31374,1,0,0:0:0:55:kick.wav
64,192,31374,1,0,0:0:0:0:
448,192,31528,1,0,0:0:0:35:hihat.wav
448,192,31681,1,0,0:0:0:60:snare.wav
64,192,31681,1,0,0:0:0:55:kick.wav
192,192,31835,1,0,0:0:0:35:hihat.wav
448,192,31989,1,0,0:0:0:55:kick.wav
192,192,31989,1,0,0:0:0:0:
320,192,32143,1,0,0:0:0:35:hihat.wav
320,192,32297,1,0,0:0:0:60:snare.wav
64,192,32297,1,0,0:0:0:55:kick.wav
448,192,32451,1,0,0:0:0:35:hihat.wav
320,192,32605,1,0,0:0:0:55:kick.wav
192,192,32605,1,0,0:0:0:0:
64,192,32758,1,0,0:0:0:35:hihat.wav
448,192,32912,1,0,0:0:0:55:kick.wav
192,192,32912,1,0,0:0:0:60:snare.wav
320,192,33066,1,0,0:0:0:35:hihat.wav
320,192,33220,1,0,0:0:0:55:kick.wav
192,192,33220,1,0,0:0:0:0:
64,192,33374,1,0,0:0:0:35:hihat.wav
448,192,33528,1,0,0:0:0:55:kick.wav
64,192,33528,1,0,0:0:0:60:snare.wav
320,192,33681,1,0,0:0:0:35:hihat.wav
192,192,33835,1,0,0:0:0:55:kick.wav
64,192,33835,1,0,0:0:0:0:
448,192,33989,1,0,0:0:0:35:hihat.wav
448,192,34143,1,0,0:0:0:60:snare.wav
192,192,34143,1,0,0:0:0:55:kick.wav
64,192,34297,1,0,0:0:0:35:hihat.wav
192,192,34374,1,0,0:0:0:0:
320,192,34451,1,0,0:0:0:55:kick.wav
448,192,34451,128,0,34605:0:0:0:0:
192,192,34605,1,0,0:0:0:35:hihat.wav
320,192,34681,1,0,0:0:0:0:
192,192,34758,1,0,0:0:0:60:snare.wav
64,192,34758,128,0,35066:0:0:0:55:kick.wav
448,192,34912,128,0,35066:0:0:0:35:hihat.wav
320,192,35066,1,0,0:0:0:55:kick.wav
192,192,35066,1,0,0:0:0:0:
448,192,35220,1,0,0:0:0:35:hihat.wav
192,192,35374,1,0,0:0:0:55:kick.wav
320,192,35374,1,0,0:0:0:60:snare.wav
64,192,35528,1,0,0:0:0:35:hihat.wav
64,192,35681,1,0,0:0:0:55:kick.wav
448,192,35681,1,0,0:0:0:0:
320,192,35835,1,0,0:0:0:35:hihat.wav
320,192,35989,1,0,0:0:0:55:kick.wav
64,192,35989,1,0,0:0:0:60:snare.wav
192,192,36143,1,0,0:0:0:35:hihat.wav
448,192,36297,1,0,0:0:0:55:kick.wav
320,192,36297,1,0,0:0:0:0:
64,192,36451,1,0,0:0:0:35:hihat.wav
320,192,36605,1,0,0:0:0:60:snare.wav
64,192,36605,1,0,0:0:0:55:kick.wav
448,192,36758,1,0,0:0:0:35:hihat.wav
448,192,36912,1,0,0:0:0:55:kick.wav
192,192,36912,1,0,0:0:0:0:
320,192,37066,1,0,0:0:0:35:hihat.wav
64,192,37220,1,0,0:0:0:60:snare.wav
320,192,37220,1,0,0:0:0:55:kick.wav
192,192,37374,1,0,0:0:0:35:hihat.wav
64,192,37528,1,0,0:0:0:55:kick.wav
448,192,37528,1,0,0:0:0:0:
320,192,37681,1,0,0:0:0:35:hihat.wav
64,192,37835,1,0,0:0:0:55:kick.wav
192,192,37835,1,0,0:0:0:60:snare.wav
448,192,37989,1,0,0:0:0:35:hihat.wav
64,192,38143,1,0,0:0:0:55:kick.wav
448,192,38143,1,0,0:0:0:0:
192,192,38297,1,0,0:0:0:35:hihat.wav
320,192,38451,1,0,0:0:0:55:kick.wav
192,192,38451,1,0,0:0:0:60:snare.wav
448,192,38605,1,0,0:0:0:35:hihat.wav
192,192,38758,1,0,0:0:0:55:kick.wav
64,192,38758,1,0,0:0:0:0:
320,192,38912,1,0,0:0:0:35:hihat.wav
320,192,39066,1,0,0:0:0:60:snare.wav
64,192,39066,1,0,0:0:0:55:kick.wav
448,192,39220,1,0,0:0:0:35:hihat.wav
320,192,39374,1,0,0:0:0:55:kick.wav
192,192,39374,1,0,0:0:0:0:
64,192,39528,1,0,0:0:0:35:hihat.wav
448,192,39681,1,0,0:0:0:60:snare.wav
320,192,39681,1,0,0:0:0:55:kick.wav
192,192,39758,1,0,0:0:0:45:drum.wav
320,192,39835,1,0,0:0:0:35:hihat.wav
192,192,39912,1,0,0:0:0:45:drum.wav
64,192,39989,1,0,0:0:0:45:drum.wav
448,192,39989,1,0,0:0:0:55:crash.wav
320,192,40143,1,0,0:0:0:35:hihat.wav
448,192,40143,1,0,0:0:0:0:
64,192,40297,1,0,0:0:0:55:kick.wav
192,192,40297,1,0,0:0:0:60:snare.wav
320,192,40451,1,0,0:0:0:35:hihat.wav
448,192,40605,1,0,0:0:0:55:kick.wav
64,192,40605,1,0,0:0:0:0:
192,192,40758,1,0,0:0:0:35:hihat.wav
448,192,40912,1,0,0:0:0:55:kick.wav
320,192,40912,128,0,41220:0:0:0:60:snare.wav
64,192,41220,1,0,0:0:0:55:kick.wav
192,192,41220,1,0,0:0:0:0:
448,192,41374,1,0,0:0:0:35:hihat.wav
64,192,41374,1,0,0:0:0:0:
320,192,41528,1,0,0:0:0:60:snare.wav
192,192,41528,1,0,0:0:0:55:kick.wav
448,192,41681,1,0,0:0:0:35:hihat.wav
192,192,41835,1,0,0:0:0:55:kick.wav
64,192,41835,1,0,0:0:0:0:
320,192,41989,1,0,0:0:0:35:hihat.wav
448,192,42143,1,0,0:0:0:60:snare.wav
64,192,42143,128,0,42451:0:0:0:55:kick.wav
192,192,42451,1,0,0:0:0:55:kick.wav
320,192,42451,1,0,0:0:0:0:
320,192,42605,1,0,0:0:0:35:hihat.wav
64,192,42758,1,0,0:0:0:55:kick.wav
448,192,42758,1,0,0:0:0:60:snare.wav
192,192,42835,1,0,0:0:0:0:
320,192,42912,1,0,0:0:0:35:hihat.wav
448,192,42989,1,0,0:0:0:0:
192,192,43066,1,0,0:0:0:55:kick.wav
64,192,43066,1,0,0:0:0:0:
192,192,43220,1,0,0:0:0:35:hihat.wav
448,192,43374,1,0,0:0:0:55:kick.wav
320,192,43374,1,0,0:0:0:60:snare.wav
64,192,43528,1,0,0:0:0:35:hihat.wav
448,192,43681,1,0,0:0:0:55:kick.wav
192,192,43681,1,0,0:0:0:0:
448,192,43835,1,0,0:0:0:55:kick.wav
64,192,43835,1,0,0:0:0:0:
320,192,43989,1,0,0:0:0:55:kick.wav
192,192,43989,1,0,0:0:0:0:
320,192,44143,1,0,0:0:0:55:kick.wav
64,192,44143,1,0,0:0:0:0:
192,192,44297,1,0,0:0:0:45:drum.wav
448,192,44297,1,0,0:0:0:0:
320,192,44374,1,0,0:0:0:45:drum.wav
64,192,44451,1,0,0:0:0:45:drum.wav
192,192,44528,1,0,0:0:0:45:drum.wav
448,192,44605,1,0,0:0:0:45:drum.wav
320,192,44605,1,0,0:0:0:0:
192,192,44758,1,0,0:0:0:45:drum.wav
64,192,44797,1,0,0:0:0:45:drum.wav
448,192,44835,1,0,0:0:0:45:drum.wav
320,192,44874,1,0,0:0:0:45:drum.wav
64,192,44912,1,0,0:0:0:45:drum.wav
192,192,44912,1,0,0:0:0:55:crash.wav
448,192,44912,1,0,0:0:0:55:kick.wav
320,192,45143,1,0,0:0:0:55:crash.wav
192,192,45143,1,0,0:0:0:55:kick.wav
448,192,45374,1,0,0:0:0:55:kick.wav
320,192,45374,1,0,0:0:0:55:crash.wav
192,192,45605,1,0,0:0:0:55:crash.wav
64,192,45605,1,0,0:0:0:55:kick.wav
448,192,45835,1,0,0:0:0:55:crash.wav
320,192,45835,1,0,0:0:0:55:kick.wav
448,192,45989,1,0,0:0:0:55:crash.wav
192,192,45989,1,0,0:0:0:55:kick.wav
64,192,46143,1,0,0:0:0:55:crash.wav
448,192,46143,1,0,0:0:0:55:kick.wav
320,192,46374,1,0,0:0:0:55:crash.wav
192,192,46374,1,0,0:0:0:55:kick.wav
64,192,46605,1,0,0:0:0:55:kick.wav
192,192,46605,1,0,0:0:0:55:crash.wav
448,192,46835,1,0,0:0:0:55:crash.wav
320,192,46835,1,0,0:0:0:55:kick.wav
192,192,46912,1,0,0:0:0:55:kick.wav
64,192,46912,1,0,0:0:0:0:
448,192,46989,1,0,0:0:0:55:kick.wav
320,192,46989,1,0,0:0:0:0:
192,192,47066,1,0,0:0:0:55:kick.wav
64,192,47066,1,0,0:0:0:55:crash.wav
320,192,47220,1,0,0:0:0:45:drum.wav
448,192,47374,1,0,0:0:0:45:drum.wav
192,192,47374,1,0,0:0:0:55:crash.wav
64,192,47374,1,0,0:0:0:55:kick.wav
320,192,47528,1,0,0:0:0:45:drum.wav
448,192,47566,1,0,0:0:0:45:drum.wav
64,192,47605,1,0,0:0:0:45:drum.wav
192,192,47643,1,0,0:0:0:45:drum.wav
320,192,47681,1,0,0:0:0:45:drum.wav
448,192,47681,1,0,0:0:0:55:kick.wav
64,192,47758,1,0,0:0:0:55:kick.wav
192,192,47758,1,0,0:0:0:0:
192,192,47912,1,0,0:0:0:55:kick.wav
320,192,47912,1,0,0:0:0:0:
448,192,48066,1,0,0:0:0:55:kick.wav
64,192,48066,1,0,0:0:0:0:
192,192,48143,1,0,0:0:0:55:kick.wav
320,192,48143,1,0,0:0:0:0:
448,192,48220,1,0,0:0:0:55:kick.wav
64,192,48220,1,0,0:0:0:0:
192,192,48297,1,0,0:0:0:55:kick.wav
320,192,48297,1,0,0:0:0:45:drum.wav
448,192,48451,1,0,0:0:0:45:drum.wav
320,192,48451,1,0,0:0:0:0:
64,192,48605,1,0,0:0:0:45:drum.wav
192,192,48605,1,0,0:0:0:55:crash.wav
320,192,48681,1,0,0:0:0:0:
192,192,48758,1,0,0:0:0:0:
64,192,48835,1,0,0:0:0:0:
320,192,48912,1,0,0:0:0:0:
192,192,48912,1,0,0:0:0:0:
448,192,48989,1,0,0:0:0:0:
320,192,49066,1,0,0:0:0:0:
192,192,49143,1,0,0:0:0:0:
64,192,49220,1,0,0:0:0:0:
448,192,49220,1,0,0:0:0:0:
192,192,49297,1,0,0:0:0:0:
320,192,49374,1,0,0:0:0:0:
192,192,49451,1,0,0:0:0:0:
448,192,49528,1,0,0:0:0:0:
320,192,49528,1,0,0:0:0:0:
64,192,49605,1,0,0:0:0:0:
192,192,49681,1,0,0:0:0:0:
320,192,49758,1,0,0:0:0:0:
448,192,49835,1,0,0:0:0:55:kick.wav
64,192,49835,1,0,0:0:0:55:crash.wav
192,192,49989,128,0,50143:0:0:0:0:
448,192,50143,1,0,0:0:0:45:drum.wav
64,192,50143,1,0,0:0:0:0:
320,192,50297,128,0,50451:0:0:0:0:
448,192,50451,1,0,0:0:0:45:drum.wav
64,192,50451,128,0,50605:0:0:0:0:
320,192,50605,128,0,50758:0:0:0:0:
64,192,50758,1,0,0:0:0:45:drum.wav
448,192,50758,1,0,0:0:0:0:
192,192,50912,1,0,0:0:0:0:
320,192,50989,1,0,0:0:0:0:
64,192,51066,1,0,0:0:0:45:drum.wav
448,192,51066,128,0,51374:0:0:0:0:
64,192,51374,1,0,0:0:0:45:drum.wav
320,192,51374,128,0,51681:0:0:0:0:
448,192,51681,1,0,0:0:0:45:drum.wav
64,192,51681,128,0,51989:0:0:0:0:
448,192,51989,1,0,0:0:0:45:drum.wav
192,192,51989,128,0,52297:0:0:0:0:
448,192,52143,1,0,0:0:0:45:drum.wav
64,192,52297,1,0,0:0:0:45:drum.wav
448,192,52297,1,0,0:0:0:0:
320,192,52451,1,0,0:0:0:0:
448,192,52605,1,0,0:0:0:45:drum.wav
64,192,52605,1,0,0:0:0:0:
192,192,52758,128,0,52912:0:0:0:0:
64,192,52912,1,0,0:0:0:45:drum.wav
448,192,52912,1,0,0:0:0:0:
320,192,53066,1,0,0:0:0:0:
64,192,53220,1,0,0:0:0:45:drum.wav
192,192,53220,1,0,0:0:0:0:
320,192,53374,1,0,0:0:0:0:
448,192,53528,1,0,0:0:0:45:drum.wav
64,192,53528,128,0,53835:0:0:0:0:
192,192,53835,128,0,54143:0:0:0:45:drum.wav
320,192,53835,1,0,0:0:0:0:
64,192,54143,1,0,0:0:0:45:drum.wav
448,192,54143,128,0,54451:0:0:0:0:
192,192,54297,1,0,0:0:0:45:drum.wav
320,192,54374,1,0,0:0:0:45:drum.wav
64,192,54451,1,0,0:0:0:45:drum.wav
192,192,54451,1,0,0:0:0:0:
448,192,54605,1,0,0:0:0:45:drum.wav
320,192,54605,1,0,0:0:0:0:
192,192,54758,5,0,0:0:0:45:drum.wav
448,192,54758,1,0,0:0:0:55:kick.wav
64,192,54758,1,0,0:0:0:55:crash.wav
192,192,54912,1,0,0:0:0:45:drum.wav
64,192,54912,1,0,0:0:0:0:
448,192,55066,1,0,0:0:0:45:drum.wav
320,192,55066,1,0,0:0:0:0:
320,192,55220,1,0,0:0:0:45:drum.wav
192,192,55220,1,0,0:0:0:0:
192,192,55374,1,0,0:0:0:45:drum.wav
64,192,55374,1,0,0:0:0:0:
320,192,55528,1,0,0:0:0:45:drum.wav
448,192,55528,128,0,55681:0:0:0:0:
64,192,55681,128,0,55835:0:0:0:45:drum.wav
192,192,55681,1,0,0:0:0:0:
320,192,55835,1,0,0:0:0:45:drum.wav
448,192,55835,1,0,0:0:0:0:
192,192,55912,1,0,0:0:0:0:
64,192,55989,1,0,0:0:0:45:drum.wav
448,192,55989,1,0,0:0:0:55:kick.wav
320,192,55989,1,0,0:0:0:55:crash.wav
448,192,56143,1,0,0:0:0:45:drum.wav
320,192,56143,1,0,0:0:0:0:
64,192,56297,1,0,0:0:0:45:drum.wav
192,192,56297,1,0,0:0:0:0:
192,192,56451,1,0,0:0:0:45:drum.wav
320,192,56451,1,0,0:0:0:0:
320,192,56605,1,0,0:0:0:45:drum.wav
64,192,56605,128,0,56912:0:0:0:0:
448,192,56605,1,0,0:0:0:0:
320,192,56758,1,0,0:0:0:45:drum.wav
192,192,56758,1,0,0:0:0:0:
448,192,56912,128,0,57143:0:0:0:45:drum.wav
192,192,56912,1,0,0:0:0:0:
64,192,56989,1,0,0:0:0:45:drum.wav
192,192,57066,1,0,0:0:0:45:drum.wav
320,192,57143,1,0,0:0:0:45:drum.wav
64,192,57220,1,0,0:0:0:55:kick.wav
192,192,57220,1,0,0:0:0:55:crash.wav
448,192,57220,1,0,0:0:0:45:drum.wav
320,192,57297,1,0,0:0:0:45:drum.wav
192,192,57374,1,0,0:0:0:45:drum.wav
448,192,57374,1,0,0:0:0:0:
64,192,57451,1,0,0:0:0:45:drum.wav
448,192,57528,1,0,0:0:0:45:drum.wav
320,192,57605,1,0,0:0:0:45:drum.wav
192,192,57681,1,0,0:0:0:45:drum.wav
320,192,57758,1,0,0:0:0:45:drum.wav
64,192,57835,1,0,0:0:0:55:crash.wav
192,192,57835,1,0,0:0:0:55:kick.wav
448,192,57835,1,0,0:0:0:45:drum.wav
320,192,57912,1,0,0:0:0:45:drum.wav
448,192,57989,1,0,0:0:0:45:drum.wav
192,192,57989,1,0,0:0:0:0:
64,192,58066,1,0,0:0:0:45:drum.wav
192,192,58143,1,0,0:0:0:45:drum.wav
320,192,58220,1,0,0:0:0:45:drum.wav
448,192,58297,1,0,0:0:0:45:drum.wav
320,192,58374,1,0,0:0:0:45:drum.wav
64,192,58451,1,0,0:0:0:55:kick.wav
448,192,58451,1,0,0:0:0:55:crash.wav
192,192,58451,1,0,0:0:0:45:drum.wav
64,192,58758,1,0,0:0:0:0:
320,192,58758,1,0,0:0:0:0:
64,192,59066,1,0,0:0:0:0:
64,192,59374,128,0,59681:0:0:0:50:hou.wav
448,192,59374,1,0,0:0:0:60:boom.wav
448,192,59681,1,0,0:0:0:55:crash.wav
320,192,59681,1,0,0:0:0:55:kick.wav
192,192,59681,1,0,0:0:0:0:
64,192,59835,1,0,0:0:0:35:hihat.wav
192,192,59912,1,0,0:0:0:0:
448,192,59989,1,0,0:0:0:60:snare.wav
320,192,59989,1,0,0:0:0:55:kick.wav
448,192,60143,1,0,0:0:0:35:hihat.wav
320,192,60297,1,0,0:0:0:55:kick.wav
64,192,60297,1,0,0:0:0:0:
192,192,60451,1,0,0:0:0:35:hihat.wav
320,192,60528,1,0,0:0:0:0:
448,192,60605,1,0,0:0:0:60:snare.wav
64,192,60605,1,0,0:0:0:55:kick.wav
448,192,60758,1,0,0:0:0:35:hihat.wav
320,192,60835,1,0,0:0:0:0:
192,192,60912,1,0,0:0:0:55:kick.wav
64,192,60912,1,0,0:0:0:0:
192,192,61066,1,0,0:0:0:35:hihat.wav
448,192,61220,1,0,0:0:0:55:kick.wav
64,192,61220,1,0,0:0:0:60:snare.wav
320,192,61374,1,0,0:0:0:35:hihat.wav
192,192,61451,1,0,0:0:0:0:
448,192,61528,1,0,0:0:0:55:kick.wav
320,192,61528,1,0,0:0:0:0:
192,192,61681,1,0,0:0:0:35:hihat.wav
320,192,61758,1,0,0:0:0:0:
448,192,61835,1,0,0:0:0:55:kick.wav
64,192,61835,1,0,0:0:0:60:snare.wav
192,192,61989,128,0,62143:0:0:0:35:hihat.wav
448,192,62143,1,0,0:0:0:55:kick.wav
320,192,62143,1,0,0:0:0:0:
320,192,62297,1,0,0:0:0:35:hihat.wav
448,192,62451,1,0,0:0:0:60:snare.wav
64,192,62451,1,0,0:0:0:55:kick.wav
192,192,62605,1,0,0:0:0:35:hihat.wav
320,192,62758,1,0,0:0:0:55:kick.wav
64,192,62758,1,0,0:0:0:0:
192,192,62912,1,0,0:0:0:35:hihat.wav
448,192,63066,1,0,0:0:0:60:snare.wav
64,192,63066,1,0,0:0:0:55:kick.wav
320,192,63143,1,0,0:0:0:0:
192,192,63220,128,0,63374:0:0:0:35:hihat.wav
448,192,63374,1,0,0:0:0:55:kick.wav
320,192,63374,1,0,0:0:0:0:
192,192,63528,1,0,0:0:0:35:hihat.wav
448,192,63681,1,0,0:0:0:55:kick.wav
64,192,63681,1,0,0:0:0:60:snare.wav
320,192,63835,128,0,63989:0:0:0:35:hihat.wav
192,192,63989,1,0,0:0:0:55:kick.wav
64,192,63989,1,0,0:0:0:0:
448,192,64143,128,0,64297:0:0:0:35:hihat.wav
320,192,64297,1,0,0:0:0:55:kick.wav
192,192,64297,1,0,0:0:0:60:snare.wav
64,192,64451,128,0,64605:0:0:0:35:hihat.wav
448,192,64605,1,0,0:0:0:55:kick.wav
320,192,64605,1,0,0:0:0:0:
320,192,64758,1,0,0:0:0:35:hihat.wav
192,192,64912,1,0,0:0:0:60:snare.wav
64,192,64912,1,0,0:0:0:55:kick.wav
192,192,65066,1,0,0:0:0:35:hihat.wav
448,192,65220,1,0,0:0:0:55:kick.wav
64,192,65220,1,0,0:0:0:0:
320,192,65374,1,0,0:0:0:35:hihat.wav
192,192,65451,1,0,0:0:0:0:
448,192,65528,1,0,0:0:0:60:snare.wav
64,192,65528,1,0,0:0:0:55:kick.wav
320,192,65681,1,0,0:0:0:35:hihat.wav
192,192,65835,1,0,0:0:0:55:kick.wav
64,192,65835,1,0,0:0:0:0:
192,192,65989,1,0,0:0:0:35:hihat.wav
448,192,66143,1,0,0:0:0:55:kick.wav
64,192,66143,1,0,0:0:0:60:snare.wav
320,192,66297,1,0,0:0:0:35:hihat.wav
448,192,66374,1,0,0:0:0:0:
320,192,66451,1,0,0:0:0:55:kick.wav
192,192,66451,1,0,0:0:0:0:
64,192,66605,1,0,0:0:0:35:hihat.wav
64,192,66758,1,0,0:0:0:55:kick.wav
448,192,66758,1,0,0:0:0:60:snare.wav
320,192,66912,1,0,0:0:0:35:hihat.wav
64,192,67066,1,0,0:0:0:55:kick.wav
448,192,67066,1,0,0:0:0:0:
448,192,67220,1,0,0:0:0:35:hihat.wav
320,192,67220,1,0,0:0:0:0:
192,192,67374,1,0,0:0:0:60:snare.wav
64,192,67374,1,0,0:0:0:55:kick.wav
64,192,67528,1,0,0:0:0:35:hihat.wav
448,192,67528,1,0,0:0:0:0:
192,192,67681,1,0,0:0:0:55:kick.wav
448,192,67681,1,0,0:0:0:0:
64,192,67835,1,0,0:0:0:35:hihat.wav
320,192,67835,1,0,0:0:0:55:kick.wav
192,192,67912,1,0,0:0:0:0:
320,192,67989,1,0,0:0:0:60:snare.wav
64,192,67989,1,0,0:0:0:55:kick.wav
448,192,68066,1,0,0:0:0:0:
192,192,68143,1,0,0:0:0:35:hihat.wav
320,192,68143,1,0,0:0:0:55:kick.wav
64,192,68297,1,0,0:0:0:55:kick.wav
448,192,68297,1,0,0:0:0:45:drum.wav
320,192,68451,1,0,0:0:0:45:drum.wav
192,192,68528,1,0,0:0:0:45:drum.wav
64,192,68605,1,0,0:0:0:45:drum.wav
320,192,68605,1,0,0:0:0:0:
448,192,68681,1,0,0:0:0:0:
192,192,68758,1,0,0:0:0:0:
320,192,68835,1,0,0:0:0:0:
64,192,68912,1,0,0:0:0:45:drum.wav
192,192,68912,1,0,0:0:0:0:
320,192,69066,1,0,0:0:0:45:drum.wav
192,192,69143,1,0,0:0:0:0:
448,192,69220,1,0,0:0:0:45:drum.wav
320,192,69220,1,0,0:0:0:0:
192,192,69374,1,0,0:0:0:45:drum.wav
64,192,69374,1,0,0:0:0:0:
448,192,69528,1,0,0:0:0:45:drum.wav
64,192,69528,1,0,0:0:0:55:crash.wav
320,192,69528,1,0,0:0:0:60:boom.wav
192,192,69681,128,0,69835:0:0:0:35:hihat.wav
320,192,69835,128,0,69989:0:0:0:55:kick.wav
448,192,69835,1,0,0:0:0:0:
192,192,69989,128,0,70143:0:0:0:35:hihat.wav
64,192,70143,128,0,70297:0:0:0:55:kick.wav
320,192,70143,1,0,0:0:0:0:
448,192,70297,128,0,70451:0:0:0:35:hihat.wav
320,192,70451,128,0,70605:0:0:0:55:kick.wav
64,192,70451,1,0,0:0:0:0:
192,192,70605,1,0,0:0:0:35:hihat.wav
448,192,70758,5,0,0:0:0:55:kick.wav
64,192,70758,1,0,0:0:0:0:
320,192,70758,1,0,0:0:0:0:
448,192,70912,1,0,0:0:0:55:kick.wav
64,192,70912,1,0,0:0:0:0:
320,192,70912,1,0,0:0:0:0:
192,192,71066,1,0,0:0:0:55:kick.wav
64,192,71066,1,0,0:0:0:0:
448,192,71066,1,0,0:0:0:0:
448,192,71220,1,0,0:0:0:55:kick.wav
192,192,71220,1,0,0:0:0:0:
64,192,71220,1,0,0:0:0:0:
320,192,71374,1,0,0:0:0:55:kick.wav
192,192,71374,1,0,0:0:0:0:
64,192,71374,1,0,0:0:0:0:
448,192,71681,128,0,71989:0:0:0:0:
64,192,71681,128,0,71989:0:0:0:0:
192,192,71989,1,0,0:0:0:55:crash.wav
320,192,71989,1,0,0:0:0:55:kick.wav
64,192,72143,128,0,72297:0:0:0:35:hihat.wav
448,192,72297,128,0,72451:0:0:0:55:kick.wav
192,192,72297,1,0,0:0:0:60:snare.wav
320,192,72451,128,0,72605:0:0:0:35:hihat.wav
192,192,72605,128,0,72758:0:0:0:55:kick.wav
64,192,72605,1,0,0:0:0:0:
448,192,72758,128,0,72912:0:0:0:35:hihat.wav
64,192,72912,1,0,0:0:0:55:kick.wav
320,192,72912,1,0,0:0:0:60:snare.wav
192,192,72989,1,0,0:0:0:0:
320,192,73066,1,0,0:0:0:35:hihat.wav
448,192,73143,1,0,0:0:0:0:
64,192,73220,128,0,73374:0:0:0:55:kick.wav
192,192,73220,1,0,0:0:0:0:
448,192,73374,5,0,0:0:0:35:hihat.wav
192,192,73528,128,0,73681:0:0:0:60:snare.wav
320,192,73528,1,0,0:0:0:55:kick.wav
64,192,73681,1,0,0:0:0:35:hihat.wav
448,192,73835,128,0,74143:0:0:0:55:kick.wav
192,192,73835,1,0,0:0:0:0:
320,192,73989,1,0,0:0:0:35:hihat.wav
64,192,73989,1,0,0:0:0:0:
64,192,74143,1,0,0:0:0:60:snare.wav
320,192,74143,1,0,0:0:0:55:kick.wav
448,192,74297,1,0,0:0:0:35:hihat.wav
64,192,74297,1,0,0:0:0:0:
192,192,74374,1,0,0:0:0:0:
448,192,74451,5,0,0:0:0:55:kick.wav
320,192,74451,1,0,0:0:0:0:
64,192,74451,1,0,0:0:0:0:
192,192,74528,1,0,0:0:0:0:
320,192,74605,1,0,0:0:0:0:
448,192,74681,1,0,0:0:0:55:kick.wav
192,192,74681,1,0,0:0:0:0:
64,192,74681,1,0,0:0:0:0:
320,192,74758,1,0,0:0:0:0:
192,192,74835,1,0,0:0:0:0:
448,192,74912,1,0,0:0:0:55:kick.wav
320,192,74912,1,0,0:0:0:0:
64,192,74989,1,0,0:0:0:0:
448,192,75066,1,0,0:0:0:55:kick.wav
320,192,75066,1,0,0:0:0:0:
192,192,75143,1,0,0:0:0:0:
320,192,75220,1,0,0:0:0:0:
64,192,75297,1,0,0:0:0:55:kick.wav
448,192,75297,1,0,0:0:0:0:
192,192,75297,1,0,0:0:0:0:
320,192,75374,1,0,0:0:0:0:
448,192,75451,1,0,0:0:0:0:
192,192,75528,1,0,0:0:0:55:kick.wav
64,192,75528,1,0,0:0:0:0:
320,192,75605,1,0,0:0:0:0:
64,192,75681,1,0,0:0:0:55:kick.wav
192,192,75681,1,0,0:0:0:0:
320,192,75758,1,0,0:0:0:0:
192,192,75835,1,0,0:0:0:0:
448,192,75912,1,0,0:0:0:55:kick.wav
64,192,75912,1,0,0:0:0:0:
320,192,75912,1,0,0:0:0:0:
192,192,75989,1,0,0:0:0:0:
64,192,76066,1,0,0:0:0:0:
448,192,76143,1,0,0:0:0:55:kick.wav
320,192,76143,1,0,0:0:0:0:
192,192,76220,1,0,0:0:0:0:
448,192,76297,1,0,0:0:0:55:kick.wav
320,192,76297,1,0,0:0:0:0:
192,192,76374,1,0,0:0:0:0:
320,192,76451,1,0,0:0:0:0:
448,192,76528,1,0,0:0:0:55:kick.wav
64,192,76528,1,0,0:0:0:0:
192,192,76528,1,0,0:0:0:0:
320,192,76605,1,0,0:0:0:0:
448,192,76681,1,0,0:0:0:0:
192,192,76758,1,0,0:0:0:55:kick.wav
64,192,76758,1,0,0:0:0:0:
320,192,76835,1,0,0:0:0:0:
64,192,76912,1,0,0:0:0:55:kick.wav
192,192,76912,1,0,0:0:0:0:
448,192,76989,1,0,0:0:0:0:
192,192,77066,1,0,0:0:0:55:kick.wav
320,192,77066,1,0,0:0:0:0:
64,192,77143,1,0,0:0:0:0:
448,192,77220,1,0,0:0:0:55:kick.wav
320,192,77220,1,0,0:0:0:0:
64,192,77297,1,0,0:0:0:0:
320,192,77374,1,0,0:0:0:55:kick.wav
192,192,77374,1,0,0:0:0:0:
448,192,77451,1,0,0:0:0:0:
192,192,77528,1,0,0:0:0:55:kick.wav
64,192,77528,1,0,0:0:0:0:
448,192,77605,1,0,0:0:0:55:kick.wav
320,192,77605,1,0,0:0:0:0:
192,192,77681,1,0,0:0:0:55:kick.wav
64,192,77681,1,0,0:0:0:0:
448,192,77758,1,0,0:0:0:55:kick.wav
320,192,77758,1,0,0:0:0:0:
192,192,77835,1,0,0:0:0:55:kick.wav
64,192,77835,1,0,0:0:0:0:
320,192,77912,1,0,0:0:0:0:
448,192,77989,1,0,0:0:0:0:
320,192,78028,1,0,0:0:0:0:
192,192,78066,1,0,0:0:0:0:
64,192,78105,1,0,0:0:0:0:
448,192,78143,1,0,0:0:0:55:kick.wav
320,192,78143,1,0,0:0:0:0:
192,192,78297,1,0,0:0:0:0:
448,192,78451,1,0,0:0:0:45:drum.wav
64,192,78451,1,0,0:0:0:0:
320,192,78528,1,0,0:0:0:45:drum.wav
192,192,78528,1,0,0:0:0:0:
448,192,78605,1,0,0:0:0:45:drum.wav
64,192,78605,1,0,0:0:0:0:
192,192,78681,1,0,0:0:0:45:drum.wav
320,192,78681,1,0,0:0:0:0:
448,192,78758,1,0,0:0:0:45:drum.wav
64,192,78758,1,0,0:0:0:0:
64,192,79066,128,0,79297:0:0:0:0:
448,192,79066,128,0,79297:0:0:0:0:
64,192,79374,1,0,0:0:0:55:crash.wav
448,192,79374,1,0,0:0:0:55:kick.wav
192,192,79374,1,0,0:0:0:60:boom.wav
320,192,79605,1,0,0:0:0:0:
64,192,79605,128,0,79758:0:0:0:0:
192,192,79835,128,0,79989:0:0:0:0:
448,192,79835,1,0,0:0:0:0:
448,192,80066,128,0,80220:0:0:0:0:
64,192,80066,1,0,0:0:0:0:
192,192,80297,1,0,0:0:0:45:drum.wav
448,192,80297,1,0,0:0:0:0:
320,192,80451,1,0,0:0:0:45:drum.wav
64,192,80451,1,0,0:0:0:0:
448,192,80605,1,0,0:0:0:45:drum.wav
64,192,80605,1,0,0:0:0:55:kick.wav
192,192,80605,1,0,0:0:0:0:
448,192,80835,1,0,0:0:0:55:kick.wav
320,192,80835,1,0,0:0:0:0:
64,192,80835,1,0,0:0:0:0:
192,192,81066,1,0,0:0:0:55:kick.wav
320,192,81066,1,0,0:0:0:0:
448,192,81066,1,0,0:0:0:0:
448,192,81220,1,0,0:0:0:55:kick.wav
320,192,81220,1,0,0:0:0:0:
192,192,81220,1,0,0:0:0:0:
64,192,81374,1,0,0:0:0:45:drum.wav
448,192,81374,1,0,0:0:0:0:
192,192,81451,1,0,0:0:0:45:drum.wav
320,192,81451,1,0,0:0:0:0:
448,192,81528,1,0,0:0:0:45:drum.wav
64,192,81528,1,0,0:0:0:0:
64,192,81681,1,0,0:0:0:45:drum.wav
448,192,81681,1,0,0:0:0:0:
64,192,81835,1,0,0:0:0:45:drum.wav
192,192,81835,1,0,0:0:0:55:crash.wav
448,192,81835,1,0,0:0:0:55:kick.wav
192,192,82066,1,0,0:0:0:0:
320,192,82066,128,0,82220:0:0:0:0:
320,192,82297,1,0,0:0:0:0:
64,192,82297,128,0,82451:0:0:0:0:
64,192,82528,1,0,0:0:0:0:
448,192,82528,128,0,82681:0:0:0:0:
448,192,82758,1,0,0:0:0:45:drum.wav
320,192,82758,1,0,0:0:0:0:
192,192,82835,1,0,0:0:0:45:drum.wav
448,192,82912,1,0,0:0:0:45:drum.wav
320,192,82912,1,0,0:0:0:0:
192,192,82989,1,0,0:0:0:45:drum.wav
448,192,83066,1,0,0:0:0:55:kick.wav
320,192,83066,1,0,0:0:0:45:drum.wav
64,192,83066,1,0,0:0:0:0:
448,192,83297,1,0,0:0:0:55:kick.wav
320,192,83297,1,0,0:0:0:0:
192,192,83297,1,0,0:0:0:0:
448,192,83528,1,0,0:0:0:55:kick.wav
192,192,83528,1,0,0:0:0:0:
64,192,83528,1,0,0:0:0:0:
448,192,83681,1,0,0:0:0:55:kick.wav
192,192,83681,1,0,0:0:0:0:
64,192,83681,1,0,0:0:0:0:
320,192,83835,1,0,0:0:0:45:drum.wav
448,192,83874,1,0,0:0:0:45:drum.wav
64,192,83912,1,0,0:0:0:45:drum.wav
192,192,83951,1,0,0:0:0:45:drum.wav
320,192,83989,1,0,0:0:0:45:drum.wav
448,192,83989,1,0,0:0:0:0:
64,192,84143,1,0,0:0:0:45:drum.wav
192,192,84181,1,0,0:0:0:45:drum.wav
320,192,84220,1,0,0:0:0:45:drum.wav
448,192,84258,1,0,0:0:0:45:drum.wav
192,192,84297,1,0,0:0:0:45:drum.wav
64,192,84297,1,0,0:0:0:55:kick.wav
320,192,84528,1,0,0:0:0:55:crash.wav
192,192,84528,1,0,0:0:0:55:kick.wav
448,192,84758,1,0,0:0:0:55:crash.wav
320,192,84758,1,0,0:0:0:55:kick.wav
64,192,84989,1,0,0:0:0:55:crash.wav
192,192,84989,1,0,0:0:0:55:kick.wav
448,192,85220,1,0,0:0:0:55:crash.wav
320,192,85220,1,0,0:0:0:55:kick.wav
448,192,85374,1,0,0:0:0:55:crash.wav
320,192,85374,1,0,0:0:0:55:kick.wav
64,192,85528,1,0,0:0:0:55:crash.wav
192,192,85528,1,0,0:0:0:55:kick.wav
448,192,85528,1,0,0:0:0:0:
320,192,85758,1,0,0:0:0:55:crash.wav
192,192,85758,1,0,0:0:0:55:kick.wav
192,192,85989,1,0,0:0:0:55:kick.wav
64,192,85989,1,0,0:0:0:55:crash.wav
448,192,86220,1,0,0:0:0:55:kick.wav
320,192,86220,1,0,0:0:0:55:crash.wav
64,192,86451,1,0,0:0:0:55:kick.wav
192,192,86451,1,0,0:0:0:55:crash.wav
192,192,86605,1,0,0:0:0:55:kick.wav
320,192,86605,1,0,0:0:0:55:crash.wav
448,192,86758,1,0,0:0:0:55:kick.wav
320,192,86758,1,0,0:0:0:55:crash.wav
64,192,86758,1,0,0:0:0:0:
192,192,86989,1,0,0:0:0:55:crash.wav
320,192,86989,1,0,0:0:0:55:kick.wav
448,192,87220,1,0,0:0:0:55:kick.wav
320,192,87220,1,0,0:0:0:55:crash.wav
64,192,87451,1,0,0:0:0:55:crash.wav
192,192,87451,1,0,0:0:0:55:kick.wav
320,192,87681,1,0,0:0:0:55:kick.wav
448,192,87681,1,0,0:0:0:55:crash.wav
448,192,87835,1,0,0:0:0:55:kick.wav
320,192,87835,1,0,0:0:0:55:crash.wav
192,192,87989,1,0,0:0:0:55:kick.wav
448,192,87989,1,0,0:0:0:55:crash.wav
64,192,87989,1,0,0:0:0:45:drum.wav
320,192,88066,1,0,0:0:0:45:drum.wav
192,192,88143,1,0,0:0:0:45:drum.wav
448,192,88143,1,0,0:0:0:0:
64,192,88220,1,0,0:0:0:45:drum.wav
448,192,88297,1,0,0:0:0:45:drum.wav
320,192,88297,1,0,0:0:0:0:
192,192,88374,1,0,0:0:0:45:drum.wav
64,192,88451,1,0,0:0:0:45:drum.wav
448,192,88451,1,0,0:0:0:0:
320,192,88528,1,0,0:0:0:45:drum.wav
192,192,88605,1,0,0:0:0:45:drum.wav
64,192,88605,1,0,0:0:0:0:
320,192,88681,1,0,0:0:0:45:drum.wav
192,192,88758,1,0,0:0:0:45:drum.wav
320,192,88835,1,0,0:0:0:45:drum.wav
64,192,88912,1,0,0:0:0:45:drum.wav
448,192,88912,1,0,0:0:0:60:boom.wav
192,192,88912,1,0,0:0:0:50:hou.wav
64,192,89220,1,0,0:0:0:55:crash.wav
320,192,89220,1,0,0:0:0:55:kick.wav
448,192,89220,128,0,91374:0:0:0:0:
192,192,89374,1,0,0:0:0:35:hihat.wav
64,192,89451,1,0,0:0:0:0:
320,192,89528,1,0,0:0:0:55:kick.wav
192,192,89681,128,0,89835:0:0:0:35:hihat.wav
64,192,89835,1,0,0:0:0:55:kick.wav
192,192,89989,1,0,0:0:0:35:hihat.wav
320,192,90143,128,0,90297:0:0:0:55:kick.wav
64,192,90297,128,0,90451:0:0:0:35:hihat.wav
320,192,90451,1,0,0:0:0:55:kick.wav
192,192,90451,1,0,0:0:0:0:
64,192,90605,1,0,0:0:0:35:hihat.wav
192,192,90681,1,0,0:0:0:0:
320,192,90758,1,0,0:0:0:60:snare.wav
192,192,90912,128,0,91066:0:0:0:35:hihat.wav
64,192,91066,1,0,0:0:0:55:kick.wav
320,192,91220,128,0,91374:0:0:0:35:hihat.wav
64,192,91374,1,0,0:0:0:60:snare.wav
192,192,91451,1,0,0:0:0:0:
320,192,91528,1,0,0:0:0:35:hihat.wav
192,192,91605,1,0,0:0:0:0:
64,192,91681,1,0,0:0:0:55:kick.wav
448,192,91681,1,0,0:0:0:0:
320,192,91835,1,0,0:0:0:35:hihat.wav
192,192,91912,1,0,0:0:0:0:
448,192,91989,1,0,0:0:0:55:kick.wav
320,192,91989,1,0,0:0:0:60:snare.wav
64,192,92143,128,0,92297:0:0:0:35:hihat.wav
320,192,92297,1,0,0:0:0:55:kick.wav
192,192,92297,1,0,0:0:0:0:
448,192,92374,1,0,0:0:0:0:
320,192,92451,1,0,0:0:0:35:hihat.wav
64,192,92605,1,0,0:0:0:55:kick.wav
192,192,92605,1,0,0:0:0:60:snare.wav
448,192,92758,128,0,92912:0:0:0:35:hihat.wav
320,192,92912,1,0,0:0:0:55:kick.wav
64,192,92912,1,0,0:0:0:0:
192,192,92989,1,0,0:0:0:0:
320,192,93066,1,0,0:0:0:35:hihat.wav
64,192,93066,1,0,0:0:0:50:hou.wav
448,192,93220,1,0,0:0:0:60:snare.wav
192,192,93220,1,0,0:0:0:55:kick.wav
320,192,93297,1,0,0:0:0:0:
192,192,93374,1,0,0:0:0:35:hihat.wav
64,192,93374,1,0,0:0:0:50:hou.wav
448,192,93528,1,0,0:0:0:55:kick.wav
320,192,93528,1,0,0:0:0:0:
64,192,93681,1,0,0:0:0:35:hihat.wav
192,192,93681,1,0,0:0:0:55:kick.wav
320,192,93758,1,0,0:0:0:0:
448,192,93835,1,0,0:0:0:60:snare.wav
64,192,93835,1,0,0:0:0:55:kick.wav
192,192,93989,1,0,0:0:0:35:hihat.wav
64,192,94143,1,0,0:0:0:55:kick.wav
320,192,94143,1,0,0:0:0:55:crash.wav
448,192,94143,128,0,96297:0:0:0:0:
192,192,94297,1,0,0:0:0:35:hihat.wav
64,192,94374,1,0,0:0:0:0:
320,192,94451,1,0,0:0:0:55:kick.wav
192,192,94605,128,0,94758:0:0:0:35:hihat.wav
64,192,94758,1,0,0:0:0:55:kick.wav
192,192,94912,1,0,0:0:0:35:hihat.wav
320,192,95066,128,0,95220:0:0:0:55:kick.wav
64,192,95220,128,0,95374:0:0:0:35:hihat.wav
192,192,95374,1,0,0:0:0:55:kick.wav
320,192,95374,1,0,0:0:0:0:
64,192,95528,1,0,0:0:0:35:hihat.wav
192,192,95605,1,0,0:0:0:0:
320,192,95681,1,0,0:0:0:60:snare.wav
192,192,95835,128,0,95989:0:0:0:35:hihat.wav
64,192,95989,1,0,0:0:0:55:kick.wav
320,192,96143,128,0,96297:0:0:0:35:hihat.wav
64,192,96297,1,0,0:0:0:60:snare.wav
192,192,96374,1,0,0:0:0:0:
320,192,96451,1,0,0:0:0:35:hihat.wav
192,192,96528,1,0,0:0:0:0:
64,192,96605,1,0,0:0:0:55:kick.wav
448,192,96605,1,0,0:0:0:0:
320,192,96758,1,0,0:0:0:35:hihat.wav
192,192,96835,1,0,0:0:0:0:
448,192,96912,1,0,0:0:0:55:kick.wav
320,192,96912,1,0,0:0:0:60:snare.wav
64,192,97066,128,0,97220:0:0:0:35:hihat.wav
448,192,97220,1,0,0:0:0:55:kick.wav
192,192,97220,1,0,0:0:0:0:
320,192,97297,1,0,0:0:0:0:
192,192,97374,1,0,0:0:0:35:hihat.wav
448,192,97528,1,0,0:0:0:55:kick.wav
64,192,97528,1,0,0:0:0:60:snare.wav
320,192,97681,128,0,97835:0:0:0:35:hihat.wav
64,192,97835,1,0,0:0:0:55:kick.wav
192,192,97835,1,0,0:0:0:0:
320,192,97912,1,0,0:0:0:0:
448,192,97989,1,0,0:0:0:55:kick.wav
64,192,97989,1,0,0:0:0:0:
192,192,98066,1,0,0:0:0:55:kick.wav
320,192,98066,1,0,0:0:0:0:
448,192,98143,1,0,0:0:0:55:kick.wav
64,192,98143,1,0,0:0:0:0:
320,192,98297,1,0,0:0:0:45:drum.wav
448,192,98335,1,0,0:0:0:45:drum.wav
64,192,98374,1,0,0:0:0:45:drum.wav
192,192,98412,1,0,0:0:0:45:drum.wav
448,192,98451,1,0,0:0:0:45:drum.wav
320,192,98451,1,0,0:0:0:55:kick.wav
64,192,98605,1,0,0:0:0:45:drum.wav
448,192,98643,1,0,0:0:0:45:drum.wav
320,192,98681,1,0,0:0:0:45:drum.wav
192,192,98720,1,0,0:0:0:45:drum.wav
64,192,98758,128,0,99066:0:0:0:45:drum.wav
448,192,98758,1,0,0:0:0:0:
448,192,99066,1,0,0:0:0:55:kick.wav
320,192,99066,1,0,0:0:0:55:crash.wav
192,192,99220,1,0,0:0:0:35:hihat.wav
320,192,99297,1,0,0:0:0:0:
448,192,99374,1,0,0:0:0:60:snare.wav
64,192,99374,1,0,0:0:0:55:kick.wav
192,192,99528,128,0,99681:0:0:0:35:hihat.wav
448,192,99681,1,0,0:0:0:55:kick.wav
320,192,99681,1,0,0:0:0:0:
192,192,99758,1,0,0:0:0:0:
64,192,99835,1,0,0:0:0:35:hihat.wav
192,192,99989,1,0,0:0:0:60:snare.wav
448,192,99989,1,0,0:0:0:55:kick.wav
320,192,100143,128,0,100297:0:0:0:35:hihat.wav
64,192,100297,1,0,0:0:0:55:kick.wav
192,192,100297,1,0,0:0:0:0:
448,192,100451,1,0,0:0:0:35:hihat.wav
320,192,100528,1,0,0:0:0:0:
192,192,100605,1,0,0:0:0:60:snare.wav
448,192,100605,1,0,0:0:0:55:kick.wav
64,192,100758,128,0,100912:0:0:0:35:hihat.wav
320,192,100912,1,0,0:0:0:55:kick.wav
448,192,100912,128,0,101066:0:0:0:0:
192,192,101066,1,0,0:0:0:35:hihat.wav
64,192,101220,1,0,0:0:0:60:snare.wav
320,192,101220,1,0,0:0:0:55:kick.wav
192,192,101374,1,0,0:0:0:35:hihat.wav
320,192,101374,1,0,0:0:0:55:kick.wav
64,192,101528,1,0,0:0:0:55:kick.wav
448,192,101528,1,0,0:0:0:0:
192,192,101681,1,0,0:0:0:35:hihat.wav
320,192,101758,1,0,0:0:0:0:
448,192,101835,1,0,0:0:0:55:kick.wav
192,192,101835,1,0,0:0:0:60:snare.wav
64,192,101989,128,0,102143:0:0:0:35:hihat.wav
320,192,102143,1,0,0:0:0:55:kick.wav
192,192,102143,1,0,0:0:0:0:
448,192,102220,1,0,0:0:0:0:
320,192,102297,1,0,0:0:0:35:hihat.wav
64,192,102451,1,0,0:0:0:55:kick.wav
192,192,102451,128,0,102605:0:0:0:60:snare.wav
448,192,102605,128,0,102758:0:0:0:35:hihat.wav
320,192,102758,1,0,0:0:0:55:kick.wav
64,192,102758,1,0,0:0:0:0:
192,192,102835,1,0,0:0:0:0:
320,192,102912,128,0,103066:0:0:0:35:hihat.wav
64,192,103066,1,0,0:0:0:60:snare.wav
448,192,103066,1,0,0:0:0:55:kick.wav
192,192,103143,1,0,0:0:0:0:
320,192,103220,1,0,0:0:0:35:hihat.wav
448,192,103374,1,0,0:0:0:55:kick.wav
64,192,103374,1,0,0:0:0:0:
320,192,103451,1,0,0:0:0:0:
448,192,103528,1,0,0:0:0:35:hihat.wav
192,192,103528,1,0,0:0:0:55:kick.wav
64,192,103605,1,0,0:0:0:0:
448,192,103681,1,0,0:0:0:60:snare.wav
320,192,103681,1,0,0:0:0:55:kick.wav
192,192,103758,1,0,0:0:0:0:
64,192,103835,1,0,0:0:0:35:hihat.wav
320,192,103912,1,0,0:0:0:0:
448,192,103989,1,0,0:0:0:55:crash.wav
192,192,103989,1,0,0:0:0:55:kick.wav
64,192,104143,1,0,0:0:0:35:hihat.wav
192,192,104220,1,0,0:0:0:0:
448,192,104297,1,0,0:0:0:55:kick.wav
320,192,104297,1,0,0:0:0:60:snare.wav
192,192,104451,1,0,0:0:0:35:hihat.wav
320,192,104528,1,0,0:0:0:0:
192,192,104605,1,0,0:0:0:55:kick.wav
64,192,104605,1,0,0:0:0:0:
320,192,104681,1,0,0:0:0:0:
448,192,104758,1,0,0:0:0:35:hihat.wav
320,192,104912,1,0,0:0:0:55:kick.wav
192,192,104912,1,0,0:0:0:60:snare.wav
64,192,105066,1,0,0:0:0:35:hihat.wav
192,192,105143,1,0,0:0:0:0:
448,192,105220,1,0,0:0:0:45:drum.wav
320,192,105220,1,0,0:0:0:55:kick.wav
192,192,105374,1,0,0:0:0:35:hihat.wav
320,192,105451,1,0,0:0:0:0:
64,192,105528,1,0,0:0:0:60:snare.wav
448,192,105528,1,0,0:0:0:55:kick.wav
320,192,105681,1,0,0:0:0:35:hihat.wav
192,192,105758,1,0,0:0:0:0:
320,192,105835,1,0,0:0:0:55:kick.wav
448,192,105835,1,0,0:0:0:45:drum.wav
192,192,105989,1,0,0:0:0:35:hihat.wav
64,192,106066,1,0,0:0:0:0:
448,192,106143,1,0,0:0:0:60:snare.wav
320,192,106143,1,0,0:0:0:55:kick.wav
192,192,106220,1,0,0:0:0:0:
320,192,106297,1,0,0:0:0:35:hihat.wav
192,192,106374,1,0,0:0:0:0:
448,192,106451,1,0,0:0:0:45:drum.wav
64,192,106451,1,0,0:0:0:55:kick.wav
320,192,106528,1,0,0:0:0:45:drum.wav
192,192,106605,1,0,0:0:0:55:kick.wav
64,192,106605,1,0,0:0:0:45:drum.wav
320,192,106681,1,0,0:0:0:45:drum.wav
448,192,106758,1,0,0:0:0:55:kick.wav
64,192,106758,1,0,0:0:0:45:drum.wav
192,192,106835,1,0,0:0:0:45:drum.wav
320,192,106912,1,0,0:0:0:55:kick.wav
448,192,106912,1,0,0:0:0:45:drum.wav
192,192,106989,1,0,0:0:0:45:drum.wav
64,192,107066,1,0,0:0:0:55:kick.wav
448,192,107066,1,0,0:0:0:45:drum.wav
320,192,107143,1,0,0:0:0:45:drum.wav
192,192,107220,1,0,0:0:0:55:kick.wav
64,192,107220,1,0,0:0:0:45:drum.wav
448,192,107297,1,0,0:0:0:55:kick.wav
320,192,107297,1,0,0:0:0:45:drum.wav
192,192,107374,1,0,0:0:0:55:kick.wav
64,192,107374,1,0,0:0:0:45:drum.wav
320,192,107451,1,0,0:0:0:45:drum.wav
448,192,107528,1,0,0:0:0:55:kick.wav
64,192,107528,1,0,0:0:0:45:drum.wav
192,192,107605,1,0,0:0:0:45:drum.wav
320,192,107681,1,0,0:0:0:55:kick.wav
448,192,107681,1,0,0:0:0:45:drum.wav
192,192,107835,128,0,107989:0:0:0:45:drum.wav
320,192,107835,128,0,107989:0:0:0:0:
64,192,107989,1,0,0:0:0:45:drum.wav
448,192,107989,1,0,0:0:0:0:
192,192,108143,1,0,0:0:0:45:drum.wav
320,192,108143,1,0,0:0:0:0:
64,192,108297,1,0,0:0:0:45:drum.wav
448,192,108297,1,0,0:0:0:0:
320,192,108374,1,0,0:0:0:0:
192,192,108451,1,0,0:0:0:45:drum.wav
448,192,108605,1,0,0:0:0:45:drum.wav
64,192,108605,1,0,0:0:0:0:
192,192,108681,1,0,0:0:0:45:drum.wav
320,192,108758,1,0,0:0:0:45:drum.wav
192,192,108835,1,0,0:0:0:45:drum.wav
448,192,108912,1,0,0:0:0:45:drum.wav
64,192,108912,1,0,0:0:0:55:crash.wav
320,192,108912,1,0,0:0:0:55:kick.wav
448,192,109143,1,0,0:0:0:55:crash.wav
320,192,109143,1,0,0:0:0:55:kick.wav
192,192,109143,1,0,0:0:0:0:
448,192,109374,1,0,0:0:0:55:crash.wav
320,192,109374,1,0,0:0:0:55:kick.wav
192,192,109374,1,0,0:0:0:0:
64,192,109605,1,0,0:0:0:55:kick.wav
192,192,109605,1,0,0:0:0:55:crash.wav
320,192,109605,1,0,0:0:0:0:
448,192,109835,1,0,0:0:0:55:crash.wav
192,192,109835,1,0,0:0:0:55:kick.wav
64,192,109835,1,0,0:0:0:0:
448,192,109989,1,0,0:0:0:55:crash.wav
64,192,109989,1,0,0:0:0:55:kick.wav
64,192,110143,1,0,0:0:0:55:crash.wav
320,192,110143,1,0,0:0:0:55:kick.wav
448,192,110143,1,0,0:0:0:0:
320,192,110374,1,0,0:0:0:55:crash.wav
192,192,110374,1,0,0:0:0:55:kick.wav
64,192,110374,1,0,0:0:0:0:
64,192,110605,1,0,0:0:0:55:crash.wav
192,192,110605,1,0,0:0:0:55:kick.wav
320,192,110605,1,0,0:0:0:0:
320,192,110835,1,0,0:0:0:55:crash.wav
448,192,110835,1,0,0:0:0:55:kick.wav
192,192,110912,1,0,0:0:0:55:kick.wav
64,192,110912,1,0,0:0:0:0:
448,192,110989,1,0,0:0:0:55:kick.wav
320,192,110989,1,0,0:0:0:0:
64,192,111066,128,0,111374:0:0:0:55:kick.wav
192,192,111066,128,0,111220:0:0:0:55:crash.wav
320,192,111220,1,0,0:0:0:55:kick.wav
448,192,111374,1,0,0:0:0:55:crash.wav
320,192,111374,1,0,0:0:0:55:kick.wav
192,192,111374,1,0,0:0:0:0:
64,192,111605,1,0,0:0:0:55:crash.wav
192,192,111605,1,0,0:0:0:55:kick.wav
320,192,111605,1,0,0:0:0:0:
448,192,111835,1,0,0:0:0:55:kick.wav
64,192,111835,1,0,0:0:0:55:crash.wav
192,192,111835,1,0,0:0:0:0:
448,192,112066,1,0,0:0:0:55:kick.wav
64,192,112066,1,0,0:0:0:55:crash.wav
192,192,112143,1,0,0:0:0:55:kick.wav
320,192,112220,1,0,0:0:0:55:kick.wav
64,192,112297,1,0,0:0:0:55:crash.wav
192,192,112297,1,0,0:0:0:55:kick.wav
448,192,112297,1,0,0:0:0:0:
320,192,112451,1,0,0:0:0:45:drum.wav
192,192,112451,1,0,0:0:0:0:
64,192,112605,128,0,113066:0:0:0:45:drum.wav
448,192,112605,128,0,113066:0:0:0:55:kick.wav
192,192,113066,1,0,0:0:0:55:kick.wav
320,192,113066,1,0,0:0:0:0:
448,192,113143,1,0,0:0:0:55:kick.wav
64,192,113143,1,0,0:0:0:0:
192,192,113220,128,0,113835:0:0:0:55:kick.wav
320,192,113220,128,0,113835:0:0:0:55:crash.wav
