osu file format v14

[General]
AudioFilename: censored.mp3
AudioLeadIn: 0
PreviewTime: 88912
Countdown: 0
SampleSet: Soft
StackLeniency: 0.7
Mode: 3
LetterboxInBreaks: 0
SpecialStyle: 0
WidescreenStoryboard: 0

[Editor]
DistanceSpacing: 1
BeatDivisor: 4
GridSize: 32
TimelineZoom: 1.5

[Metadata]
Title:CENSORED!!
TitleUnicode:CENSORED!!
Artist:t+pazolite
ArtistUnicode:t+pazolite
Creator:Kuo Kyoka
Version:CS' NOVICE!!
Source:SOUND VOLTEX III GRAVITY WARS
Tags:東方Project SDVX KONAMI BEMANI Remix Koishi Komeiji's Theme Extra Stage Boss Hartmann's Youkai Girl Touhou 11 Chireiden C.H.S Blossom CENSORED!! E.P. ZUN Team Shanghai Alice MÚSECA ハルトマンの妖怪少女 東方地霊殿 ~ Subterranean Animism Happy Hardcore [_A_v_a_l_o_n_] SanadaYukimura SY Critical_Star DE-CADE
BeatmapID:1017256
BeatmapSetID:476221

[Difficulty]
HPDrainRate:7
CircleSize:4
OverallDifficulty:6.5
ApproachRate:5
SliderMultiplier:1.4
SliderTickRate:1

[Events]
//Background and Video events
0,0,"bg.png",0,0
//Break Periods
//Storyboard Layer 0 (Background)
//Storyboard Layer 1 (Fail)
//Storyboard Layer 2 (Pass)
//Storyboard Layer 3 (Foreground)
//Storyboard Sound Samples
Sample,7733,0,"drum.wav",45
Sample,7784,0,"drum.wav",45
Sample,7835,0,"drum.wav",45
Sample,7887,0,"drum.wav",45
Sample,7938,0,"drum.wav",45
Sample,7989,0,"kick.wav",55
Sample,15374,0,"crash.wav",55
Sample,15605,0,"kick.wav",55
Sample,15835,0,"kick.wav",55
Sample,16066,0,"kick.wav",55
Sample,16297,0,"kick.wav",55
Sample,16451,0,"kick.wav",55
Sample,16605,0,"crash.wav",55
Sample,16835,0,"crash.wav",55
Sample,17066,0,"crash.wav",55
Sample,17297,0,"crash.wav",55
Sample,17528,0,"kick.wav",55
Sample,17681,0,"kick.wav",55
Sample,17835,0,"kick.wav",55
Sample,18066,0,"kick.wav",55
Sample,18297,0,"kick.wav",55
Sample,18528,0,"kick.wav",55
Sample,18758,0,"crash.wav",55
Sample,18912,0,"crash.wav",55
Sample,19066,0,"drum.wav",45
Sample,19143,0,"drum.wav",45
Sample,19220,0,"drum.wav",45
Sample,19297,0,"drum.wav",45
Sample,19374,0,"drum.wav",45
Sample,19451,0,"drum.wav",45
Sample,19528,0,"drum.wav",45
Sample,19605,0,"drum.wav",45
Sample,19681,0,"drum.wav",45
Sample,19758,0,"drum.wav",45
Sample,19835,0,"drum.wav",45
Sample,19912,0,"drum.wav",45
Sample,19989,0,"boom.wav",60
Sample,20451,0,"hihat.wav",35
Sample,20605,0,"kick.wav",55
Sample,20758,0,"hihat.wav",35
Sample,21066,0,"hihat.wav",35
Sample,21220,0,"kick.wav",55
Sample,21374,0,"hihat.wav",35
Sample,21681,0,"hihat.wav",35
Sample,21835,0,"kick.wav",55
Sample,21989,0,"hihat.wav",35
Sample,22297,0,"hihat.wav",35
Sample,22451,0,"hou.wav",50
Sample,22605,0,"hihat.wav",35
Sample,22912,0,"hihat.wav",35
Sample,23066,0,"snare.wav",60
Sample,23220,0,"hihat.wav",35
Sample,23528,0,"hihat.wav",35
Sample,23681,0,"snare.wav",60
Sample,23835,0,"hihat.wav",35
Sample,24143,0,"hou.wav",50
Sample,24297,0,"kick.wav",55
Sample,24451,0,"hou.wav",50
Sample,24758,0,"hou.wav",50
Sample,24758,0,"kick.wav",55
Sample,24912,0,"hou.wav",50
Sample,24912,0,"kick.wav",55
Sample,25066,0,"hihat.wav",35
Sample,25374,0,"hihat.wav",35
Sample,25528,0,"snare.wav",60
Sample,25681,0,"hihat.wav",35
Sample,25989,0,"hihat.wav",35
Sample,26143,0,"snare.wav",60
Sample,26297,0,"hihat.wav",35
Sample,26605,0,"hihat.wav",35
Sample,26758,0,"kick.wav",55
Sample,26912,0,"hihat.wav",35
Sample,27220,0,"hihat.wav",35
Sample,27374,0,"hou.wav",50
Sample,27528,0,"hihat.wav",35
Sample,27681,0,"drum.wav",45
Sample,27835,0,"drum.wav",45
Sample,27989,0,"drum.wav",45
Sample,28143,0,"drum.wav",45
Sample,28297,0,"drum.wav",45
Sample,28451,0,"drum.wav",45
Sample,28528,0,"drum.wav",45
Sample,28605,0,"drum.wav",45
Sample,28758,0,"drum.wav",45
Sample,29117,0,"drum.wav",45
Sample,29169,0,"drum.wav",45
Sample,29605,0,"drum.wav",45
Sample,29681,0,"drum.wav",45
Sample,30143,0,"boom.wav",60
Sample,30451,0,"snare.wav",60
Sample,31066,0,"snare.wav",60
Sample,31374,0,"kick.wav",55
Sample,31681,0,"kick.wav",55
Sample,32297,0,"kick.wav",55
Sample,32605,0,"kick.wav",55
Sample,32912,0,"snare.wav",60
Sample,33528,0,"snare.wav",60
Sample,33835,0,"kick.wav",55
Sample,34143,0,"kick.wav",55
Sample,34758,0,"kick.wav",55
Sample,35066,0,"kick.wav",55
Sample,35374,0,"snare.wav",60
Sample,35989,0,"snare.wav",60
Sample,36297,0,"kick.wav",55
Sample,36605,0,"kick.wav",55
Sample,37220,0,"kick.wav",55
Sample,37835,0,"snare.wav",60
Sample,38451,0,"snare.wav",60
Sample,38758,0,"kick.wav",55
Sample,39066,0,"kick.wav",55
Sample,39681,0,"drum.wav",45
Sample,39681,0,"kick.wav",55
Sample,39758,0,"drum.wav",45
Sample,39835,0,"hihat.wav",35
Sample,39835,0,"drum.wav",45
Sample,39912,0,"drum.wav",45
Sample,39989,0,"kick.wav",55
Sample,39989,0,"crash.wav",55
Sample,40297,0,"snare.wav",60
Sample,40912,0,"snare.wav",60
Sample,41066,0,"hihat.wav",35
Sample,41528,0,"kick.wav",55
Sample,42143,0,"kick.wav",55
Sample,42297,0,"hihat.wav",35
Sample,42758,0,"snare.wav",60
Sample,43374,0,"snare.wav",60
Sample,43528,0,"hihat.wav",35
Sample,44374,0,"drum.wav",45
Sample,44451,0,"drum.wav",45
Sample,44528,0,"drum.wav",45
Sample,44758,0,"drum.wav",45
Sample,44797,0,"drum.wav",45
Sample,44835,0,"drum.wav",45
Sample,44874,0,"drum.wav",45
Sample,44912,0,"kick.wav",55
Sample,45989,0,"kick.wav",55
Sample,45989,0,"drum.wav",45
Sample,46028,0,"drum.wav",45
Sample,46066,0,"drum.wav",45
Sample,46105,0,"drum.wav",45
Sample,46143,0,"drum.wav",45
Sample,46835,0,"kick.wav",55
Sample,47066,0,"drum.wav",45
Sample,47066,0,"crash.wav",55
Sample,47105,0,"drum.wav",45
Sample,47143,0,"drum.wav",45
Sample,47181,0,"drum.wav",45
Sample,47258,0,"drum.wav",45
Sample,47297,0,"drum.wav",45
Sample,47335,0,"drum.wav",45
Sample,47374,0,"kick.wav",55
Sample,47528,0,"drum.wav",45
Sample,47566,0,"drum.wav",45
Sample,47605,0,"drum.wav",45
Sample,47643,0,"drum.wav",45
Sample,47681,0,"kick.wav",55
Sample,48297,0,"drum.wav",45
Sample,48335,0,"drum.wav",45
Sample,48374,0,"drum.wav",45
Sample,48412,0,"drum.wav",45
Sample,48451,0,"drum.wav",45
Sample,48489,0,"drum.wav",45
Sample,48528,0,"drum.wav",45
Sample,48566,0,"drum.wav",45
Sample,48605,0,"kick.wav",55
Sample,49835,0,"crash.wav",55
Sample,49835,0,"drum.wav",45
Sample,52143,0,"drum.wav",45
Sample,54297,0,"drum.wav",45
Sample,54374,0,"drum.wav",45
Sample,54451,0,"drum.wav",45
Sample,54758,0,"crash.wav",55
Sample,55989,0,"crash.wav",55
Sample,56758,0,"drum.wav",45
Sample,56989,0,"drum.wav",45
Sample,57066,0,"drum.wav",45
Sample,57143,0,"drum.wav",45
Sample,57220,0,"crash.wav",55
Sample,57220,0,"drum.wav",45
Sample,57297,0,"drum.wav",45
Sample,57451,0,"drum.wav",45
Sample,57605,0,"drum.wav",45
Sample,57758,0,"drum.wav",45
Sample,57835,0,"kick.wav",55
Sample,57835,0,"drum.wav",45
Sample,57912,0,"drum.wav",45
Sample,58066,0,"drum.wav",45
Sample,58220,0,"drum.wav",45
Sample,58374,0,"drum.wav",45
Sample,58451,0,"drum.wav",45
Sample,59835,0,"hihat.wav",35
Sample,59989,0,"kick.wav",55
Sample,60451,0,"hihat.wav",35
Sample,60605,0,"snare.wav",60
Sample,60605,0,"kick.wav",55
Sample,61066,0,"hihat.wav",35
Sample,61220,0,"snare.wav",60
Sample,61835,0,"kick.wav",55
Sample,61835,0,"snare.wav",60
Sample,62297,0,"hihat.wav",35
Sample,62451,0,"kick.wav",55
Sample,62912,0,"hihat.wav",35
Sample,63066,0,"kick.wav",55
Sample,63066,0,"snare.wav",60
Sample,63528,0,"hihat.wav",35
Sample,63681,0,"snare.wav",60
Sample,64297,0,"snare.wav",60
Sample,64758,0,"hihat.wav",35
Sample,64912,0,"kick.wav",55
Sample,65374,0,"hihat.wav",35
Sample,65528,0,"kick.wav",55
Sample,65528,0,"snare.wav",60
Sample,65989,0,"hihat.wav",35
Sample,66143,0,"snare.wav",60
Sample,66758,0,"snare.wav",60
Sample,66758,0,"kick.wav",55
Sample,67220,0,"hihat.wav",35
Sample,67374,0,"kick.wav",55
Sample,67835,0,"kick.wav",55
Sample,67989,0,"kick.wav",55
Sample,68143,0,"kick.wav",55
Sample,68297,0,"drum.wav",45
Sample,68451,0,"drum.wav",45
Sample,68528,0,"drum.wav",45
Sample,68605,0,"drum.wav",45
Sample,69066,0,"drum.wav",45
Sample,69220,0,"drum.wav",45
Sample,69374,0,"drum.wav",45
Sample,69528,0,"kick.wav",55
Sample,69528,0,"boom.wav",60
Sample,69681,0,"hihat.wav",35
Sample,69989,0,"hihat.wav",35
Sample,70297,0,"hihat.wav",35
Sample,70605,0,"hihat.wav",35
Sample,72297,0,"snare.wav",60
Sample,72912,0,"snare.wav",60
Sample,73066,0,"hihat.wav",35
Sample,73374,0,"hihat.wav",35
Sample,73681,0,"hihat.wav",35
Sample,73989,0,"hihat.wav",35
Sample,74143,0,"kick.wav",55
Sample,78528,0,"drum.wav",45
Sample,78681,0,"drum.wav",45
Sample,79374,0,"boom.wav",60
Sample,80374,0,"drum.wav",45
Sample,80528,0,"drum.wav",45
Sample,81451,0,"drum.wav",45
Sample,81835,0,"kick.wav",55
Sample,81835,0,"boom.wav",60
Sample,82835,0,"drum.wav",45
Sample,82989,0,"drum.wav",45
Sample,83874,0,"drum.wav",45
Sample,83912,0,"drum.wav",45
Sample,83951,0,"drum.wav",45
Sample,84181,0,"drum.wav",45
Sample,84220,0,"drum.wav",45
Sample,84258,0,"drum.wav",45
Sample,84297,0,"crash.wav",55
Sample,85220,0,"kick.wav",55
Sample,85374,0,"kick.wav",55
Sample,86451,0,"crash.wav",55
Sample,86605,0,"crash.wav",55
Sample,87681,0,"crash.wav",55
Sample,87835,0,"crash.wav",55
Sample,87989,0,"drum.wav",45
Sample,88066,0,"drum.wav",45
Sample,88143,0,"drum.wav",45
Sample,88220,0,"drum.wav",45
Sample,88297,0,"drum.wav",45
Sample,88374,0,"drum.wav",45
Sample,88451,0,"drum.wav",45
Sample,88528,0,"drum.wav",45
Sample,88605,0,"drum.wav",45
Sample,88681,0,"drum.wav",45
Sample,88758,0,"drum.wav",45
Sample,88835,0,"drum.wav",45
Sample,88912,0,"hou.wav",50
Sample,89374,0,"hihat.wav",35
Sample,89528,0,"snare.wav",60
Sample,89681,0,"hihat.wav",35
Sample,89989,0,"hihat.wav",35
Sample,90143,0,"snare.wav",60
Sample,90297,0,"hihat.wav",35
Sample,90605,0,"hihat.wav",35
Sample,90758,0,"kick.wav",55
Sample,90912,0,"hihat.wav",35
Sample,91220,0,"hihat.wav",35
Sample,91374,0,"hou.wav",50
Sample,91528,0,"hihat.wav",35
Sample,91835,0,"hihat.wav",35
Sample,91989,0,"snare.wav",60
Sample,92143,0,"hihat.wav",35
Sample,92451,0,"hihat.wav",35
Sample,92605,0,"snare.wav",60
Sample,92758,0,"hihat.wav",35
Sample,93066,0,"hou.wav",50
Sample,93220,0,"kick.wav",55
Sample,93374,0,"hou.wav",50
Sample,93681,0,"hou.wav",50
Sample,93681,0,"kick.wav",55
Sample,93835,0,"hou.wav",50
Sample,93835,0,"kick.wav",55
Sample,93989,0,"hihat.wav",35
Sample,94297,0,"hihat.wav",35
Sample,94451,0,"snare.wav",60
Sample,94605,0,"hihat.wav",35
Sample,94912,0,"hihat.wav",35
Sample,95066,0,"snare.wav",60
Sample,95220,0,"hihat.wav",35
Sample,95528,0,"hihat.wav",35
Sample,95681,0,"kick.wav",55
Sample,95835,0,"hihat.wav",35
Sample,96143,0,"hihat.wav",35
Sample,96297,0,"hou.wav",50
Sample,96451,0,"hihat.wav",35
Sample,96758,0,"hihat.wav",35
Sample,96912,0,"snare.wav",60
Sample,97066,0,"hihat.wav",35
Sample,97374,0,"hihat.wav",35
Sample,97528,0,"snare.wav",60
Sample,97681,0,"hihat.wav",35
Sample,97989,0,"kick.wav",55
Sample,98066,0,"kick.wav",55
Sample,98297,0,"drum.wav",45
Sample,98335,0,"drum.wav",45
Sample,98374,0,"drum.wav",45
Sample,98412,0,"drum.wav",45
Sample,98605,0,"drum.wav",45
Sample,98643,0,"drum.wav",45
Sample,98681,0,"drum.wav",45
Sample,98720,0,"drum.wav",45
Sample,99066,0,"boom.wav",60
Sample,99220,0,"hihat.wav",35
Sample,99374,0,"kick.wav",55
Sample,99528,0,"hihat.wav",35
Sample,99835,0,"hihat.wav",35
Sample,99989,0,"kick.wav",55
Sample,100143,0,"hihat.wav",35
Sample,100451,0,"hihat.wav",35
Sample,100605,0,"kick.wav",55
Sample,100758,0,"hihat.wav",35
Sample,101066,0,"hihat.wav",35
Sample,101220,0,"hou.wav",50
Sample,101220,0,"kick.wav",55
Sample,101374,0,"kick.wav",55
Sample,101374,0,"hihat.wav",35
Sample,101681,0,"hihat.wav",35
Sample,101835,0,"snare.wav",60
Sample,101989,0,"hihat.wav",35
Sample,102297,0,"hihat.wav",35
Sample,102451,0,"snare.wav",60
Sample,102605,0,"hihat.wav",35
Sample,103066,0,"kick.wav",55
Sample,103528,0,"kick.wav",55
Sample,103835,0,"kick.wav",55
Sample,103835,0,"hihat.wav",35
Sample,104143,0,"hihat.wav",35
Sample,104297,0,"snare.wav",60
Sample,104451,0,"hihat.wav",35
Sample,104758,0,"hihat.wav",35
Sample,104912,0,"drum.wav",45
Sample,104912,0,"snare.wav",60
Sample,105066,0,"drum.wav",45
Sample,105066,0,"hihat.wav",35
Sample,105220,0,"kick.wav",55
Sample,105374,0,"hihat.wav",35
Sample,105374,0,"drum.wav",45
Sample,105528,0,"kick.wav",55
Sample,105528,0,"drum.wav",45
Sample,105681,0,"hihat.wav",35
Sample,105681,0,"drum.wav",45
Sample,105835,0,"drum.wav",45
Sample,105989,0,"drum.wav",45
Sample,105989,0,"hihat.wav",35
Sample,106143,0,"drum.wav",45
Sample,106143,0,"kick.wav",55
Sample,106297,0,"drum.wav",45
Sample,106297,0,"hihat.wav",35
Sample,106451,0,"kick.wav",55
Sample,106528,0,"drum.wav",45
Sample,106605,0,"drum.wav",45
Sample,106681,0,"drum.wav",45
Sample,106758,0,"drum.wav",45
Sample,106835,0,"drum.wav",45
Sample,106912,0,"drum.wav",45
Sample,106989,0,"drum.wav",45
Sample,107066,0,"drum.wav",45
Sample,107143,0,"drum.wav",45
Sample,107220,0,"drum.wav",45
Sample,107297,0,"drum.wav",45
Sample,107374,0,"drum.wav",45
Sample,107451,0,"drum.wav",45
Sample,107528,0,"drum.wav",45
Sample,107605,0,"drum.wav",45
Sample,107681,0,"drum.wav",45
Sample,107835,0,"drum.wav",45
Sample,107874,0,"drum.wav",45
Sample,107912,0,"drum.wav",45
Sample,107951,0,"drum.wav",45
Sample,108451,0,"drum.wav",45
Sample,108681,0,"drum.wav",45
Sample,108758,0,"drum.wav",45
Sample,108835,0,"drum.wav",45
Sample,108912,0,"kick.wav",55
Sample,109835,0,"kick.wav",55
Sample,109989,0,"kick.wav",55
Sample,110835,0,"crash.wav",55
Sample,111066,0,"crash.wav",55
Sample,111220,0,"crash.wav",55
Sample,112143,0,"kick.wav",55
Sample,112220,0,"kick.wav",55
Sample,112297,0,"kick.wav",55
Sample,112489,0,"drum.wav",45
Sample,112528,0,"drum.wav",45
Sample,112566,0,"drum.wav",45
Sample,112605,0,"crash.wav",55
Sample,113220,0,"boom.wav",60
Sample,113220,0,"crash.wav",55

[TimingPoints]
605,307.692307692308,4,2,1,10,1,0
20297,-100,4,2,1,10,0,1
30143,-100,4,2,1,10,0,0
59681,-100,4,2,1,10,0,1
69528,-100,4,2,1,10,0,0
71989,-100,4,2,1,10,0,1
79374,-100,4,2,1,10,0,0
89220,-100,4,2,1,10,0,1
98758,-100,4,2,1,10,0,0
99066,-100,4,2,1,10,0,1
108912,-100,4,2,1,10,0,0

[HitObjects]
448,192,605,5,0,0:0:0:0:
64,192,758,1,0,0:0:0:0:
448,192,912,1,0,0:0:0:0:
320,192,1066,1,0,0:0:0:0:
192,192,1220,1,0,0:0:0:0:
64,192,1374,1,0,0:0:0:0:
320,192,1528,1,0,0:0:0:0:
192,192,1681,1,0,0:0:0:0:
320,192,1835,1,0,0:0:0:0:
448,192,2143,1,0,0:0:0:0:
64,192,2451,1,0,0:0:0:0:
192,192,2758,1,0,0:0:0:0:
448,192,3066,1,0,0:0:0:0:
192,192,3220,1,0,0:0:0:0:
320,192,3374,1,0,0:0:0:0:
448,192,3528,1,0,0:0:0:0:
192,192,3681,1,0,0:0:0:0:
64,192,3835,1,0,0:0:0:0:
448,192,3989,1,0,0:0:0:0:
320,192,4143,1,0,0:0:0:0:
64,192,4297,1,0,0:0:0:0:
192,192,4605,1,0,0:0:0:0:
448,192,4912,1,0,0:0:0:0:
192,192,5374,1,0,0:0:0:0:
320,192,5451,1,0,0:0:0:0:
448,192,5528,1,0,0:0:0:55:kick.wav
64,192,5681,1,0,0:0:0:0:
320,192,5835,1,0,0:0:0:55:kick.wav
192,192,5989,1,0,0:0:0:0:
320,192,6143,1,0,0:0:0:45:drum.wav
64,192,6297,1,0,0:0:0:0:
448,192,6451,1,0,0:0:0:0:
64,192,6605,1,0,0:0:0:0:
192,192,6681,1,0,0:0:0:0:
320,192,6758,1,0,0:0:0:0:
448,192,6912,1,0,0:0:0:0:
320,192,7066,1,0,0:0:0:55:kick.wav
192,192,7220,1,0,0:0:0:0:
64,192,7374,128,0,7681:0:0:0:45:drum.wav
448,192,7681,128,0,7989:0:0:0:45:drum.wav
64,192,7989,1,0,0:0:0:45:drum.wav
192,192,8143,1,0,0:0:0:0:
448,192,8297,1,0,0:0:0:55:kick.wav
320,192,8451,1,0,0:0:0:0:
64,192,8605,1,0,0:0:0:45:drum.wav
192,192,8758,1,0,0:0:0:0:
448,192,8912,1,0,0:0:0:0:
192,192,9066,1,0,0:0:0:0:
448,192,9220,128,0,9374:0:0:0:0:
64,192,9374,128,0,9528:0:0:0:0:
320,192,9528,128,0,9681:0:0:0:55:kick.wav
192,192,9681,128,0,9835:0:0:0:0:
448,192,9835,128,0,10143:0:0:0:45:drum.wav
64,192,10143,1,0,0:0:0:0:
448,192,10451,1,0,0:0:0:55:kick.wav
64,192,10451,1,0,0:0:0:55:crash.wav
192,192,10681,1,0,0:0:0:0:
320,192,10912,1,0,0:0:0:0:
448,192,11143,1,0,0:0:0:0:
192,192,11374,1,0,0:0:0:0:
320,192,11528,1,0,0:0:0:0:
64,192,11681,1,0,0:0:0:0:
320,192,11912,1,0,0:0:0:0:
192,192,12143,1,0,0:0:0:0:
448,192,12374,1,0,0:0:0:0:
192,192,12605,1,0,0:0:0:0:
320,192,12758,1,0,0:0:0:0:
64,192,12912,1,0,0:0:0:0:
192,192,13143,1,0,0:0:0:0:
320,192,13374,1,0,0:0:0:0:
448,192,13605,1,0,0:0:0:0:
64,192,13835,1,0,0:0:0:0:
192,192,13989,1,0,0:0:0:0:
448,192,14143,1,0,0:0:0:0:
320,192,14374,1,0,0:0:0:0:
192,192,14605,1,0,0:0:0:0:
448,192,14835,1,0,0:0:0:0:
64,192,15066,1,0,0:0:0:0:
192,192,15220,1,0,0:0:0:0:
320,192,15374,1,0,0:0:0:55:kick.wav
320,192,15605,1,0,0:0:0:55:crash.wav
320,192,15835,1,0,0:0:0:55:crash.wav
448,192,16066,1,0,0:0:0:55:crash.wav
192,192,16297,1,0,0:0:0:55:crash.wav
320,192,16451,1,0,0:0:0:55:crash.wav
64,192,16605,1,0,0:0:0:55:kick.wav
64,192,16835,1,0,0:0:0:55:kick.wav
64,192,17066,1,0,0:0:0:55:kick.wav
448,192,17297,1,0,0:0:0:55:kick.wav
192,192,17528,1,0,0:0:0:55:crash.wav
320,192,17681,1,0,0:0:0:55:crash.wav
448,192,17835,1,0,0:0:0:55:crash.wav
192,192,18066,1,0,0:0:0:55:crash.wav
64,192,18297,1,0,0:0:0:55:crash.wav
448,192,18528,1,0,0:0:0:55:crash.wav
192,192,18758,1,0,0:0:0:55:kick.wav
320,192,18912,1,0,0:0:0:55:kick.wav
64,192,19066,1,0,0:0:0:55:kick.wav
448,192,19066,1,0,0:0:0:55:crash.wav
320,192,19989,1,0,0:0:0:45:drum.wav
192,192,19989,1,0,0:0:0:50:hou.wav
448,192,20297,1,0,0:0:0:55:crash.wav
64,192,20297,128,0,22451:0:0:0:55:kick.wav
192,192,20605,1,0,0:0:0:60:snare.wav
320,192,20912,1,0,0:0:0:55:kick.wav
192,192,21220,1,0,0:0:0:60:snare.wav
448,192,21528,1,0,0:0:0:55:kick.wav
320,192,21835,1,0,0:0:0:60:snare.wav
192,192,22143,1,0,0:0:0:55:kick.wav
448,192,22451,128,0,22758:0:0:0:60:snare.wav
320,192,22451,1,0,0:0:0:55:kick.wav
64,192,22758,1,0,0:0:0:55:kick.wav
320,192,23066,1,0,0:0:0:55:kick.wav
192,192,23374,1,0,0:0:0:55:kick.wav
448,192,23681,1,0,0:0:0:55:kick.wav
64,192,23989,1,0,0:0:0:55:kick.wav
448,192,24143,1,0,0:0:0:35:hihat.wav
192,192,24297,1,0,0:0:0:60:snare.wav
448,192,24451,1,0,0:0:0:35:hihat.wav
64,192,24605,1,0,0:0:0:55:kick.wav
320,192,24758,1,0,0:0:0:35:hihat.wav
192,192,24835,1,0,0:0:0:0:
320,192,24912,1,0,0:0:0:60:snare.wav
320,192,25220,1,0,0:0:0:55:kick.wav
448,192,25220,128,0,27374:0:0:0:55:crash.wav
64,192,25528,1,0,0:0:0:55:kick.wav
192,192,25835,1,0,0:0:0:55:kick.wav
320,192,26143,1,0,0:0:0:55:kick.wav
192,192,26451,1,0,0:0:0:55:kick.wav
64,192,26758,1,0,0:0:0:60:snare.wav
320,192,27066,1,0,0:0:0:55:kick.wav
64,192,27374,128,0,27681:0:0:0:60:snare.wav
192,192,27374,1,0,0:0:0:55:kick.wav
448,192,27681,1,0,0:0:0:55:kick.wav
192,192,27835,1,0,0:0:0:55:kick.wav
320,192,27989,1,0,0:0:0:55:kick.wav
64,192,28143,1,0,0:0:0:55:kick.wav
448,192,28297,1,0,0:0:0:55:kick.wav
192,192,28451,1,0,0:0:0:55:kick.wav
320,192,28528,1,0,0:0:0:55:kick.wav
448,192,28605,1,0,0:0:0:55:kick.wav
64,192,28758,1,0,0:0:0:55:kick.wav
320,192,28912,1,0,0:0:0:55:kick.wav
448,192,29066,128,0,29220:0:0:0:45:drum.wav
64,192,29220,1,0,0:0:0:45:drum.wav
192,192,29374,1,0,0:0:0:45:drum.wav
320,192,29528,128,0,29835:0:0:0:45:drum.wav
64,192,29835,128,0,30143:0:0:0:0:
448,192,30143,1,0,0:0:0:55:crash.wav
320,192,30143,1,0,0:0:0:55:kick.wav
192,192,30297,128,0,30451:0:0:0:35:hihat.wav
64,192,30451,128,0,30605:0:0:0:55:kick.wav
320,192,30605,128,0,30758:0:0:0:35:hihat.wav
448,192,30758,128,0,30912:0:0:0:55:kick.wav
192,192,30912,128,0,31066:0:0:0:35:hihat.wav
320,192,31066,128,0,31220:0:0:0:55:kick.wav
64,192,31220,128,0,31374:0:0:0:35:hihat.wav
448,192,31528,128,0,31681:0:0:0:35:hihat.wav
320,192,31681,128,0,31835:0:0:0:60:snare.wav
64,192,31835,128,0,31989:0:0:0:35:hihat.wav
192,192,31989,128,0,32143:0:0:0:55:kick.wav
320,192,32143,128,0,32297:0:0:0:35:hihat.wav
448,192,32297,128,0,32451:0:0:0:60:snare.wav
64,192,32451,128,0,32605:0:0:0:35:hihat.wav
320,192,32758,128,0,32912:0:0:0:35:hihat.wav
192,192,32912,128,0,33066:0:0:0:55:kick.wav
64,192,33066,128,0,33220:0:0:0:35:hihat.wav
448,192,33220,128,0,33374:0:0:0:55:kick.wav
192,192,33374,128,0,33528:0:0:0:35:hihat.wav
320,192,33528,128,0,33681:0:0:0:55:kick.wav
448,192,33681,128,0,33835:0:0:0:35:hihat.wav
64,192,33989,128,0,34143:0:0:0:35:hihat.wav
192,192,34143,128,0,34297:0:0:0:60:snare.wav
320,192,34297,128,0,34451:0:0:0:35:hihat.wav
64,192,34451,128,0,34605:0:0:0:55:kick.wav
448,192,34605,128,0,34758:0:0:0:35:hihat.wav
192,192,34758,128,0,35066:0:0:0:60:snare.wav
320,192,34912,128,0,35066:0:0:0:35:hihat.wav
64,192,35220,128,0,35374:0:0:0:35:hihat.wav
192,192,35374,128,0,35528:0:0:0:55:kick.wav
448,192,35528,128,0,35681:0:0:0:35:hihat.wav
320,192,35681,128,0,35835:0:0:0:55:kick.wav
192,192,35835,128,0,35989:0:0:0:35:hihat.wav
64,192,35989,128,0,36143:0:0:0:55:kick.wav
448,192,36143,128,0,36297:0:0:0:35:hihat.wav
192,192,36451,128,0,36605:0:0:0:35:hihat.wav
320,192,36605,128,0,36758:0:0:0:60:snare.wav
448,192,36758,128,0,36912:0:0:0:35:hihat.wav
64,192,36912,128,0,37066:0:0:0:55:kick.wav
192,192,37066,128,0,37220:0:0:0:35:hihat.wav
64,192,37220,128,0,37374:0:0:0:60:snare.wav
320,192,37374,128,0,37528:0:0:0:35:hihat.wav
448,192,37528,128,0,37989:0:0:0:55:kick.wav
192,192,37681,128,0,37835:0:0:0:35:hihat.wav
64,192,37835,128,0,37989:0:0:0:55:kick.wav
192,192,37989,128,0,38143:0:0:0:35:hihat.wav
320,192,38143,128,0,38297:0:0:0:55:kick.wav
448,192,38297,128,0,38451:0:0:0:35:hihat.wav
192,192,38451,128,0,38605:0:0:0:55:kick.wav
320,192,38605,128,0,38758:0:0:0:35:hihat.wav
64,192,38912,128,0,39066:0:0:0:35:hihat.wav
448,192,39066,128,0,39220:0:0:0:60:snare.wav
320,192,39220,128,0,39374:0:0:0:35:hihat.wav
192,192,39374,128,0,39528:0:0:0:55:kick.wav
448,192,39528,128,0,39681:0:0:0:35:hihat.wav
64,192,39681,128,0,39989:0:0:0:60:snare.wav
448,192,39989,1,0,0:0:0:45:drum.wav
192,192,40143,1,0,0:0:0:35:hihat.wav
320,192,40297,1,0,0:0:0:55:kick.wav
64,192,40451,1,0,0:0:0:35:hihat.wav
448,192,40605,1,0,0:0:0:55:kick.wav
320,192,40758,1,0,0:0:0:35:hihat.wav
64,192,40912,128,0,41220:0:0:0:55:kick.wav
448,192,41220,1,0,0:0:0:55:kick.wav
192,192,41374,1,0,0:0:0:35:hihat.wav
320,192,41528,1,0,0:0:0:60:snare.wav
64,192,41681,1,0,0:0:0:35:hihat.wav
448,192,41835,1,0,0:0:0:55:kick.wav
320,192,41989,1,0,0:0:0:35:hihat.wav
64,192,42143,128,0,42451:0:0:0:60:snare.wav
320,192,42451,1,0,0:0:0:55:kick.wav
448,192,42605,1,0,0:0:0:35:hihat.wav
192,192,42758,1,0,0:0:0:55:kick.wav
320,192,42912,1,0,0:0:0:35:hihat.wav
64,192,43066,1,0,0:0:0:55:kick.wav
192,192,43220,1,0,0:0:0:35:hihat.wav
320,192,43374,128,0,43681:0:0:0:55:kick.wav
64,192,43681,1,0,0:0:0:55:kick.wav
448,192,43835,1,0,0:0:0:55:kick.wav
192,192,43989,1,0,0:0:0:55:kick.wav
320,192,44143,1,0,0:0:0:55:kick.wav
192,192,44297,128,0,44605:0:0:0:45:drum.wav
64,192,44605,128,0,44912:0:0:0:45:drum.wav
448,192,44912,1,0,0:0:0:45:drum.wav
192,192,44912,1,0,0:0:0:55:crash.wav
448,192,45143,1,0,0:0:0:55:crash.wav
320,192,45143,1,0,0:0:0:55:kick.wav
192,192,45374,1,0,0:0:0:55:kick.wav
320,192,45374,1,0,0:0:0:55:crash.wav
192,192,45605,1,0,0:0:0:55:crash.wav
64,192,45605,1,0,0:0:0:55:kick.wav
64,192,45835,1,0,0:0:0:55:crash.wav
448,192,45835,1,0,0:0:0:55:kick.wav
192,192,45989,1,0,0:0:0:55:crash.wav
320,192,46143,1,0,0:0:0:55:crash.wav
448,192,46143,1,0,0:0:0:55:kick.wav
192,192,46374,1,0,0:0:0:55:crash.wav
320,192,46374,1,0,0:0:0:55:kick.wav
192,192,46605,1,0,0:0:0:55:kick.wav
64,192,46605,1,0,0:0:0:55:crash.wav
448,192,46835,1,0,0:0:0:55:crash.wav
320,192,46912,1,0,0:0:0:55:kick.wav
64,192,46989,1,0,0:0:0:55:kick.wav
192,192,47066,1,0,0:0:0:55:kick.wav
320,192,47220,1,0,0:0:0:45:drum.wav
448,192,47374,1,0,0:0:0:45:drum.wav
64,192,47374,1,0,0:0:0:55:crash.wav
320,192,47681,1,0,0:0:0:45:drum.wav
64,192,47758,1,0,0:0:0:55:kick.wav
320,192,47912,1,0,0:0:0:55:kick.wav
64,192,48066,1,0,0:0:0:55:kick.wav
192,192,48143,1,0,0:0:0:55:kick.wav
448,192,48220,1,0,0:0:0:55:kick.wav
320,192,48297,1,0,0:0:0:55:kick.wav
64,192,48605,128,0,49835:0:0:0:45:drum.wav
448,192,48605,1,0,0:0:0:55:crash.wav
192,192,49835,1,0,0:0:0:55:kick.wav
448,192,49989,1,0,0:0:0:0:
64,192,50143,1,0,0:0:0:45:drum.wav
320,192,50297,1,0,0:0:0:0:
64,192,50451,1,0,0:0:0:45:drum.wav
192,192,50605,1,0,0:0:0:0:
448,192,50758,1,0,0:0:0:45:drum.wav
320,192,50912,1,0,0:0:0:0:
192,192,51066,128,0,51374:0:0:0:45:drum.wav
448,192,51374,128,0,51681:0:0:0:45:drum.wav
320,192,51681,128,0,51989:0:0:0:45:drum.wav
64,192,51989,128,0,52297:0:0:0:45:drum.wav
320,192,52297,1,0,0:0:0:45:drum.wav
192,192,52451,1,0,0:0:0:0:
320,192,52605,1,0,0:0:0:45:drum.wav
448,192,52758,1,0,0:0:0:0:
192,192,52912,1,0,0:0:0:45:drum.wav
320,192,53066,1,0,0:0:0:0:
64,192,53220,1,0,0:0:0:45:drum.wav
192,192,53374,1,0,0:0:0:0:
448,192,53528,128,0,53835:0:0:0:45:drum.wav
192,192,53835,1,0,0:0:0:45:drum.wav
320,192,54143,128,0,54451:0:0:0:45:drum.wav
192,192,54605,1,0,0:0:0:45:drum.wav
320,192,54681,1,0,0:0:0:0:
448,192,54758,1,0,0:0:0:45:drum.wav
64,192,54758,1,0,0:0:0:55:kick.wav
192,192,54912,1,0,0:0:0:45:drum.wav
448,192,55066,1,0,0:0:0:45:drum.wav
320,192,55220,1,0,0:0:0:45:drum.wav
192,192,55374,1,0,0:0:0:45:drum.wav
320,192,55528,1,0,0:0:0:45:drum.wav
64,192,55681,1,0,0:0:0:45:drum.wav
448,192,55835,1,0,0:0:0:45:drum.wav
320,192,55912,1,0,0:0:0:0:
192,192,55989,1,0,0:0:0:45:drum.wav
64,192,55989,1,0,0:0:0:55:kick.wav
448,192,56143,1,0,0:0:0:45:drum.wav
192,192,56297,1,0,0:0:0:45:drum.wav
320,192,56451,1,0,0:0:0:45:drum.wav
64,192,56605,128,0,56912:0:0:0:45:drum.wav
448,192,56912,128,0,57220:0:0:0:45:drum.wav
64,192,57220,1,0,0:0:0:55:kick.wav
320,192,57374,1,0,0:0:0:45:drum.wav
192,192,57528,1,0,0:0:0:45:drum.wav
448,192,57681,1,0,0:0:0:45:drum.wav
64,192,57835,1,0,0:0:0:55:crash.wav
192,192,57989,1,0,0:0:0:45:drum.wav
448,192,58143,1,0,0:0:0:45:drum.wav
192,192,58297,1,0,0:0:0:45:drum.wav
64,192,58451,1,0,0:0:0:55:kick.wav
448,192,58451,1,0,0:0:0:55:crash.wav
320,192,58605,1,0,0:0:0:0:
64,192,58758,1,0,0:0:0:0:
192,192,58912,1,0,0:0:0:0:
448,192,59066,128,0,59374:0:0:0:0:
64,192,59374,1,0,0:0:0:50:hou.wav
192,192,59374,1,0,0:0:0:60:boom.wav
448,192,59681,1,0,0:0:0:55:crash.wav
64,192,59681,1,0,0:0:0:55:kick.wav
192,192,59989,1,0,0:0:0:60:snare.wav
320,192,60143,1,0,0:0:0:35:hihat.wav
448,192,60297,1,0,0:0:0:55:kick.wav
64,192,60758,1,0,0:0:0:35:hihat.wav
448,192,60912,128,0,61220:0:0:0:55:kick.wav
192,192,61220,1,0,0:0:0:55:kick.wav
64,192,61374,1,0,0:0:0:35:hihat.wav
448,192,61528,1,0,0:0:0:55:kick.wav
192,192,61681,1,0,0:0:0:35:hihat.wav
320,192,61989,1,0,0:0:0:35:hihat.wav
192,192,62143,128,0,62451:0:0:0:55:kick.wav
448,192,62451,1,0,0:0:0:60:snare.wav
64,192,62605,1,0,0:0:0:35:hihat.wav
320,192,62758,1,0,0:0:0:55:kick.wav
192,192,63220,1,0,0:0:0:35:hihat.wav
448,192,63374,1,0,0:0:0:55:kick.wav
448,192,63681,1,0,0:0:0:55:kick.wav
320,192,63835,1,0,0:0:0:35:hihat.wav
64,192,63989,1,0,0:0:0:55:kick.wav
192,192,64143,1,0,0:0:0:35:hihat.wav
320,192,64297,1,0,0:0:0:55:kick.wav
64,192,64451,1,0,0:0:0:35:hihat.wav
448,192,64605,128,0,64912:0:0:0:55:kick.wav
192,192,64912,1,0,0:0:0:60:snare.wav
320,192,65066,1,0,0:0:0:35:hihat.wav
64,192,65220,1,0,0:0:0:55:kick.wav
320,192,65681,1,0,0:0:0:35:hihat.wav
64,192,65835,128,0,66143:0:0:0:55:kick.wav
320,192,66143,1,0,0:0:0:55:kick.wav
192,192,66297,1,0,0:0:0:35:hihat.wav
448,192,66451,1,0,0:0:0:55:kick.wav
64,192,66605,1,0,0:0:0:35:hihat.wav
320,192,66912,1,0,0:0:0:35:hihat.wav
192,192,67066,128,0,67374:0:0:0:55:kick.wav
448,192,67374,1,0,0:0:0:60:snare.wav
64,192,67528,1,0,0:0:0:35:hihat.wav
320,192,67681,1,0,0:0:0:55:kick.wav
192,192,67835,1,0,0:0:0:35:hihat.wav
320,192,67989,1,0,0:0:0:60:snare.wav
192,192,68143,1,0,0:0:0:35:hihat.wav
448,192,68297,128,0,69528:0:0:0:55:kick.wav
64,192,68912,128,0,69528:0:0:0:45:drum.wav
192,192,69528,1,0,0:0:0:45:drum.wav
320,192,69528,1,0,0:0:0:55:crash.wav
64,192,69835,1,0,0:0:0:55:kick.wav
192,192,69835,1,0,0:0:0:0:
448,192,70143,1,0,0:0:0:55:kick.wav
64,192,70451,1,0,0:0:0:55:kick.wav
192,192,70451,1,0,0:0:0:0:
320,192,70758,128,0,70912:0:0:0:55:kick.wav
448,192,70912,128,0,71066:0:0:0:55:kick.wav
64,192,71066,128,0,71220:0:0:0:55:kick.wav
192,192,71220,128,0,71374:0:0:0:55:kick.wav
320,192,71374,128,0,71528:0:0:0:55:kick.wav
64,192,71681,128,0,71989:0:0:0:0:
448,192,71989,1,0,0:0:0:55:crash.wav
192,192,71989,1,0,0:0:0:55:kick.wav
320,192,72143,1,0,0:0:0:35:hihat.wav
64,192,72297,1,0,0:0:0:55:kick.wav
448,192,72451,1,0,0:0:0:35:hihat.wav
192,192,72605,1,0,0:0:0:55:kick.wav
448,192,72758,1,0,0:0:0:35:hihat.wav
64,192,72912,128,0,73220:0:0:0:55:kick.wav
448,192,73220,1,0,0:0:0:55:kick.wav
320,192,73220,1,0,0:0:0:0:
320,192,73528,1,0,0:0:0:60:snare.wav
192,192,73528,1,0,0:0:0:55:kick.wav
64,192,73835,128,0,74143:0:0:0:55:kick.wav
192,192,73835,1,0,0:0:0:0:
448,192,74143,1,0,0:0:0:60:snare.wav
192,192,74297,1,0,0:0:0:35:hihat.wav
320,192,74374,1,0,0:0:0:0:
448,192,74451,1,0,0:0:0:55:kick.wav
64,192,74451,1,0,0:0:0:0:
192,192,74681,1,0,0:0:0:55:kick.wav
320,192,74912,1,0,0:0:0:55:kick.wav
64,192,75066,1,0,0:0:0:55:kick.wav
448,192,75297,1,0,0:0:0:55:kick.wav
320,192,75528,1,0,0:0:0:55:kick.wav
64,192,75681,1,0,0:0:0:55:kick.wav
320,192,75912,1,0,0:0:0:55:kick.wav
192,192,76143,1,0,0:0:0:55:kick.wav
448,192,76297,1,0,0:0:0:55:kick.wav
192,192,76528,1,0,0:0:0:55:kick.wav
320,192,76758,1,0,0:0:0:55:kick.wav
64,192,76912,1,0,0:0:0:55:kick.wav
192,192,77066,1,0,0:0:0:55:kick.wav
448,192,77220,1,0,0:0:0:55:kick.wav
320,192,77374,1,0,0:0:0:55:kick.wav
64,192,77528,1,0,0:0:0:55:kick.wav
192,192,77605,1,0,0:0:0:55:kick.wav
320,192,77681,1,0,0:0:0:55:kick.wav
448,192,77758,1,0,0:0:0:55:kick.wav
64,192,77835,128,0,78143:0:0:0:55:kick.wav
192,192,78143,1,0,0:0:0:55:kick.wav
448,192,78143,128,0,78297:0:0:0:0:
320,192,78297,128,0,78451:0:0:0:0:
192,192,78451,128,0,78605:0:0:0:45:drum.wav
448,192,78605,128,0,78758:0:0:0:45:drum.wav
64,192,78758,128,0,79066:0:0:0:45:drum.wav
320,192,79066,128,0,79374:0:0:0:0:
64,192,79374,1,0,0:0:0:55:crash.wav
448,192,79374,1,0,0:0:0:55:kick.wav
192,192,79605,1,0,0:0:0:0:
320,192,79835,1,0,0:0:0:0:
448,192,80066,1,0,0:0:0:0:
192,192,80297,1,0,0:0:0:45:drum.wav
320,192,80451,1,0,0:0:0:45:drum.wav
64,192,80605,1,0,0:0:0:45:drum.wav
192,192,80605,1,0,0:0:0:55:kick.wav
320,192,80835,1,0,0:0:0:55:kick.wav
448,192,80835,1,0,0:0:0:0:
320,192,81066,1,0,0:0:0:55:kick.wav
192,192,81066,1,0,0:0:0:0:
64,192,81220,1,0,0:0:0:55:kick.wav
448,192,81220,1,0,0:0:0:0:
320,192,81374,1,0,0:0:0:45:drum.wav
192,192,81528,1,0,0:0:0:45:drum.wav
64,192,81681,1,0,0:0:0:45:drum.wav
448,192,81835,1,0,0:0:0:45:drum.wav
320,192,81835,1,0,0:0:0:55:crash.wav
192,192,82066,1,0,0:0:0:0:
320,192,82297,1,0,0:0:0:0:
448,192,82528,1,0,0:0:0:0:
64,192,82758,1,0,0:0:0:45:drum.wav
192,192,82912,1,0,0:0:0:45:drum.wav
320,192,83066,1,0,0:0:0:55:kick.wav
448,192,83066,1,0,0:0:0:45:drum.wav
192,192,83297,1,0,0:0:0:55:kick.wav
64,192,83297,1,0,0:0:0:0:
192,192,83528,1,0,0:0:0:55:kick.wav
320,192,83528,1,0,0:0:0:0:
448,192,83681,1,0,0:0:0:55:kick.wav
64,192,83681,1,0,0:0:0:0:
192,192,83835,1,0,0:0:0:45:drum.wav
320,192,83989,1,0,0:0:0:45:drum.wav
448,192,84143,1,0,0:0:0:45:drum.wav
64,192,84297,1,0,0:0:0:45:drum.wav
192,192,84297,1,0,0:0:0:55:kick.wav
192,192,84528,1,0,0:0:0:55:crash.wav
320,192,84528,1,0,0:0:0:55:kick.wav
320,192,84758,1,0,0:0:0:55:crash.wav
448,192,84758,1,0,0:0:0:55:kick.wav
64,192,84989,1,0,0:0:0:55:crash.wav
448,192,84989,1,0,0:0:0:55:kick.wav
320,192,85220,1,0,0:0:0:55:crash.wav
192,192,85374,1,0,0:0:0:55:crash.wav
320,192,85528,1,0,0:0:0:55:crash.wav
448,192,85528,1,0,0:0:0:55:kick.wav
64,192,85758,1,0,0:0:0:55:crash.wav
192,192,85758,1,0,0:0:0:55:kick.wav
64,192,85989,1,0,0:0:0:55:kick.wav
320,192,85989,1,0,0:0:0:55:crash.wav
192,192,86220,1,0,0:0:0:55:kick.wav
448,192,86220,1,0,0:0:0:55:crash.wav
320,192,86451,1,0,0:0:0:55:kick.wav
192,192,86605,1,0,0:0:0:55:kick.wav
448,192,86758,1,0,0:0:0:55:kick.wav
64,192,86758,1,0,0:0:0:55:crash.wav
192,192,86989,1,0,0:0:0:55:crash.wav
320,192,86989,1,0,0:0:0:55:kick.wav
320,192,87220,1,0,0:0:0:55:kick.wav
448,192,87220,1,0,0:0:0:55:crash.wav
64,192,87451,1,0,0:0:0:55:crash.wav
192,192,87451,1,0,0:0:0:55:kick.wav
320,192,87681,1,0,0:0:0:55:kick.wav
192,192,87835,1,0,0:0:0:55:kick.wav
64,192,87989,1,0,0:0:0:55:kick.wav
448,192,87989,1,0,0:0:0:55:crash.wav
320,192,88912,1,0,0:0:0:45:drum.wav
192,192,88912,1,0,0:0:0:60:boom.wav
64,192,89220,1,0,0:0:0:55:crash.wav
448,192,89220,128,0,91374:0:0:0:55:kick.wav
320,192,89528,1,0,0:0:0:55:kick.wav
192,192,89835,1,0,0:0:0:55:kick.wav
64,192,90143,1,0,0:0:0:55:kick.wav
320,192,90451,1,0,0:0:0:55:kick.wav
64,192,90758,1,0,0:0:0:60:snare.wav
192,192,91066,1,0,0:0:0:55:kick.wav
64,192,91374,128,0,91681:0:0:0:60:snare.wav
320,192,91374,1,0,0:0:0:55:kick.wav
448,192,91681,1,0,0:0:0:55:kick.wav
320,192,91989,1,0,0:0:0:55:kick.wav
64,192,92297,1,0,0:0:0:55:kick.wav
192,192,92605,1,0,0:0:0:55:kick.wav
448,192,92912,1,0,0:0:0:55:kick.wav
64,192,93066,1,0,0:0:0:35:hihat.wav
320,192,93220,1,0,0:0:0:60:snare.wav
64,192,93374,1,0,0:0:0:35:hihat.wav
448,192,93528,1,0,0:0:0:55:kick.wav
192,192,93681,1,0,0:0:0:35:hihat.wav
320,192,93758,1,0,0:0:0:0:
192,192,93835,1,0,0:0:0:60:snare.wav
64,192,94143,128,0,96297:0:0:0:55:kick.wav
192,192,94143,1,0,0:0:0:55:crash.wav
320,192,94451,1,0,0:0:0:55:kick.wav
448,192,94758,1,0,0:0:0:55:kick.wav
192,192,95066,1,0,0:0:0:55:kick.wav
448,192,95374,1,0,0:0:0:55:kick.wav
320,192,95681,1,0,0:0:0:60:snare.wav
192,192,95989,1,0,0:0:0:55:kick.wav
448,192,96297,128,0,96605:0:0:0:60:snare.wav
320,192,96297,1,0,0:0:0:55:kick.wav
64,192,96605,1,0,0:0:0:55:kick.wav
320,192,96912,1,0,0:0:0:55:kick.wav
192,192,97220,1,0,0:0:0:55:kick.wav
448,192,97528,1,0,0:0:0:55:kick.wav
64,192,97835,128,0,97989:0:0:0:55:kick.wav
320,192,97835,1,0,0:0:0:0:
192,192,98143,128,0,98297:0:0:0:55:kick.wav
448,192,98143,1,0,0:0:0:0:
320,192,98451,128,0,98605:0:0:0:45:drum.wav
64,192,98451,1,0,0:0:0:55:kick.wav
448,192,98758,128,0,99066:0:0:0:45:drum.wav
192,192,99066,1,0,0:0:0:55:kick.wav
64,192,99066,128,0,101220:0:0:0:55:crash.wav
448,192,99374,1,0,0:0:0:60:snare.wav
192,192,99681,1,0,0:0:0:55:kick.wav
320,192,99989,1,0,0:0:0:60:snare.wav
448,192,100297,1,0,0:0:0:55:kick.wav
192,192,100605,1,0,0:0:0:60:snare.wav
448,192,100912,1,0,0:0:0:55:kick.wav
320,192,101220,1,0,0:0:0:60:snare.wav
192,192,101528,1,0,0:0:0:55:kick.wav
448,192,101835,1,0,0:0:0:55:kick.wav
64,192,102143,1,0,0:0:0:55:kick.wav
320,192,102451,1,0,0:0:0:55:kick.wav
192,192,102758,1,0,0:0:0:55:kick.wav
448,192,102912,1,0,0:0:0:35:hihat.wav
64,192,103066,1,0,0:0:0:60:snare.wav
320,192,103220,1,0,0:0:0:35:hihat.wav
64,192,103374,1,0,0:0:0:55:kick.wav
192,192,103528,1,0,0:0:0:35:hihat.wav
448,192,103681,128,0,103989:0:0:0:60:snare.wav
320,192,103681,1,0,0:0:0:55:kick.wav
192,192,103989,1,0,0:0:0:55:crash.wav
64,192,103989,1,0,0:0:0:55:kick.wav
320,192,104297,1,0,0:0:0:55:kick.wav
448,192,104605,1,0,0:0:0:55:kick.wav
192,192,104912,1,0,0:0:0:55:kick.wav
320,192,105220,1,0,0:0:0:45:drum.wav
64,192,105528,1,0,0:0:0:60:snare.wav
448,192,105835,1,0,0:0:0:55:kick.wav
320,192,106143,1,0,0:0:0:60:snare.wav
64,192,106451,1,0,0:0:0:45:drum.wav
448,192,106605,1,0,0:0:0:55:kick.wav
192,192,106758,1,0,0:0:0:55:kick.wav
320,192,106912,1,0,0:0:0:55:kick.wav
64,192,107066,1,0,0:0:0:55:kick.wav
192,192,107220,1,0,0:0:0:55:kick.wav
320,192,107297,1,0,0:0:0:55:kick.wav
448,192,107374,1,0,0:0:0:55:kick.wav
64,192,107528,1,0,0:0:0:55:kick.wav
320,192,107681,128,0,107989:0:0:0:55:kick.wav
448,192,107989,1,0,0:0:0:45:drum.wav
192,192,108143,1,0,0:0:0:45:drum.wav
64,192,108297,128,0,108605:0:0:0:45:drum.wav
448,192,108605,128,0,108912:0:0:0:45:drum.wav
64,192,108912,1,0,0:0:0:45:drum.wav
192,192,108912,1,0,0:0:0:55:crash.wav
448,192,109143,1,0,0:0:0:55:crash.wav
320,192,109143,1,0,0:0:0:55:kick.wav
320,192,109374,1,0,0:0:0:55:crash.wav
192,192,109374,1,0,0:0:0:55:kick.wav
448,192,109605,1,0,0:0:0:55:kick.wav
64,192,109605,1,0,0:0:0:55:crash.wav
192,192,109835,1,0,0:0:0:55:crash.wav
320,192,109989,1,0,0:0:0:55:crash.wav
448,192,110143,1,0,0:0:0:55:crash.wav
64,192,110143,1,0,0:0:0:55:kick.wav
192,192,110374,1,0,0:0:0:55:crash.wav
320,192,110374,1,0,0:0:0:55:kick.wav
448,192,110605,1,0,0:0:0:55:crash.wav
320,192,110605,1,0,0:0:0:55:kick.wav
64,192,110835,1,0,0:0:0:55:kick.wav
192,192,110912,1,0,0:0:0:55:kick.wav
320,192,110989,1,0,0:0:0:55:kick.wav
448,192,111066,1,0,0:0:0:55:kick.wav
64,192,111220,1,0,0:0:0:55:kick.wav
320,192,111374,1,0,0:0:0:55:crash.wav
448,192,111374,1,0,0:0:0:55:kick.wav
192,192,111605,1,0,0:0:0:55:crash.wav
64,192,111605,1,0,0:0:0:55:kick.wav
192,192,111835,1,0,0:0:0:55:kick.wav
320,192,111835,1,0,0:0:0:55:crash.wav
448,192,112066,1,0,0:0:0:55:kick.wav
64,192,112066,1,0,0:0:0:55:crash.wav
192,192,112297,1,0,0:0:0:55:crash.wav
320,192,112451,1,0,0:0:0:45:drum.wav
448,192,112605,1,0,0:0:0:45:drum.wav
64,192,112605,128,0,113835:0:0:0:55:kick.wav
448,192,113066,1,0,0:0:0:55:kick.wav
320,192,113143,1,0,0:0:0:55:kick.wav
192,192,113220,128,0,113835:0:0:0:55:kick.wav
