osu file format v14

[General]
AudioFilename: audio.mp3
AudioLeadIn: 0
PreviewTime: 198262
Countdown: 0
SampleSet: Normal
StackLeniency: 0.7
Mode: 1
LetterboxInBreaks: 0
WidescreenStoryboard: 0

[Editor]
Bookmarks: 930,15152,28485,42707,56929,71151,85373,99596,113818,128040,142262,156484,170707,184929,199151,212929,213373,225818,227596,241373,241818,256040,270262,284484,298707,312929,326707
DistanceSpacing: 1.4
BeatDivisor: 4
GridSize: 32
TimelineZoom: 3.099999

[Metadata]
Title:Burnout
TitleUnicode:Burnout
Artist:t+pazolite
ArtistUnicode:t+pazolite
Creator:eiri-
Version:Exhaustion
Source:
Tags:Ayyri Instrumental Electronic C.H.S CHS CHS-0018 deposition e.p. 2 tpz M3 HARDCORE TANO*C
BeatmapID:2353662
BeatmapSetID:1126454

[Difficulty]
HPDrainRate:6
CircleSize:2
OverallDifficulty:5
ApproachRate:10
SliderMultiplier:1.4
SliderTickRate:1

[Events]
//Background and Video events
0,0,"Burnout.png",0,45
//Break Periods
//Storyboard Layer 0 (Background)
//Storyboard Layer 1 (Fail)
//Storyboard Layer 2 (Pass)
//Storyboard Layer 3 (Foreground)
//Storyboard Layer 4 (Overlay)
//Storyboard Sound Samples

[TimingPoints]
930,444.444444444444,4,1,0,75,1,0
930,-125,4,1,0,75,0,0
28485,444.444444444444,4,1,0,75,1,0
28485,-111.111111111111,4,1,0,75,0,0
56873,-105.263157894737,4,1,0,75,0,0
85318,-100,4,1,0,75,0,0
99540,-100,4,1,0,100,0,0
99984,-100,4,1,0,75,0,0
103095,-100,4,1,0,50,0,0
103540,-100,4,1,0,75,0,0
106651,-100,4,1,0,100,0,0
107095,-100,4,1,0,75,0,0
110206,-100,4,1,0,50,0,0
110651,-100,4,1,0,75,0,0
113762,-76.9230769230769,4,1,0,75,0,0
127559,-76.3358778625954,4,1,0,75,0,0
127633,-75.7575757575758,4,1,0,75,0,0
127707,-75.187969924812,4,1,0,75,0,0
127781,-74.6268656716418,4,1,0,75,0,0
127855,-74.0740740740741,4,1,0,75,0,0
127929,-73.5294117647059,4,1,0,75,0,0
128003,-72.992700729927,4,1,0,75,0,0
133114,-74.0740740740741,4,1,0,75,0,0
133188,-74.6268656716418,4,1,0,75,0,0
133262,-75.187969924812,4,1,0,75,0,0
133336,-75.7575757575758,4,1,0,75,0,0
133540,-78.125,4,1,0,75,0,0
133762,-79.3650793650794,4,1,0,75,0,0
133984,-80.6451612903226,4,1,0,75,0,0
134207,-81.9672131147541,4,1,0,75,0,0
134429,-83.3333333333333,4,1,0,75,0,0
134651,-78.7401574803149,4,1,0,75,0,0
134762,-76.9230769230769,4,1,0,75,0,0
134873,-75.187969924812,4,1,0,75,0,0
134984,-74.0740740740741,4,1,0,75,0,0
135096,-72.992700729927,4,1,0,75,0,0
140225,-75.187969924812,4,1,0,75,0,0
140299,-75.7575757575758,4,1,0,75,0,0
140373,-76.3358778625954,4,1,0,75,0,0
140447,-76.9230769230769,4,1,0,75,0,0
140651,-80,4,1,0,75,0,0
140873,-81.3008130081301,4,1,0,75,0,0
141096,-83.3333333333333,4,1,0,75,0,0
141318,-85.4700854700855,4,1,0,75,0,0
141540,-86.9565217391304,4,1,0,75,0,0
141762,-76.9230769230769,4,1,0,75,0,0
142207,-86.9565217391304,4,1,0,75,0,0
143096,-111.111111111111,4,1,0,75,0,0
160429,-108.695652173913,4,1,0,75,0,0
163540,-106.382978723404,4,1,0,75,0,0
165318,-104.166666666667,4,1,0,75,0,0
167096,-102.040816326531,4,1,0,75,0,0
168873,-101.010101010101,4,1,0,75,0,0
170651,-100,4,1,0,75,0,0
177762,-97.0873786407767,4,1,0,75,0,0
179540,-95.2380952380952,4,1,0,75,0,0
181318,-93.4579439252336,4,1,0,75,0,0
183096,-90.9090909090909,4,1,0,75,0,0
183429,-92.5925925925926,4,1,0,75,0,0
183762,-94.3396226415094,4,1,0,75,0,0
184096,-96.1538461538461,4,1,0,75,0,0
184318,-98.0392156862745,4,1,0,75,0,0
184651,-99.009900990099,4,1,0,75,0,0
184873,-100,4,1,0,75,0,0
191984,-95.2380952380952,4,1,0,75,0,0
193762,-90.9090909090909,4,1,0,75,0,0
195540,-86.9565217391304,4,1,0,75,0,0
196873,-86.2068965517241,4,1,0,75,0,0
196984,-85.4700854700855,4,1,0,75,0,0
197096,-84.7457627118644,4,1,0,75,0,0
197207,-84.0336134453781,4,1,0,75,0,0
197318,-83.3333333333333,4,1,0,75,0,0
198207,-100,4,1,0,75,0,0
198651,-80,4,1,0,75,0,0
199151,-90.9090909090909,4,1,0,100,0,1
212929,-83.3333333333333,4,1,0,100,0,0
213373,-86.9565217391304,4,1,0,100,0,1
225596,-88.4955752212389,4,1,0,100,0,1
225818,-90.9090909090909,4,1,0,100,0,0
226929,-88.4955752212389,4,1,0,100,0,0
227151,-86.9565217391304,4,1,0,100,0,0
227596,-83.3333333333333,4,1,0,100,0,1
241373,-76.9230769230769,4,1,0,100,0,0
241818,-83.3333333333333,4,1,0,100,0,1
255336,-84.7457627118644,4,1,0,100,0,1
255410,-86.2068965517241,4,1,0,100,0,1
255484,-87.719298245614,4,1,0,100,0,1
255559,-89.2857142857143,4,1,0,100,0,1
255762,-90.9090909090909,4,1,0,100,0,1
256040,-95.2380952380952,4,1,0,75,0,0
256873,-111.111111111111,4,1,0,75,0,0
268484,-109.89010989011,4,1,0,75,0,0
268929,-108.695652173913,4,1,0,75,0,0
269373,-107.52688172043,4,1,0,75,0,0
270207,-105.263157894737,4,1,0,75,0,0
298651,-100,4,1,0,75,0,0
312873,-100,4,1,0,100,0,0
313317,-100,4,1,0,75,0,0
316428,-100,4,1,0,50,0,0
316873,-100,4,1,0,75,0,0
319984,-100,4,1,0,100,0,0
320428,-100,4,1,0,75,0,0
323540,-100,4,1,0,50,0,0
323984,-100,4,1,0,75,0,0
326651,-100,4,1,0,100,0,0

[HitObjects]
256,192,930,5,0,0:0:0:0:
256,192,1374,1,8,0:0:0:0:
256,192,1818,1,0,0:0:0:0:
256,192,2485,1,8,0:0:0:0:
256,192,3152,1,0,0:0:0:0:
256,192,8041,1,0,0:0:0:0:
256,192,8485,1,8,0:0:0:0:
256,192,8929,1,0,0:0:0:0:
256,192,9596,1,8,0:0:0:0:
256,192,10263,1,0,0:0:0:0:
256,192,15152,1,0,0:0:0:0:
256,192,15596,1,8,0:0:0:0:
256,192,16041,1,0,0:0:0:0:
256,192,16707,1,8,0:0:0:0:
256,192,17374,1,0,0:0:0:0:
256,192,18263,1,8,0:0:0:0:
256,192,18707,1,0,0:0:0:0:
256,192,19596,1,8,0:0:0:0:
256,192,22263,1,8,0:0:0:0:
256,192,22707,1,0,0:0:0:0:
256,192,23152,1,8,0:0:0:0:
256,192,23818,1,8,0:0:0:0:
256,192,24485,1,0,0:0:0:0:
256,192,24929,8,0,27596,0:0:0:0:
256,192,28485,5,4,0:0:0:0:
256,192,29151,1,0,0:0:0:0:
256,192,29373,1,8,0:0:0:0:
256,192,29818,1,0,0:0:0:0:
256,192,29929,1,8,0:0:0:0:
256,192,30040,1,0,0:0:0:0:
256,192,30262,1,0,0:0:0:0:
256,192,30373,1,8,0:0:0:0:
256,192,30596,1,0,0:0:0:0:
256,192,30929,1,0,0:0:0:0:
256,192,31040,1,0,0:0:0:0:
256,192,31151,1,8,0:0:0:0:
256,192,31373,1,0,0:0:0:0:
256,192,31596,1,0,0:0:0:0:
256,192,31707,1,8,0:0:0:0:
256,192,31818,1,0,0:0:0:0:
256,192,32040,1,4,0:0:0:0:
256,192,32707,1,0,0:0:0:0:
256,192,32929,1,8,0:0:0:0:
256,192,33373,1,0,0:0:0:0:
256,192,33484,1,8,0:0:0:0:
256,192,33596,1,0,0:0:0:0:
256,192,33818,1,0,0:0:0:0:
256,192,33929,1,8,0:0:0:0:
256,192,34151,1,0,0:0:0:0:
256,192,34262,1,0,0:0:0:0:
256,192,34484,1,0,0:0:0:0:
256,192,34596,1,0,0:0:0:0:
256,192,34707,1,8,0:0:0:0:
256,192,34929,1,0,0:0:0:0:
256,192,35151,1,0,0:0:0:0:
256,192,35262,1,8,0:0:0:0:
256,192,35373,1,0,0:0:0:0:
256,192,35596,1,4,0:0:0:0:
256,192,36262,1,0,0:0:0:0:
256,192,36484,1,8,0:0:0:0:
256,192,36929,1,0,0:0:0:0:
256,192,37040,1,8,0:0:0:0:
256,192,37151,1,0,0:0:0:0:
256,192,37373,1,0,0:0:0:0:
256,192,37484,1,8,0:0:0:0:
256,192,37707,1,0,0:0:0:0:
256,192,38040,1,0,0:0:0:0:
256,192,38151,1,0,0:0:0:0:
256,192,38262,1,8,0:0:0:0:
256,192,38484,1,0,0:0:0:0:
256,192,38707,1,0,0:0:0:0:
256,192,38818,1,8,0:0:0:0:
256,192,38929,1,0,0:0:0:0:
256,192,39151,1,4,0:0:0:0:
256,192,39818,1,0,0:0:0:0:
256,192,40040,1,8,0:0:0:0:
256,192,40484,1,0,0:0:0:0:
256,192,40596,1,8,0:0:0:0:
256,192,40707,1,0,0:0:0:0:
256,192,40929,1,0,0:0:0:0:
256,192,41040,1,8,0:0:0:0:
256,192,41262,1,0,0:0:0:0:
256,192,41373,1,0,0:0:0:0:
256,192,41596,1,0,0:0:0:0:
256,192,41707,1,0,0:0:0:0:
256,192,41818,1,8,0:0:0:0:
256,192,42040,1,0,0:0:0:0:
256,192,42151,1,0,0:0:0:0:
256,192,42262,1,8,0:0:0:0:
256,192,42373,1,0,0:0:0:0:
256,192,42484,1,8,0:0:0:0:
256,192,42707,1,4,0:0:0:0:
256,192,43373,1,0,0:0:0:0:
256,192,43596,1,8,0:0:0:0:
256,192,44040,1,8,0:0:0:0:
256,192,44151,1,8,0:0:0:0:
256,192,44262,1,0,0:0:0:0:
256,192,44484,1,0,0:0:0:0:
256,192,44596,1,8,0:0:0:0:
256,192,44818,1,0,0:0:0:0:
256,192,45151,1,0,0:0:0:0:
256,192,45262,1,0,0:0:0:0:
256,192,45373,1,8,0:0:0:0:
256,192,45596,1,0,0:0:0:0:
256,192,45818,1,0,0:0:0:0:
256,192,45929,1,8,0:0:0:0:
256,192,46040,1,0,0:0:0:0:
256,192,46262,1,4,0:0:0:0:
256,192,46707,1,8,0:0:0:0:
256,192,46929,1,0,0:0:0:0:
256,192,47151,1,8,0:0:0:0:
256,192,47596,1,0,0:0:0:0:
256,192,47707,1,8,0:0:0:0:
256,192,47818,1,0,0:0:0:0:
256,192,48040,1,0,0:0:0:0:
256,192,48151,1,8,0:0:0:0:
256,192,48373,1,0,0:0:0:0:
256,192,48484,1,0,0:0:0:0:
256,192,48707,1,0,0:0:0:0:
256,192,48818,1,0,0:0:0:0:
256,192,48929,1,8,0:0:0:0:
256,192,49151,1,0,0:0:0:0:
256,192,49373,1,0,0:0:0:0:
256,192,49484,1,8,0:0:0:0:
256,192,49596,1,0,0:0:0:0:
256,192,49818,1,4,0:0:0:0:
256,192,50484,1,0,0:0:0:0:
256,192,50707,1,8,0:0:0:0:
256,192,51151,1,8,0:0:0:0:
256,192,51262,1,8,0:0:0:0:
256,192,51373,1,0,0:0:0:0:
256,192,51596,1,0,0:0:0:0:
256,192,51707,1,8,0:0:0:0:
256,192,51929,1,0,0:0:0:0:
256,192,52262,1,0,0:0:0:0:
256,192,52373,1,0,0:0:0:0:
256,192,52484,1,8,0:0:0:0:
256,192,52707,1,0,0:0:0:0:
256,192,52929,1,0,0:0:0:0:
256,192,53040,1,8,0:0:0:0:
256,192,53151,1,0,0:0:0:0:
256,192,53373,1,4,0:0:0:0:
256,192,53818,1,8,0:0:0:0:
256,192,54040,1,0,0:0:0:0:
256,192,54262,1,8,0:0:0:0:
256,192,54707,1,0,0:0:0:0:
256,192,54818,1,8,0:0:0:0:
256,192,54929,1,0,0:0:0:0:
256,192,55151,1,0,0:0:0:0:
256,192,55262,1,8,0:0:0:0:
256,192,55484,1,0,0:0:0:0:
256,192,55596,1,0,0:0:0:0:
256,192,55818,1,0,0:0:0:0:
256,192,55929,1,0,0:0:0:0:
256,192,56040,1,8,0:0:0:0:
256,192,56262,1,0,0:0:0:0:
256,192,56373,1,0,0:0:0:0:
256,192,56484,1,8,0:0:0:0:
256,192,56596,1,0,0:0:0:0:
256,192,56707,1,8,0:0:0:0:
256,192,56929,1,4,0:0:0:0:
256,192,57373,1,0,0:0:0:0:
256,192,57484,1,8,0:0:0:0:
256,192,57596,1,0,0:0:0:0:
256,192,57818,1,8,0:0:0:0:
256,192,58262,1,8,0:0:0:0:
256,192,58373,1,8,0:0:0:0:
256,192,58484,1,8,0:0:0:0:
256,192,58707,1,0,0:0:0:0:
256,192,58818,1,8,0:0:0:0:
256,192,59040,1,0,0:0:0:0:
256,192,59373,1,0,0:0:0:0:
256,192,59484,1,0,0:0:0:0:
256,192,59596,1,8,0:0:0:0:
256,192,59818,1,0,0:0:0:0:
256,192,60040,1,0,0:0:0:0:
256,192,60151,1,8,0:0:0:0:
256,192,60262,1,0,0:0:0:0:
256,192,60484,1,4,0:0:0:0:
256,192,60929,1,0,0:0:0:0:
256,192,61040,1,8,0:0:0:0:
256,192,61151,1,0,0:0:0:0:
256,192,61373,1,8,0:0:0:0:
256,192,61818,1,8,0:0:0:0:
256,192,61929,1,8,0:0:0:0:
256,192,62040,1,0,0:0:0:0:
256,192,62262,1,0,0:0:0:0:
256,192,62373,1,8,0:0:0:0:
256,192,62596,1,0,0:0:0:0:
256,192,62707,1,0,0:0:0:0:
256,192,62929,1,0,0:0:0:0:
256,192,63040,1,0,0:0:0:0:
256,192,63151,1,8,0:0:0:0:
256,192,63373,1,0,0:0:0:0:
256,192,63596,1,0,0:0:0:0:
256,192,63707,1,8,0:0:0:0:
256,192,63818,1,0,0:0:0:0:
256,192,64040,1,4,0:0:0:0:
256,192,64484,1,8,0:0:0:0:
256,192,64596,1,8,0:0:0:0:
256,192,64707,1,0,0:0:0:0:
256,192,64929,1,8,0:0:0:0:
256,192,65373,1,8,0:0:0:0:
256,192,65484,1,8,0:0:0:0:
256,192,65596,1,8,0:0:0:0:
256,192,65818,1,0,0:0:0:0:
256,192,65929,1,8,0:0:0:0:
256,192,66151,1,0,0:0:0:0:
256,192,66484,1,0,0:0:0:0:
256,192,66596,1,0,0:0:0:0:
256,192,66707,1,8,0:0:0:0:
256,192,66929,1,0,0:0:0:0:
256,192,67151,1,0,0:0:0:0:
256,192,67262,1,8,0:0:0:0:
256,192,67373,1,0,0:0:0:0:
256,192,67596,1,4,0:0:0:0:
256,192,68040,1,0,0:0:0:0:
256,192,68151,1,8,0:0:0:0:
256,192,68262,1,0,0:0:0:0:
256,192,68484,1,8,0:0:0:0:
256,192,68929,1,8,0:0:0:0:
256,192,69040,1,8,0:0:0:0:
256,192,69151,1,0,0:0:0:0:
256,192,69373,1,0,0:0:0:0:
256,192,69484,1,8,0:0:0:0:
256,192,69707,1,0,0:0:0:0:
256,192,69818,1,0,0:0:0:0:
256,192,70040,1,0,0:0:0:0:
256,192,70151,1,0,0:0:0:0:
256,192,70262,1,8,0:0:0:0:
256,192,70484,1,0,0:0:0:0:
256,192,70596,1,0,0:0:0:0:
256,192,70707,1,8,0:0:0:0:
256,192,70818,1,0,0:0:0:0:
256,192,70929,1,8,0:0:0:0:
256,192,71151,1,4,0:0:0:0:
256,192,71596,1,0,0:0:0:0:
256,192,71707,1,8,0:0:0:0:
256,192,71818,1,0,0:0:0:0:
256,192,72040,1,8,0:0:0:0:
256,192,72484,1,8,0:0:0:0:
256,192,72596,1,8,0:0:0:0:
256,192,72707,1,8,0:0:0:0:
256,192,72929,1,0,0:0:0:0:
256,192,73040,1,8,0:0:0:0:
256,192,73262,1,0,0:0:0:0:
256,192,73596,1,0,0:0:0:0:
256,192,73707,1,0,0:0:0:0:
256,192,73818,1,8,0:0:0:0:
256,192,74040,1,0,0:0:0:0:
256,192,74262,1,0,0:0:0:0:
256,192,74373,1,8,0:0:0:0:
256,192,74484,1,0,0:0:0:0:
256,192,74707,1,4,0:0:0:0:
256,192,75151,1,8,0:0:0:0:
256,192,75262,1,8,0:0:0:0:
256,192,75373,1,0,0:0:0:0:
256,192,75596,1,8,0:0:0:0:
256,192,76040,1,8,0:0:0:0:
256,192,76151,1,8,0:0:0:0:
256,192,76262,1,0,0:0:0:0:
256,192,76484,1,0,0:0:0:0:
256,192,76596,1,8,0:0:0:0:
256,192,76818,1,0,0:0:0:0:
256,192,76929,1,0,0:0:0:0:
256,192,77151,1,0,0:0:0:0:
256,192,77262,1,0,0:0:0:0:
256,192,77373,1,8,0:0:0:0:
256,192,77596,1,0,0:0:0:0:
256,192,77818,1,0,0:0:0:0:
256,192,77929,1,8,0:0:0:0:
256,192,78040,1,0,0:0:0:0:
256,192,78262,1,4,0:0:0:0:
256,192,78707,1,0,0:0:0:0:
256,192,78818,1,8,0:0:0:0:
256,192,78929,1,0,0:0:0:0:
256,192,79151,1,8,0:0:0:0:
256,192,79596,1,8,0:0:0:0:
256,192,79707,1,8,0:0:0:0:
256,192,79818,1,8,0:0:0:0:
256,192,80040,1,0,0:0:0:0:
256,192,80151,1,8,0:0:0:0:
256,192,80373,1,0,0:0:0:0:
256,192,80707,1,0,0:0:0:0:
256,192,80818,1,0,0:0:0:0:
256,192,80929,1,8,0:0:0:0:
256,192,81151,1,0,0:0:0:0:
256,192,81373,1,0,0:0:0:0:
256,192,81484,1,8,0:0:0:0:
256,192,81596,1,0,0:0:0:0:
256,192,81818,1,4,0:0:0:0:
256,192,82262,1,0,0:0:0:0:
256,192,82373,1,8,0:0:0:0:
256,192,82484,1,0,0:0:0:0:
256,192,82707,1,8,0:0:0:0:
256,192,83151,1,8,0:0:0:0:
256,192,83262,1,8,0:0:0:0:
256,192,83373,1,0,0:0:0:0:
256,192,83596,1,0,0:0:0:0:
256,192,83707,1,8,0:0:0:0:
256,192,83929,1,0,0:0:0:0:
256,192,84040,1,0,0:0:0:0:
256,192,84262,1,8,0:0:0:0:
256,192,84373,1,0,0:0:0:0:
256,192,84484,1,8,0:0:0:0:
256,192,84707,1,0,0:0:0:0:
256,192,84818,1,0,0:0:0:0:
256,192,84929,1,12,0:0:0:0:
256,192,85151,1,0,0:0:0:0:
256,192,85262,1,8,0:0:0:0:
256,192,85373,1,4,0:0:0:0:
256,192,85818,1,0,0:0:0:0:
256,192,85929,1,8,0:0:0:0:
256,192,86040,1,0,0:0:0:0:
256,192,86262,1,8,0:0:0:0:
256,192,86707,1,8,0:0:0:0:
256,192,86818,1,0,0:0:0:0:
256,192,86929,1,8,0:0:0:0:
256,192,87151,1,0,0:0:0:0:
256,192,87262,1,8,0:0:0:0:
256,192,87484,1,8,0:0:0:0:
256,192,87596,1,8,0:0:0:0:
256,192,87818,1,0,0:0:0:0:
256,192,88040,1,8,0:0:0:0:
256,192,88151,1,0,0:0:0:0:
256,192,88262,1,0,0:0:0:0:
256,192,88484,1,8,0:0:0:0:
256,192,88596,1,8,0:0:0:0:
256,192,88818,1,8,0:0:0:0:
256,192,88929,1,4,0:0:0:0:
256,192,89373,1,0,0:0:0:0:
256,192,89484,1,8,0:0:0:0:
256,192,89596,1,0,0:0:0:0:
256,192,89818,1,8,0:0:0:0:
256,192,90262,1,8,0:0:0:0:
256,192,90373,1,0,0:0:0:0:
256,192,90484,1,8,0:0:0:0:
256,192,90707,1,0,0:0:0:0:
256,192,90818,1,0,0:0:0:0:
256,192,91040,1,0,0:0:0:0:
256,192,91151,1,8,0:0:0:0:
256,192,91596,1,8,0:0:0:0:
256,192,91707,1,0,0:0:0:0:
256,192,91818,1,0,0:0:0:0:
256,192,92040,1,8,0:0:0:0:
256,192,92151,1,8,0:0:0:0:
256,192,92373,1,8,0:0:0:0:
256,192,92484,1,4,0:0:0:0:
256,192,92929,1,0,0:0:0:0:
256,192,93040,1,8,0:0:0:0:
256,192,93151,1,0,0:0:0:0:
256,192,93373,1,8,0:0:0:0:
256,192,93818,1,8,0:0:0:0:
256,192,93929,1,0,0:0:0:0:
256,192,94040,1,8,0:0:0:0:
256,192,94262,1,0,0:0:0:0:
256,192,94373,1,8,0:0:0:0:
256,192,94596,1,8,0:0:0:0:
256,192,94707,1,8,0:0:0:0:
256,192,94929,1,0,0:0:0:0:
256,192,95151,1,8,0:0:0:0:
256,192,95262,1,0,0:0:0:0:
256,192,95373,1,0,0:0:0:0:
256,192,95596,1,8,0:0:0:0:
256,192,95707,1,8,0:0:0:0:
256,192,95929,1,8,0:0:0:0:
256,192,96040,1,4,0:0:0:0:
256,192,96484,1,0,0:0:0:0:
256,192,96596,1,8,0:0:0:0:
256,192,96707,1,0,0:0:0:0:
256,192,96929,1,8,0:0:0:0:
256,192,97373,1,8,0:0:0:0:
256,192,97484,1,0,0:0:0:0:
256,192,97596,1,8,0:0:0:0:
256,192,97818,1,0,0:0:0:0:
256,192,97929,1,0,0:0:0:0:
256,192,98151,1,0,0:0:0:0:
256,192,98262,1,8,0:0:0:0:
256,192,98336,1,8,0:0:0:0:
256,192,98410,1,8,0:0:0:0:
256,192,98484,1,8,0:0:0:0:
256,192,98559,1,8,0:0:0:0:
256,192,98633,1,8,0:0:0:0:
256,192,98707,1,8,0:0:0:0:
256,192,98929,1,0,0:0:0:0:
256,192,99040,1,0,0:0:0:0:
256,192,99151,1,8,0:0:0:0:
256,192,99596,1,4,0:0:0:0:
256,192,100040,1,0,0:0:0:0:
256,192,100151,1,8,0:0:0:0:
256,192,100262,1,0,0:0:0:0:
256,192,100484,1,8,0:0:0:0:
256,192,100929,1,8,0:0:0:0:
256,192,101040,1,0,0:0:0:0:
256,192,101151,1,8,0:0:0:0:
256,192,101373,1,0,0:0:0:0:
256,192,101484,1,8,0:0:0:0:
256,192,101707,1,8,0:0:0:0:
256,192,101818,1,8,0:0:0:0:
256,192,102040,1,0,0:0:0:0:
256,192,102262,1,8,0:0:0:0:
256,192,102373,1,0,0:0:0:0:
256,192,102484,1,0,0:0:0:0:
256,192,102707,1,8,0:0:0:0:
256,192,102818,1,8,0:0:0:0:
256,192,103040,1,8,0:0:0:0:
256,192,103151,1,0,0:0:0:0:
256,192,103596,1,0,0:0:0:0:
256,192,103707,1,8,0:0:0:0:
256,192,103818,1,0,0:0:0:0:
256,192,104040,1,8,0:0:0:0:
256,192,104484,1,8,0:0:0:0:
256,192,104596,1,0,0:0:0:0:
256,192,104707,1,8,0:0:0:0:
256,192,104929,1,0,0:0:0:0:
256,192,105040,1,0,0:0:0:0:
256,192,105262,1,0,0:0:0:0:
256,192,105373,1,8,0:0:0:0:
256,192,105818,1,8,0:0:0:0:
256,192,105929,1,0,0:0:0:0:
256,192,106040,1,0,0:0:0:0:
256,192,106262,1,8,0:0:0:0:
256,192,106373,1,0,0:0:0:0:
256,192,106484,1,8,0:0:0:0:
256,192,106596,1,8,0:0:0:0:
256,192,106707,1,0,0:0:0:0:
256,192,107151,1,0,0:0:0:0:
256,192,107262,1,8,0:0:0:0:
256,192,107373,1,0,0:0:0:0:
256,192,107596,1,8,0:0:0:0:
256,192,108040,1,8,0:0:0:0:
256,192,108151,1,0,0:0:0:0:
256,192,108262,1,8,0:0:0:0:
256,192,108484,1,0,0:0:0:0:
256,192,108596,1,8,0:0:0:0:
256,192,108818,1,8,0:0:0:0:
256,192,108929,1,8,0:0:0:0:
256,192,109151,1,0,0:0:0:0:
256,192,109373,1,8,0:0:0:0:
256,192,109484,1,0,0:0:0:0:
256,192,109596,1,0,0:0:0:0:
256,192,109818,1,8,0:0:0:0:
256,192,109929,1,8,0:0:0:0:
256,192,110151,1,8,0:0:0:0:
256,192,110262,1,0,0:0:0:0:
256,192,110707,1,0,0:0:0:0:
256,192,110818,1,8,0:0:0:0:
256,192,110929,1,0,0:0:0:0:
256,192,111151,1,8,0:0:0:0:
256,192,111596,1,8,0:0:0:0:
256,192,111707,1,0,0:0:0:0:
256,192,111818,1,8,0:0:0:0:
256,192,112040,1,0,0:0:0:0:
256,192,112151,1,0,0:0:0:0:
256,192,112373,1,0,0:0:0:0:
256,192,112484,1,8,0:0:0:0:
256,192,112559,1,8,0:0:0:0:
256,192,112633,1,8,0:0:0:0:
256,192,112707,1,8,0:0:0:0:
256,192,112781,1,8,0:0:0:0:
256,192,112855,1,8,0:0:0:0:
256,192,112929,1,8,0:0:0:0:
256,192,113151,1,0,0:0:0:0:
256,192,113262,1,0,0:0:0:0:
256,192,113373,1,8,0:0:0:0:
256,192,113818,1,4,0:0:0:0:
256,192,114262,1,4,0:0:0:0:
256,192,114484,1,8,0:0:0:0:
256,192,114707,1,4,0:0:0:0:
256,192,115151,1,4,0:0:0:0:
256,192,115596,1,4,0:0:0:0:
256,192,115818,1,8,0:0:0:0:
256,192,116040,1,4,0:0:0:0:
256,192,116484,1,4,0:0:0:0:
256,192,116929,1,4,0:0:0:0:
256,192,117151,1,8,0:0:0:0:
256,192,117373,1,4,0:0:0:0:
256,192,117818,1,4,0:0:0:0:
256,192,118262,1,4,0:0:0:0:
256,192,118484,1,8,0:0:0:0:
256,192,118707,1,4,0:0:0:0:
256,192,119151,1,4,0:0:0:0:
256,192,119596,1,4,0:0:0:0:
256,192,119818,1,8,0:0:0:0:
256,192,120040,1,4,0:0:0:0:
256,192,120484,1,4,0:0:0:0:
256,192,120707,1,4,0:0:0:0:
256,192,120929,1,4,0:0:0:0:
256,192,121373,1,4,0:0:0:0:
256,192,121818,1,4,0:0:0:0:
256,192,122040,1,8,0:0:0:0:
256,192,122262,1,4,0:0:0:0:
256,192,122707,1,4,0:0:0:0:
256,192,123151,1,4,0:0:0:0:
256,192,123373,1,8,0:0:0:0:
256,192,123596,1,4,0:0:0:0:
256,192,124040,1,4,0:0:0:0:
256,192,124484,1,4,0:0:0:0:
256,192,124707,1,8,0:0:0:0:
256,192,124929,1,4,0:0:0:0:
256,192,125373,1,4,0:0:0:0:
256,192,125818,1,4,0:0:0:0:
256,192,126040,1,8,0:0:0:0:
256,192,126262,1,4,0:0:0:0:
256,192,126707,1,0,0:0:0:0:
256,192,126818,1,0,0:0:0:0:
256,192,126929,1,0,0:0:0:0:
256,192,127040,1,0,0:0:0:0:
256,192,127151,1,8,0:0:0:0:
256,192,127596,1,0,0:0:0:0:
256,192,127670,1,0,0:0:0:0:
256,192,127744,1,0,0:0:0:0:
256,192,127818,1,0,0:0:0:0:
256,192,127892,1,0,0:0:0:0:
256,192,127966,1,0,0:0:0:0:
256,192,128040,1,8,0:0:0:0:
256,192,128262,1,8,0:0:0:0:
256,192,128373,1,0,0:0:0:0:
256,192,128484,1,0,0:0:0:0:
256,192,128707,1,0,0:0:0:0:
256,192,128818,1,0,0:0:0:0:
256,192,128929,1,8,0:0:0:0:
256,192,129151,1,8,0:0:0:0:
256,192,129262,1,8,0:0:0:0:
256,192,129373,1,0,0:0:0:0:
256,192,129484,1,0,0:0:0:0:
256,192,129596,1,8,0:0:0:0:
256,192,129818,1,0,0:0:0:0:
256,192,130040,1,8,0:0:0:0:
256,192,130262,1,8,0:0:0:0:
256,192,130484,1,0,0:0:0:0:
256,192,130596,1,0,0:0:0:0:
256,192,130707,1,8,0:0:0:0:
256,192,130929,1,8,0:0:0:0:
256,192,131040,1,8,0:0:0:0:
256,192,131151,1,0,0:0:0:0:
256,192,131373,1,0,0:0:0:0:
256,192,131596,1,0,0:0:0:0:
256,192,131818,1,8,0:0:0:0:
256,192,131929,1,0,0:0:0:0:
256,192,132040,1,8,0:0:0:0:
256,192,132262,1,0,0:0:0:0:
256,192,132373,1,0,0:0:0:0:
256,192,132484,1,8,0:0:0:0:
256,192,132707,1,0,0:0:0:0:
256,192,132929,1,8,0:0:0:0:
256,192,133151,1,8,0:0:0:0:
256,192,133225,1,8,0:0:0:0:
256,192,133299,1,8,0:0:0:0:
256,192,133373,1,0,0:0:0:0:
256,192,133596,1,8,0:0:0:0:
256,192,133818,1,0,0:0:0:0:
256,192,134040,1,8,0:0:0:0:
256,192,134262,1,0,0:0:0:0:
256,192,134484,1,8,0:0:0:0:
256,192,134707,1,0,0:0:0:0:
256,192,134818,1,0,0:0:0:0:
256,192,134929,1,0,0:0:0:0:
256,192,135040,1,0,0:0:0:0:
256,192,135151,1,0,0:0:0:0:
256,192,135373,1,8,0:0:0:0:
256,192,135484,1,0,0:0:0:0:
256,192,135596,1,0,0:0:0:0:
256,192,135818,1,0,0:0:0:0:
256,192,135929,1,0,0:0:0:0:
256,192,136040,1,8,0:0:0:0:
256,192,136262,1,8,0:0:0:0:
256,192,136373,1,8,0:0:0:0:
256,192,136484,1,0,0:0:0:0:
256,192,136596,1,0,0:0:0:0:
256,192,136707,1,8,0:0:0:0:
256,192,136929,1,0,0:0:0:0:
256,192,137151,1,0,0:0:0:0:
256,192,137373,1,8,0:0:0:0:
256,192,137596,1,0,0:0:0:0:
256,192,137707,1,0,0:0:0:0:
256,192,137818,1,8,0:0:0:0:
256,192,138040,1,8,0:0:0:0:
256,192,138151,1,8,0:0:0:0:
256,192,138262,1,0,0:0:0:0:
256,192,138373,1,8,0:0:0:0:
256,192,138484,1,0,0:0:0:0:
256,192,138707,1,0,0:0:0:0:
256,192,138929,1,8,0:0:0:0:
256,192,139040,1,0,0:0:0:0:
256,192,139151,1,8,0:0:0:0:
256,192,139373,1,0,0:0:0:0:
256,192,139484,1,0,0:0:0:0:
256,192,139596,1,8,0:0:0:0:
256,192,139818,1,0,0:0:0:0:
256,192,140040,1,8,0:0:0:0:
256,192,140262,1,8,0:0:0:0:
256,192,140336,1,8,0:0:0:0:
256,192,140410,1,8,0:0:0:0:
256,192,140484,1,0,0:0:0:0:
256,192,140707,1,8,0:0:0:0:
256,192,140929,1,0,0:0:0:0:
256,192,141151,1,8,0:0:0:0:
256,192,141373,1,0,0:0:0:0:
256,192,141596,1,8,0:0:0:0:
256,192,141818,1,12,0:0:0:0:
256,192,142262,1,4,0:0:0:0:
256,192,143151,1,8,0:0:0:0:
256,192,143596,1,0,0:0:0:0:
256,192,144040,1,8,0:0:0:0:
256,192,144707,1,8,0:0:0:0:
256,192,145373,1,0,0:0:0:0:
256,192,146262,1,8,0:0:0:0:
256,192,146707,1,0,0:0:0:0:
256,192,147596,1,8,0:0:0:0:
256,192,150262,1,0,0:0:0:0:
256,192,150707,1,8,0:0:0:0:
256,192,151151,1,0,0:0:0:0:
256,192,151818,1,8,0:0:0:0:
256,192,152484,1,0,0:0:0:0:
256,192,157373,1,8,0:0:0:0:
256,192,157818,1,0,0:0:0:0:
256,192,158262,1,8,0:0:0:0:
256,192,158929,1,8,0:0:0:0:
256,192,159596,1,0,0:0:0:0:
256,192,160484,1,8,0:0:0:0:
256,192,160929,1,0,0:0:0:0:
256,192,161262,1,0,0:0:0:0:
256,192,161596,1,0,0:0:0:0:
256,192,161818,1,8,0:0:0:0:
256,192,162040,1,0,0:0:0:0:
256,192,162151,1,0,0:0:0:0:
256,192,162262,1,8,0:0:0:0:
256,192,162484,1,0,0:0:0:0:
256,192,162596,1,8,0:0:0:0:
256,192,162818,1,8,0:0:0:0:
256,192,162929,1,0,0:0:0:0:
256,192,163151,1,8,0:0:0:0:
256,192,163373,1,8,0:0:0:0:
256,192,163596,1,0,0:0:0:0:
256,192,163707,1,8,0:0:0:0:
256,192,163929,1,8,0:0:0:0:
256,192,164151,1,8,0:0:0:0:
256,192,164262,1,0,0:0:0:0:
256,192,164484,1,0,0:0:0:0:
256,192,164596,1,8,0:0:0:0:
256,192,164818,1,8,0:0:0:0:
256,192,164929,1,0,0:0:0:0:
256,192,165151,1,8,0:0:0:0:
256,192,165373,1,0,0:0:0:0:
256,192,165484,1,8,0:0:0:0:
256,192,165707,1,8,0:0:0:0:
256,192,165929,1,8,0:0:0:0:
256,192,166040,1,0,0:0:0:0:
256,192,166151,1,0,0:0:0:0:
256,192,166262,1,8,0:0:0:0:
256,192,166373,1,8,0:0:0:0:
256,192,166596,1,0,0:0:0:0:
256,192,166707,1,8,0:0:0:0:
256,192,166929,1,0,0:0:0:0:
256,192,167151,1,8,0:0:0:0:
256,192,167262,1,8,0:0:0:0:
256,192,167373,1,0,0:0:0:0:
256,192,167484,1,8,0:0:0:0:
256,192,167707,1,8,0:0:0:0:
256,192,167818,1,0,0:0:0:0:
256,192,167929,1,0,0:0:0:0:
256,192,168040,1,8,0:0:0:0:
256,192,168151,1,8,0:0:0:0:
256,192,168373,1,0,0:0:0:0:
256,192,168484,1,8,0:0:0:0:
256,192,168707,1,8,0:0:0:0:
256,192,168929,1,8,0:0:0:0:
256,192,169040,1,0,0:0:0:0:
256,192,169262,1,0,0:0:0:0:
256,192,169373,1,8,0:0:0:0:
256,192,169596,1,8,0:0:0:0:
256,192,169707,1,0,0:0:0:0:
256,192,169818,1,0,0:0:0:0:
256,192,169929,1,8,0:0:0:0:
256,192,170151,1,8,0:0:0:0:
256,192,170262,1,0,0:0:0:0:
256,192,170484,1,8,0:0:0:0:
256,192,170707,1,4,0:0:0:0:
256,192,170929,1,0,0:0:0:0:
256,192,171040,1,8,0:0:0:0:
256,192,171262,1,0,0:0:0:0:
256,192,171373,1,8,0:0:0:0:
256,192,171484,1,0,0:0:0:0:
256,192,171596,1,8,0:0:0:0:
256,192,171707,1,8,0:0:0:0:
256,192,171929,1,0,0:0:0:0:
256,192,172040,1,8,0:0:0:0:
256,192,172262,1,8,0:0:0:0:
256,192,172484,1,8,0:0:0:0:
256,192,172596,1,0,0:0:0:0:
256,192,172707,1,0,0:0:0:0:
256,192,172818,1,8,0:0:0:0:
256,192,173040,1,0,0:0:0:0:
256,192,173151,1,8,0:0:0:0:
256,192,173262,1,0,0:0:0:0:
256,192,173373,1,8,0:0:0:0:
256,192,173484,1,8,0:0:0:0:
256,192,173707,1,0,0:0:0:0:
256,192,173818,1,8,0:0:0:0:
256,192,174040,1,8,0:0:0:0:
256,192,174262,1,8,0:0:0:0:
256,192,174373,1,0,0:0:0:0:
256,192,174484,1,0,0:0:0:0:
256,192,174596,1,8,0:0:0:0:
256,192,174818,1,0,0:0:0:0:
256,192,174929,1,8,0:0:0:0:
256,192,175040,1,0,0:0:0:0:
256,192,175151,1,8,0:0:0:0:
256,192,175262,1,8,0:0:0:0:
256,192,175484,1,0,0:0:0:0:
256,192,175596,1,8,0:0:0:0:
256,192,175818,1,8,0:0:0:0:
256,192,176040,1,8,0:0:0:0:
256,192,176151,1,8,0:0:0:0:
256,192,176373,1,0,0:0:0:0:
256,192,176484,1,8,0:0:0:0:
256,192,176707,1,8,0:0:0:0:
256,192,176818,1,0,0:0:0:0:
256,192,177040,1,8,0:0:0:0:
256,192,177262,1,0,0:0:0:0:
256,192,177373,1,8,0:0:0:0:
256,192,177596,1,8,0:0:0:0:
256,192,177818,1,8,0:0:0:0:
256,192,177929,1,0,0:0:0:0:
256,192,178040,1,0,0:0:0:0:
256,192,178151,1,8,0:0:0:0:
256,192,178373,1,0,0:0:0:0:
256,192,178484,1,8,0:0:0:0:
256,192,178596,1,0,0:0:0:0:
256,192,178707,1,8,0:0:0:0:
256,192,178818,1,8,0:0:0:0:
256,192,179040,1,0,0:0:0:0:
256,192,179151,1,8,0:0:0:0:
256,192,179373,1,8,0:0:0:0:
256,192,179596,1,8,0:0:0:0:
256,192,179707,1,0,0:0:0:0:
256,192,179818,1,0,0:0:0:0:
256,192,179929,1,8,0:0:0:0:
256,192,180040,1,0,0:0:0:0:
256,192,180151,1,0,0:0:0:0:
256,192,180262,1,8,0:0:0:0:
256,192,180373,1,0,0:0:0:0:
256,192,180484,1,8,0:0:0:0:
256,192,180596,1,8,0:0:0:0:
256,192,180818,1,0,0:0:0:0:
256,192,180929,1,8,0:0:0:0:
256,192,181151,1,8,0:0:0:0:
256,192,181373,1,8,0:0:0:0:
256,192,181484,1,0,0:0:0:0:
256,192,181596,1,0,0:0:0:0:
256,192,181707,1,8,0:0:0:0:
256,192,181929,1,0,0:0:0:0:
256,192,182040,1,8,0:0:0:0:
256,192,182151,1,0,0:0:0:0:
256,192,182262,1,8,0:0:0:0:
256,192,182373,1,8,0:0:0:0:
256,192,182596,1,0,0:0:0:0:
256,192,182707,1,8,0:0:0:0:
256,192,182929,1,8,0:0:0:0:
256,192,183151,1,0,0:0:0:0:
256,192,183262,1,8,0:0:0:0:
256,192,183484,1,8,0:0:0:0:
256,192,183596,1,8,0:0:0:0:
256,192,183818,1,0,0:0:0:0:
256,192,183929,1,8,0:0:0:0:
256,192,184151,1,8,0:0:0:0:
256,192,184373,1,0,0:0:0:0:
256,192,184484,1,8,0:0:0:0:
256,192,184707,1,0,0:0:0:0:
256,192,184929,1,4,0:0:0:0:
256,192,185818,1,8,0:0:0:0:
256,192,186707,1,8,0:0:0:0:
256,192,187151,1,0,0:0:0:0:
256,192,187596,1,8,0:0:0:0:
256,192,188484,1,4,0:0:0:0:
256,192,189373,1,8,0:0:0:0:
256,192,190262,1,8,0:0:0:0:
256,192,190707,1,0,0:0:0:0:
256,192,191151,1,8,0:0:0:0:
256,192,192040,1,4,0:0:0:0:
256,192,192929,1,8,0:0:0:0:
256,192,193373,1,8,0:0:0:0:
256,192,193818,1,4,0:0:0:0:
256,192,194262,1,0,0:0:0:0:
256,192,194707,1,8,0:0:0:0:
256,192,195151,1,0,0:0:0:0:
256,192,195596,1,4,0:0:0:0:
256,192,196040,1,0,0:0:0:0:
256,192,196151,1,0,0:0:0:0:
256,192,196373,1,0,0:0:0:0:
256,192,196484,1,8,0:0:0:0:
256,192,196707,1,0,0:0:0:0:
256,192,196818,1,0,0:0:0:0:
256,192,196929,1,8,0:0:0:0:
256,192,197040,1,8,0:0:0:0:
256,192,197151,1,0,0:0:0:0:
256,192,197262,1,8,0:0:0:0:
256,192,197373,1,4,0:0:0:0:
256,192,198262,1,0,0:0:0:0:
256,192,198707,1,12,0:0:0:0:
256,192,199151,1,0,0:0:0:0:
256,192,199262,1,8,0:0:0:0:
256,192,199484,1,0,0:0:0:0:
256,192,199596,1,8,0:0:0:0:
256,192,199707,1,8,0:0:0:0:
256,192,199929,1,0,0:0:0:0:
256,192,200040,1,8,0:0:0:0:
256,192,200151,1,8,0:0:0:0:
256,192,200373,1,0,0:0:0:0:
256,192,200484,1,8,0:0:0:0:
256,192,200707,1,8,0:0:0:0:
256,192,200929,1,8,0:0:0:0:
256,192,201040,1,0,0:0:0:0:
256,192,201262,1,8,0:0:0:0:
256,192,201373,1,8,0:0:0:0:
256,192,201484,1,0,0:0:0:0:
256,192,201596,1,0,0:0:0:0:
256,192,201707,1,8,0:0:0:0:
256,192,201818,1,8,0:0:0:0:
256,192,201929,1,0,0:0:0:0:
256,192,202151,1,0,0:0:0:0:
256,192,202262,1,8,0:0:0:0:
256,192,202484,1,8,0:0:0:0:
256,192,202707,1,0,0:0:0:0:
256,192,202818,1,8,0:0:0:0:
256,192,203040,1,0,0:0:0:0:
256,192,203151,1,8,0:0:0:0:
256,192,203262,1,8,0:0:0:0:
256,192,203484,1,0,0:0:0:0:
256,192,203596,1,8,0:0:0:0:
256,192,203707,1,8,0:0:0:0:
256,192,203929,1,0,0:0:0:0:
256,192,204040,1,8,0:0:0:0:
256,192,204262,1,8,0:0:0:0:
256,192,204484,1,8,0:0:0:0:
256,192,204596,1,0,0:0:0:0:
256,192,204818,1,0,0:0:0:0:
256,192,204929,1,8,0:0:0:0:
256,192,205040,1,0,0:0:0:0:
256,192,205151,1,8,0:0:0:0:
256,192,205262,1,8,0:0:0:0:
256,192,205484,1,0,0:0:0:0:
256,192,205707,1,0,0:0:0:0:
256,192,205818,1,8,0:0:0:0:
256,192,206040,1,8,0:0:0:0:
256,192,206262,1,0,0:0:0:0:
256,192,206373,1,8,0:0:0:0:
256,192,206596,1,0,0:0:0:0:
256,192,206707,1,8,0:0:0:0:
256,192,206818,1,8,0:0:0:0:
256,192,207040,1,0,0:0:0:0:
256,192,207151,1,8,0:0:0:0:
256,192,207262,1,8,0:0:0:0:
256,192,207484,1,0,0:0:0:0:
256,192,207596,1,8,0:0:0:0:
256,192,207818,1,8,0:0:0:0:
256,192,208040,1,8,0:0:0:0:
256,192,208151,1,0,0:0:0:0:
256,192,208373,1,8,0:0:0:0:
256,192,208484,1,8,0:0:0:0:
256,192,208596,1,0,0:0:0:0:
256,192,208707,1,0,0:0:0:0:
256,192,208818,1,8,0:0:0:0:
256,192,208929,1,8,0:0:0:0:
256,192,209040,1,0,0:0:0:0:
256,192,209262,1,0,0:0:0:0:
256,192,209373,1,8,0:0:0:0:
256,192,209596,1,8,0:0:0:0:
256,192,209818,1,0,0:0:0:0:
256,192,209929,1,8,0:0:0:0:
256,192,210151,1,0,0:0:0:0:
256,192,210262,1,8,0:0:0:0:
256,192,210373,1,8,0:0:0:0:
256,192,210596,1,0,0:0:0:0:
256,192,210707,1,8,0:0:0:0:
256,192,210818,1,8,0:0:0:0:
256,192,211040,1,0,0:0:0:0:
256,192,211151,1,8,0:0:0:0:
256,192,211373,1,8,0:0:0:0:
256,192,211596,1,8,0:0:0:0:
256,192,211707,1,0,0:0:0:0:
256,192,211929,1,8,0:0:0:0:
256,192,212040,1,0,0:0:0:0:
256,192,212151,1,0,0:0:0:0:
256,192,212262,1,0,0:0:0:0:
256,192,212373,1,0,0:0:0:0:
256,192,212484,1,8,0:0:0:0:
256,192,212596,1,0,0:0:0:0:
256,192,212929,1,4,0:0:0:0:
256,192,213373,1,0,0:0:0:0:
256,192,213484,1,8,0:0:0:0:
256,192,213707,1,0,0:0:0:0:
256,192,213818,1,8,0:0:0:0:
256,192,213929,1,8,0:0:0:0:
256,192,214040,1,0,0:0:0:0:
256,192,214151,1,0,0:0:0:0:
256,192,214262,1,8,0:0:0:0:
256,192,214373,1,8,0:0:0:0:
256,192,214596,1,0,0:0:0:0:
256,192,214707,1,8,0:0:0:0:
256,192,214929,1,8,0:0:0:0:
256,192,215151,1,8,0:0:0:0:
256,192,215262,1,0,0:0:0:0:
256,192,215484,1,8,0:0:0:0:
256,192,215596,1,8,0:0:0:0:
256,192,215707,1,0,0:0:0:0:
256,192,215818,1,0,0:0:0:0:
256,192,215929,1,8,0:0:0:0:
256,192,216040,1,8,0:0:0:0:
256,192,216151,1,0,0:0:0:0:
256,192,216373,1,0,0:0:0:0:
256,192,216484,1,8,0:0:0:0:
256,192,216707,1,8,0:0:0:0:
256,192,216929,1,0,0:0:0:0:
256,192,217040,1,8,0:0:0:0:
256,192,217262,1,0,0:0:0:0:
256,192,217373,1,8,0:0:0:0:
256,192,217484,1,8,0:0:0:0:
256,192,217596,1,0,0:0:0:0:
256,192,217707,1,0,0:0:0:0:
256,192,217818,1,8,0:0:0:0:
256,192,217929,1,8,0:0:0:0:
256,192,218151,1,0,0:0:0:0:
256,192,218262,1,8,0:0:0:0:
256,192,218484,1,8,0:0:0:0:
256,192,218707,1,8,0:0:0:0:
256,192,218818,1,0,0:0:0:0:
256,192,219040,1,0,0:0:0:0:
256,192,219151,1,8,0:0:0:0:
256,192,219262,1,0,0:0:0:0:
256,192,219373,1,8,0:0:0:0:
256,192,219484,1,8,0:0:0:0:
256,192,219596,1,0,0:0:0:0:
256,192,219707,1,8,0:0:0:0:
256,192,219929,1,0,0:0:0:0:
256,192,220040,1,8,0:0:0:0:
256,192,220262,1,8,0:0:0:0:
256,192,220484,1,0,0:0:0:0:
256,192,220596,1,8,0:0:0:0:
256,192,220818,1,0,0:0:0:0:
256,192,220929,1,8,0:0:0:0:
256,192,221040,1,8,0:0:0:0:
256,192,221151,1,0,0:0:0:0:
256,192,221262,1,0,0:0:0:0:
256,192,221373,1,8,0:0:0:0:
256,192,221484,1,8,0:0:0:0:
256,192,221707,1,0,0:0:0:0:
256,192,221818,1,8,0:0:0:0:
256,192,222040,1,8,0:0:0:0:
256,192,222262,1,8,0:0:0:0:
256,192,222373,1,0,0:0:0:0:
256,192,222596,1,8,0:0:0:0:
256,192,222707,1,8,0:0:0:0:
256,192,222818,1,0,0:0:0:0:
256,192,222929,1,0,0:0:0:0:
256,192,223040,1,8,0:0:0:0:
256,192,223151,1,8,0:0:0:0:
256,192,223262,1,0,0:0:0:0:
256,192,223484,1,0,0:0:0:0:
256,192,223596,1,8,0:0:0:0:
256,192,223818,1,8,0:0:0:0:
256,192,224040,1,0,0:0:0:0:
256,192,224151,1,8,0:0:0:0:
256,192,224373,1,0,0:0:0:0:
256,192,224484,1,8,0:0:0:0:
256,192,224596,1,8,0:0:0:0:
256,192,224707,1,0,0:0:0:0:
256,192,224818,1,0,0:0:0:0:
256,192,224929,1,8,0:0:0:0:
256,192,225040,1,8,0:0:0:0:
256,192,225262,1,0,0:0:0:0:
256,192,225373,1,8,0:0:0:0:
256,192,225596,1,8,0:0:0:0:
256,192,225818,1,4,0:0:0:0:
256,192,226262,1,0,0:0:0:0:
256,192,226373,1,0,0:0:0:0:
256,192,226596,1,0,0:0:0:0:
256,192,226707,1,8,0:0:0:0:
256,192,226929,1,0,0:0:0:0:
256,192,227151,1,12,0:0:0:0:
256,192,227596,1,0,0:0:0:0:
256,192,227707,1,8,0:0:0:0:
256,192,227929,1,0,0:0:0:0:
256,192,228040,1,8,0:0:0:0:
256,192,228151,1,8,0:0:0:0:
256,192,228373,1,0,0:0:0:0:
256,192,228484,1,8,0:0:0:0:
256,192,228596,1,8,0:0:0:0:
256,192,228818,1,0,0:0:0:0:
256,192,228929,1,8,0:0:0:0:
256,192,229151,1,8,0:0:0:0:
256,192,229373,1,8,0:0:0:0:
256,192,229484,1,0,0:0:0:0:
256,192,229707,1,8,0:0:0:0:
256,192,229818,1,8,0:0:0:0:
256,192,229929,1,0,0:0:0:0:
256,192,230040,1,0,0:0:0:0:
256,192,230151,1,8,0:0:0:0:
256,192,230262,1,8,0:0:0:0:
256,192,230373,1,0,0:0:0:0:
256,192,230596,1,0,0:0:0:0:
256,192,230707,1,8,0:0:0:0:
256,192,230929,1,8,0:0:0:0:
256,192,231151,1,0,0:0:0:0:
256,192,231262,1,8,0:0:0:0:
256,192,231484,1,0,0:0:0:0:
256,192,231596,1,8,0:0:0:0:
256,192,231707,1,8,0:0:0:0:
256,192,231929,1,0,0:0:0:0:
256,192,232040,1,8,0:0:0:0:
256,192,232151,1,8,0:0:0:0:
256,192,232373,1,0,0:0:0:0:
256,192,232484,1,8,0:0:0:0:
256,192,232707,1,8,0:0:0:0:
256,192,232929,1,8,0:0:0:0:
256,192,233040,1,0,0:0:0:0:
256,192,233262,1,0,0:0:0:0:
256,192,233373,1,8,0:0:0:0:
256,192,233484,1,0,0:0:0:0:
256,192,233596,1,8,0:0:0:0:
256,192,233707,1,8,0:0:0:0:
256,192,233929,1,0,0:0:0:0:
256,192,234151,1,0,0:0:0:0:
256,192,234262,1,8,0:0:0:0:
256,192,234484,1,8,0:0:0:0:
256,192,234707,1,0,0:0:0:0:
256,192,234818,1,8,0:0:0:0:
256,192,235040,1,0,0:0:0:0:
256,192,235151,1,8,0:0:0:0:
256,192,235262,1,8,0:0:0:0:
256,192,235484,1,0,0:0:0:0:
256,192,235596,1,8,0:0:0:0:
256,192,235707,1,8,0:0:0:0:
256,192,235929,1,0,0:0:0:0:
256,192,236040,1,8,0:0:0:0:
256,192,236262,1,8,0:0:0:0:
256,192,236484,1,8,0:0:0:0:
256,192,236596,1,0,0:0:0:0:
256,192,236818,1,8,0:0:0:0:
256,192,236929,1,8,0:0:0:0:
256,192,237040,1,0,0:0:0:0:
256,192,237151,1,0,0:0:0:0:
256,192,237262,1,8,0:0:0:0:
256,192,237373,1,8,0:0:0:0:
256,192,237484,1,0,0:0:0:0:
256,192,237707,1,0,0:0:0:0:
256,192,237818,1,8,0:0:0:0:
256,192,238040,1,8,0:0:0:0:
256,192,238262,1,0,0:0:0:0:
256,192,238373,1,8,0:0:0:0:
256,192,238596,1,0,0:0:0:0:
256,192,238707,1,8,0:0:0:0:
256,192,238818,1,8,0:0:0:0:
256,192,239040,1,0,0:0:0:0:
256,192,239151,1,8,0:0:0:0:
256,192,239262,1,8,0:0:0:0:
256,192,239484,1,0,0:0:0:0:
256,192,239596,1,8,0:0:0:0:
256,192,239818,1,8,0:0:0:0:
256,192,240040,1,8,0:0:0:0:
256,192,240151,1,0,0:0:0:0:
256,192,240373,1,8,0:0:0:0:
256,192,240484,1,0,0:0:0:0:
256,192,240596,1,0,0:0:0:0:
256,192,240707,1,0,0:0:0:0:
256,192,240818,1,0,0:0:0:0:
256,192,240929,1,8,0:0:0:0:
256,192,241040,1,0,0:0:0:0:
256,192,241373,1,4,0:0:0:0:
256,192,241818,1,0,0:0:0:0:
256,192,241929,1,8,0:0:0:0:
256,192,242151,1,0,0:0:0:0:
256,192,242262,1,8,0:0:0:0:
256,192,242373,1,8,0:0:0:0:
256,192,242484,1,0,0:0:0:0:
256,192,242596,1,0,0:0:0:0:
256,192,242707,1,8,0:0:0:0:
256,192,242818,1,8,0:0:0:0:
256,192,243040,1,0,0:0:0:0:
256,192,243151,1,8,0:0:0:0:
256,192,243262,1,0,0:0:0:0:
256,192,243373,1,8,0:0:0:0:
256,192,243596,1,8,0:0:0:0:
256,192,243707,1,0,0:0:0:0:
256,192,243929,1,8,0:0:0:0:
256,192,244040,1,8,0:0:0:0:
256,192,244151,1,0,0:0:0:0:
256,192,244262,1,0,0:0:0:0:
256,192,244373,1,8,0:0:0:0:
256,192,244484,1,8,0:0:0:0:
256,192,244596,1,0,0:0:0:0:
256,192,244818,1,0,0:0:0:0:
256,192,244929,1,8,0:0:0:0:
256,192,245040,1,0,0:0:0:0:
256,192,245151,1,8,0:0:0:0:
256,192,245373,1,0,0:0:0:0:
256,192,245484,1,8,0:0:0:0:
256,192,245707,1,0,0:0:0:0:
256,192,245818,1,8,0:0:0:0:
256,192,245929,1,8,0:0:0:0:
256,192,246040,1,0,0:0:0:0:
256,192,246151,1,0,0:0:0:0:
256,192,246262,1,8,0:0:0:0:
256,192,246373,1,8,0:0:0:0:
256,192,246596,1,0,0:0:0:0:
256,192,246707,1,8,0:0:0:0:
256,192,246818,1,0,0:0:0:0:
256,192,246929,1,8,0:0:0:0:
256,192,247151,1,8,0:0:0:0:
256,192,247262,1,0,0:0:0:0:
256,192,247484,1,0,0:0:0:0:
256,192,247596,1,8,0:0:0:0:
256,192,247707,1,0,0:0:0:0:
256,192,247818,1,8,0:0:0:0:
256,192,247929,1,8,0:0:0:0:
256,192,248040,1,0,0:0:0:0:
256,192,248151,1,8,0:0:0:0:
256,192,248373,1,0,0:0:0:0:
256,192,248484,1,8,0:0:0:0:
256,192,248707,1,8,0:0:0:0:
256,192,248929,1,0,0:0:0:0:
256,192,249040,1,8,0:0:0:0:
256,192,249262,1,0,0:0:0:0:
256,192,249373,1,8,0:0:0:0:
256,192,249484,1,8,0:0:0:0:
256,192,249596,1,0,0:0:0:0:
256,192,249707,1,0,0:0:0:0:
256,192,249818,1,8,0:0:0:0:
256,192,249929,1,8,0:0:0:0:
256,192,250151,1,0,0:0:0:0:
256,192,250262,1,8,0:0:0:0:
256,192,250373,1,0,0:0:0:0:
256,192,250484,1,8,0:0:0:0:
256,192,250707,1,8,0:0:0:0:
256,192,250818,1,0,0:0:0:0:
256,192,251040,1,8,0:0:0:0:
256,192,251151,1,8,0:0:0:0:
256,192,251262,1,0,0:0:0:0:
256,192,251373,1,0,0:0:0:0:
256,192,251484,1,8,0:0:0:0:
256,192,251596,1,8,0:0:0:0:
256,192,251707,1,0,0:0:0:0:
256,192,251929,1,0,0:0:0:0:
256,192,252040,1,8,0:0:0:0:
256,192,252151,1,0,0:0:0:0:
256,192,252262,1,8,0:0:0:0:
256,192,252484,1,0,0:0:0:0:
256,192,252596,1,8,0:0:0:0:
256,192,252818,1,0,0:0:0:0:
256,192,252929,1,8,0:0:0:0:
256,192,253040,1,8,0:0:0:0:
256,192,253151,1,0,0:0:0:0:
256,192,253262,1,0,0:0:0:0:
256,192,253373,1,8,0:0:0:0:
256,192,253484,1,8,0:0:0:0:
256,192,253707,1,0,0:0:0:0:
256,192,253818,1,8,0:0:0:0:
256,192,253929,1,0,0:0:0:0:
256,192,254040,1,8,0:0:0:0:
256,192,254262,1,8,0:0:0:0:
256,192,254373,1,0,0:0:0:0:
256,192,254484,1,0,0:0:0:0:
256,192,254596,1,0,0:0:0:0:
256,192,254707,1,0,0:0:0:0:
256,192,254818,1,0,0:0:0:0:
256,192,254929,1,0,0:0:0:0:
256,192,255040,1,0,0:0:0:0:
256,192,255151,1,8,0:0:0:0:
256,192,255373,1,0,0:0:0:0:
256,192,255447,1,0,0:0:0:0:
256,192,255522,1,0,0:0:0:0:
256,192,255596,1,8,0:0:0:0:
256,192,255818,1,8,0:0:0:0:
256,192,256040,1,4,0:0:0:0:
256,192,256929,1,0,0:0:0:0:
256,192,257373,1,8,0:0:0:0:
256,192,257818,1,0,0:0:0:0:
256,192,258484,1,0,0:0:0:0:
256,192,259151,1,8,0:0:0:0:
256,192,260040,1,8,0:0:0:0:
256,192,260484,1,0,0:0:0:0:
256,192,261373,1,8,0:0:0:0:
256,192,264040,1,0,0:0:0:0:
256,192,264484,1,8,0:0:0:0:
256,192,264929,1,8,0:0:0:0:
256,192,265596,1,0,0:0:0:0:
256,192,266262,1,8,0:0:0:0:
256,192,268484,1,0,0:0:0:0:
256,192,268929,1,0,0:0:0:0:
256,192,269373,1,8,0:0:0:0:
256,192,269596,1,8,0:0:0:0:
256,192,269818,1,0,0:0:0:0:
256,192,270262,1,4,0:0:0:0:
256,192,270707,1,0,0:0:0:0:
256,192,270818,1,8,0:0:0:0:
256,192,270929,1,0,0:0:0:0:
256,192,271151,1,8,0:0:0:0:
256,192,271596,1,8,0:0:0:0:
256,192,271707,1,8,0:0:0:0:
256,192,271818,1,8,0:0:0:0:
256,192,272040,1,0,0:0:0:0:
256,192,272151,1,8,0:0:0:0:
256,192,272373,1,0,0:0:0:0:
256,192,272707,1,0,0:0:0:0:
256,192,272818,1,0,0:0:0:0:
256,192,272929,1,8,0:0:0:0:
256,192,273040,1,0,0:0:0:0:
256,192,273262,1,0,0:0:0:0:
256,192,273373,1,8,0:0:0:0:
256,192,273484,1,0,0:0:0:0:
256,192,273596,1,8,0:0:0:0:
256,192,273818,1,4,0:0:0:0:
256,192,274262,1,0,0:0:0:0:
256,192,274373,1,8,0:0:0:0:
256,192,274484,1,0,0:0:0:0:
256,192,274707,1,8,0:0:0:0:
256,192,275151,1,8,0:0:0:0:
256,192,275262,1,8,0:0:0:0:
256,192,275373,1,0,0:0:0:0:
256,192,275596,1,0,0:0:0:0:
256,192,275707,1,8,0:0:0:0:
256,192,275929,1,8,0:0:0:0:
256,192,276040,1,0,0:0:0:0:
256,192,276262,1,0,0:0:0:0:
256,192,276373,1,0,0:0:0:0:
256,192,276484,1,8,0:0:0:0:
256,192,276707,1,0,0:0:0:0:
256,192,276818,1,0,0:0:0:0:
256,192,276929,1,8,0:0:0:0:
256,192,277040,1,0,0:0:0:0:
256,192,277151,1,8,0:0:0:0:
256,192,277373,1,4,0:0:0:0:
256,192,277818,1,8,0:0:0:0:
256,192,277929,1,8,0:0:0:0:
256,192,278040,1,0,0:0:0:0:
256,192,278262,1,8,0:0:0:0:
256,192,278707,1,8,0:0:0:0:
256,192,278818,1,8,0:0:0:0:
256,192,278929,1,8,0:0:0:0:
256,192,279151,1,0,0:0:0:0:
256,192,279262,1,8,0:0:0:0:
256,192,279484,1,0,0:0:0:0:
256,192,279818,1,0,0:0:0:0:
256,192,279929,1,0,0:0:0:0:
256,192,280040,1,8,0:0:0:0:
256,192,280151,1,0,0:0:0:0:
256,192,280373,1,0,0:0:0:0:
256,192,280484,1,8,0:0:0:0:
256,192,280596,1,0,0:0:0:0:
256,192,280707,1,8,0:0:0:0:
256,192,280929,1,4,0:0:0:0:
256,192,281373,1,0,0:0:0:0:
256,192,281484,1,8,0:0:0:0:
256,192,281596,1,0,0:0:0:0:
256,192,281818,1,8,0:0:0:0:
256,192,282262,1,8,0:0:0:0:
256,192,282373,1,8,0:0:0:0:
256,192,282484,1,0,0:0:0:0:
256,192,282707,1,0,0:0:0:0:
256,192,282818,1,8,0:0:0:0:
256,192,283040,1,0,0:0:0:0:
256,192,283373,1,0,0:0:0:0:
256,192,283484,1,0,0:0:0:0:
256,192,283596,1,8,0:0:0:0:
256,192,283818,1,0,0:0:0:0:
256,192,283929,1,0,0:0:0:0:
256,192,284040,1,8,0:0:0:0:
256,192,284151,1,0,0:0:0:0:
256,192,284262,1,8,0:0:0:0:
256,192,284484,1,4,0:0:0:0:
256,192,284929,1,0,0:0:0:0:
256,192,285040,1,8,0:0:0:0:
256,192,285151,1,0,0:0:0:0:
256,192,285373,1,8,0:0:0:0:
256,192,285818,1,8,0:0:0:0:
256,192,285929,1,8,0:0:0:0:
256,192,286040,1,8,0:0:0:0:
256,192,286262,1,0,0:0:0:0:
256,192,286373,1,8,0:0:0:0:
256,192,286596,1,8,0:0:0:0:
256,192,286707,1,0,0:0:0:0:
256,192,286929,1,0,0:0:0:0:
256,192,287040,1,0,0:0:0:0:
256,192,287151,1,8,0:0:0:0:
256,192,287262,1,0,0:0:0:0:
256,192,287484,1,0,0:0:0:0:
256,192,287596,1,8,0:0:0:0:
256,192,287707,1,0,0:0:0:0:
256,192,287818,1,8,0:0:0:0:
256,192,288040,1,4,0:0:0:0:
256,192,288484,1,8,0:0:0:0:
256,192,288596,1,8,0:0:0:0:
256,192,288707,1,0,0:0:0:0:
256,192,288929,1,8,0:0:0:0:
256,192,289373,1,8,0:0:0:0:
256,192,289484,1,8,0:0:0:0:
256,192,289596,1,0,0:0:0:0:
256,192,289818,1,0,0:0:0:0:
256,192,289929,1,8,0:0:0:0:
256,192,290151,1,0,0:0:0:0:
256,192,290484,1,0,0:0:0:0:
256,192,290596,1,0,0:0:0:0:
256,192,290707,1,8,0:0:0:0:
256,192,290929,1,0,0:0:0:0:
256,192,291040,1,0,0:0:0:0:
256,192,291151,1,8,0:0:0:0:
256,192,291262,1,0,0:0:0:0:
256,192,291373,1,8,0:0:0:0:
256,192,291596,1,4,0:0:0:0:
256,192,292040,1,0,0:0:0:0:
256,192,292151,1,8,0:0:0:0:
256,192,292262,1,0,0:0:0:0:
256,192,292484,1,8,0:0:0:0:
256,192,292929,1,8,0:0:0:0:
256,192,293040,1,8,0:0:0:0:
256,192,293151,1,8,0:0:0:0:
256,192,293373,1,0,0:0:0:0:
256,192,293484,1,8,0:0:0:0:
256,192,293707,1,8,0:0:0:0:
256,192,293818,1,0,0:0:0:0:
256,192,294040,1,0,0:0:0:0:
256,192,294151,1,0,0:0:0:0:
256,192,294262,1,8,0:0:0:0:
256,192,294373,1,0,0:0:0:0:
256,192,294596,1,0,0:0:0:0:
256,192,294707,1,8,0:0:0:0:
256,192,294818,1,0,0:0:0:0:
256,192,294929,1,8,0:0:0:0:
256,192,295151,1,4,0:0:0:0:
256,192,295596,1,0,0:0:0:0:
256,192,295707,1,8,0:0:0:0:
256,192,295818,1,0,0:0:0:0:
256,192,296040,1,8,0:0:0:0:
256,192,296484,1,8,0:0:0:0:
256,192,296596,1,8,0:0:0:0:
256,192,296707,1,0,0:0:0:0:
256,192,296929,1,0,0:0:0:0:
256,192,297040,1,8,0:0:0:0:
256,192,297262,1,8,0:0:0:0:
256,192,297373,1,0,0:0:0:0:
256,192,297596,1,0,0:0:0:0:
256,192,297707,1,0,0:0:0:0:
256,192,297818,1,8,0:0:0:0:
256,192,298040,1,0,0:0:0:0:
256,192,298151,1,0,0:0:0:0:
256,192,298262,1,8,0:0:0:0:
256,192,298373,1,0,0:0:0:0:
256,192,298484,1,8,0:0:0:0:
256,192,298707,1,4,0:0:0:0:
256,192,299151,1,0,0:0:0:0:
256,192,299262,1,8,0:0:0:0:
256,192,299373,1,0,0:0:0:0:
256,192,299596,1,8,0:0:0:0:
256,192,300040,1,8,0:0:0:0:
256,192,300151,1,0,0:0:0:0:
256,192,300262,1,8,0:0:0:0:
256,192,300484,1,0,0:0:0:0:
256,192,300596,1,8,0:0:0:0:
256,192,300818,1,0,0:0:0:0:
256,192,300929,1,8,0:0:0:0:
256,192,301151,1,0,0:0:0:0:
256,192,301373,1,8,0:0:0:0:
256,192,301484,1,0,0:0:0:0:
256,192,301596,1,0,0:0:0:0:
256,192,301818,1,8,0:0:0:0:
256,192,301929,1,8,0:0:0:0:
256,192,302151,1,8,0:0:0:0:
256,192,302262,1,4,0:0:0:0:
256,192,302707,1,0,0:0:0:0:
256,192,302818,1,8,0:0:0:0:
256,192,302929,1,0,0:0:0:0:
256,192,303151,1,8,0:0:0:0:
256,192,303596,1,8,0:0:0:0:
256,192,303707,1,0,0:0:0:0:
256,192,303818,1,8,0:0:0:0:
256,192,304040,1,0,0:0:0:0:
256,192,304151,1,8,0:0:0:0:
256,192,304373,1,0,0:0:0:0:
256,192,304484,1,8,0:0:0:0:
256,192,304929,1,8,0:0:0:0:
256,192,305040,1,0,0:0:0:0:
256,192,305151,1,0,0:0:0:0:
256,192,305373,1,8,0:0:0:0:
256,192,305484,1,8,0:0:0:0:
256,192,305707,1,8,0:0:0:0:
256,192,305818,1,4,0:0:0:0:
256,192,306262,1,0,0:0:0:0:
256,192,306373,1,8,0:0:0:0:
256,192,306484,1,0,0:0:0:0:
256,192,306707,1,8,0:0:0:0:
256,192,307151,1,8,0:0:0:0:
256,192,307262,1,0,0:0:0:0:
256,192,307373,1,8,0:0:0:0:
256,192,307596,1,0,0:0:0:0:
256,192,307707,1,8,0:0:0:0:
256,192,307929,1,0,0:0:0:0:
256,192,308040,1,8,0:0:0:0:
256,192,308262,1,0,0:0:0:0:
256,192,308484,1,8,0:0:0:0:
256,192,308596,1,0,0:0:0:0:
256,192,308707,1,0,0:0:0:0:
256,192,308929,1,8,0:0:0:0:
256,192,309040,1,8,0:0:0:0:
256,192,309262,1,8,0:0:0:0:
256,192,309373,1,4,0:0:0:0:
256,192,309818,1,0,0:0:0:0:
256,192,309929,1,8,0:0:0:0:
256,192,310040,1,0,0:0:0:0:
256,192,310262,1,8,0:0:0:0:
256,192,310707,1,8,0:0:0:0:
256,192,310818,1,0,0:0:0:0:
256,192,310929,1,8,0:0:0:0:
256,192,311151,1,0,0:0:0:0:
256,192,311262,1,8,0:0:0:0:
256,192,311484,1,0,0:0:0:0:
256,192,311596,1,8,0:0:0:0:
256,192,311670,1,8,0:0:0:0:
256,192,311744,1,8,0:0:0:0:
256,192,311818,1,8,0:0:0:0:
256,192,311892,1,8,0:0:0:0:
256,192,311966,1,8,0:0:0:0:
256,192,312040,1,8,0:0:0:0:
256,192,312262,1,0,0:0:0:0:
256,192,312373,1,0,0:0:0:0:
256,192,312484,1,8,0:0:0:0:
256,192,312929,1,4,0:0:0:0:
256,192,313373,1,0,0:0:0:0:
256,192,313484,1,8,0:0:0:0:
256,192,313596,1,0,0:0:0:0:
256,192,313818,1,8,0:0:0:0:
256,192,314262,1,8,0:0:0:0:
256,192,314373,1,0,0:0:0:0:
256,192,314484,1,8,0:0:0:0:
256,192,314707,1,0,0:0:0:0:
256,192,314818,1,8,0:0:0:0:
256,192,315040,1,0,0:0:0:0:
256,192,315151,1,8,0:0:0:0:
256,192,315373,1,0,0:0:0:0:
256,192,315596,1,8,0:0:0:0:
256,192,315707,1,0,0:0:0:0:
256,192,315818,1,0,0:0:0:0:
256,192,316040,1,8,0:0:0:0:
256,192,316151,1,8,0:0:0:0:
256,192,316373,1,8,0:0:0:0:
256,192,316484,1,0,0:0:0:0:
256,192,316929,1,0,0:0:0:0:
256,192,317040,1,8,0:0:0:0:
256,192,317151,1,0,0:0:0:0:
256,192,317373,1,8,0:0:0:0:
256,192,317818,1,8,0:0:0:0:
256,192,317929,1,0,0:0:0:0:
256,192,318040,1,8,0:0:0:0:
256,192,318262,1,0,0:0:0:0:
256,192,318373,1,8,0:0:0:0:
256,192,318596,1,0,0:0:0:0:
256,192,318707,1,8,0:0:0:0:
256,192,318929,1,8,0:0:0:0:
256,192,319151,1,8,0:0:0:0:
256,192,319262,1,0,0:0:0:0:
256,192,319373,1,0,0:0:0:0:
256,192,319596,1,8,0:0:0:0:
256,192,319707,1,0,0:0:0:0:
256,192,319818,1,8,0:0:0:0:
256,192,319929,1,8,0:0:0:0:
256,192,320040,1,0,0:0:0:0:
256,192,320484,1,0,0:0:0:0:
256,192,320596,1,8,0:0:0:0:
256,192,320707,1,0,0:0:0:0:
256,192,320929,1,8,0:0:0:0:
256,192,321373,1,8,0:0:0:0:
256,192,321484,1,0,0:0:0:0:
256,192,321596,1,8,0:0:0:0:
256,192,321818,1,0,0:0:0:0:
256,192,321929,1,8,0:0:0:0:
256,192,322151,1,0,0:0:0:0:
256,192,322262,1,8,0:0:0:0:
256,192,322484,1,8,0:0:0:0:
256,192,322707,1,8,0:0:0:0:
256,192,322818,1,0,0:0:0:0:
256,192,322929,1,0,0:0:0:0:
256,192,323151,1,8,0:0:0:0:
256,192,323262,1,8,0:0:0:0:
256,192,323484,1,8,0:0:0:0:
256,192,323596,1,0,0:0:0:0:
256,192,324040,1,0,0:0:0:0:
256,192,324151,1,8,0:0:0:0:
256,192,324262,1,0,0:0:0:0:
256,192,324484,1,8,0:0:0:0:
256,192,324929,1,8,0:0:0:0:
256,192,325040,1,0,0:0:0:0:
256,192,325151,1,8,0:0:0:0:
256,192,325373,1,0,0:0:0:0:
256,192,325484,1,8,0:0:0:0:
256,192,325707,1,0,0:0:0:0:
256,192,325818,1,8,0:0:0:0:
256,192,326151,1,0,0:0:0:0:
256,192,326262,1,8,0:0:0:0:
256,192,326373,1,0,0:0:0:0:
256,192,326484,1,0,0:0:0:0:
256,192,326707,1,8,0:0:0:0:
