osu file format v14

[General]
AudioFilename: audio.mp3
AudioLeadIn: 0
PreviewTime: -1
Countdown: 1
SampleSet: None
StackLeniency: 0.7
Mode: 3
LetterboxInBreaks: 0
SpecialStyle: 0
WidescreenStoryboard: 0

[Editor]
Bookmarks: 8687,19085,35274,52384,60808,69232
DistanceSpacing: 0.7
BeatDivisor: 2
GridSize: 32
TimelineZoom: 1

[Metadata]
Title:Boogie Woogie Splattershow
TitleUnicode:Boogie Woogie Splattershow
Artist:t+pazolite
ArtistUnicode:t+pazolite
Creator:[c0ry]
Version:Splattershow
Source:
Tags:Damn
BeatmapID:1365817
BeatmapSetID:644418

[Difficulty]
HPDrainRate:8
CircleSize:4
OverallDifficulty:4
ApproachRate:5
SliderMultiplier:1.4
SliderTickRate:1

[Events]
//Background and Video events
0,0,"paint_splatter-wallpaper-1366x768.jpg",0,0
//Break Periods
2,10334,17885
//Storyboard Layer 0 (Background)
//Storyboard Layer 1 (Fail)
//Storyboard Layer 2 (Pass)
//Storyboard Layer 3 (Foreground)
//Storyboard Sound Samples

[TimingPoints]
1316.43660572723,263.238713640153,4,1,0,100,1,0

[HitObjects]
64,192,263,5,0,0:0:0:0:
192,192,526,1,0,0:0:0:0:
320,192,789,1,0,0:0:0:0:
448,192,1053,1,0,0:0:0:0:
320,192,1316,1,0,0:0:0:0:
64,192,1579,1,0,0:0:0:0:
320,192,1579,1,0,0:0:0:0:
320,192,1842,1,0,0:0:0:0:
192,192,2106,1,0,0:0:0:0:
448,192,2106,1,0,0:0:0:0:
448,192,2369,1,0,0:0:0:0:
192,192,2632,1,0,0:0:0:0:
64,192,2895,1,0,0:0:0:0:
320,192,3159,1,0,0:0:0:0:
64,192,3422,1,0,0:0:0:0:
320,192,3422,1,0,0:0:0:0:
64,192,3685,1,0,0:0:0:0:
320,192,3685,1,0,0:0:0:0:
192,192,3948,1,0,0:0:0:0:
448,192,3948,1,0,0:0:0:0:
192,192,4212,1,0,0:0:0:0:
448,192,4212,1,0,0:0:0:0:
64,192,4475,1,0,0:0:0:0:
192,192,4738,1,0,0:0:0:0:
320,192,5001,1,0,0:0:0:0:
448,192,5265,1,0,0:0:0:0:
320,192,5528,1,0,0:0:0:0:
192,192,5791,1,0,0:0:0:0:
448,192,5791,1,0,0:0:0:0:
64,192,6054,1,0,0:0:0:0:
320,192,6054,1,0,0:0:0:0:
192,192,6317,1,0,0:0:0:0:
448,192,6317,1,0,0:0:0:0:
64,192,6581,128,0,6712:0:0:0:0:
320,192,6844,128,0,6976:0:0:0:0:
64,192,7107,128,0,7239:0:0:0:0:
448,192,7370,128,0,7502:0:0:0:0:
320,192,7634,128,0,7765:0:0:0:0:
192,192,7897,128,0,8029:0:0:0:0:
64,192,8160,128,0,8292:0:0:0:0:
192,192,8423,128,0,8555:0:0:0:0:
64,192,8687,128,0,8818:0:0:0:0:
192,192,8950,1,0,0:0:0:0:
320,192,9081,1,0,0:0:0:0:
448,192,9213,1,0,0:0:0:0:
448,192,9608,1,0,0:0:0:0:
320,192,9740,1,0,0:0:0:0:
64,192,9740,1,0,0:0:0:0:
192,192,9871,1,0,0:0:0:0:
64,192,10134,1,0,0:0:0:0:
64,192,19085,5,0,0:0:0:0:
320,192,19085,1,0,0:0:0:0:
64,192,19216,1,0,0:0:0:0:
320,192,19216,1,0,0:0:0:0:
192,192,19348,1,0,0:0:0:0:
448,192,19348,1,0,0:0:0:0:
448,192,19479,1,0,0:0:0:0:
192,192,19479,1,0,0:0:0:0:
64,192,19611,1,0,0:0:0:0:
192,192,20138,1,0,0:0:0:0:
448,192,20138,1,0,0:0:0:0:
448,192,20269,1,0,0:0:0:0:
192,192,20269,1,0,0:0:0:0:
64,192,20401,1,0,0:0:0:0:
320,192,20401,1,0,0:0:0:0:
320,192,20532,1,0,0:0:0:0:
64,192,20532,1,0,0:0:0:0:
448,192,20664,1,0,0:0:0:0:
448,192,21190,1,0,0:0:0:0:
320,192,21190,1,0,0:0:0:0:
320,192,21322,1,0,0:0:0:0:
448,192,21322,1,0,0:0:0:0:
192,192,21454,1,0,0:0:0:0:
64,192,21454,1,0,0:0:0:0:
64,192,21585,1,0,0:0:0:0:
192,192,21585,1,0,0:0:0:0:
320,192,21717,1,0,0:0:0:0:
64,192,22112,1,0,0:0:0:0:
320,192,22375,1,0,0:0:0:0:
64,192,22638,1,0,0:0:0:0:
320,192,22902,1,0,0:0:0:0:
64,192,23165,1,0,0:0:0:0:
192,192,23165,1,0,0:0:0:0:
320,192,23296,1,0,0:0:0:0:
448,192,23296,1,0,0:0:0:0:
192,192,23428,1,0,0:0:0:0:
64,192,23428,1,0,0:0:0:0:
320,192,23560,1,0,0:0:0:0:
448,192,23560,1,0,0:0:0:0:
192,192,23691,1,0,0:0:0:0:
64,192,24218,1,0,0:0:0:0:
192,192,24218,1,0,0:0:0:0:
448,192,24218,128,0,24744:0:0:0:0:
192,192,24349,1,0,0:0:0:0:
64,192,24349,1,0,0:0:0:0:
320,192,24481,1,0,0:0:0:0:
192,192,24481,1,0,0:0:0:0:
192,192,24613,1,0,0:0:0:0:
320,192,24613,1,0,0:0:0:0:
64,192,24744,1,0,0:0:0:0:
448,192,25271,1,0,0:0:0:0:
320,192,25271,1,0,0:0:0:0:
64,192,25271,128,0,25797:0:0:0:0:
192,192,25402,1,0,0:0:0:0:
448,192,25534,1,0,0:0:0:0:
320,192,25534,1,0,0:0:0:0:
192,192,25666,1,0,0:0:0:0:
448,192,25797,1,0,0:0:0:0:
64,192,26324,1,0,0:0:0:0:
448,192,26587,1,0,0:0:0:0:
320,192,26587,1,0,0:0:0:0:
64,192,26850,1,0,0:0:0:0:
192,192,27113,1,0,0:0:0:0:
448,192,27245,1,0,0:0:0:0:
64,192,27245,1,0,0:0:0:0:
64,192,27377,1,0,0:0:0:0:
448,192,27377,1,0,0:0:0:0:
320,192,27377,1,0,0:0:0:0:
192,192,27377,1,0,0:0:0:0:
320,192,27508,1,0,0:0:0:0:
192,192,27508,1,0,0:0:0:0:
448,192,27508,1,0,0:0:0:0:
64,192,27508,1,0,0:0:0:0:
64,192,27640,1,0,0:0:0:0:
448,192,27640,1,0,0:0:0:0:
320,192,27640,1,0,0:0:0:0:
192,192,27640,1,0,0:0:0:0:
320,192,27771,1,0,0:0:0:0:
192,192,27771,1,0,0:0:0:0:
64,192,27771,1,0,0:0:0:0:
448,192,27771,1,0,0:0:0:0:
64,192,27903,1,0,0:0:0:0:
448,192,27903,1,0,0:0:0:0:
64,192,28430,1,0,0:0:0:0:
192,192,28430,1,0,0:0:0:0:
320,192,28430,1,0,0:0:0:0:
448,192,28430,1,0,0:0:0:0:
448,192,28561,1,0,0:0:0:0:
320,192,28561,1,0,0:0:0:0:
192,192,28561,1,0,0:0:0:0:
64,192,28561,1,0,0:0:0:0:
64,192,28693,1,0,0:0:0:0:
192,192,28693,1,0,0:0:0:0:
320,192,28693,1,0,0:0:0:0:
448,192,28693,1,0,0:0:0:0:
448,192,28824,1,0,0:0:0:0:
320,192,28824,1,0,0:0:0:0:
192,192,28824,1,0,0:0:0:0:
64,192,28824,1,0,0:0:0:0:
192,192,28956,1,0,0:0:0:0:
320,192,28956,1,0,0:0:0:0:
64,192,29482,128,0,29614:0:0:0:0:
320,192,29482,128,0,29614:0:0:0:0:
448,192,29614,128,0,29746:0:0:0:0:
192,192,29614,128,0,29746:0:0:0:0:
64,192,29746,128,0,29877:0:0:0:0:
320,192,29746,128,0,29877:0:0:0:0:
192,192,30009,1,0,0:0:0:0:
64,192,30535,1,0,0:0:0:0:
320,192,30535,1,0,0:0:0:0:
320,192,30799,1,0,0:0:0:0:
64,192,30799,1,0,0:0:0:0:
192,192,31062,1,0,0:0:0:0:
448,192,31062,1,0,0:0:0:0:
192,192,31325,1,0,0:0:0:0:
448,192,31325,1,0,0:0:0:0:
448,192,31588,1,0,0:0:0:0:
320,192,31720,1,0,0:0:0:0:
64,192,31852,1,0,0:0:0:0:
192,192,31852,1,0,0:0:0:0:
320,192,31983,1,0,0:0:0:0:
448,192,32115,1,0,0:0:0:0:
64,192,32641,1,0,0:0:0:0:
192,192,32773,1,0,0:0:0:0:
320,192,32905,1,0,0:0:0:0:
448,192,32905,1,0,0:0:0:0:
192,192,33036,1,0,0:0:0:0:
64,192,33168,1,0,0:0:0:0:
448,192,33694,1,0,0:0:0:0:
64,192,33694,1,0,0:0:0:0:
192,192,33826,1,0,0:0:0:0:
320,192,33826,1,0,0:0:0:0:
320,192,33958,1,0,0:0:0:0:
192,192,33958,1,0,0:0:0:0:
64,192,34089,1,0,0:0:0:0:
448,192,34089,1,0,0:0:0:0:
192,192,34221,1,0,0:0:0:0:
320,192,34221,1,0,0:0:0:0:
64,192,34747,1,0,0:0:0:0:
448,192,35010,1,0,0:0:0:0:
64,192,35800,1,0,0:0:0:0:
192,192,35800,1,0,0:0:0:0:
320,192,35800,1,0,0:0:0:0:
448,192,35800,1,0,0:0:0:0:
448,192,35932,1,0,0:0:0:0:
320,192,35932,1,0,0:0:0:0:
192,192,35932,1,0,0:0:0:0:
64,192,35932,1,0,0:0:0:0:
64,192,36063,1,0,0:0:0:0:
192,192,36063,1,0,0:0:0:0:
320,192,36063,1,0,0:0:0:0:
448,192,36063,1,0,0:0:0:0:
448,192,36195,1,0,0:0:0:0:
320,192,36195,1,0,0:0:0:0:
192,192,36195,1,0,0:0:0:0:
64,192,36195,1,0,0:0:0:0:
64,192,36327,1,0,0:0:0:0:
192,192,36327,1,0,0:0:0:0:
320,192,36327,1,0,0:0:0:0:
448,192,36327,1,0,0:0:0:0:
448,192,36458,1,0,0:0:0:0:
320,192,36458,1,0,0:0:0:0:
192,192,36458,1,0,0:0:0:0:
64,192,36458,1,0,0:0:0:0:
64,192,36590,1,0,0:0:0:0:
192,192,36590,1,0,0:0:0:0:
320,192,36590,1,0,0:0:0:0:
448,192,36590,1,0,0:0:0:0:
448,192,36722,1,0,0:0:0:0:
320,192,36722,1,0,0:0:0:0:
192,192,36722,1,0,0:0:0:0:
64,192,36722,1,0,0:0:0:0:
64,192,36853,1,0,0:0:0:0:
192,192,36853,1,0,0:0:0:0:
320,192,36853,1,0,0:0:0:0:
448,192,36853,1,0,0:0:0:0:
64,192,36985,1,0,0:0:0:0:
192,192,36985,1,0,0:0:0:0:
320,192,36985,1,0,0:0:0:0:
448,192,36985,1,0,0:0:0:0:
448,192,37116,1,0,0:0:0:0:
320,192,37116,1,0,0:0:0:0:
192,192,37116,1,0,0:0:0:0:
64,192,37116,1,0,0:0:0:0:
64,192,37248,1,0,0:0:0:0:
192,192,37248,1,0,0:0:0:0:
320,192,37248,1,0,0:0:0:0:
448,192,37248,1,0,0:0:0:0:
448,192,37380,1,0,0:0:0:0:
320,192,37380,1,0,0:0:0:0:
192,192,37380,1,0,0:0:0:0:
64,192,37380,1,0,0:0:0:0:
64,192,37511,1,0,0:0:0:0:
192,192,37511,1,0,0:0:0:0:
320,192,37511,1,0,0:0:0:0:
448,192,37511,1,0,0:0:0:0:
448,192,37643,1,0,0:0:0:0:
320,192,37731,1,0,0:0:0:0:
192,192,37818,1,0,0:0:0:0:
64,192,37906,1,0,0:0:0:0:
448,192,38038,1,0,0:0:0:0:
320,192,38038,1,0,0:0:0:0:
192,192,38038,1,0,0:0:0:0:
64,192,38038,1,0,0:0:0:0:
448,192,38169,1,0,0:0:0:0:
320,192,38169,1,0,0:0:0:0:
192,192,38169,1,0,0:0:0:0:
64,192,38169,1,0,0:0:0:0:
64,192,38301,1,0,0:0:0:0:
192,192,38301,1,0,0:0:0:0:
320,192,38301,1,0,0:0:0:0:
448,192,38301,1,0,0:0:0:0:
448,192,38433,1,0,0:0:0:0:
320,192,38433,1,0,0:0:0:0:
192,192,38433,1,0,0:0:0:0:
64,192,38433,1,0,0:0:0:0:
64,192,38564,1,0,0:0:0:0:
192,192,38564,1,0,0:0:0:0:
320,192,38564,1,0,0:0:0:0:
448,192,38564,1,0,0:0:0:0:
448,192,38696,1,0,0:0:0:0:
320,192,38696,1,0,0:0:0:0:
192,192,38696,1,0,0:0:0:0:
64,192,38696,1,0,0:0:0:0:
64,192,38827,1,0,0:0:0:0:
192,192,38827,1,0,0:0:0:0:
320,192,38827,1,0,0:0:0:0:
448,192,38827,1,0,0:0:0:0:
64,192,38959,1,0,0:0:0:0:
192,192,39222,1,0,0:0:0:0:
320,192,39486,1,0,0:0:0:0:
448,192,39749,1,0,0:0:0:0:
448,192,40012,1,0,0:0:0:0:
64,192,40012,1,0,0:0:0:0:
192,192,40144,1,0,0:0:0:0:
320,192,40144,1,0,0:0:0:0:
64,192,40275,1,0,0:0:0:0:
448,192,40275,1,0,0:0:0:0:
320,192,40407,1,0,0:0:0:0:
192,192,40407,1,0,0:0:0:0:
64,192,40539,1,0,0:0:0:0:
448,192,40539,1,0,0:0:0:0:
320,192,40670,1,0,0:0:0:0:
192,192,40670,1,0,0:0:0:0:
64,192,40802,1,0,0:0:0:0:
448,192,40802,1,0,0:0:0:0:
320,192,40933,1,0,0:0:0:0:
192,192,40933,1,0,0:0:0:0:
64,192,41065,1,0,0:0:0:0:
448,192,41065,1,0,0:0:0:0:
320,192,41197,1,0,0:0:0:0:
192,192,41197,1,0,0:0:0:0:
448,192,41328,1,0,0:0:0:0:
64,192,41328,1,0,0:0:0:0:
320,192,41460,1,0,0:0:0:0:
192,192,41460,1,0,0:0:0:0:
64,192,41591,1,0,0:0:0:0:
448,192,41591,1,0,0:0:0:0:
320,192,41723,1,0,0:0:0:0:
192,192,41723,1,0,0:0:0:0:
64,192,41855,1,0,0:0:0:0:
192,192,41942,1,0,0:0:0:0:
64,192,42030,1,0,0:0:0:0:
192,192,42118,1,0,0:0:0:0:
64,192,42250,1,0,0:0:0:0:
192,192,42250,1,0,0:0:0:0:
320,192,42381,1,0,0:0:0:0:
448,192,42381,1,0,0:0:0:0:
192,192,42513,1,0,0:0:0:0:
64,192,42513,1,0,0:0:0:0:
320,192,42644,1,0,0:0:0:0:
448,192,42644,1,0,0:0:0:0:
192,192,42776,1,0,0:0:0:0:
64,192,42776,1,0,0:0:0:0:
320,192,42908,1,0,0:0:0:0:
448,192,42908,1,0,0:0:0:0:
192,192,43039,1,0,0:0:0:0:
64,192,43039,1,0,0:0:0:0:
64,192,43303,1,0,0:0:0:0:
192,192,43434,1,0,0:0:0:0:
320,192,43566,1,0,0:0:0:0:
448,192,43697,1,0,0:0:0:0:
320,192,43829,1,0,0:0:0:0:
192,192,43961,1,0,0:0:0:0:
64,192,44092,1,0,0:0:0:0:
64,192,44224,1,0,0:0:0:0:
192,192,44355,1,0,0:0:0:0:
320,192,44487,1,0,0:0:0:0:
448,192,44619,1,0,0:0:0:0:
64,192,44750,1,0,0:0:0:0:
192,192,44882,1,0,0:0:0:0:
320,192,45014,1,0,0:0:0:0:
448,192,45145,1,0,0:0:0:0:
64,192,45277,1,0,0:0:0:0:
192,192,45408,1,0,0:0:0:0:
320,192,45540,1,0,0:0:0:0:
448,192,45672,1,0,0:0:0:0:
192,192,45803,1,0,0:0:0:0:
320,192,45891,1,0,0:0:0:0:
192,192,45979,1,0,0:0:0:0:
320,192,46067,1,0,0:0:0:0:
192,192,46154,1,0,0:0:0:0:
64,192,46330,1,0,0:0:0:0:
192,192,46330,1,0,0:0:0:0:
192,192,46461,1,0,0:0:0:0:
64,192,46461,1,0,0:0:0:0:
320,192,46593,1,0,0:0:0:0:
448,192,46593,1,0,0:0:0:0:
448,192,46725,1,0,0:0:0:0:
320,192,46725,1,0,0:0:0:0:
64,192,46856,1,0,0:0:0:0:
192,192,46856,1,0,0:0:0:0:
192,192,46988,1,0,0:0:0:0:
64,192,46988,1,0,0:0:0:0:
320,192,47119,1,0,0:0:0:0:
448,192,47119,1,0,0:0:0:0:
448,192,47251,1,0,0:0:0:0:
320,192,47251,1,0,0:0:0:0:
64,192,47383,1,0,0:0:0:0:
192,192,47514,1,0,0:0:0:0:
320,192,47646,1,0,0:0:0:0:
448,192,47778,1,0,0:0:0:0:
64,192,47909,128,0,48041:0:0:0:0:
448,192,47909,128,0,48041:0:0:0:0:
192,192,48041,128,0,48172:0:0:0:0:
320,192,48041,128,0,48172:0:0:0:0:
448,192,48304,1,0,0:0:0:0:
320,192,48436,1,0,0:0:0:0:
192,192,48567,1,0,0:0:0:0:
64,192,48699,1,0,0:0:0:0:
192,192,48699,1,0,0:0:0:0:
320,192,48831,1,0,0:0:0:0:
448,192,48962,1,0,0:0:0:0:
320,192,49094,1,0,0:0:0:0:
192,192,49225,1,0,0:0:0:0:
64,192,49225,1,0,0:0:0:0:
320,192,49357,1,0,0:0:0:0:
64,192,49357,128,0,49620:0:0:0:0:
448,192,49489,1,0,0:0:0:0:
320,192,49620,1,0,0:0:0:0:
192,192,49752,1,0,0:0:0:0:
448,192,49752,128,0,50015:0:0:0:0:
64,192,49883,1,0,0:0:0:0:
192,192,50015,1,0,0:0:0:0:
64,192,50103,1,0,0:0:0:0:
448,192,50191,1,0,0:0:0:0:
64,192,50278,1,0,0:0:0:0:
448,192,50366,1,0,0:0:0:0:
192,192,50542,1,0,0:0:0:0:
64,192,50542,128,0,50805:0:0:0:0:
320,192,50673,1,0,0:0:0:0:
192,192,50805,1,0,0:0:0:0:
320,192,50936,1,0,0:0:0:0:
448,192,50936,128,0,51200:0:0:0:0:
192,192,51068,1,0,0:0:0:0:
320,192,51200,1,0,0:0:0:0:
64,192,52384,1,0,0:0:0:0:
192,192,52384,1,0,0:0:0:0:
320,192,52384,1,0,0:0:0:0:
448,192,52384,1,0,0:0:0:0:
448,192,52516,1,0,0:0:0:0:
320,192,52516,1,0,0:0:0:0:
192,192,52516,1,0,0:0:0:0:
64,192,52516,1,0,0:0:0:0:
64,192,52647,1,0,0:0:0:0:
192,192,52647,1,0,0:0:0:0:
320,192,52647,1,0,0:0:0:0:
448,192,52647,1,0,0:0:0:0:
320,192,52779,1,0,0:0:0:0:
192,192,52779,1,0,0:0:0:0:
448,192,52911,1,0,0:0:0:0:
64,192,52911,1,0,0:0:0:0:
320,192,53042,1,0,0:0:0:0:
192,192,53042,1,0,0:0:0:0:
448,192,53174,1,0,0:0:0:0:
64,192,53174,1,0,0:0:0:0:
192,192,53306,1,0,0:0:0:0:
320,192,53306,1,0,0:0:0:0:
64,192,53437,1,0,0:0:0:0:
448,192,53437,1,0,0:0:0:0:
320,192,53569,1,0,0:0:0:0:
192,192,53569,1,0,0:0:0:0:
64,192,53700,1,0,0:0:0:0:
448,192,53700,1,0,0:0:0:0:
320,192,53832,1,0,0:0:0:0:
192,192,53832,1,0,0:0:0:0:
64,192,53964,1,0,0:0:0:0:
448,192,53964,1,0,0:0:0:0:
320,192,54095,1,0,0:0:0:0:
192,192,54095,1,0,0:0:0:0:
448,192,54227,1,0,0:0:0:0:
320,192,54315,1,0,0:0:0:0:
192,192,54402,1,0,0:0:0:0:
320,192,54490,1,0,0:0:0:0:
448,192,54622,1,0,0:0:0:0:
320,192,54622,1,0,0:0:0:0:
320,192,54753,1,0,0:0:0:0:
192,192,54753,1,0,0:0:0:0:
192,192,54885,1,0,0:0:0:0:
64,192,54885,1,0,0:0:0:0:
448,192,55017,1,0,0:0:0:0:
320,192,55017,1,0,0:0:0:0:
320,192,55148,1,0,0:0:0:0:
192,192,55148,1,0,0:0:0:0:
192,192,55280,1,0,0:0:0:0:
64,192,55280,1,0,0:0:0:0:
64,192,55411,1,0,0:0:0:0:
320,192,55411,1,0,0:0:0:0:
448,192,55543,1,0,0:0:0:0:
192,192,55543,1,0,0:0:0:0:
64,192,55675,128,0,55806:0:0:0:0:
192,192,55806,128,0,55938:0:0:0:0:
320,192,55938,128,0,56070:0:0:0:0:
448,192,56070,128,0,56201:0:0:0:0:
320,192,56201,128,0,56333:0:0:0:0:
192,192,56333,128,0,56464:0:0:0:0:
64,192,56596,1,0,0:0:0:0:
192,192,56596,1,0,0:0:0:0:
192,192,56728,1,0,0:0:0:0:
320,192,56728,1,0,0:0:0:0:
448,192,56859,1,0,0:0:0:0:
320,192,56859,1,0,0:0:0:0:
320,192,56991,1,0,0:0:0:0:
192,192,56991,1,0,0:0:0:0:
64,192,57123,1,0,0:0:0:0:
192,192,57123,1,0,0:0:0:0:
192,192,57254,1,0,0:0:0:0:
320,192,57254,1,0,0:0:0:0:
448,192,57386,1,0,0:0:0:0:
320,192,57386,1,0,0:0:0:0:
320,192,57517,1,0,0:0:0:0:
192,192,57517,1,0,0:0:0:0:
64,192,57649,1,0,0:0:0:0:
192,192,57649,1,0,0:0:0:0:
192,192,57781,1,0,0:0:0:0:
320,192,57781,1,0,0:0:0:0:
320,192,57912,1,0,0:0:0:0:
448,192,57912,1,0,0:0:0:0:
320,192,58044,1,0,0:0:0:0:
192,192,58044,1,0,0:0:0:0:
192,192,58175,1,0,0:0:0:0:
64,192,58175,1,0,0:0:0:0:
192,192,58307,1,0,0:0:0:0:
320,192,58307,1,0,0:0:0:0:
320,192,58439,1,0,0:0:0:0:
192,192,58526,1,0,0:0:0:0:
448,192,58526,1,0,0:0:0:0:
64,192,58614,1,0,0:0:0:0:
192,192,58702,1,0,0:0:0:0:
320,192,58834,1,0,0:0:0:0:
64,192,58834,1,0,0:0:0:0:
448,192,58965,1,0,0:0:0:0:
192,192,58965,1,0,0:0:0:0:
64,192,58965,1,0,0:0:0:0:
320,192,58965,1,0,0:0:0:0:
320,192,59097,1,0,0:0:0:0:
64,192,59097,1,0,0:0:0:0:
448,192,59228,1,0,0:0:0:0:
192,192,59228,1,0,0:0:0:0:
64,192,59228,1,0,0:0:0:0:
320,192,59228,1,0,0:0:0:0:
320,192,59360,1,0,0:0:0:0:
64,192,59360,1,0,0:0:0:0:
448,192,59492,1,0,0:0:0:0:
192,192,59492,1,0,0:0:0:0:
64,192,59492,1,0,0:0:0:0:
320,192,59492,1,0,0:0:0:0:
64,192,59623,1,0,0:0:0:0:
192,192,59623,1,0,0:0:0:0:
320,192,59623,1,0,0:0:0:0:
448,192,59623,1,0,0:0:0:0:
448,192,59755,1,0,0:0:0:0:
320,192,59755,1,0,0:0:0:0:
192,192,59755,1,0,0:0:0:0:
64,192,59755,1,0,0:0:0:0:
64,192,59887,128,0,60018:0:0:0:0:
448,192,59887,128,0,60018:0:0:0:0:
192,192,60018,128,0,60150:0:0:0:0:
320,192,60018,128,0,60150:0:0:0:0:
448,192,60150,128,0,60281:0:0:0:0:
64,192,60150,128,0,60281:0:0:0:0:
192,192,60281,128,0,60413:0:0:0:0:
320,192,60281,128,0,60413:0:0:0:0:
448,192,60413,128,0,60545:0:0:0:0:
320,192,60545,128,0,60676:0:0:0:0:
192,192,60808,1,0,0:0:0:0:
320,192,60940,1,0,0:0:0:0:
64,192,61071,1,0,0:0:0:0:
448,192,61071,1,0,0:0:0:0:
320,192,61203,1,0,0:0:0:0:
192,192,61334,1,0,0:0:0:0:
64,192,61466,1,0,0:0:0:0:
448,192,61466,1,0,0:0:0:0:
320,192,61598,1,0,0:0:0:0:
192,192,61729,1,0,0:0:0:0:
448,192,61861,1,0,0:0:0:0:
64,192,61861,1,0,0:0:0:0:
192,192,61992,1,0,0:0:0:0:
320,192,62124,1,0,0:0:0:0:
448,192,62256,1,0,0:0:0:0:
64,192,62256,1,0,0:0:0:0:
320,192,62387,1,0,0:0:0:0:
192,192,62519,1,0,0:0:0:0:
448,192,62651,1,0,0:0:0:0:
320,192,62738,1,0,0:0:0:0:
192,192,62826,1,0,0:0:0:0:
64,192,62914,1,0,0:0:0:0:
192,192,63002,1,0,0:0:0:0:
320,192,63089,1,0,0:0:0:0:
64,192,63177,1,0,0:0:0:0:
192,192,63177,1,0,0:0:0:0:
320,192,63309,1,0,0:0:0:0:
448,192,63440,1,0,0:0:0:0:
64,192,63572,1,0,0:0:0:0:
192,192,63572,1,0,0:0:0:0:
320,192,63704,1,0,0:0:0:0:
448,192,63835,1,0,0:0:0:0:
64,192,63967,1,0,0:0:0:0:
192,192,63967,1,0,0:0:0:0:
320,192,64098,1,0,0:0:0:0:
448,192,64230,128,0,64362:0:0:0:0:
320,192,64230,128,0,64362:0:0:0:0:
192,192,64362,128,0,64493:0:0:0:0:
64,192,64362,128,0,64493:0:0:0:0:
320,192,64493,128,0,64625:0:0:0:0:
448,192,64493,128,0,64625:0:0:0:0:
64,192,64625,128,0,64756:0:0:0:0:
192,192,64756,128,0,64888:0:0:0:0:
448,192,65020,1,0,0:0:0:0:
320,192,65020,1,0,0:0:0:0:
192,192,65151,1,0,0:0:0:0:
64,192,65283,1,0,0:0:0:0:
64,192,65415,1,0,0:0:0:0:
192,192,65415,1,0,0:0:0:0:
320,192,65546,1,0,0:0:0:0:
448,192,65678,1,0,0:0:0:0:
448,192,65809,1,0,0:0:0:0:
320,192,65809,1,0,0:0:0:0:
192,192,65941,1,0,0:0:0:0:
64,192,66073,1,0,0:0:0:0:
320,192,66204,1,0,0:0:0:0:
192,192,66204,1,0,0:0:0:0:
64,192,66336,1,0,0:0:0:0:
192,192,66468,1,0,0:0:0:0:
320,192,66599,1,0,0:0:0:0:
192,192,66599,1,0,0:0:0:0:
448,192,66731,1,0,0:0:0:0:
320,192,66862,1,0,0:0:0:0:
448,192,66994,1,0,0:0:0:0:
320,192,67126,1,0,0:0:0:0:
192,192,67257,1,0,0:0:0:0:
64,192,67389,1,0,0:0:0:0:
448,192,67520,1,0,0:0:0:0:
320,192,67652,1,0,0:0:0:0:
192,192,67784,1,0,0:0:0:0:
64,192,67915,1,0,0:0:0:0:
448,192,68047,1,0,0:0:0:0:
320,192,68179,1,0,0:0:0:0:
192,192,68310,1,0,0:0:0:0:
64,192,68442,1,0,0:0:0:0:
