osu file format v14

[General]
AudioFilename: 02 Boogie Woogie Splatter Show.mp3
AudioLeadIn: 1000
PreviewTime: -1
Countdown: 0
SampleSet: None
StackLeniency: 0.7
Mode: 1
LetterboxInBreaks: 0
WidescreenStoryboard: 1

[Editor]
DistanceSpacing: 0.8
BeatDivisor: 2
GridSize: 32
TimelineZoom: 2.299999

[Metadata]
Title:Boogie Woogie Splatter Show
TitleUnicode:Boogie Woogie Splatter Show
Artist:t+pazolite
ArtistUnicode:t+pazolite
Creator:jyake_ou
Version:Oni
Source:The Psycho Filth Vol.5 - Paradox Prison
Tags:Speedcore
BeatmapID:1431214
BeatmapSetID:676682

[Difficulty]
HPDrainRate:5
CircleSize:5
OverallDifficulty:5
ApproachRate:5
SliderMultiplier:1.4
SliderTickRate:4

[Events]
//Background and Video events
0,0,"paint-splatter-wallpaper-HD6.jpg",0,0
//Break Periods
2,85901,101196
//Storyboard Layer 0 (Background)
//Storyboard Layer 1 (Fail)
//Storyboard Layer 2 (Pass)
//Storyboard Layer 3 (Foreground)
//Storyboard Sound Samples

[TimingPoints]
137,521.739130434783,4,1,0,30,1,0
8484,-83.3333333333333,4,1,0,15,0,0
18528,-66.6666666666667,4,1,0,59,0,0
18919,130.434782608696,4,1,0,59,1,0
18919,-166.666666666667,4,1,0,59,0,1
19440,-166.666666666667,4,1,0,59,0,0
19962,-166.666666666667,4,1,0,59,0,1
20484,-166.666666666667,4,1,0,59,0,0
21005,-166.666666666667,4,1,0,59,0,1
21527,-166.666666666667,4,1,0,59,0,0
23092,-166.666666666667,4,1,0,59,0,1
23614,-166.666666666667,4,1,0,59,0,0
24136,-166.666666666667,4,1,0,59,0,1
24658,-166.666666666667,4,1,0,59,0,0
25179,-166.666666666667,4,1,0,59,0,1
25701,-166.666666666667,4,1,0,59,0,0
27266,-166.666666666667,4,1,0,59,0,1
27788,-166.666666666667,4,1,0,59,0,0
28310,-166.666666666667,4,1,0,59,0,1
28832,-166.666666666667,4,1,0,59,0,0
29353,-166.666666666667,4,1,0,59,0,1
29875,-166.666666666667,4,1,0,59,0,0
31440,-166.666666666667,4,1,0,59,0,1
31962,-166.666666666667,4,1,0,59,0,0
32484,-166.666666666667,4,1,0,59,0,1
33005,-166.666666666667,4,1,0,59,0,0
33527,-166.666666666667,4,1,0,59,0,1
35614,-136.986301369863,4,1,0,54,0,0
52310,-166.666666666667,4,1,0,59,0,0
85701,521.739130434783,4,1,0,30,1,0
85701,-83.3333333333333,4,1,0,30,0,0
110222,-66.6666666666667,4,1,0,30,0,0
110744,260.869565217391,4,1,0,59,1,0
110744,-100,4,1,0,59,0,0
119091,130.434782608696,4,1,0,59,1,0
119091,-166.666666666667,4,1,0,59,0,1
126395,-166.666666666667,4,1,0,59,0,0
127438,-166.666666666667,4,1,0,59,0,1
135786,-166.666666666667,4,1,0,59,0,0
152482,-166.666666666667,4,1,0,59,0,1
160830,-166.666666666667,4,1,0,59,0,0
169177,-166.666666666667,4,1,0,59,0,1
235699,-50,4,1,0,59,0,0

[HitObjects]
256,192,137,5,0,0:0:0:0:
256,192,397,1,8,0:0:0:0:
256,192,658,1,8,0:0:0:0:
256,192,919,1,0,0:0:0:0:
256,192,1180,1,8,0:0:0:0:
256,192,1441,1,8,0:0:0:0:
256,192,1702,1,0,0:0:0:0:
256,192,1963,1,8,0:0:0:0:
256,192,2223,1,0,0:0:0:0:
256,192,2484,1,8,0:0:0:0:
256,192,2615,1,8,0:0:0:0:
256,192,2745,1,8,0:0:0:0:
256,192,3006,1,0,0:0:0:0:
256,192,3267,1,8,0:0:0:0:
256,192,3528,1,8,0:0:0:0:
256,192,3789,1,0,0:0:0:0:
256,192,4050,1,0,0:0:0:0:
256,192,4310,1,0,0:0:0:0:
256,192,4570,1,8,0:0:0:0:
256,192,4831,1,8,0:0:0:0:
256,192,5092,1,0,0:0:0:0:
256,192,5353,1,8,0:0:0:0:
256,192,5614,1,8,0:0:0:0:
256,192,5875,1,0,0:0:0:0:
256,192,6136,1,8,0:0:0:0:
256,192,6396,1,0,0:0:0:0:
256,192,6657,1,8,0:0:0:0:
256,192,6788,1,8,0:0:0:0:
256,192,6918,1,8,0:0:0:0:
256,192,7179,1,0,0:0:0:0:
256,192,7440,1,8,0:0:0:0:
256,192,7701,1,8,0:0:0:0:
256,192,7962,1,0,0:0:0:0:
256,192,8223,1,0,0:0:0:0:
256,192,8484,1,0,0:0:0:0:
256,192,8745,1,0,0:0:0:0:
256,192,8876,1,0,0:0:0:0:
256,192,9006,1,8,0:0:0:0:
256,192,9267,1,0,0:0:0:0:
256,192,9397,1,8,0:0:0:0:
256,192,9528,1,0,0:0:0:0:
256,192,9658,1,0,0:0:0:0:
256,192,9789,1,0,0:0:0:0:
256,192,9919,1,0,0:0:0:0:
256,192,10050,1,8,0:0:0:0:
256,192,10310,1,0,0:0:0:0:
256,192,10571,1,0,0:0:0:0:
256,192,10832,1,0,0:0:0:0:
256,192,10963,1,0,0:0:0:0:
256,192,11093,1,8,0:0:0:0:
256,192,11354,1,0,0:0:0:0:
256,192,11484,1,8,0:0:0:0:
256,192,11615,1,0,0:0:0:0:
256,192,11745,1,8,0:0:0:0:
256,192,11876,1,0,0:0:0:0:
256,192,12006,1,0,0:0:0:0:
256,192,12137,1,8,0:0:0:0:
256,192,12397,1,0,0:0:0:0:
256,192,12528,1,8,0:0:0:0:
256,192,12658,1,0,0:0:0:0:
256,192,12919,1,0,0:0:0:0:
256,192,13050,1,0,0:0:0:0:
256,192,13180,1,8,0:0:0:0:
256,192,13310,1,8,0:0:0:0:
256,192,13441,1,0,0:0:0:0:
256,192,13571,1,0,0:0:0:0:
256,192,13702,1,8,0:0:0:0:
256,192,13832,1,0,0:0:0:0:
256,192,13963,1,0,0:0:0:0:
256,192,14093,1,0,0:0:0:0:
256,192,14223,1,8,0:0:0:0:
256,192,14484,1,0,0:0:0:0:
256,192,14745,1,8,0:0:0:0:
256,192,15006,1,0,0:0:0:0:
256,192,15137,1,0,0:0:0:0:
256,192,15267,1,8,0:0:0:0:
256,192,15528,1,0,0:0:0:0:
256,192,15658,1,0,0:0:0:0:
256,192,15789,1,8,0:0:0:0:
256,192,15919,1,0,0:0:0:0:
256,192,16050,1,0,0:0:0:0:
256,192,16180,1,0,0:0:0:0:
256,192,16310,1,8,0:0:0:0:
256,192,16571,1,0,0:0:0:0:
256,192,18528,1,8,0:0:0:0:
256,192,18658,1,8,0:0:0:0:
256,192,18789,1,0,0:0:0:0:
256,192,18919,1,4,0:0:0:0:
256,192,19049,1,4,0:0:0:0:
256,192,19179,1,4,0:0:0:0:
256,192,19310,1,4,0:0:0:0:
256,192,19440,1,4,0:0:0:0:
256,192,19701,1,8,0:0:0:0:
256,192,19962,1,4,0:0:0:0:
256,192,20092,1,4,0:0:0:0:
256,192,20223,1,4,0:0:0:0:
256,192,20353,1,4,0:0:0:0:
256,192,20484,1,4,0:0:0:0:
256,192,20745,1,8,0:0:0:0:
256,192,21005,1,4,0:0:0:0:
256,192,21135,1,4,0:0:0:0:
256,192,21265,1,4,0:0:0:0:
256,192,21396,1,4,0:0:0:0:
256,192,21526,1,4,0:0:0:0:
256,192,21787,1,8,0:0:0:0:
256,192,22048,1,4,0:0:0:0:
256,192,22309,1,4,0:0:0:0:
256,192,22570,1,4,0:0:0:0:
256,192,22832,1,4,0:0:0:0:
256,192,23092,1,4,0:0:0:0:
256,192,23223,1,0,0:0:0:0:
256,192,23288,1,0,0:0:0:0:
256,192,23353,1,0,0:0:0:0:
256,192,23484,1,0,0:0:0:0:
256,192,23614,1,0,0:0:0:0:
256,192,23875,1,8,0:0:0:0:
256,192,23940,1,8,0:0:0:0:
256,192,24005,1,0,0:0:0:0:
256,192,24136,1,4,0:0:0:0:
256,192,24267,1,0,0:0:0:0:
256,192,24332,1,0,0:0:0:0:
256,192,24397,1,0,0:0:0:0:
256,192,24528,1,0,0:0:0:0:
256,192,24658,1,0,0:0:0:0:
256,192,24919,1,8,0:0:0:0:
256,192,24984,1,8,0:0:0:0:
256,192,25049,1,0,0:0:0:0:
256,192,25179,1,4,0:0:0:0:
256,192,25310,1,0,0:0:0:0:
256,192,25375,1,0,0:0:0:0:
256,192,25440,1,0,0:0:0:0:
256,192,25571,1,0,0:0:0:0:
256,192,25701,1,0,0:0:0:0:
256,192,25962,1,8,0:0:0:0:
256,192,26027,1,8,0:0:0:0:
256,192,26092,1,0,0:0:0:0:
256,192,26223,1,4,0:0:0:0:
256,192,26353,1,8,0:0:0:0:
256,192,26419,1,8,0:0:0:0:
256,192,26484,1,8,0:0:0:0:
256,192,26614,1,4,0:0:0:0:
256,192,26745,1,8,0:0:0:0:
256,192,26810,1,8,0:0:0:0:
256,192,26875,1,8,0:0:0:0:
256,192,27005,1,4,0:0:0:0:
256,192,27266,1,4,0:0:0:0:
256,192,27396,1,4,0:0:0:0:
256,192,27526,1,4,0:0:0:0:
256,192,27657,1,4,0:0:0:0:
256,192,27787,1,4,0:0:0:0:
256,192,28048,1,8,0:0:0:0:
256,192,28309,1,4,0:0:0:0:
256,192,28439,1,4,0:0:0:0:
256,192,28570,1,4,0:0:0:0:
256,192,28700,1,4,0:0:0:0:
256,192,28831,1,4,0:0:0:0:
256,192,29092,1,8,0:0:0:0:
256,192,29352,1,4,0:0:0:0:
256,192,29482,1,4,0:0:0:0:
256,192,29612,1,4,0:0:0:0:
256,192,29743,1,4,0:0:0:0:
256,192,29873,1,4,0:0:0:0:
256,192,30134,1,8,0:0:0:0:
256,192,30395,1,4,0:0:0:0:
256,192,30656,1,4,0:0:0:0:
256,192,30917,1,4,0:0:0:0:
256,192,31179,1,4,0:0:0:0:
256,192,31440,1,4,0:0:0:0:
256,192,31571,1,0,0:0:0:0:
256,192,31636,1,0,0:0:0:0:
256,192,31701,1,0,0:0:0:0:
256,192,31832,1,0,0:0:0:0:
256,192,31962,1,0,0:0:0:0:
256,192,32223,1,8,0:0:0:0:
256,192,32288,1,8,0:0:0:0:
256,192,32353,1,0,0:0:0:0:
256,192,32484,1,4,0:0:0:0:
256,192,32615,1,0,0:0:0:0:
256,192,32679,1,0,0:0:0:0:
256,192,32745,1,0,0:0:0:0:
256,192,32876,1,0,0:0:0:0:
256,192,33006,1,0,0:0:0:0:
256,192,33267,1,8,0:0:0:0:
256,192,33332,1,8,0:0:0:0:
256,192,33397,1,0,0:0:0:0:
256,192,33527,1,4,0:0:0:0:
256,192,33658,1,4,0:0:0:0:
256,192,33788,1,4,0:0:0:0:
256,192,33919,1,4,0:0:0:0:
256,192,34049,1,4,0:0:0:0:
256,192,34310,1,8,0:0:0:0:
256,192,34375,1,8,0:0:0:0:
256,192,34440,1,0,0:0:0:0:
256,192,34571,1,4,0:0:0:0:
256,192,34832,1,4,0:0:0:0:
256,192,35092,1,8,0:0:0:0:
256,192,35158,1,0,0:0:0:0:
256,192,35223,1,8,0:0:0:0:
256,192,35288,1,0,0:0:0:0:
256,192,35353,1,8,0:0:0:0:
256,192,35419,1,8,0:0:0:0:
256,192,35484,1,0,0:0:0:0:
256,192,35549,1,8,0:0:0:0:
256,192,35614,1,0,0:0:0:0:
256,192,35745,1,0,0:0:0:0:
256,192,35875,1,0,0:0:0:0:
256,192,36005,1,0,0:0:0:0:
256,192,36136,1,0,0:0:0:0:
256,192,36266,1,0,0:0:0:0:
256,192,36397,1,0,0:0:0:0:
256,192,36527,1,0,0:0:0:0:
256,192,36658,1,0,0:0:0:0:
256,192,36788,1,0,0:0:0:0:
256,192,36919,1,0,0:0:0:0:
256,192,37049,1,0,0:0:0:0:
256,192,37179,1,0,0:0:0:0:
256,192,37310,1,0,0:0:0:0:
256,192,37440,1,8,0:0:0:0:
256,192,37473,1,8,0:0:0:0:
256,192,37505,1,0,0:0:0:0:
256,192,37571,1,0,0:0:0:0:
256,192,37636,1,0,0:0:0:0:
256,192,37701,1,0,0:0:0:0:
256,192,37832,1,0,0:0:0:0:
256,192,37962,1,0,0:0:0:0:
256,192,38092,1,0,0:0:0:0:
256,192,38223,1,0,0:0:0:0:
256,192,38353,1,0,0:0:0:0:
256,192,38484,1,0,0:0:0:0:
256,192,38614,1,0,0:0:0:0:
256,192,38745,1,8,0:0:0:0:
256,192,38810,1,0,0:0:0:0:
256,192,38875,1,8,0:0:0:0:
256,192,38940,1,0,0:0:0:0:
256,192,39005,1,8,0:0:0:0:
256,192,39071,1,8,0:0:0:0:
256,192,39136,1,0,0:0:0:0:
256,192,39266,1,4,0:0:0:0:
256,192,39527,1,4,0:0:0:0:
256,192,39788,1,0,0:0:0:0:
256,192,39919,1,0,0:0:0:0:
256,192,40049,1,0,0:0:0:0:
256,192,40179,1,0,0:0:0:0:
256,192,40310,1,0,0:0:0:0:
256,192,40440,1,0,0:0:0:0:
256,192,40571,1,0,0:0:0:0:
256,192,40701,1,0,0:0:0:0:
256,192,40832,1,0,0:0:0:0:
256,192,40962,1,0,0:0:0:0:
256,192,41093,1,0,0:0:0:0:
256,192,41223,1,0,0:0:0:0:
256,192,41353,1,0,0:0:0:0:
256,192,41484,1,0,0:0:0:0:
256,192,41614,1,8,0:0:0:0:
256,192,41647,1,8,0:0:0:0:
256,192,41679,1,0,0:0:0:0:
256,192,41745,1,0,0:0:0:0:
256,192,41810,1,0,0:0:0:0:
256,192,41875,1,0,0:0:0:0:
256,192,42006,1,0,0:0:0:0:
256,192,42136,1,0,0:0:0:0:
256,192,42266,1,0,0:0:0:0:
256,192,42397,1,0,0:0:0:0:
256,192,42527,1,0,0:0:0:0:
256,192,42658,1,0,0:0:0:0:
256,192,42788,1,0,0:0:0:0:
256,192,42919,1,0,0:0:0:0:
256,192,42984,1,8,0:0:0:0:
256,192,43049,1,0,0:0:0:0:
256,192,43114,1,8,0:0:0:0:
256,192,43179,1,8,0:0:0:0:
256,192,43245,1,0,0:0:0:0:
256,192,43310,1,8,0:0:0:0:
256,192,43375,1,0,0:0:0:0:
256,192,43440,1,0,0:0:0:0:
256,192,43701,1,8,0:0:0:0:
256,192,43962,1,0,0:0:0:0:
256,192,44093,1,0,0:0:0:0:
256,192,44223,1,0,0:0:0:0:
256,192,44353,1,0,0:0:0:0:
256,192,44484,1,0,0:0:0:0:
256,192,44614,1,0,0:0:0:0:
256,192,44745,1,0,0:0:0:0:
256,192,44875,1,0,0:0:0:0:
256,192,45006,1,0,0:0:0:0:
256,192,45136,1,0,0:0:0:0:
256,192,45267,1,0,0:0:0:0:
256,192,45397,1,0,0:0:0:0:
256,192,45527,1,0,0:0:0:0:
256,192,45592,1,0,0:0:0:0:
256,192,45658,1,0,0:0:0:0:
256,192,45788,1,8,0:0:0:0:
256,192,45821,1,8,0:0:0:0:
256,192,45853,1,0,0:0:0:0:
256,192,45919,1,0,0:0:0:0:
256,192,45984,1,0,0:0:0:0:
256,192,46049,1,0,0:0:0:0:
256,192,46180,1,0,0:0:0:0:
256,192,46310,1,0,0:0:0:0:
256,192,46440,1,0,0:0:0:0:
256,192,46505,1,0,0:0:0:0:
256,192,46571,1,0,0:0:0:0:
256,192,46701,1,0,0:0:0:0:
256,192,46832,1,0,0:0:0:0:
256,192,46962,1,0,0:0:0:0:
256,192,47093,1,8,0:0:0:0:
256,192,47158,1,0,0:0:0:0:
256,192,47223,1,8,0:0:0:0:
256,192,47288,1,0,0:0:0:0:
256,192,47353,1,8,0:0:0:0:
256,192,47419,1,8,0:0:0:0:
256,192,47484,1,0,0:0:0:0:
256,192,47614,1,4,0:0:0:0:
256,192,47875,1,4,0:0:0:0:
256,192,48136,1,0,0:0:0:0:
256,192,48267,1,0,0:0:0:0:
256,192,48397,1,0,0:0:0:0:
256,192,48527,1,0,0:0:0:0:
256,192,48658,1,0,0:0:0:0:
256,192,48788,1,0,0:0:0:0:
256,192,48919,1,0,0:0:0:0:
256,192,49049,1,0,0:0:0:0:
256,192,49180,1,0,0:0:0:0:
256,192,49310,1,0,0:0:0:0:
256,192,49441,1,0,0:0:0:0:
256,192,49571,1,0,0:0:0:0:
256,192,49701,1,0,0:0:0:0:
256,192,49766,1,0,0:0:0:0:
256,192,49832,1,0,0:0:0:0:
256,192,49962,1,8,0:0:0:0:
256,192,49995,1,8,0:0:0:0:
256,192,50027,1,0,0:0:0:0:
256,192,50093,1,0,0:0:0:0:
256,192,50158,1,0,0:0:0:0:
256,192,50223,1,0,0:0:0:0:
256,192,50354,1,0,0:0:0:0:
256,192,50484,1,0,0:0:0:0:
256,192,50614,1,0,0:0:0:0:
256,192,50745,1,0,0:0:0:0:
256,192,50875,1,0,0:0:0:0:
256,192,51006,1,0,0:0:0:0:
256,192,51136,1,0,0:0:0:0:
256,192,51201,1,0,0:0:0:0:
256,192,51397,1,8,0:0:0:0:
256,192,51527,1,0,0:0:0:0:
256,192,51658,1,8,0:0:0:0:
256,192,51788,1,0,0:0:0:0:
256,192,51919,1,8,0:0:0:0:
256,192,52049,1,8,0:0:0:0:
256,192,52179,1,8,0:0:0:0:
256,192,52310,1,0,0:0:0:0:
256,192,52440,1,8,0:0:0:0:
256,192,52505,1,8,0:0:0:0:
256,192,52571,1,0,0:0:0:0:
256,192,52701,1,0,0:0:0:0:
256,192,52766,1,0,0:0:0:0:
256,192,52832,1,8,0:0:0:0:
256,192,52962,1,0,0:0:0:0:
256,192,53092,1,8,0:0:0:0:
256,192,53158,1,8,0:0:0:0:
256,192,53223,1,0,0:0:0:0:
256,192,53288,1,8,0:0:0:0:
256,192,53353,1,0,0:0:0:0:
256,192,53484,1,8,0:0:0:0:
256,192,53614,1,0,0:0:0:0:
256,192,53679,1,0,0:0:0:0:
256,192,53745,1,0,0:0:0:0:
256,192,53875,1,0,0:0:0:0:
256,192,53940,1,8,0:0:0:0:
256,192,54005,1,8,0:0:0:0:
256,192,54136,1,0,0:0:0:0:
256,192,54201,1,0,0:0:0:0:
256,192,54266,1,0,0:0:0:0:
256,192,54332,1,0,0:0:0:0:
256,192,54397,1,0,0:0:0:0:
256,192,54527,1,8,0:0:0:0:
256,192,54592,1,8,0:0:0:0:
256,192,54658,1,0,0:0:0:0:
256,192,54788,1,0,0:0:0:0:
256,192,54853,1,0,0:0:0:0:
256,192,54919,1,8,0:0:0:0:
256,192,55049,1,0,0:0:0:0:
256,192,55179,1,8,0:0:0:0:
256,192,55245,1,0,0:0:0:0:
256,192,55310,1,8,0:0:0:0:
256,192,55375,1,8,0:0:0:0:
256,192,55440,1,4,0:0:0:0:
256,192,55701,1,4,0:0:0:0:
256,192,55962,1,4,0:0:0:0:
256,192,56223,1,4,0:0:0:0:
256,192,56484,1,4,0:0:0:0:
256,192,56614,1,8,0:0:0:0:
256,192,56679,1,8,0:0:0:0:
256,192,56745,1,0,0:0:0:0:
256,192,56875,1,0,0:0:0:0:
256,192,56940,1,0,0:0:0:0:
256,192,57005,1,8,0:0:0:0:
256,192,57136,1,0,0:0:0:0:
256,192,57266,1,8,0:0:0:0:
256,192,57332,1,8,0:0:0:0:
256,192,57397,1,8,0:0:0:0:
256,192,57462,1,8,0:0:0:0:
256,192,57527,1,0,0:0:0:0:
256,192,57658,1,8,0:0:0:0:
256,192,57723,1,8,0:0:0:0:
256,192,57788,1,0,0:0:0:0:
256,192,57919,1,0,0:0:0:0:
256,192,57984,1,8,0:0:0:0:
256,192,58049,1,0,0:0:0:0:
256,192,58179,1,8,0:0:0:0:
256,192,58310,1,0,0:0:0:0:
256,192,58375,1,0,0:0:0:0:
256,192,58440,1,0,0:0:0:0:
256,192,58505,1,0,0:0:0:0:
256,192,58571,1,0,0:0:0:0:
256,192,58701,1,8,0:0:0:0:
256,192,58766,1,8,0:0:0:0:
256,192,58832,1,0,0:0:0:0:
256,192,58897,1,8,0:0:0:0:
256,192,58962,1,0,0:0:0:0:
256,192,59027,1,0,0:0:0:0:
256,192,59092,1,8,0:0:0:0:
256,192,59223,1,0,0:0:0:0:
256,192,59353,1,8,0:0:0:0:
256,192,59419,1,8,0:0:0:0:
256,192,59484,1,0,0:0:0:0:
256,192,59549,1,8,0:0:0:0:
256,192,59614,1,0,0:0:0:0:
256,192,59745,1,8,0:0:0:0:
256,192,59810,1,8,0:0:0:0:
256,192,59875,1,8,0:0:0:0:
256,192,60005,1,0,0:0:0:0:
256,192,60136,1,8,0:0:0:0:
256,192,60201,1,8,0:0:0:0:
256,192,60266,1,8,0:0:0:0:
256,192,60397,1,0,0:0:0:0:
256,192,60527,1,8,0:0:0:0:
256,192,60658,1,0,0:0:0:0:
256,192,60788,1,8,0:0:0:0:
256,192,60853,1,8,0:0:0:0:
256,192,60919,1,0,0:0:0:0:
256,192,61049,1,0,0:0:0:0:
256,192,61114,1,0,0:0:0:0:
256,192,61180,1,8,0:0:0:0:
256,192,61310,1,0,0:0:0:0:
256,192,61440,1,8,0:0:0:0:
256,192,61506,1,8,0:0:0:0:
256,192,61571,1,0,0:0:0:0:
256,192,61636,1,8,0:0:0:0:
256,192,61701,1,0,0:0:0:0:
256,192,61832,1,8,0:0:0:0:
256,192,61962,1,0,0:0:0:0:
256,192,62027,1,8,0:0:0:0:
256,192,62093,1,0,0:0:0:0:
256,192,62223,1,0,0:0:0:0:
256,192,62288,1,8,0:0:0:0:
256,192,62353,1,8,0:0:0:0:
256,192,62484,1,0,0:0:0:0:
256,192,62549,1,0,0:0:0:0:
256,192,62614,1,0,0:0:0:0:
256,192,62680,1,0,0:0:0:0:
256,192,62745,1,0,0:0:0:0:
256,192,62875,1,8,0:0:0:0:
256,192,62940,1,8,0:0:0:0:
256,192,63006,1,0,0:0:0:0:
256,192,63136,1,0,0:0:0:0:
256,192,63201,1,0,0:0:0:0:
256,192,63267,1,8,0:0:0:0:
256,192,63397,1,0,0:0:0:0:
256,192,63527,1,8,0:0:0:0:
256,192,63593,1,0,0:0:0:0:
256,192,63658,1,8,0:0:0:0:
256,192,63723,1,8,0:0:0:0:
256,192,63788,1,4,0:0:0:0:
256,192,64049,1,4,0:0:0:0:
256,192,64310,1,4,0:0:0:0:
256,192,64440,1,8,0:0:0:0:
256,192,64571,1,4,0:0:0:0:
256,192,64701,1,8,0:0:0:0:
256,192,64832,1,4,0:0:0:0:
256,192,64962,1,8,0:0:0:0:
256,192,65027,1,8,0:0:0:0:
256,192,65093,1,0,0:0:0:0:
256,192,65223,1,0,0:0:0:0:
256,192,65288,1,0,0:0:0:0:
256,192,65353,1,8,0:0:0:0:
256,192,65484,1,0,0:0:0:0:
256,192,65614,1,8,0:0:0:0:
256,192,65680,1,8,0:0:0:0:
256,192,65745,1,8,0:0:0:0:
256,192,65810,1,8,0:0:0:0:
256,192,65875,1,0,0:0:0:0:
256,192,66006,1,8,0:0:0:0:
256,192,66071,1,8,0:0:0:0:
256,192,66136,1,0,0:0:0:0:
256,192,66267,1,0,0:0:0:0:
256,192,66332,1,8,0:0:0:0:
256,192,66397,1,0,0:0:0:0:
256,224,66462,1,0,0:0:0:0:
256,192,66527,1,8,0:0:0:0:
256,192,66658,1,0,0:0:0:0:
256,192,66723,1,0,0:0:0:0:
256,192,66788,1,0,0:0:0:0:
256,192,66853,1,0,0:0:0:0:
256,192,66919,1,0,0:0:0:0:
256,192,67049,1,8,0:0:0:0:
256,192,67114,1,8,0:0:0:0:
256,192,67180,1,0,0:0:0:0:
256,192,67245,1,8,0:0:0:0:
256,192,67310,1,0,0:0:0:0:
256,192,67375,1,0,0:0:0:0:
256,192,67440,1,8,0:0:0:0:
256,192,67571,1,0,0:0:0:0:
256,192,67701,1,8,0:0:0:0:
256,192,67767,1,8,0:0:0:0:
256,192,67832,1,0,0:0:0:0:
256,192,67897,1,8,0:0:0:0:
256,192,67962,1,0,0:0:0:0:
256,192,68092,1,8,0:0:0:0:
256,192,68158,1,8,0:0:0:0:
256,192,68223,1,8,0:0:0:0:
256,192,68353,1,0,0:0:0:0:
256,192,68484,1,8,0:0:0:0:
256,192,68549,1,8,0:0:0:0:
256,192,68614,1,8,0:0:0:0:
256,192,68745,1,0,0:0:0:0:
256,192,68875,1,8,0:0:0:0:
256,192,69005,1,4,0:0:0:0:
256,192,69266,1,0,0:0:0:0:
256,192,69332,1,0,0:0:0:0:
256,192,69397,1,0,0:0:0:0:
256,192,69462,1,0,0:0:0:0:
256,192,69527,1,0,0:0:0:0:
256,192,69788,1,12,0:0:0:0:
256,192,69919,1,12,0:0:0:0:
256,192,70049,1,4,0:0:0:0:
256,192,70310,1,0,0:0:0:0:
256,192,70375,1,0,0:0:0:0:
256,192,70440,1,0,0:0:0:0:
256,192,70505,1,0,0:0:0:0:
256,192,70571,1,8,0:0:0:0:
256,192,70701,1,8,0:0:0:0:
256,192,70832,1,0,0:0:0:0:
256,192,70962,1,8,0:0:0:0:
256,192,71092,1,4,0:0:0:0:
256,192,71353,1,0,0:0:0:0:
256,192,71419,1,0,0:0:0:0:
256,192,71484,1,0,0:0:0:0:
256,192,71549,1,8,0:0:0:0:
256,192,71614,1,8,0:0:0:0:
256,192,71875,1,12,0:0:0:0:
256,192,72006,1,12,0:0:0:0:
256,192,72136,1,4,0:0:0:0:
256,192,72397,1,0,0:0:0:0:
256,192,72462,1,0,0:0:0:0:
256,192,72527,1,8,0:0:0:0:
256,192,72592,1,8,0:0:0:0:
256,192,72658,1,8,0:0:0:0:
256,192,72788,1,8,0:0:0:0:
256,192,72853,1,0,0:0:0:0:
256,192,72919,1,8,0:0:0:0:
256,192,72984,1,0,0:0:0:0:
256,192,73049,1,8,0:0:0:0:
256,192,73179,1,4,0:0:0:0:
256,192,73440,1,0,0:0:0:0:
256,192,73506,1,8,0:0:0:0:
256,192,73571,1,8,0:0:0:0:
256,192,73636,1,8,0:0:0:0:
256,192,73701,1,8,0:0:0:0:
256,192,73962,1,12,0:0:0:0:
256,192,74093,1,12,0:0:0:0:
256,192,74223,1,4,0:0:0:0:
256,192,74484,1,8,0:0:0:0:
256,192,74549,1,8,0:0:0:0:
256,224,74614,1,8,0:0:0:0:
256,192,74679,1,8,0:0:0:0:
256,192,74745,1,0,0:0:0:0:
256,192,74875,1,8,0:0:0:0:
256,192,75006,1,0,0:0:0:0:
256,192,75136,1,8,0:0:0:0:
256,192,75266,1,4,0:0:0:0:
256,192,75527,1,8,0:0:0:0:
256,192,75593,1,8,0:0:0:0:
256,192,75658,1,8,0:0:0:0:
256,192,75723,1,0,0:0:0:0:
256,192,75788,1,0,0:0:0:0:
256,192,76049,1,12,0:0:0:0:
256,192,76180,1,12,0:0:0:0:
256,192,76310,1,4,0:0:0:0:
256,192,76571,1,8,0:0:0:0:
256,192,76636,1,8,0:0:0:0:
256,192,76701,1,0,0:0:0:0:
256,192,76766,1,0,0:0:0:0:
256,192,76832,1,0,0:0:0:0:
256,192,76962,1,8,0:0:0:0:
256,192,77027,1,0,0:0:0:0:
256,192,77092,1,8,0:0:0:0:
256,192,77158,1,0,0:0:0:0:
256,192,77223,1,8,0:0:0:0:
256,192,77353,1,4,0:0:0:0:
256,192,77614,1,8,0:0:0:0:
256,192,77679,1,0,0:0:0:0:
256,192,77745,1,0,0:0:0:0:
256,192,77810,1,0,0:0:0:0:
256,192,77875,1,0,0:0:0:0:
256,192,78005,1,0,0:0:0:0:
256,192,78136,1,12,0:0:0:0:
256,192,78267,1,12,0:0:0:0:
256,192,78397,1,4,0:0:0:0:
256,192,78658,1,0,0:0:0:0:
256,192,78723,1,0,0:0:0:0:
256,192,78788,1,0,0:0:0:0:
256,192,78853,1,0,0:0:0:0:
256,192,78919,1,8,0:0:0:0:
256,192,79049,1,8,0:0:0:0:
256,192,79180,1,0,0:0:0:0:
256,192,79310,1,8,0:0:0:0:
256,192,79375,1,8,0:0:0:0:
256,192,79440,1,4,0:0:0:0:
256,192,79701,1,0,0:0:0:0:
256,192,79766,1,0,0:0:0:0:
256,192,79832,1,0,0:0:0:0:
256,192,79897,1,8,0:0:0:0:
256,192,79962,1,0,0:0:0:0:
256,192,80092,1,0,0:0:0:0:
256,192,80223,1,12,0:0:0:0:
256,192,80354,1,12,0:0:0:0:
256,192,80484,1,4,0:0:0:0:
256,192,80745,1,0,0:0:0:0:
256,192,80810,1,0,0:0:0:0:
256,192,80875,1,8,0:0:0:0:
256,192,80940,1,0,0:0:0:0:
256,192,81005,1,0,0:0:0:0:
256,192,81136,1,8,0:0:0:0:
256,192,81201,1,8,0:0:0:0:
256,192,81267,1,0,0:0:0:0:
256,192,81332,1,8,0:0:0:0:
256,192,81397,1,8,0:0:0:0:
256,192,81462,1,8,0:0:0:0:
256,192,81527,1,4,0:0:0:0:
256,192,81788,1,8,0:0:0:0:
256,192,82049,1,8,0:0:0:0:
256,192,82310,1,8,0:0:0:0:
256,192,82440,1,8,0:0:0:0:
256,192,82571,1,0,0:0:0:0:
256,192,82832,1,8,0:0:0:0:
256,192,83092,1,8,0:0:0:0:
256,192,83223,1,8,0:0:0:0:
256,192,83353,1,0,0:0:0:0:
256,192,83484,1,8,0:0:0:0:
256,192,83614,1,0,0:0:0:0:
256,192,83875,1,8,0:0:0:0:
256,192,84136,1,8,0:0:0:0:
256,192,84397,1,8,0:0:0:0:
256,192,84527,1,8,0:0:0:0:
256,192,84658,1,8,0:0:0:0:
256,192,84919,1,8,0:0:0:0:
256,192,85179,1,8,0:0:0:0:
256,192,85701,1,4,0:0:0:0:
256,192,102396,5,0,0:0:0:0:
256,192,102527,1,0,0:0:0:0:
256,192,102657,1,8,0:0:0:0:
256,192,102787,1,0,0:0:0:0:
256,192,102918,1,8,0:0:0:0:
256,192,103048,1,0,0:0:0:0:
256,192,103179,1,8,0:0:0:0:
256,192,103309,1,8,0:0:0:0:
256,192,103440,1,0,0:0:0:0:
256,192,103570,1,0,0:0:0:0:
256,192,103701,1,8,0:0:0:0:
256,192,103831,1,0,0:0:0:0:
256,192,103961,1,8,0:0:0:0:
256,192,104092,1,0,0:0:0:0:
256,192,104222,1,8,0:0:0:0:
256,192,104353,1,8,0:0:0:0:
256,192,104483,1,0,0:0:0:0:
256,192,104614,1,0,0:0:0:0:
256,192,104679,1,0,0:0:0:0:
256,192,104744,1,8,0:0:0:0:
256,192,104874,1,8,0:0:0:0:
256,192,105005,1,0,0:0:0:0:
256,192,105135,1,8,0:0:0:0:
256,192,105266,1,8,0:0:0:0:
256,192,105396,1,0,0:0:0:0:
256,192,105527,1,0,0:0:0:0:
256,192,105657,1,0,0:0:0:0:
256,192,105722,1,0,0:0:0:0:
256,192,105787,1,8,0:0:0:0:
256,192,105918,1,8,0:0:0:0:
256,192,106048,1,8,0:0:0:0:
256,192,106179,1,0,0:0:0:0:
256,192,106309,1,8,0:0:0:0:
256,192,106440,1,8,0:0:0:0:
256,192,106570,5,0,0:0:0:0:
256,192,106701,1,0,0:0:0:0:
256,192,106831,1,8,0:0:0:0:
256,192,106961,1,0,0:0:0:0:
256,192,107092,1,8,0:0:0:0:
256,192,107222,1,0,0:0:0:0:
256,192,107353,1,8,0:0:0:0:
256,192,107483,1,8,0:0:0:0:
256,192,107614,1,0,0:0:0:0:
256,192,107744,1,0,0:0:0:0:
256,192,107875,1,8,0:0:0:0:
256,192,108005,1,0,0:0:0:0:
256,192,108135,1,8,0:0:0:0:
256,192,108266,1,0,0:0:0:0:
256,192,108396,1,8,0:0:0:0:
256,192,108527,1,8,0:0:0:0:
256,192,108657,1,0,0:0:0:0:
256,192,108788,1,0,0:0:0:0:
256,192,108853,1,0,0:0:0:0:
256,192,108918,1,8,0:0:0:0:
256,192,109048,1,8,0:0:0:0:
256,192,109179,1,0,0:0:0:0:
256,192,109309,1,8,0:0:0:0:
256,192,109440,1,8,0:0:0:0:
256,192,109570,1,0,0:0:0:0:
256,192,109701,1,0,0:0:0:0:
256,192,109831,1,0,0:0:0:0:
256,192,109896,1,0,0:0:0:0:
256,192,109961,1,8,0:0:0:0:
256,192,110092,1,8,0:0:0:0:
256,192,110222,1,8,0:0:0:0:
256,192,110287,1,0,0:0:0:0:
256,192,110353,1,8,0:0:0:0:
256,192,110418,1,0,0:0:0:0:
256,192,110483,1,8,0:0:0:0:
256,192,110548,1,0,0:0:0:0:
256,192,110614,1,8,0:0:0:0:
256,192,110744,1,4,0:0:0:0:
256,192,110874,1,0,0:0:0:0:
256,192,110939,1,0,0:0:0:0:
256,192,111004,1,8,0:0:0:0:
256,192,111135,1,8,0:0:0:0:
256,192,111265,1,8,0:0:0:0:
256,192,111461,1,0,0:0:0:0:
256,192,111657,1,8,0:0:0:0:
256,192,111787,1,0,0:0:0:0:
256,192,111917,1,0,0:0:0:0:
256,192,111983,1,0,0:0:0:0:
256,192,112048,1,8,0:0:0:0:
256,192,112178,1,8,0:0:0:0:
256,192,112309,1,8,0:0:0:0:
256,192,112504,1,0,0:0:0:0:
256,192,112700,1,8,0:0:0:0:
256,192,112830,1,8,0:0:0:0:
256,192,113026,1,8,0:0:0:0:
256,192,113091,1,0,0:0:0:0:
256,192,113222,1,8,0:0:0:0:
256,192,113352,1,8,0:0:0:0:
256,192,113548,1,8,0:0:0:0:
256,192,113613,1,0,0:0:0:0:
256,192,113744,1,8,0:0:0:0:
256,192,113874,1,0,0:0:0:0:
256,192,114004,1,0,0:0:0:0:
256,192,114070,1,0,0:0:0:0:
256,192,114135,1,8,0:0:0:0:
256,192,114265,1,8,0:0:0:0:
256,192,114396,1,8,0:0:0:0:
256,192,114591,1,0,0:0:0:0:
256,192,114787,1,8,0:0:0:0:
256,192,114917,1,4,0:0:0:0:
256,192,115048,1,8,0:0:0:0:
256,192,115113,1,0,0:0:0:0:
256,192,115178,1,8,0:0:0:0:
256,192,115309,1,8,0:0:0:0:
256,192,115439,1,8,0:0:0:0:
256,192,115635,1,0,0:0:0:0:
256,192,115830,1,8,0:0:0:0:
256,192,115961,1,0,0:0:0:0:
256,192,116091,1,8,0:0:0:0:
256,192,116157,1,0,0:0:0:0:
256,192,116222,1,8,0:0:0:0:
256,192,116352,1,8,0:0:0:0:
256,192,116483,1,8,0:0:0:0:
256,192,116678,1,0,0:0:0:0:
256,192,116874,1,8,0:0:0:0:
256,192,117004,1,8,0:0:0:0:
256,192,117135,1,0,0:0:0:0:
256,192,117200,1,8,0:0:0:0:
256,192,117330,1,8,0:0:0:0:
256,192,117396,1,0,0:0:0:0:
256,192,117526,1,8,0:0:0:0:
256,192,117657,1,0,0:0:0:0:
256,192,117722,1,8,0:0:0:0:
256,192,117852,1,8,0:0:0:0:
256,192,117917,1,0,0:0:0:0:
256,192,118048,1,0,0:0:0:0:
256,192,118178,1,8,0:0:0:0:
256,192,118222,1,8,0:0:0:0:
256,192,118265,1,8,0:0:0:0:
256,192,118309,1,0,0:0:0:0:
256,192,118439,1,8,0:0:0:0:
256,192,118570,1,12,0:0:0:0:
256,192,119091,1,0,0:0:0:0:
256,192,119221,1,0,0:0:0:0:
256,192,119286,1,0,0:0:0:0:
256,192,119351,1,8,0:0:0:0:
256,192,119482,1,8,0:0:0:0:
256,192,119612,1,8,0:0:0:0:
256,192,119677,1,0,0:0:0:0:
256,192,119743,1,0,0:0:0:0:
256,192,119808,1,8,0:0:0:0:
256,192,119938,1,0,0:0:0:0:
256,192,120004,1,8,0:0:0:0:
256,192,120134,1,0,0:0:0:0:
256,192,120264,1,0,0:0:0:0:
256,192,120330,1,0,0:0:0:0:
256,192,120395,1,8,0:0:0:0:
256,192,120525,1,8,0:0:0:0:
256,192,120656,1,8,0:0:0:0:
256,192,120721,1,0,0:0:0:0:
256,192,120786,1,0,0:0:0:0:
256,192,120851,1,8,0:0:0:0:
256,192,120982,1,0,0:0:0:0:
256,192,121047,1,0,0:0:0:0:
256,192,121112,1,8,0:0:0:0:
256,192,121177,1,0,0:0:0:0:
256,192,121308,1,8,0:0:0:0:
256,192,121373,1,0,0:0:0:0:
256,192,121504,1,0,0:0:0:0:
256,192,121569,1,0,0:0:0:0:
256,192,121634,1,8,0:0:0:0:
256,192,121699,1,0,0:0:0:0:
256,192,121830,1,8,0:0:0:0:
256,192,121895,1,0,0:0:0:0:
256,192,122025,1,8,0:0:0:0:
256,192,122091,1,0,0:0:0:0:
256,192,122156,1,8,0:0:0:0:
256,192,122221,1,0,0:0:0:0:
256,192,122351,1,8,0:0:0:0:
256,192,122417,1,8,0:0:0:0:
256,192,122482,1,0,0:0:0:0:
256,192,122612,1,8,0:0:0:0:
256,192,122677,1,0,0:0:0:0:
256,192,122743,1,8,0:0:0:0:
256,192,122873,1,8,0:0:0:0:
256,192,122938,1,0,0:0:0:0:
256,192,123069,1,0,0:0:0:0:
256,192,123134,1,8,0:0:0:0:
256,192,123264,1,0,0:0:0:0:
256,192,123330,1,8,0:0:0:0:
256,192,123395,1,0,0:0:0:0:
256,192,123460,1,0,0:0:0:0:
256,192,123525,1,8,0:0:0:0:
256,192,123656,1,8,0:0:0:0:
256,192,123786,1,8,0:0:0:0:
256,192,123851,1,0,0:0:0:0:
256,192,123917,1,0,0:0:0:0:
256,192,123982,1,8,0:0:0:0:
256,192,124112,1,0,0:0:0:0:
256,192,124177,1,8,0:0:0:0:
256,192,124308,1,0,0:0:0:0:
256,192,124438,1,0,0:0:0:0:
256,192,124504,1,0,0:0:0:0:
256,192,124569,1,8,0:0:0:0:
256,192,124699,1,8,0:0:0:0:
256,192,124764,1,8,0:0:0:0:
256,192,124830,1,8,0:0:0:0:
256,192,124960,1,8,0:0:0:0:
256,192,125025,1,0,0:0:0:0:
256,192,125156,1,0,0:0:0:0:
256,192,125221,1,8,0:0:0:0:
256,192,125286,1,8,0:0:0:0:
256,192,125351,1,0,0:0:0:0:
256,192,125482,1,8,0:0:0:0:
256,192,125547,1,0,0:0:0:0:
256,192,125677,1,0,0:0:0:0:
256,192,125743,1,8,0:0:0:0:
256,192,125808,1,0,0:0:0:0:
256,192,125873,1,0,0:0:0:0:
256,192,126004,1,8,0:0:0:0:
256,192,126069,1,0,0:0:0:0:
256,192,126199,1,0,0:0:0:0:
256,192,126264,1,0,0:0:0:0:
256,192,126395,1,4,0:0:0:0:
256,192,126525,1,8,0:0:0:0:
256,192,126656,1,4,0:0:0:0:
256,192,126786,1,0,0:0:0:0:
256,192,126917,1,4,0:0:0:0:
256,192,126982,1,8,0:0:0:0:
256,192,127112,1,8,0:0:0:0:
256,192,127177,1,4,0:0:0:0:
256,192,127308,1,0,0:0:0:0:
256,192,127438,1,0,0:0:0:0:
256,192,127568,1,0,0:0:0:0:
256,192,127633,1,0,0:0:0:0:
256,192,127698,1,8,0:0:0:0:
256,192,127829,1,8,0:0:0:0:
256,192,127959,1,8,0:0:0:0:
256,192,128024,1,0,0:0:0:0:
256,192,128090,1,0,0:0:0:0:
256,192,128155,1,8,0:0:0:0:
256,192,128285,1,0,0:0:0:0:
256,192,128351,1,8,0:0:0:0:
256,192,128481,1,0,0:0:0:0:
256,192,128611,1,0,0:0:0:0:
256,192,128677,1,0,0:0:0:0:
256,192,128742,1,8,0:0:0:0:
256,192,128872,1,8,0:0:0:0:
256,192,129003,1,8,0:0:0:0:
256,192,129068,1,0,0:0:0:0:
256,192,129133,1,0,0:0:0:0:
256,192,129198,1,8,0:0:0:0:
256,192,129329,1,0,0:0:0:0:
256,192,129394,1,0,0:0:0:0:
256,192,129459,1,8,0:0:0:0:
256,192,129524,1,0,0:0:0:0:
256,192,129655,1,8,0:0:0:0:
256,192,129720,1,0,0:0:0:0:
256,192,129851,1,0,0:0:0:0:
256,192,129916,1,0,0:0:0:0:
256,192,129981,1,8,0:0:0:0:
256,192,130046,1,0,0:0:0:0:
256,192,130177,1,8,0:0:0:0:
256,192,130242,1,0,0:0:0:0:
256,192,130372,1,8,0:0:0:0:
256,192,130438,1,0,0:0:0:0:
256,192,130503,1,8,0:0:0:0:
256,192,130568,1,0,0:0:0:0:
256,192,130698,1,8,0:0:0:0:
256,192,130764,1,8,0:0:0:0:
256,192,130829,1,0,0:0:0:0:
256,192,130959,1,8,0:0:0:0:
256,192,131024,1,0,0:0:0:0:
256,192,131090,1,8,0:0:0:0:
256,192,131220,1,8,0:0:0:0:
256,192,131285,1,0,0:0:0:0:
256,192,131351,1,0,0:0:0:0:
256,192,131416,1,0,0:0:0:0:
256,192,131481,1,8,0:0:0:0:
256,192,131547,1,0,0:0:0:0:
256,192,131611,1,0,0:0:0:0:
256,192,131677,1,8,0:0:0:0:
256,192,131807,1,0,0:0:0:0:
256,192,131872,1,8,0:0:0:0:
256,192,132003,1,8,0:0:0:0:
256,192,132133,1,8,0:0:0:0:
256,192,132198,1,0,0:0:0:0:
256,192,132264,1,0,0:0:0:0:
256,192,132329,1,8,0:0:0:0:
256,192,132459,1,0,0:0:0:0:
256,192,132524,1,8,0:0:0:0:
256,192,132655,1,0,0:0:0:0:
256,192,132721,1,8,0:0:0:0:
256,192,132785,1,0,0:0:0:0:
256,192,132851,1,0,0:0:0:0:
256,192,132916,1,8,0:0:0:0:
256,192,133046,1,8,0:0:0:0:
256,192,133112,1,0,0:0:0:0:
256,192,133177,1,8,0:0:0:0:
256,192,133307,1,8,0:0:0:0:
256,192,133372,1,0,0:0:0:0:
256,192,133503,1,0,0:0:0:0:
256,192,133568,1,8,0:0:0:0:
256,192,133633,1,8,0:0:0:0:
256,192,133698,1,0,0:0:0:0:
256,192,133829,1,8,0:0:0:0:
256,192,133894,1,0,0:0:0:0:
256,192,134024,1,0,0:0:0:0:
256,192,134090,1,8,0:0:0:0:
256,192,134155,1,0,0:0:0:0:
256,192,134220,1,0,0:0:0:0:
256,192,134351,1,8,0:0:0:0:
256,192,134416,1,0,0:0:0:0:
254,225,134482,1,8,0:0:0:0:
256,192,134546,1,0,0:0:0:0:
256,192,134611,1,0,0:0:0:0:
256,192,134742,1,4,0:0:0:0:
256,192,135004,1,4,0:0:0:0:
256,192,135264,1,4,0:0:0:0:
256,192,135525,1,8,0:0:0:0:
256,192,135569,1,8,0:0:0:0:
256,192,135612,1,8,0:0:0:0:
256,192,135656,1,8,0:0:0:0:
256,192,135721,1,8,0:0:0:0:
256,192,135786,1,0,0:0:0:0:
256,192,135917,1,0,0:0:0:0:
256,192,136047,1,8,0:0:0:0:
256,192,136177,1,8,0:0:0:0:
256,192,136308,1,0,0:0:0:0:
256,192,136438,1,8,0:0:0:0:
256,192,136569,1,8,0:0:0:0:
256,192,136699,1,8,0:0:0:0:
256,192,136830,1,0,0:0:0:0:
256,192,136960,1,0,0:0:0:0:
256,192,137091,1,8,0:0:0:0:
256,192,137221,1,8,0:0:0:0:
256,192,137351,1,0,0:0:0:0:
256,192,137482,1,8,0:0:0:0:
256,192,137612,1,0,0:0:0:0:
256,192,137677,1,8,0:0:0:0:
256,192,137743,1,0,0:0:0:0:
256,192,137808,1,8,0:0:0:0:
256,192,137873,1,0,0:0:0:0:
256,192,138004,1,8,0:0:0:0:
256,192,138134,1,8,0:0:0:0:
256,192,138264,1,8,0:0:0:0:
256,192,138395,1,0,0:0:0:0:
256,192,138525,1,0,0:0:0:0:
256,192,138656,1,8,0:0:0:0:
256,192,138786,1,8,0:0:0:0:
256,192,138917,1,0,0:0:0:0:
256,192,139047,1,0,0:0:0:0:
256,192,139177,1,8,0:0:0:0:
256,192,139308,1,0,0:0:0:0:
256,192,139438,1,0,0:0:0:0:
256,192,139569,1,0,0:0:0:0:
256,192,139699,1,8,0:0:0:0:
256,192,139764,1,8,0:0:0:0:
256,192,139830,1,0,0:0:0:0:
256,192,139895,1,8,0:0:0:0:
256,192,139960,1,0,0:0:0:0:
256,192,140091,1,8,0:0:0:0:
256,192,140221,1,8,0:0:0:0:
256,192,140351,1,8,0:0:0:0:
256,192,140482,1,0,0:0:0:0:
256,192,140612,1,8,0:0:0:0:
256,192,140743,1,8,0:0:0:0:
256,192,140873,1,8,0:0:0:0:
256,192,141004,1,0,0:0:0:0:
256,192,141134,1,0,0:0:0:0:
256,192,141264,1,8,0:0:0:0:
256,192,141395,1,0,0:0:0:0:
256,192,141525,1,0,0:0:0:0:
256,192,141656,1,0,0:0:0:0:
256,192,141786,1,8,0:0:0:0:
256,192,141851,1,0,0:0:0:0:
256,192,141917,1,0,0:0:0:0:
256,192,141982,1,0,0:0:0:0:
256,192,142047,1,0,0:0:0:0:
256,192,142177,1,0,0:0:0:0:
256,192,142308,1,8,0:0:0:0:
256,192,142438,1,8,0:0:0:0:
256,192,142569,1,0,0:0:0:0:
256,192,142699,1,8,0:0:0:0:
256,192,142830,1,0,0:0:0:0:
256,192,142960,1,8,0:0:0:0:
256,192,143091,1,4,0:0:0:0:
256,192,143221,1,8,0:0:0:0:
256,192,143351,1,4,0:0:0:0:
256,192,143482,1,8,0:0:0:0:
256,192,143612,1,4,0:0:0:0:
256,192,143786,1,8,0:0:0:0:
256,192,143873,1,4,0:0:0:0:
256,192,144047,1,8,0:0:0:0:
256,192,144134,1,0,0:0:0:0:
256,192,144265,1,0,0:0:0:0:
256,192,144395,1,8,0:0:0:0:
256,192,144525,1,8,0:0:0:0:
256,192,144656,1,0,0:0:0:0:
256,192,144786,1,8,0:0:0:0:
256,192,144917,1,8,0:0:0:0:
256,192,145047,1,8,0:0:0:0:
256,192,145178,1,0,0:0:0:0:
256,192,145308,1,0,0:0:0:0:
256,192,145439,1,8,0:0:0:0:
256,192,145569,1,8,0:0:0:0:
256,192,145699,1,0,0:0:0:0:
256,192,145830,1,8,0:0:0:0:
256,192,145960,1,0,0:0:0:0:
256,192,146025,1,0,0:0:0:0:
256,192,146091,1,0,0:0:0:0:
256,192,146156,1,0,0:0:0:0:
256,192,146221,1,0,0:0:0:0:
256,192,146352,1,8,0:0:0:0:
256,192,146482,1,8,0:0:0:0:
256,192,146612,1,8,0:0:0:0:
256,192,146743,1,0,0:0:0:0:
256,192,146873,1,0,0:0:0:0:
256,192,147004,1,8,0:0:0:0:
256,192,147134,1,8,0:0:0:0:
256,192,147265,1,0,0:0:0:0:
256,192,147395,1,0,0:0:0:0:
256,192,147525,1,8,0:0:0:0:
256,192,147656,1,0,0:0:0:0:
256,192,147786,1,0,0:0:0:0:
256,192,147917,1,0,0:0:0:0:
256,192,148047,1,0,0:0:0:0:
256,192,148112,1,0,0:0:0:0:
256,192,148178,1,0,0:0:0:0:
256,192,148243,1,0,0:0:0:0:
256,192,148308,1,0,0:0:0:0:
256,192,148439,1,8,0:0:0:0:
256,192,148569,1,8,0:0:0:0:
256,192,148699,1,8,0:0:0:0:
256,192,148830,1,0,0:0:0:0:
256,192,148960,1,8,0:0:0:0:
256,192,149091,1,8,0:0:0:0:
256,192,149221,1,8,0:0:0:0:
256,192,149352,1,0,0:0:0:0:
256,192,149482,1,0,0:0:0:0:
256,192,149612,1,8,0:0:0:0:
256,192,149743,1,0,0:0:0:0:
256,192,149873,1,0,0:0:0:0:
256,192,150004,1,0,0:0:0:0:
256,192,150134,1,0,0:0:0:0:
256,192,150199,1,0,0:0:0:0:
256,192,150265,1,0,0:0:0:0:
256,192,150330,1,0,0:0:0:0:
256,192,150395,1,0,0:0:0:0:
256,192,150525,1,0,0:0:0:0:
256,192,150656,1,8,0:0:0:0:
256,192,150786,1,8,0:0:0:0:
256,192,150917,1,0,0:0:0:0:
256,192,151047,1,8,0:0:0:0:
256,192,151178,1,0,0:0:0:0:
256,192,151308,1,8,0:0:0:0:
256,192,151439,1,4,0:0:0:0:
256,192,151569,1,8,0:0:0:0:
256,192,151699,1,4,0:0:0:0:
256,192,151830,1,8,0:0:0:0:
256,192,151960,1,4,0:0:0:0:
256,192,152134,1,8,0:0:0:0:
256,192,152221,1,4,0:0:0:0:
256,192,152395,1,8,0:0:0:0:
256,192,152482,1,4,0:0:0:0:
256,192,152612,1,8,0:0:0:0:
256,192,152677,1,8,0:0:0:0:
256,192,152743,1,8,0:0:0:0:
256,192,152808,1,8,0:0:0:0:
256,192,152873,1,0,0:0:0:0:
256,192,153004,1,8,0:0:0:0:
256,192,153069,1,8,0:0:0:0:
256,192,153134,1,8,0:0:0:0:
256,192,153199,1,8,0:0:0:0:
256,192,153264,1,0,0:0:0:0:
256,192,153395,1,8,0:0:0:0:
256,192,153460,1,8,0:0:0:0:
256,192,153525,1,0,0:0:0:0:
256,192,153655,1,8,0:0:0:0:
256,192,153720,1,8,0:0:0:0:
256,192,153786,1,8,0:0:0:0:
256,192,153851,1,8,0:0:0:0:
256,192,153916,1,0,0:0:0:0:
256,192,154047,1,8,0:0:0:0:
256,192,154112,1,8,0:0:0:0:
256,192,154177,1,8,0:0:0:0:
256,192,154242,1,8,0:0:0:0:
256,192,154307,1,0,0:0:0:0:
256,192,154438,1,8,0:0:0:0:
256,192,154503,1,8,0:0:0:0:
256,192,154569,1,0,0:0:0:0:
256,192,154699,1,8,0:0:0:0:
256,192,154764,1,8,0:0:0:0:
256,192,154830,1,8,0:0:0:0:
256,192,154895,1,8,0:0:0:0:
256,192,154960,1,0,0:0:0:0:
256,192,155091,1,8,0:0:0:0:
256,192,155156,1,8,0:0:0:0:
256,192,155221,1,8,0:0:0:0:
256,192,155286,1,8,0:0:0:0:
256,192,155351,1,0,0:0:0:0:
256,192,155612,1,0,0:0:0:0:
256,192,155873,1,8,0:0:0:0:
256,192,155938,1,8,0:0:0:0:
256,192,156004,1,0,0:0:0:0:
256,192,156069,1,8,0:0:0:0:
256,192,156134,1,8,0:0:0:0:
256,192,156264,1,8,0:0:0:0:
256,192,156308,1,8,0:0:0:0:
256,192,156351,1,8,0:0:0:0:
256,192,156395,1,8,0:0:0:0:
256,192,156525,1,0,0:0:0:0:
256,192,156656,1,0,0:0:0:0:
256,192,156786,1,8,0:0:0:0:
256,192,156851,1,8,0:0:0:0:
256,192,156917,1,8,0:0:0:0:
256,192,156982,1,8,0:0:0:0:
256,192,157047,1,0,0:0:0:0:
256,192,157177,1,8,0:0:0:0:
256,192,157243,1,8,0:0:0:0:
256,192,157308,1,8,0:0:0:0:
256,192,157373,1,8,0:0:0:0:
256,192,157438,1,0,0:0:0:0:
256,192,157569,1,8,0:0:0:0:
256,192,157634,1,8,0:0:0:0:
256,192,157699,1,0,0:0:0:0:
256,192,157830,1,8,0:0:0:0:
256,192,157895,1,8,0:0:0:0:
256,192,157960,1,8,0:0:0:0:
256,192,158025,1,8,0:0:0:0:
256,192,158091,1,0,0:0:0:0:
256,192,158221,1,8,0:0:0:0:
256,192,158286,1,8,0:0:0:0:
256,192,158351,1,8,0:0:0:0:
256,192,158417,1,8,0:0:0:0:
256,192,158482,1,0,0:0:0:0:
256,192,158612,1,8,0:0:0:0:
256,192,158677,1,8,0:0:0:0:
256,192,158743,1,0,0:0:0:0:
256,192,158873,1,8,0:0:0:0:
256,192,158938,1,0,0:0:0:0:
256,192,159004,1,8,0:0:0:0:
256,192,159134,1,0,0:0:0:0:
256,192,159264,1,8,0:0:0:0:
256,192,159330,1,0,0:0:0:0:
256,192,159395,1,8,0:0:0:0:
256,192,159525,1,12,0:0:0:0:
256,192,159656,1,12,0:0:0:0:
256,192,159786,1,4,0:0:0:0:
256,192,160047,1,8,0:0:0:0:
256,192,160112,1,8,0:0:0:0:
256,192,160177,1,0,0:0:0:0:
256,192,160243,1,8,0:0:0:0:
256,192,160308,1,8,0:0:0:0:
256,192,160438,1,8,0:0:0:0:
256,192,160482,1,8,0:0:0:0:
256,192,160525,1,8,0:0:0:0:
256,192,160569,1,8,0:0:0:0:
256,192,160699,1,0,0:0:0:0:
256,192,160830,1,8,0:0:0:0:
256,192,160895,1,8,0:0:0:0:
256,192,160960,1,8,0:0:0:0:
256,192,161091,1,8,0:0:0:0:
256,192,161221,1,8,0:0:0:0:
256,192,161351,1,8,0:0:0:0:
256,192,161482,1,8,0:0:0:0:
256,192,161612,1,8,0:0:0:0:
256,192,161743,1,8,0:0:0:0:
256,192,161873,1,8,0:0:0:0:
256,192,161938,1,8,0:0:0:0:
256,192,162004,1,8,0:0:0:0:
256,192,162134,1,8,0:0:0:0:
256,192,162264,1,8,0:0:0:0:
256,192,162395,1,8,0:0:0:0:
256,192,162525,1,8,0:0:0:0:
256,192,162656,1,8,0:0:0:0:
256,192,162786,1,8,0:0:0:0:
256,192,162917,1,8,0:0:0:0:
256,192,163047,1,8,0:0:0:0:
256,192,163112,1,0,0:0:0:0:
256,192,163177,1,8,0:0:0:0:
256,192,163308,1,8,0:0:0:0:
256,192,163438,1,8,0:0:0:0:
256,192,163504,1,0,0:0:0:0:
256,192,163569,1,8,0:0:0:0:
256,192,163699,1,8,0:0:0:0:
256,192,163830,1,8,0:0:0:0:
256,192,163960,1,8,0:0:0:0:
256,192,164221,1,8,0:0:0:0:
256,192,164482,1,8,0:0:0:0:
256,192,164612,1,8,0:0:0:0:
256,192,164743,1,8,0:0:0:0:
256,192,164873,1,0,0:0:0:0:
256,192,165004,1,8,0:0:0:0:
256,192,165069,1,8,0:0:0:0:
256,192,165134,1,8,0:0:0:0:
256,192,165265,1,8,0:0:0:0:
256,192,165395,1,8,0:0:0:0:
256,192,165525,1,8,0:0:0:0:
256,192,165656,1,8,0:0:0:0:
256,192,165786,1,8,0:0:0:0:
256,192,165917,1,8,0:0:0:0:
256,192,166047,1,8,0:0:0:0:
256,192,166112,1,8,0:0:0:0:
256,192,166178,1,8,0:0:0:0:
256,192,166308,1,8,0:0:0:0:
256,192,166438,1,8,0:0:0:0:
256,192,166569,1,8,0:0:0:0:
256,192,166699,1,8,0:0:0:0:
256,192,166830,1,8,0:0:0:0:
256,192,166960,1,8,0:0:0:0:
256,192,167091,1,4,0:0:0:0:
256,192,169177,1,0,0:0:0:0:
256,192,169307,1,0,0:0:0:0:
256,192,169372,1,0,0:0:0:0:
256,192,169437,1,8,0:0:0:0:
256,192,169568,1,8,0:0:0:0:
256,192,169698,1,8,0:0:0:0:
256,192,169763,1,0,0:0:0:0:
256,192,169829,1,0,0:0:0:0:
256,192,169894,1,8,0:0:0:0:
256,192,170024,1,0,0:0:0:0:
256,192,170090,1,8,0:0:0:0:
256,192,170220,1,0,0:0:0:0:
256,192,170350,1,0,0:0:0:0:
256,192,170416,1,0,0:0:0:0:
256,192,170481,1,8,0:0:0:0:
256,192,170611,1,8,0:0:0:0:
256,192,170742,1,8,0:0:0:0:
256,192,170807,1,0,0:0:0:0:
256,192,170872,1,0,0:0:0:0:
256,192,170937,1,8,0:0:0:0:
256,192,171068,1,0,0:0:0:0:
256,192,171133,1,0,0:0:0:0:
256,192,171198,1,8,0:0:0:0:
256,192,171263,1,0,0:0:0:0:
256,192,171330,1,0,0:0:0:0:
256,192,171394,1,8,0:0:0:0:
256,192,171459,1,0,0:0:0:0:
256,192,171590,1,0,0:0:0:0:
256,192,171655,1,0,0:0:0:0:
256,192,171720,1,8,0:0:0:0:
256,192,171785,1,0,0:0:0:0:
256,192,171916,1,8,0:0:0:0:
256,192,171981,1,0,0:0:0:0:
256,192,172111,1,8,0:0:0:0:
256,192,172177,1,0,0:0:0:0:
256,192,172242,1,8,0:0:0:0:
256,192,172307,1,0,0:0:0:0:
256,192,172437,1,8,0:0:0:0:
256,192,172503,1,8,0:0:0:0:
256,192,172568,1,0,0:0:0:0:
256,192,172698,1,8,0:0:0:0:
256,192,172763,1,0,0:0:0:0:
256,192,172829,1,8,0:0:0:0:
256,192,172959,1,8,0:0:0:0:
256,192,173024,1,0,0:0:0:0:
256,192,173155,1,0,0:0:0:0:
256,192,173220,1,8,0:0:0:0:
256,192,173350,1,0,0:0:0:0:
256,192,173416,1,8,0:0:0:0:
256,192,173481,1,0,0:0:0:0:
256,192,173546,1,0,0:0:0:0:
256,192,173611,1,8,0:0:0:0:
256,192,173742,1,8,0:0:0:0:
256,192,173872,1,8,0:0:0:0:
256,192,173937,1,0,0:0:0:0:
256,192,174003,1,0,0:0:0:0:
256,192,174068,1,8,0:0:0:0:
256,192,174198,1,0,0:0:0:0:
256,192,174263,1,8,0:0:0:0:
256,192,174394,1,0,0:0:0:0:
256,192,174524,1,0,0:0:0:0:
256,192,174590,1,0,0:0:0:0:
256,192,174655,1,8,0:0:0:0:
256,192,174785,1,8,0:0:0:0:
256,192,174850,1,8,0:0:0:0:
256,192,174916,1,8,0:0:0:0:
256,192,175046,1,8,0:0:0:0:
256,192,175111,1,0,0:0:0:0:
256,192,175242,1,0,0:0:0:0:
256,192,175307,1,8,0:0:0:0:
256,192,175372,1,8,0:0:0:0:
256,192,175437,1,0,0:0:0:0:
256,192,175504,1,0,0:0:0:0:
256,192,175568,1,8,0:0:0:0:
256,192,175633,1,0,0:0:0:0:
256,192,175763,1,0,0:0:0:0:
256,192,175829,1,8,0:0:0:0:
256,192,175894,1,0,0:0:0:0:
256,192,175959,1,0,0:0:0:0:
256,192,176090,1,8,0:0:0:0:
256,192,176155,1,0,0:0:0:0:
256,192,176285,1,0,0:0:0:0:
256,192,176350,1,0,0:0:0:0:
256,192,176481,1,4,0:0:0:0:
256,192,176611,1,8,0:0:0:0:
256,192,176742,1,4,0:0:0:0:
256,192,176872,1,0,0:0:0:0:
256,192,177003,1,4,0:0:0:0:
256,192,177069,1,8,0:0:0:0:
256,192,177198,1,8,0:0:0:0:
256,192,177263,1,4,0:0:0:0:
256,192,177394,1,0,0:0:0:0:
256,192,177524,1,0,0:0:0:0:
256,192,177654,1,0,0:0:0:0:
256,192,177719,1,0,0:0:0:0:
256,192,177784,1,8,0:0:0:0:
256,192,177915,1,8,0:0:0:0:
256,192,178045,1,8,0:0:0:0:
256,192,178110,1,0,0:0:0:0:
256,192,178176,1,0,0:0:0:0:
256,192,178241,1,8,0:0:0:0:
256,192,178371,1,0,0:0:0:0:
256,192,178437,1,8,0:0:0:0:
256,192,178567,1,0,0:0:0:0:
256,192,178697,1,0,0:0:0:0:
256,192,178763,1,0,0:0:0:0:
256,192,178828,1,8,0:0:0:0:
256,192,178958,1,8,0:0:0:0:
256,192,179089,1,8,0:0:0:0:
256,192,179154,1,0,0:0:0:0:
256,192,179219,1,0,0:0:0:0:
256,192,179284,1,8,0:0:0:0:
256,192,179415,1,0,0:0:0:0:
256,192,179480,1,0,0:0:0:0:
256,192,179545,1,8,0:0:0:0:
256,192,179610,1,0,0:0:0:0:
256,192,179741,1,8,0:0:0:0:
256,192,179806,1,0,0:0:0:0:
256,192,179937,1,0,0:0:0:0:
256,192,180002,1,0,0:0:0:0:
256,192,180067,1,8,0:0:0:0:
256,192,180132,1,0,0:0:0:0:
256,192,180263,1,8,0:0:0:0:
256,192,180328,1,0,0:0:0:0:
256,192,180458,1,8,0:0:0:0:
256,192,180524,1,0,0:0:0:0:
256,192,180589,1,8,0:0:0:0:
256,192,180654,1,0,0:0:0:0:
256,192,180784,1,8,0:0:0:0:
256,192,180850,1,8,0:0:0:0:
256,192,180915,1,0,0:0:0:0:
256,192,181045,1,8,0:0:0:0:
256,192,181110,1,0,0:0:0:0:
256,192,181176,1,8,0:0:0:0:
256,192,181306,1,8,0:0:0:0:
256,192,181371,1,0,0:0:0:0:
256,192,181438,1,0,0:0:0:0:
256,192,181502,1,0,0:0:0:0:
256,192,181567,1,8,0:0:0:0:
256,192,181634,1,0,0:0:0:0:
256,192,181697,1,0,0:0:0:0:
256,192,181763,1,8,0:0:0:0:
256,192,181893,1,0,0:0:0:0:
256,192,181958,1,8,0:0:0:0:
256,192,182089,1,8,0:0:0:0:
256,192,182219,1,8,0:0:0:0:
256,192,182284,1,0,0:0:0:0:
256,192,182350,1,0,0:0:0:0:
256,192,182415,1,8,0:0:0:0:
256,192,182545,1,0,0:0:0:0:
256,192,182610,1,8,0:0:0:0:
256,192,182741,1,0,0:0:0:0:
256,192,182807,1,8,0:0:0:0:
256,192,182871,1,0,0:0:0:0:
256,192,182937,1,0,0:0:0:0:
256,192,183002,1,8,0:0:0:0:
256,192,183132,1,8,0:0:0:0:
256,192,183198,1,0,0:0:0:0:
256,192,183263,1,8,0:0:0:0:
256,192,183393,1,8,0:0:0:0:
256,192,183458,1,0,0:0:0:0:
256,192,183525,1,0,0:0:0:0:
256,192,183589,1,0,0:0:0:0:
256,192,183654,1,8,0:0:0:0:
256,192,183719,1,8,0:0:0:0:
256,192,183784,1,0,0:0:0:0:
256,192,183915,1,8,0:0:0:0:
256,192,183980,1,0,0:0:0:0:
256,192,184110,1,0,0:0:0:0:
256,192,184176,1,8,0:0:0:0:
256,192,184241,1,0,0:0:0:0:
256,192,184306,1,0,0:0:0:0:
256,192,184437,1,8,0:0:0:0:
256,192,184502,1,0,0:0:0:0:
254,225,184568,1,8,0:0:0:0:
256,192,184632,1,0,0:0:0:0:
256,192,184697,1,0,0:0:0:0:
256,192,184828,1,4,0:0:0:0:
256,192,185091,1,4,0:0:0:0:
256,192,185351,1,4,0:0:0:0:
256,192,185612,1,8,0:0:0:0:
256,192,185656,1,8,0:0:0:0:
256,192,185699,1,8,0:0:0:0:
256,192,185743,1,8,0:0:0:0:
256,192,185873,1,0,0:0:0:0:
256,192,186004,1,8,0:0:0:0:
256,192,186068,1,0,0:0:0:0:
256,192,186133,1,8,0:0:0:0:
256,192,186264,1,8,0:0:0:0:
256,192,186394,1,8,0:0:0:0:
256,192,186459,1,0,0:0:0:0:
256,192,186525,1,0,0:0:0:0:
256,192,186590,1,8,0:0:0:0:
256,192,186720,1,0,0:0:0:0:
256,192,186786,1,8,0:0:0:0:
256,192,186916,1,0,0:0:0:0:
256,192,187047,1,8,0:0:0:0:
256,192,187112,1,0,0:0:0:0:
256,192,187177,1,8,0:0:0:0:
256,192,187307,1,8,0:0:0:0:
256,192,187438,1,8,0:0:0:0:
256,192,187503,1,0,0:0:0:0:
256,192,187568,1,0,0:0:0:0:
256,192,187633,1,8,0:0:0:0:
256,192,187699,1,8,0:0:0:0:
256,192,187764,1,0,0:0:0:0:
256,192,187829,1,0,0:0:0:0:
256,192,187894,1,8,0:0:0:0:
256,192,187959,1,0,0:0:0:0:
256,192,188090,1,8,0:0:0:0:
256,192,188155,1,0,0:0:0:0:
256,192,188286,1,0,0:0:0:0:
256,192,188351,1,0,0:0:0:0:
256,192,188416,1,8,0:0:0:0:
256,192,188481,1,0,0:0:0:0:
256,192,188612,1,8,0:0:0:0:
256,192,188677,1,0,0:0:0:0:
256,192,188807,1,8,0:0:0:0:
256,192,188873,1,0,0:0:0:0:
256,192,188938,1,8,0:0:0:0:
256,192,189003,1,0,0:0:0:0:
256,192,189133,1,8,0:0:0:0:
256,192,189199,1,8,0:0:0:0:
256,192,189264,1,0,0:0:0:0:
256,192,189394,1,8,0:0:0:0:
256,192,189459,1,0,0:0:0:0:
256,192,189525,1,8,0:0:0:0:
256,192,189655,1,8,0:0:0:0:
256,192,189720,1,0,0:0:0:0:
256,192,189851,1,0,0:0:0:0:
256,192,189916,1,8,0:0:0:0:
256,192,189982,1,8,0:0:0:0:
256,192,190046,1,0,0:0:0:0:
256,192,190112,1,0,0:0:0:0:
256,192,190177,1,8,0:0:0:0:
256,192,190242,1,0,0:0:0:0:
256,192,190307,1,8,0:0:0:0:
256,192,190438,1,8,0:0:0:0:
256,192,190568,1,8,0:0:0:0:
256,192,190633,1,0,0:0:0:0:
256,192,190699,1,0,0:0:0:0:
256,192,190764,1,8,0:0:0:0:
256,192,190894,1,0,0:0:0:0:
256,192,190959,1,8,0:0:0:0:
256,192,191090,1,0,0:0:0:0:
256,192,191221,1,8,0:0:0:0:
256,192,191286,1,0,0:0:0:0:
256,192,191351,1,8,0:0:0:0:
256,192,191481,1,8,0:0:0:0:
256,192,191546,1,8,0:0:0:0:
256,192,191612,1,8,0:0:0:0:
256,192,191742,1,8,0:0:0:0:
256,192,191807,1,0,0:0:0:0:
256,192,191873,1,8,0:0:0:0:
256,192,191938,1,0,0:0:0:0:
256,192,192003,1,8,0:0:0:0:
256,192,192068,1,8,0:0:0:0:
256,192,192133,1,0,0:0:0:0:
256,192,192264,1,8,0:0:0:0:
256,192,192329,1,0,0:0:0:0:
256,192,192459,1,0,0:0:0:0:
256,192,192525,1,8,0:0:0:0:
256,192,192590,1,0,0:0:0:0:
256,192,192655,1,0,0:0:0:0:
256,192,192786,1,8,0:0:0:0:
256,192,192851,1,0,0:0:0:0:
256,192,192981,1,0,0:0:0:0:
256,192,193046,1,0,0:0:0:0:
256,192,193177,1,4,0:0:0:0:
256,192,193307,1,8,0:0:0:0:
256,192,193438,1,4,0:0:0:0:
256,192,193568,1,0,0:0:0:0:
256,192,193699,1,4,0:0:0:0:
256,192,193764,1,8,0:0:0:0:
256,192,193894,1,8,0:0:0:0:
256,192,193959,1,4,0:0:0:0:
256,192,194090,1,0,0:0:0:0:
256,192,194220,1,0,0:0:0:0:
256,192,194351,1,8,0:0:0:0:
256,192,194415,1,0,0:0:0:0:
256,192,194480,1,8,0:0:0:0:
256,192,194611,1,8,0:0:0:0:
256,192,194741,1,8,0:0:0:0:
256,192,194806,1,0,0:0:0:0:
256,192,194872,1,0,0:0:0:0:
256,192,194937,1,8,0:0:0:0:
256,192,195067,1,0,0:0:0:0:
256,192,195133,1,8,0:0:0:0:
256,192,195263,1,0,0:0:0:0:
256,192,195395,1,8,0:0:0:0:
256,192,195459,1,0,0:0:0:0:
256,192,195524,1,8,0:0:0:0:
256,192,195654,1,8,0:0:0:0:
256,192,195785,1,8,0:0:0:0:
256,192,195850,1,0,0:0:0:0:
256,192,195915,1,0,0:0:0:0:
256,192,195980,1,8,0:0:0:0:
256,192,196047,1,0,0:0:0:0:
256,192,196111,1,0,0:0:0:0:
256,192,196176,1,0,0:0:0:0:
256,192,196241,1,8,0:0:0:0:
256,192,196306,1,0,0:0:0:0:
256,192,196437,1,8,0:0:0:0:
256,192,196502,1,0,0:0:0:0:
256,192,196633,1,0,0:0:0:0:
256,192,196698,1,0,0:0:0:0:
256,192,196763,1,8,0:0:0:0:
256,192,196828,1,0,0:0:0:0:
256,192,196959,1,8,0:0:0:0:
256,192,197024,1,0,0:0:0:0:
256,192,197154,1,8,0:0:0:0:
256,192,197220,1,0,0:0:0:0:
256,192,197285,1,8,0:0:0:0:
256,192,197350,1,0,0:0:0:0:
256,192,197480,1,8,0:0:0:0:
256,192,197546,1,8,0:0:0:0:
256,192,197611,1,0,0:0:0:0:
256,192,197741,1,8,0:0:0:0:
256,192,197806,1,0,0:0:0:0:
256,192,197872,1,8,0:0:0:0:
256,192,198002,1,8,0:0:0:0:
256,192,198067,1,0,0:0:0:0:
256,192,198134,1,0,0:0:0:0:
256,192,198198,1,0,0:0:0:0:
256,192,198263,1,8,0:0:0:0:
256,192,198330,1,0,0:0:0:0:
256,192,198393,1,0,0:0:0:0:
256,192,198460,1,0,0:0:0:0:
256,192,198589,1,0,0:0:0:0:
256,192,198654,1,8,0:0:0:0:
256,192,198785,1,8,0:0:0:0:
256,192,198915,1,8,0:0:0:0:
256,192,198980,1,0,0:0:0:0:
256,192,199046,1,0,0:0:0:0:
256,192,199111,1,8,0:0:0:0:
256,192,199241,1,0,0:0:0:0:
256,192,199306,1,8,0:0:0:0:
256,192,199437,1,0,0:0:0:0:
256,192,199504,1,0,0:0:0:0:
256,192,199569,1,8,0:0:0:0:
256,192,199633,1,0,0:0:0:0:
256,192,199698,1,8,0:0:0:0:
256,192,199828,1,8,0:0:0:0:
256,192,199894,1,0,0:0:0:0:
256,192,199959,1,8,0:0:0:0:
256,192,200089,1,8,0:0:0:0:
256,192,200154,1,0,0:0:0:0:
256,192,200221,1,0,0:0:0:0:
256,192,200285,1,0,0:0:0:0:
256,192,200350,1,8,0:0:0:0:
256,192,200415,1,8,0:0:0:0:
256,192,200480,1,0,0:0:0:0:
256,192,200547,1,8,0:0:0:0:
256,192,200611,1,8,0:0:0:0:
256,192,200676,1,0,0:0:0:0:
256,192,200806,1,0,0:0:0:0:
256,192,200872,1,8,0:0:0:0:
256,192,200937,1,0,0:0:0:0:
256,192,201002,1,0,0:0:0:0:
256,192,201133,1,8,0:0:0:0:
256,192,201198,1,0,0:0:0:0:
254,225,201264,1,8,0:0:0:0:
256,192,201328,1,0,0:0:0:0:
256,192,201393,1,0,0:0:0:0:
256,192,201460,1,0,0:0:0:0:
256,192,201656,1,8,0:0:0:0:
256,192,201786,1,0,0:0:0:0:
256,192,201917,1,8,0:0:0:0:
256,192,202047,1,0,0:0:0:0:
256,192,202177,1,8,0:0:0:0:
256,192,202308,1,8,0:0:0:0:
256,192,202438,1,8,0:0:0:0:
256,192,202569,1,0,0:0:0:0:
256,192,202699,1,8,0:0:0:0:
256,192,202764,1,8,0:0:0:0:
256,192,202830,1,0,0:0:0:0:
256,192,202960,1,0,0:0:0:0:
256,192,203025,1,0,0:0:0:0:
256,192,203091,1,8,0:0:0:0:
256,192,203221,1,0,0:0:0:0:
256,192,203351,1,8,0:0:0:0:
256,192,203417,1,8,0:0:0:0:
256,192,203482,1,0,0:0:0:0:
256,192,203547,1,8,0:0:0:0:
256,192,203612,1,0,0:0:0:0:
256,192,203743,1,8,0:0:0:0:
256,192,203808,1,8,0:0:0:0:
256,192,203873,1,0,0:0:0:0:
256,192,203938,1,0,0:0:0:0:
256,192,204004,1,0,0:0:0:0:
256,192,204069,1,8,0:0:0:0:
256,192,204134,1,0,0:0:0:0:
256,192,204199,1,8,0:0:0:0:
256,192,204264,1,8,0:0:0:0:
256,192,204395,1,0,0:0:0:0:
256,192,204460,1,0,0:0:0:0:
256,192,204525,1,0,0:0:0:0:
256,192,204591,1,0,0:0:0:0:
256,192,204656,1,0,0:0:0:0:
256,192,204786,1,8,0:0:0:0:
256,192,204851,1,8,0:0:0:0:
256,192,204917,1,0,0:0:0:0:
256,192,205047,1,0,0:0:0:0:
256,192,205112,1,0,0:0:0:0:
256,192,205178,1,8,0:0:0:0:
256,192,205308,1,0,0:0:0:0:
256,192,205438,1,8,0:0:0:0:
256,192,205504,1,0,0:0:0:0:
256,192,205569,1,8,0:0:0:0:
256,192,205634,1,8,0:0:0:0:
256,192,205699,1,4,0:0:0:0:
256,192,205960,1,4,0:0:0:0:
256,192,206221,1,4,0:0:0:0:
256,192,206482,1,4,0:0:0:0:
256,192,206743,1,4,0:0:0:0:
256,192,206873,1,8,0:0:0:0:
256,192,206938,1,8,0:0:0:0:
256,192,207004,1,0,0:0:0:0:
256,192,207134,1,0,0:0:0:0:
256,192,207199,1,0,0:0:0:0:
256,192,207264,1,8,0:0:0:0:
256,192,207395,1,0,0:0:0:0:
256,192,207525,1,8,0:0:0:0:
256,192,207591,1,8,0:0:0:0:
256,192,207656,1,8,0:0:0:0:
256,192,207721,1,8,0:0:0:0:
256,192,207786,1,0,0:0:0:0:
256,192,207917,1,8,0:0:0:0:
256,192,207982,1,8,0:0:0:0:
256,192,208047,1,0,0:0:0:0:
256,192,208178,1,0,0:0:0:0:
256,192,208243,1,8,0:0:0:0:
256,192,208308,1,0,0:0:0:0:
256,192,208373,1,0,0:0:0:0:
256,192,208438,1,8,0:0:0:0:
256,192,208569,1,0,0:0:0:0:
256,192,208634,1,0,0:0:0:0:
256,192,208699,1,0,0:0:0:0:
256,192,208764,1,0,0:0:0:0:
256,192,208830,1,0,0:0:0:0:
256,192,208960,1,8,0:0:0:0:
256,192,209025,1,8,0:0:0:0:
256,192,209091,1,0,0:0:0:0:
256,192,209156,1,8,0:0:0:0:
256,192,209221,1,0,0:0:0:0:
256,192,209286,1,0,0:0:0:0:
256,192,209351,1,8,0:0:0:0:
256,192,209417,1,8,0:0:0:0:
256,192,209482,1,0,0:0:0:0:
256,192,209612,1,8,0:0:0:0:
256,192,209678,1,8,0:0:0:0:
256,192,209743,1,0,0:0:0:0:
256,192,209808,1,8,0:0:0:0:
256,192,209873,1,0,0:0:0:0:
256,192,210004,1,8,0:0:0:0:
256,192,210069,1,8,0:0:0:0:
256,192,210134,1,8,0:0:0:0:
256,192,210264,1,0,0:0:0:0:
256,192,210395,1,8,0:0:0:0:
256,192,210460,1,8,0:0:0:0:
256,192,210525,1,8,0:0:0:0:
256,192,210656,1,0,0:0:0:0:
256,192,210786,1,8,0:0:0:0:
256,192,210917,1,0,0:0:0:0:
256,192,211047,1,8,0:0:0:0:
256,192,211112,1,8,0:0:0:0:
256,192,211178,1,0,0:0:0:0:
256,192,211308,1,0,0:0:0:0:
256,192,211373,1,0,0:0:0:0:
256,192,211439,1,8,0:0:0:0:
256,192,211569,1,0,0:0:0:0:
256,192,211699,1,8,0:0:0:0:
256,192,211765,1,8,0:0:0:0:
256,192,211830,1,0,0:0:0:0:
256,192,211895,1,8,0:0:0:0:
256,192,211960,1,0,0:0:0:0:
256,192,212091,1,8,0:0:0:0:
256,192,212156,1,0,0:0:0:0:
256,192,212221,1,0,0:0:0:0:
256,192,212286,1,8,0:0:0:0:
256,192,212352,1,0,0:0:0:0:
256,192,212417,1,8,0:0:0:0:
256,192,212482,1,0,0:0:0:0:
256,192,212547,1,8,0:0:0:0:
256,192,212612,1,8,0:0:0:0:
256,192,212743,1,0,0:0:0:0:
256,192,212808,1,0,0:0:0:0:
256,192,212873,1,0,0:0:0:0:
256,192,212938,1,0,0:0:0:0:
256,192,213004,1,0,0:0:0:0:
256,192,213134,1,8,0:0:0:0:
256,192,213199,1,8,0:0:0:0:
256,192,213265,1,0,0:0:0:0:
256,192,213395,1,0,0:0:0:0:
256,192,213460,1,0,0:0:0:0:
256,192,213526,1,8,0:0:0:0:
256,192,213656,1,0,0:0:0:0:
256,192,213786,1,8,0:0:0:0:
256,192,213852,1,0,0:0:0:0:
256,192,213917,1,8,0:0:0:0:
256,192,213982,1,8,0:0:0:0:
256,192,214047,1,4,0:0:0:0:
256,192,214308,1,4,0:0:0:0:
256,192,214569,1,4,0:0:0:0:
256,192,214699,1,8,0:0:0:0:
256,192,214830,1,4,0:0:0:0:
256,192,214960,1,8,0:0:0:0:
256,192,215091,1,4,0:0:0:0:
256,192,215221,1,8,0:0:0:0:
256,192,215286,1,8,0:0:0:0:
256,192,215352,1,0,0:0:0:0:
256,192,215482,1,0,0:0:0:0:
256,192,215547,1,0,0:0:0:0:
256,192,215612,1,8,0:0:0:0:
256,192,215743,1,0,0:0:0:0:
256,192,215873,1,8,0:0:0:0:
256,192,215939,1,8,0:0:0:0:
256,192,216004,1,8,0:0:0:0:
256,192,216069,1,8,0:0:0:0:
256,192,216134,1,0,0:0:0:0:
256,192,216199,1,0,0:0:0:0:
256,192,216265,1,8,0:0:0:0:
256,192,216330,1,8,0:0:0:0:
256,192,216395,1,0,0:0:0:0:
256,192,216460,1,8,0:0:0:0:
256,192,216526,1,0,0:0:0:0:
256,192,216591,1,8,0:0:0:0:
256,192,216656,1,0,0:0:0:0:
256,224,216721,1,0,0:0:0:0:
256,192,216786,1,8,0:0:0:0:
256,192,216917,1,0,0:0:0:0:
256,192,216982,1,0,0:0:0:0:
256,192,217047,1,0,0:0:0:0:
256,192,217112,1,0,0:0:0:0:
256,192,217178,1,0,0:0:0:0:
256,192,217308,1,8,0:0:0:0:
256,192,217373,1,8,0:0:0:0:
256,192,217504,1,8,0:0:0:0:
256,192,217569,1,0,0:0:0:0:
256,192,217634,1,0,0:0:0:0:
256,192,217699,1,8,0:0:0:0:
256,192,217830,1,0,0:0:0:0:
256,192,217960,1,8,0:0:0:0:
256,192,218026,1,8,0:0:0:0:
256,192,218091,1,0,0:0:0:0:
256,192,218156,1,8,0:0:0:0:
256,192,218221,1,0,0:0:0:0:
256,192,218351,1,8,0:0:0:0:
256,192,218417,1,8,0:0:0:0:
256,192,218482,1,8,0:0:0:0:
256,192,218612,1,0,0:0:0:0:
256,192,218743,1,8,0:0:0:0:
256,192,218808,1,8,0:0:0:0:
256,192,218873,1,8,0:0:0:0:
256,192,219004,1,0,0:0:0:0:
256,192,219134,1,8,0:0:0:0:
256,192,219264,1,4,0:0:0:0:
256,192,219525,1,0,0:0:0:0:
256,192,219591,1,0,0:0:0:0:
256,192,219656,1,8,0:0:0:0:
256,192,219721,1,0,0:0:0:0:
256,192,219786,1,0,0:0:0:0:
256,192,220047,1,12,0:0:0:0:
256,192,220178,1,12,0:0:0:0:
256,192,220308,1,4,0:0:0:0:
256,192,220569,1,0,0:0:0:0:
256,192,220634,1,8,0:0:0:0:
256,192,220699,1,0,0:0:0:0:
256,192,220764,1,0,0:0:0:0:
256,192,220830,1,0,0:0:0:0:
256,192,220960,1,8,0:0:0:0:
256,192,221091,1,0,0:0:0:0:
256,192,221221,1,8,0:0:0:0:
256,192,221351,1,4,0:0:0:0:
256,192,221612,1,8,0:0:0:0:
256,192,221677,1,0,0:0:0:0:
256,192,221743,1,0,0:0:0:0:
256,192,221808,1,0,0:0:0:0:
256,192,221873,1,0,0:0:0:0:
256,192,222134,1,12,0:0:0:0:
256,192,222265,1,12,0:0:0:0:
256,192,222395,1,4,0:0:0:0:
256,192,222656,1,0,0:0:0:0:
256,192,222721,1,0,0:0:0:0:
256,192,222786,1,0,0:0:0:0:
256,192,222851,1,8,0:0:0:0:
256,192,222917,1,8,0:0:0:0:
256,192,223047,1,8,0:0:0:0:
256,192,223112,1,0,0:0:0:0:
256,192,223177,1,8,0:0:0:0:
256,192,223243,1,0,0:0:0:0:
256,192,223308,1,8,0:0:0:0:
256,192,223438,1,4,0:0:0:0:
256,192,223699,1,0,0:0:0:0:
256,192,223764,1,0,0:0:0:0:
256,192,223830,1,8,0:0:0:0:
256,192,223895,1,8,0:0:0:0:
256,192,223960,1,0,0:0:0:0:
256,192,224221,1,12,0:0:0:0:
256,192,224352,1,12,0:0:0:0:
256,192,224482,1,4,0:0:0:0:
256,192,224743,1,0,0:0:0:0:
256,192,224808,1,8,0:0:0:0:
256,192,224873,1,8,0:0:0:0:
256,192,224938,1,0,0:0:0:0:
256,192,225004,1,0,0:0:0:0:
256,192,225134,1,8,0:0:0:0:
256,192,225265,1,0,0:0:0:0:
256,192,225395,1,8,0:0:0:0:
256,192,225525,1,4,0:0:0:0:
256,192,225786,1,0,0:0:0:0:
256,192,225852,1,8,0:0:0:0:
256,192,225917,1,8,0:0:0:0:
256,192,225982,1,8,0:0:0:0:
256,192,226047,1,0,0:0:0:0:
256,192,226308,1,12,0:0:0:0:
256,192,226439,1,12,0:0:0:0:
256,192,226569,1,4,0:0:0:0:
256,192,226830,1,8,0:0:0:0:
256,192,226895,1,8,0:0:0:0:
256,192,226960,1,0,0:0:0:0:
256,192,227025,1,8,0:0:0:0:
256,192,227091,1,8,0:0:0:0:
256,192,227221,1,8,0:0:0:0:
256,192,227286,1,8,0:0:0:0:
256,192,227352,1,0,0:0:0:0:
256,192,227417,1,8,0:0:0:0:
256,192,227482,1,8,0:0:0:0:
256,192,227612,1,0,0:0:0:0:
256,192,227743,1,0,0:0:0:0:
256,192,227808,1,0,0:0:0:0:
256,192,227873,1,8,0:0:0:0:
256,192,227939,1,8,0:0:0:0:
256,192,228004,1,0,0:0:0:0:
256,192,228069,1,8,0:0:0:0:
256,192,228134,1,8,0:0:0:0:
256,192,228264,1,0,0:0:0:0:
256,192,228395,1,12,0:0:0:0:
256,192,228526,1,12,0:0:0:0:
256,192,228656,1,4,0:0:0:0:
256,192,228786,1,8,0:0:0:0:
256,192,228851,1,0,0:0:0:0:
256,192,228917,1,8,0:0:0:0:
256,192,228982,1,8,0:0:0:0:
256,192,229047,1,0,0:0:0:0:
256,192,229112,1,0,0:0:0:0:
256,192,229178,1,8,0:0:0:0:
256,192,229308,1,8,0:0:0:0:
256,192,229439,1,0,0:0:0:0:
256,192,229569,1,8,0:0:0:0:
256,192,229634,1,8,0:0:0:0:
256,192,229699,1,4,0:0:0:0:
256,192,229830,1,8,0:0:0:0:
256,192,229895,1,8,0:0:0:0:
256,192,229960,1,0,0:0:0:0:
256,192,230026,1,8,0:0:0:0:
256,192,230091,1,0,0:0:0:0:
256,192,230156,1,0,0:0:0:0:
256,192,230221,1,8,0:0:0:0:
256,192,230351,1,0,0:0:0:0:
256,192,230482,1,12,0:0:0:0:
256,192,230613,1,12,0:0:0:0:
256,192,230743,1,4,0:0:0:0:
256,192,230873,1,0,0:0:0:0:
256,192,230938,1,8,0:0:0:0:
256,192,231004,1,8,0:0:0:0:
256,192,231069,1,8,0:0:0:0:
256,192,231134,1,0,0:0:0:0:
256,192,231199,1,8,0:0:0:0:
256,192,231264,1,0,0:0:0:0:
256,192,231395,1,8,0:0:0:0:
256,192,231460,1,8,0:0:0:0:
256,192,231526,1,0,0:0:0:0:
256,192,231591,1,8,0:0:0:0:
256,192,231656,1,8,0:0:0:0:
256,192,231721,1,8,0:0:0:0:
256,192,231786,1,4,0:0:0:0:
256,192,232047,1,8,0:0:0:0:
256,192,232308,1,8,0:0:0:0:
256,192,232569,1,8,0:0:0:0:
256,192,232699,1,8,0:0:0:0:
256,192,232830,1,0,0:0:0:0:
256,192,233091,1,8,0:0:0:0:
256,192,233351,1,8,0:0:0:0:
256,192,233482,1,8,0:0:0:0:
256,192,233612,1,0,0:0:0:0:
256,192,233743,1,8,0:0:0:0:
256,192,233873,1,0,0:0:0:0:
256,192,234134,1,8,0:0:0:0:
256,192,234395,1,8,0:0:0:0:
256,192,234656,1,8,0:0:0:0:
256,192,234786,1,8,0:0:0:0:
256,192,234917,1,8,0:0:0:0:
256,192,235178,1,8,0:0:0:0:
256,192,235438,1,8,0:0:0:0:
256,192,235699,12,0,238438,0:0:0:0:
