osu file format v14

[General]
AudioFilename: t+pazolite Apollogic {Hardcore}.mp3
AudioLeadIn: 0
PreviewTime: 49991
Countdown: 0
SampleSet: Normal
StackLeniency: 0.7
Mode: 3
LetterboxInBreaks: 0
SpecialStyle: 0
WidescreenStoryboard: 0

[Editor]
DistanceSpacing: 1.2
BeatDivisor: 4
GridSize: 4
TimelineZoom: 2

[Metadata]
Title:Apollogic
TitleUnicode:Apollogic
Artist:t+pazolite
ArtistUnicode:t+pazolite
Creator:R e m u r i n g
Version:Chexollogic
Source:
Tags:jakads ramuchi interlude- wonki
BeatmapID:1143967
BeatmapSetID:539533

[Difficulty]
HPDrainRate:8.5
CircleSize:4
OverallDifficulty:9
ApproachRate:5
SliderMultiplier:1.4
SliderTickRate:1

[Events]
//Background and Video events
0,0,"bgbgbgbgbgbg.png",0,0
//Break Periods
//Storyboard Layer 0 (Background)
//Storyboard Layer 1 (Fail)
//Storyboard Layer 2 (Pass)
//Storyboard Layer 3 (Foreground)
//Storyboard Sound Samples

[TimingPoints]
948,260.869565217391,4,1,0,30,1,0
51034,-100,4,1,0,30,0,1
65643,-100,4,1,0,30,0,0
67730,-100,4,1,0,30,0,1
84426,-100,4,1,0,30,0,0
134513,-100,4,1,0,30,0,1
150165,-100,4,1,0,30,0,0
151208,-100,4,1,0,30,0,1
166861,-100,4,1,0,30,0,0

[HitObjects]
320,192,948,5,0,0:0:0:0:
192,192,948,1,0,0:0:0:0:
64,192,1078,1,0,0:0:0:0:
320,192,1208,1,0,0:0:0:0:
64,192,1339,1,0,0:0:0:0:
320,192,1469,1,0,0:0:0:0:
192,192,1469,1,0,0:0:0:0:
64,192,1600,1,0,0:0:0:0:
448,192,1730,1,0,0:0:0:0:
320,192,1730,1,0,0:0:0:0:
64,192,1861,1,0,0:0:0:0:
192,192,1991,1,0,0:0:0:0:
448,192,1991,1,0,0:0:0:0:
320,192,2121,1,0,0:0:0:0:
64,192,2121,1,0,0:0:0:0:
192,192,2252,1,0,0:0:0:0:
64,192,2382,1,0,0:0:0:0:
320,192,2382,1,0,0:0:0:0:
192,192,2513,1,0,0:0:0:0:
320,192,2643,1,0,0:0:0:0:
448,192,2643,1,0,0:0:0:0:
192,192,2774,1,0,0:0:0:0:
448,192,2774,1,0,0:0:0:0:
320,192,2904,1,0,0:0:0:0:
64,192,2904,1,0,0:0:0:0:
64,192,3034,1,0,0:0:0:0:
192,192,3034,1,0,0:0:0:0:
448,192,3165,1,0,0:0:0:0:
192,192,3295,1,0,0:0:0:0:
448,192,3426,1,0,0:0:0:0:
192,192,3556,1,0,0:0:0:0:
64,192,3556,1,0,0:0:0:0:
448,192,3687,1,0,0:0:0:0:
192,192,3817,1,0,0:0:0:0:
320,192,3817,1,0,0:0:0:0:
448,192,3947,1,0,0:0:0:0:
64,192,4078,1,0,0:0:0:0:
192,192,4078,1,0,0:0:0:0:
320,192,4208,1,0,0:0:0:0:
448,192,4208,1,0,0:0:0:0:
64,192,4339,1,0,0:0:0:0:
320,192,4469,1,0,0:0:0:0:
448,192,4469,1,0,0:0:0:0:
64,192,4600,1,0,0:0:0:0:
320,192,4730,1,0,0:0:0:0:
64,192,4861,1,0,0:0:0:0:
192,192,4861,1,0,0:0:0:0:
320,192,4991,1,0,0:0:0:0:
448,192,5121,1,0,0:0:0:0:
192,192,5121,1,0,0:0:0:0:
64,192,5252,1,0,0:0:0:0:
448,192,5382,1,0,0:0:0:0:
64,192,5513,1,0,0:0:0:0:
448,192,5643,1,0,0:0:0:0:
192,192,5643,1,0,0:0:0:0:
64,192,5774,1,0,0:0:0:0:
448,192,5904,1,0,0:0:0:0:
320,192,5904,1,0,0:0:0:0:
64,192,6034,1,0,0:0:0:0:
320,192,6165,1,0,0:0:0:0:
448,192,6165,1,0,0:0:0:0:
192,192,6295,1,0,0:0:0:0:
64,192,6295,1,0,0:0:0:0:
320,192,6426,1,0,0:0:0:0:
192,192,6556,1,0,0:0:0:0:
64,192,6556,1,0,0:0:0:0:
320,192,6687,1,0,0:0:0:0:
192,192,6817,1,0,0:0:0:0:
320,192,6947,1,0,0:0:0:0:
448,192,6947,1,0,0:0:0:0:
192,192,7078,1,0,0:0:0:0:
448,192,7208,1,0,0:0:0:0:
64,192,7208,1,0,0:0:0:0:
320,192,7339,1,0,0:0:0:0:
448,192,7469,1,0,0:0:0:0:
192,192,7469,1,0,0:0:0:0:
320,192,7600,1,0,0:0:0:0:
448,192,7730,1,0,0:0:0:0:
64,192,7730,1,0,0:0:0:0:
320,192,7861,1,0,0:0:0:0:
64,192,7991,1,0,0:0:0:0:
448,192,7991,1,0,0:0:0:0:
320,192,8121,1,0,0:0:0:0:
192,192,8121,1,0,0:0:0:0:
64,192,8252,1,0,0:0:0:0:
320,192,8382,1,0,0:0:0:0:
192,192,8513,1,0,0:0:0:0:
448,192,8643,1,0,0:0:0:0:
64,192,8774,1,0,0:0:0:0:
320,192,8904,1,0,0:0:0:0:
192,192,9034,1,0,0:0:0:0:
448,192,9165,1,0,0:0:0:0:
192,192,9295,5,0,0:0:0:0:
320,192,9295,1,0,0:0:0:0:
448,192,9426,1,0,0:0:0:0:
192,192,9556,1,0,0:0:0:0:
448,192,9687,1,0,0:0:0:0:
192,192,9817,1,0,0:0:0:0:
320,192,9817,1,0,0:0:0:0:
448,192,9947,1,0,0:0:0:0:
64,192,10078,1,0,0:0:0:0:
192,192,10078,1,0,0:0:0:0:
448,192,10208,1,0,0:0:0:0:
320,192,10339,1,0,0:0:0:0:
64,192,10339,1,0,0:0:0:0:
192,192,10469,1,0,0:0:0:0:
448,192,10469,1,0,0:0:0:0:
320,192,10600,1,0,0:0:0:0:
448,192,10730,1,0,0:0:0:0:
192,192,10730,1,0,0:0:0:0:
320,192,10861,1,0,0:0:0:0:
192,192,10991,1,0,0:0:0:0:
64,192,10991,1,0,0:0:0:0:
320,192,11121,1,0,0:0:0:0:
64,192,11121,1,0,0:0:0:0:
192,192,11252,1,0,0:0:0:0:
448,192,11252,1,0,0:0:0:0:
448,192,11382,1,0,0:0:0:0:
320,192,11382,1,0,0:0:0:0:
64,192,11513,1,0,0:0:0:0:
320,192,11643,1,0,0:0:0:0:
64,192,11774,1,0,0:0:0:0:
320,192,11904,1,0,0:0:0:0:
448,192,11904,1,0,0:0:0:0:
64,192,12034,1,0,0:0:0:0:
320,192,12165,1,0,0:0:0:0:
192,192,12165,1,0,0:0:0:0:
64,192,12295,1,0,0:0:0:0:
448,192,12426,1,0,0:0:0:0:
320,192,12426,1,0,0:0:0:0:
192,192,12556,1,0,0:0:0:0:
64,192,12556,1,0,0:0:0:0:
448,192,12687,1,0,0:0:0:0:
192,192,12817,1,0,0:0:0:0:
64,192,12817,1,0,0:0:0:0:
448,192,12947,1,0,0:0:0:0:
192,192,13078,1,0,0:0:0:0:
448,192,13208,1,0,0:0:0:0:
320,192,13208,1,0,0:0:0:0:
192,192,13339,1,0,0:0:0:0:
64,192,13469,1,0,0:0:0:0:
320,192,13469,1,0,0:0:0:0:
448,192,13600,1,0,0:0:0:0:
64,192,13730,1,0,0:0:0:0:
448,192,13861,1,0,0:0:0:0:
64,192,13991,1,0,0:0:0:0:
320,192,13991,1,0,0:0:0:0:
448,192,14121,1,0,0:0:0:0:
64,192,14252,1,0,0:0:0:0:
192,192,14252,1,0,0:0:0:0:
448,192,14382,1,0,0:0:0:0:
192,192,14513,1,0,0:0:0:0:
64,192,14513,1,0,0:0:0:0:
320,192,14643,1,0,0:0:0:0:
448,192,14643,1,0,0:0:0:0:
192,192,14774,1,0,0:0:0:0:
320,192,14904,1,0,0:0:0:0:
448,192,14904,1,0,0:0:0:0:
192,192,15034,1,0,0:0:0:0:
320,192,15165,1,0,0:0:0:0:
64,192,15165,1,0,0:0:0:0:
192,192,15295,1,0,0:0:0:0:
320,192,15426,1,0,0:0:0:0:
64,192,15426,1,0,0:0:0:0:
448,192,15556,1,0,0:0:0:0:
192,192,15687,1,0,0:0:0:0:
320,192,15817,1,0,0:0:0:0:
192,192,15947,1,0,0:0:0:0:
448,192,16078,1,0,0:0:0:0:
64,192,16208,1,0,0:0:0:0:
320,192,16339,1,0,0:0:0:0:
64,192,16469,1,0,0:0:0:0:
192,192,16600,1,0,0:0:0:0:
320,192,16730,1,0,0:0:0:0:
64,192,16861,1,0,0:0:0:0:
320,192,16991,1,0,0:0:0:0:
192,192,17121,1,0,0:0:0:0:
448,192,17252,1,0,0:0:0:0:
64,192,17382,1,0,0:0:0:0:
448,192,17513,1,0,0:0:0:0:
64,192,17643,128,0,17904:0:0:0:0:
192,192,17643,1,0,0:0:0:0:
320,192,17643,1,0,0:0:0:0:
448,192,17904,1,0,0:0:0:0:
448,192,18165,1,0,0:0:0:0:
64,192,18165,128,0,18426:0:0:0:0:
320,192,18295,1,0,0:0:0:0:
320,192,18426,128,0,18687:0:0:0:0:
448,192,18426,1,0,0:0:0:0:
192,192,18426,1,0,0:0:0:0:
64,192,18556,1,0,0:0:0:0:
448,192,18687,128,0,18817:0:0:0:0:
64,192,18817,1,0,0:0:0:0:
192,192,18817,128,0,18947:0:0:0:0:
320,192,18817,1,0,0:0:0:0:
448,192,18947,1,0,0:0:0:0:
192,192,19078,128,0,19208:0:0:0:0:
64,192,19078,1,0,0:0:0:0:
320,192,19208,1,0,0:0:0:0:
448,192,19208,1,0,0:0:0:0:
64,192,19339,128,0,19469:0:0:0:0:
448,192,19339,1,0,0:0:0:0:
320,192,19404,1,0,0:0:0:0:
448,192,19469,128,0,19730:0:0:0:0:
192,192,19469,128,0,19600:0:0:0:0:
320,192,19600,128,0,19730:0:0:0:0:
64,192,19730,128,0,19991:0:0:0:0:
192,192,19730,1,0,0:0:0:0:
320,192,19991,1,0,0:0:0:0:
192,192,20121,1,0,0:0:0:0:
64,192,20252,1,0,0:0:0:0:
448,192,20252,128,0,20513:0:0:0:0:
192,192,20382,1,0,0:0:0:0:
64,192,20513,128,0,20774:0:0:0:0:
192,192,20513,1,0,0:0:0:0:
320,192,20513,1,0,0:0:0:0:
448,192,20600,1,0,0:0:0:0:
320,192,20643,1,0,0:0:0:0:
192,192,20687,1,0,0:0:0:0:
448,192,20774,1,0,0:0:0:0:
320,192,20774,1,0,0:0:0:0:
192,192,20904,1,0,0:0:0:0:
448,192,20904,128,0,21034:0:0:0:0:
64,192,20904,1,0,0:0:0:0:
320,192,21034,1,0,0:0:0:0:
192,192,21121,1,0,0:0:0:0:
320,192,21165,1,0,0:0:0:0:
448,192,21165,1,0,0:0:0:0:
64,192,21208,1,0,0:0:0:0:
192,192,21295,1,0,0:0:0:0:
320,192,21426,1,0,0:0:0:0:
64,192,21556,128,0,21817:0:0:0:0:
448,192,21556,1,0,0:0:0:0:
320,192,21687,1,0,0:0:0:0:
448,192,21817,128,0,22078:0:0:0:0:
320,192,21817,1,0,0:0:0:0:
192,192,21817,1,0,0:0:0:0:
64,192,22078,1,0,0:0:0:0:
448,192,22339,128,0,22600:0:0:0:0:
320,192,22339,1,0,0:0:0:0:
64,192,22469,1,0,0:0:0:0:
320,192,22600,128,0,22861:0:0:0:0:
192,192,22600,1,0,0:0:0:0:
64,192,22600,1,0,0:0:0:0:
448,192,22730,1,0,0:0:0:0:
192,192,22861,128,0,22991:0:0:0:0:
64,192,22991,128,0,23121:0:0:0:0:
320,192,22991,1,0,0:0:0:0:
448,192,22991,1,0,0:0:0:0:
448,192,23121,1,0,0:0:0:0:
320,192,23252,128,0,23382:0:0:0:0:
64,192,23252,1,0,0:0:0:0:
192,192,23382,1,0,0:0:0:0:
448,192,23382,1,0,0:0:0:0:
64,192,23513,1,0,0:0:0:0:
192,192,23578,1,0,0:0:0:0:
448,192,23643,128,0,23904:0:0:0:0:
320,192,23643,128,0,23904:0:0:0:0:
192,192,23904,1,0,0:0:0:0:
64,192,23904,128,0,24034:0:0:0:0:
320,192,24165,128,0,24295:0:0:0:0:
192,192,24295,1,0,0:0:0:0:
64,192,24426,128,0,24556:0:0:0:0:
448,192,24426,1,0,0:0:0:0:
448,192,24687,1,0,0:0:0:0:
320,192,24687,1,0,0:0:0:0:
64,192,24774,1,0,0:0:0:0:
448,192,24817,128,0,25078:0:0:0:0:
192,192,24817,1,0,0:0:0:0:
320,192,24861,1,0,0:0:0:0:
64,192,24947,1,0,0:0:0:0:
320,192,25078,128,0,25208:0:0:0:0:
192,192,25208,1,0,0:0:0:0:
64,192,25208,1,0,0:0:0:0:
448,192,25295,1,0,0:0:0:0:
320,192,25339,1,0,0:0:0:0:
192,192,25382,1,0,0:0:0:0:
64,192,25469,1,0,0:0:0:0:
448,192,25469,1,0,0:0:0:0:
192,192,25600,1,0,0:0:0:0:
448,192,25600,1,0,0:0:0:0:
320,192,25600,1,0,0:0:0:0:
64,192,25730,128,0,25991:0:0:0:0:
448,192,25991,128,0,26252:0:0:0:0:
320,192,25991,1,0,0:0:0:0:
192,192,25991,1,0,0:0:0:0:
64,192,26252,1,0,0:0:0:0:
64,192,26513,1,0,0:0:0:0:
448,192,26513,128,0,26774:0:0:0:0:
192,192,26643,1,0,0:0:0:0:
192,192,26774,128,0,27034:0:0:0:0:
64,192,26774,1,0,0:0:0:0:
320,192,26774,1,0,0:0:0:0:
448,192,26904,1,0,0:0:0:0:
64,192,27034,128,0,27165:0:0:0:0:
448,192,27165,1,0,0:0:0:0:
320,192,27165,128,0,27295:0:0:0:0:
192,192,27165,1,0,0:0:0:0:
64,192,27295,1,0,0:0:0:0:
320,192,27426,128,0,27556:0:0:0:0:
448,192,27426,1,0,0:0:0:0:
192,192,27556,1,0,0:0:0:0:
64,192,27556,1,0,0:0:0:0:
448,192,27687,1,0,0:0:0:0:
64,192,27687,128,0,27817:0:0:0:0:
320,192,27752,1,0,0:0:0:0:
192,192,27817,128,0,27947:0:0:0:0:
448,192,27817,128,0,28078:0:0:0:0:
320,192,27947,128,0,28078:0:0:0:0:
64,192,28078,128,0,28339:0:0:0:0:
192,192,28078,1,0,0:0:0:0:
320,192,28339,1,0,0:0:0:0:
192,192,28469,1,0,0:0:0:0:
448,192,28600,1,0,0:0:0:0:
64,192,28600,128,0,28861:0:0:0:0:
320,192,28730,1,0,0:0:0:0:
448,192,28861,128,0,29121:0:0:0:0:
320,192,28861,1,0,0:0:0:0:
192,192,28861,1,0,0:0:0:0:
64,192,28947,1,0,0:0:0:0:
192,192,28991,1,0,0:0:0:0:
320,192,29034,1,0,0:0:0:0:
64,192,29121,1,0,0:0:0:0:
192,192,29121,1,0,0:0:0:0:
64,192,29252,1,0,0:0:0:0:
192,192,29252,128,0,29382:0:0:0:0:
320,192,29252,1,0,0:0:0:0:
448,192,29382,1,0,0:0:0:0:
320,192,29469,1,0,0:0:0:0:
192,192,29513,1,0,0:0:0:0:
64,192,29513,1,0,0:0:0:0:
448,192,29556,1,0,0:0:0:0:
320,192,29643,1,0,0:0:0:0:
192,192,29774,1,0,0:0:0:0:
448,192,29904,128,0,30165:0:0:0:0:
64,192,29904,1,0,0:0:0:0:
192,192,30034,1,0,0:0:0:0:
64,192,30165,128,0,30426:0:0:0:0:
192,192,30165,1,0,0:0:0:0:
320,192,30165,1,0,0:0:0:0:
448,192,30426,1,0,0:0:0:0:
64,192,30687,128,0,30947:0:0:0:0:
192,192,30687,1,0,0:0:0:0:
448,192,30817,1,0,0:0:0:0:
192,192,30947,128,0,31208:0:0:0:0:
320,192,30947,1,0,0:0:0:0:
448,192,30947,1,0,0:0:0:0:
64,192,31078,1,0,0:0:0:0:
320,192,31208,128,0,31339:0:0:0:0:
448,192,31339,128,0,31469:0:0:0:0:
192,192,31339,1,0,0:0:0:0:
64,192,31339,1,0,0:0:0:0:
64,192,31469,1,0,0:0:0:0:
192,192,31600,128,0,31730:0:0:0:0:
320,192,31600,1,0,0:0:0:0:
448,192,31730,1,0,0:0:0:0:
64,192,31730,1,0,0:0:0:0:
320,192,31861,128,0,31991:0:0:0:0:
192,192,31926,1,0,0:0:0:0:
64,192,31991,128,0,32252:0:0:0:0:
320,192,32121,128,0,33034:0:0:0:0:
192,192,32121,1,0,0:0:0:0:
448,192,32121,1,0,0:0:0:0:
192,192,32513,1,0,0:0:0:0:
64,192,32513,1,0,0:0:0:0:
448,192,32643,1,0,0:0:0:0:
64,192,32774,1,0,0:0:0:0:
192,192,32774,1,0,0:0:0:0:
64,192,33034,1,0,0:0:0:0:
448,192,33034,1,0,0:0:0:0:
320,192,33121,1,0,0:0:0:0:
192,192,33165,1,0,0:0:0:0:
64,192,33165,1,0,0:0:0:0:
448,192,33208,1,0,0:0:0:0:
320,192,33295,1,0,0:0:0:0:
192,192,33426,128,0,33556:0:0:0:0:
320,192,33556,1,0,0:0:0:0:
64,192,33556,1,0,0:0:0:0:
448,192,33643,1,0,0:0:0:0:
320,192,33687,1,0,0:0:0:0:
192,192,33687,1,0,0:0:0:0:
64,192,33730,1,0,0:0:0:0:
192,192,33817,1,0,0:0:0:0:
448,192,33817,1,0,0:0:0:0:
320,192,33947,1,0,0:0:0:0:
64,192,33947,1,0,0:0:0:0:
448,192,33947,1,0,0:0:0:0:
192,192,34078,1,0,0:0:0:0:
64,192,34078,1,0,0:0:0:0:
448,192,34208,1,0,0:0:0:0:
320,192,34208,1,0,0:0:0:0:
64,192,34339,1,0,0:0:0:0:
192,192,34339,1,0,0:0:0:0:
448,192,34339,1,0,0:0:0:0:
192,192,34600,1,0,0:0:0:0:
64,192,34600,1,0,0:0:0:0:
64,192,34861,1,0,0:0:0:0:
192,192,34861,1,0,0:0:0:0:
448,192,34861,1,0,0:0:0:0:
64,192,35121,1,0,0:0:0:0:
192,192,35121,1,0,0:0:0:0:
320,192,35121,1,0,0:0:0:0:
320,192,35252,1,0,0:0:0:0:
192,192,35382,1,0,0:0:0:0:
64,192,35382,1,0,0:0:0:0:
448,192,35382,1,0,0:0:0:0:
64,192,35643,1,0,0:0:0:0:
192,192,35643,1,0,0:0:0:0:
448,192,35774,1,0,0:0:0:0:
320,192,35774,1,0,0:0:0:0:
192,192,35904,1,0,0:0:0:0:
64,192,35904,1,0,0:0:0:0:
320,192,35904,1,0,0:0:0:0:
448,192,36034,1,0,0:0:0:0:
320,192,36100,1,0,0:0:0:0:
64,192,36165,1,0,0:0:0:0:
192,192,36165,128,0,36426:0:0:0:0:
448,192,36295,1,0,0:0:0:0:
64,192,36426,1,0,0:0:0:0:
448,192,36426,1,0,0:0:0:0:
320,192,36426,1,0,0:0:0:0:
320,192,36687,1,0,0:0:0:0:
448,192,36687,1,0,0:0:0:0:
192,192,36817,1,0,0:0:0:0:
448,192,36947,1,0,0:0:0:0:
320,192,36947,1,0,0:0:0:0:
64,192,36947,1,0,0:0:0:0:
448,192,37208,1,0,0:0:0:0:
320,192,37208,1,0,0:0:0:0:
192,192,37208,1,0,0:0:0:0:
64,192,37295,1,0,0:0:0:0:
192,192,37382,1,0,0:0:0:0:
320,192,37469,1,0,0:0:0:0:
448,192,37469,1,0,0:0:0:0:
64,192,37469,1,0,0:0:0:0:
192,192,37600,128,0,37730:0:0:0:0:
448,192,37730,1,0,0:0:0:0:
320,192,37730,1,0,0:0:0:0:
64,192,37817,1,0,0:0:0:0:
192,192,37861,1,0,0:0:0:0:
320,192,37861,1,0,0:0:0:0:
448,192,37904,1,0,0:0:0:0:
64,192,37991,1,0,0:0:0:0:
192,192,37991,1,0,0:0:0:0:
320,192,38121,1,0,0:0:0:0:
448,192,38121,1,0,0:0:0:0:
192,192,38252,1,0,0:0:0:0:
320,192,38252,1,0,0:0:0:0:
448,192,38252,1,0,0:0:0:0:
192,192,38382,1,0,0:0:0:0:
64,192,38382,1,0,0:0:0:0:
320,192,38447,1,0,0:0:0:0:
64,192,38513,1,0,0:0:0:0:
192,192,38513,1,0,0:0:0:0:
448,192,38513,1,0,0:0:0:0:
320,192,38774,1,0,0:0:0:0:
64,192,38774,1,0,0:0:0:0:
64,192,39034,1,0,0:0:0:0:
320,192,39034,1,0,0:0:0:0:
448,192,39034,1,0,0:0:0:0:
64,192,39295,1,0,0:0:0:0:
320,192,39295,1,0,0:0:0:0:
192,192,39295,1,0,0:0:0:0:
192,192,39426,1,0,0:0:0:0:
320,192,39556,1,0,0:0:0:0:
64,192,39556,1,0,0:0:0:0:
448,192,39556,1,0,0:0:0:0:
64,192,39817,1,0,0:0:0:0:
320,192,39817,1,0,0:0:0:0:
448,192,39947,1,0,0:0:0:0:
192,192,39947,1,0,0:0:0:0:
320,192,40078,1,0,0:0:0:0:
64,192,40078,1,0,0:0:0:0:
192,192,40078,1,0,0:0:0:0:
448,192,40208,1,0,0:0:0:0:
320,192,40274,1,0,0:0:0:0:
64,192,40339,1,0,0:0:0:0:
192,192,40339,128,0,40600:0:0:0:0:
320,192,40469,1,0,0:0:0:0:
64,192,40600,1,0,0:0:0:0:
448,192,40600,1,0,0:0:0:0:
320,192,40600,1,0,0:0:0:0:
192,192,40861,1,0,0:0:0:0:
448,192,40861,1,0,0:0:0:0:
320,192,40991,1,0,0:0:0:0:
448,192,41121,1,0,0:0:0:0:
192,192,41121,1,0,0:0:0:0:
64,192,41121,1,0,0:0:0:0:
448,192,41382,1,0,0:0:0:0:
192,192,41382,1,0,0:0:0:0:
320,192,41382,1,0,0:0:0:0:
64,192,41469,1,0,0:0:0:0:
320,192,41556,1,0,0:0:0:0:
192,192,41643,1,0,0:0:0:0:
448,192,41643,1,0,0:0:0:0:
64,192,41643,1,0,0:0:0:0:
192,192,41774,128,0,41904:0:0:0:0:
448,192,41904,1,0,0:0:0:0:
320,192,41904,1,0,0:0:0:0:
64,192,41904,1,0,0:0:0:0:
192,192,41991,1,0,0:0:0:0:
448,192,42034,1,0,0:0:0:0:
64,192,42034,1,0,0:0:0:0:
320,192,42078,1,0,0:0:0:0:
64,192,42165,1,0,0:0:0:0:
192,192,42165,1,0,0:0:0:0:
320,192,42295,1,0,0:0:0:0:
448,192,42295,1,0,0:0:0:0:
320,192,42426,1,0,0:0:0:0:
192,192,42426,1,0,0:0:0:0:
448,192,42426,1,0,0:0:0:0:
448,192,42556,1,0,0:0:0:0:
64,192,42556,1,0,0:0:0:0:
320,192,42621,1,0,0:0:0:0:
448,192,42687,1,0,0:0:0:0:
64,192,42687,1,0,0:0:0:0:
192,192,42687,1,0,0:0:0:0:
192,192,42947,1,0,0:0:0:0:
64,192,42947,1,0,0:0:0:0:
448,192,42947,1,0,0:0:0:0:
320,192,43078,1,0,0:0:0:0:
192,192,43078,1,0,0:0:0:0:
320,192,43208,1,0,0:0:0:0:
64,192,43208,1,0,0:0:0:0:
448,192,43208,1,0,0:0:0:0:
192,192,43469,1,0,0:0:0:0:
64,192,43469,1,0,0:0:0:0:
448,192,43469,1,0,0:0:0:0:
192,192,43600,1,0,0:0:0:0:
64,192,43730,1,0,0:0:0:0:
320,192,43730,1,0,0:0:0:0:
448,192,43730,1,0,0:0:0:0:
448,192,43991,1,0,0:0:0:0:
320,192,43991,1,0,0:0:0:0:
64,192,43991,1,0,0:0:0:0:
192,192,44121,1,0,0:0:0:0:
320,192,44121,1,0,0:0:0:0:
192,192,44252,1,0,0:0:0:0:
64,192,44252,1,0,0:0:0:0:
448,192,44252,1,0,0:0:0:0:
320,192,44382,1,0,0:0:0:0:
192,192,44447,1,0,0:0:0:0:
64,192,44513,128,0,44774:0:0:0:0:
448,192,44513,1,0,0:0:0:0:
320,192,44643,1,0,0:0:0:0:
448,192,44774,1,0,0:0:0:0:
320,192,44774,1,0,0:0:0:0:
192,192,44774,1,0,0:0:0:0:
320,192,45034,1,0,0:0:0:0:
448,192,45034,1,0,0:0:0:0:
192,192,45034,1,0,0:0:0:0:
64,192,45165,1,0,0:0:0:0:
448,192,45165,1,0,0:0:0:0:
320,192,45295,1,0,0:0:0:0:
192,192,45295,1,0,0:0:0:0:
64,192,45295,1,0,0:0:0:0:
64,192,45556,1,0,0:0:0:0:
192,192,45556,1,0,0:0:0:0:
320,192,45556,1,0,0:0:0:0:
448,192,45643,1,0,0:0:0:0:
320,192,45730,1,0,0:0:0:0:
448,192,45817,1,0,0:0:0:0:
192,192,45817,1,0,0:0:0:0:
64,192,45817,1,0,0:0:0:0:
192,192,45947,128,0,46078:0:0:0:0:
320,192,46078,1,0,0:0:0:0:
448,192,46078,1,0,0:0:0:0:
64,192,46078,1,0,0:0:0:0:
192,192,46165,1,0,0:0:0:0:
320,192,46208,1,0,0:0:0:0:
64,192,46252,1,0,0:0:0:0:
320,192,46339,1,0,0:0:0:0:
448,192,46339,1,0,0:0:0:0:
192,192,46339,1,0,0:0:0:0:
448,192,46469,1,0,0:0:0:0:
192,192,46600,1,0,0:0:0:0:
320,192,46600,1,0,0:0:0:0:
64,192,46600,1,0,0:0:0:0:
448,192,46730,1,0,0:0:0:0:
192,192,46730,1,0,0:0:0:0:
320,192,46795,1,0,0:0:0:0:
192,192,46861,1,0,0:0:0:0:
64,192,46861,1,0,0:0:0:0:
448,192,46861,1,0,0:0:0:0:
320,192,46991,1,0,0:0:0:0:
192,192,46991,1,0,0:0:0:0:
320,192,47121,1,0,0:0:0:0:
448,192,47121,1,0,0:0:0:0:
192,192,47252,1,0,0:0:0:0:
448,192,47252,1,0,0:0:0:0:
192,192,47382,1,0,0:0:0:0:
64,192,47382,1,0,0:0:0:0:
320,192,47382,1,0,0:0:0:0:
64,192,47513,1,0,0:0:0:0:
448,192,47513,1,0,0:0:0:0:
448,192,47643,1,0,0:0:0:0:
192,192,47643,1,0,0:0:0:0:
320,192,47774,1,0,0:0:0:0:
192,192,47774,1,0,0:0:0:0:
64,192,47904,1,0,0:0:0:0:
320,192,47904,1,0,0:0:0:0:
448,192,47904,1,0,0:0:0:0:
192,192,48034,1,0,0:0:0:0:
64,192,48034,1,0,0:0:0:0:
192,192,48165,1,0,0:0:0:0:
448,192,48165,1,0,0:0:0:0:
448,192,48295,1,0,0:0:0:0:
320,192,48295,1,0,0:0:0:0:
320,192,48426,1,0,0:0:0:0:
192,192,48426,1,0,0:0:0:0:
64,192,48426,1,0,0:0:0:0:
192,192,48556,1,0,0:0:0:0:
448,192,48556,1,0,0:0:0:0:
320,192,48621,1,0,0:0:0:0:
64,192,48687,1,0,0:0:0:0:
448,192,48687,128,0,48947:0:0:0:0:
192,192,48817,1,0,0:0:0:0:
64,192,48817,1,0,0:0:0:0:
64,192,48947,128,0,49208:0:0:0:0:
192,192,48947,1,0,0:0:0:0:
320,192,48947,1,0,0:0:0:0:
448,192,49013,1,0,0:0:0:0:
320,192,49078,1,0,0:0:0:0:
192,192,49143,1,0,0:0:0:0:
320,192,49208,128,0,49469:0:0:0:0:
448,192,49208,1,0,0:0:0:0:
64,192,49274,1,0,0:0:0:0:
192,192,49339,1,0,0:0:0:0:
448,192,49404,1,0,0:0:0:0:
192,192,49469,128,0,49730:0:0:0:0:
64,192,49469,1,0,0:0:0:0:
448,192,49534,1,0,0:0:0:0:
320,192,49600,1,0,0:0:0:0:
64,192,49665,1,0,0:0:0:0:
448,192,49730,128,0,49991:0:0:0:0:
320,192,49730,1,0,0:0:0:0:
64,192,49795,1,0,0:0:0:0:
192,192,49861,1,0,0:0:0:0:
320,192,49926,1,0,0:0:0:0:
64,192,49991,1,0,0:0:0:0:
192,192,50024,1,0,0:0:0:0:
320,192,50056,1,0,0:0:0:0:
448,192,50089,1,0,0:0:0:0:
64,192,50121,1,0,0:0:0:0:
192,192,50154,1,0,0:0:0:0:
320,192,50187,1,0,0:0:0:0:
448,192,50219,1,0,0:0:0:0:
64,192,50252,128,0,50317:0:0:0:0:
192,192,50317,128,0,50382:0:0:0:0:
320,192,50382,128,0,50447:0:0:0:0:
448,192,50447,128,0,50513:0:0:0:0:
64,192,50513,128,0,50578:0:0:0:0:
192,192,50513,128,0,50578:0:0:0:0:
64,192,50643,128,0,50708:0:0:0:0:
192,192,50643,128,0,50708:0:0:0:0:
64,192,50774,128,0,50839:0:0:0:0:
192,192,50774,128,0,50839:0:0:0:0:
64,192,50904,128,0,50969:0:0:0:0:
192,192,50904,128,0,50969:0:0:0:0:
320,192,51034,1,0,0:0:0:0:
64,192,51034,128,0,51230:0:0:0:0:
448,192,51034,128,0,51230:0:0:0:0:
192,192,51034,128,0,51230:0:0:0:0:
448,192,51295,128,0,51491:0:0:0:0:
64,192,51295,128,0,51491:0:0:0:0:
192,192,51295,128,0,51491:0:0:0:0:
64,192,51556,1,0,0:0:0:0:
448,192,51556,1,0,0:0:0:0:
192,192,51687,1,0,0:0:0:0:
320,192,51687,1,0,0:0:0:0:
448,192,51687,1,0,0:0:0:0:
64,192,51817,1,0,0:0:0:0:
448,192,51947,1,0,0:0:0:0:
320,192,51947,1,0,0:0:0:0:
192,192,52013,1,0,0:0:0:0:
64,192,52013,1,0,0:0:0:0:
320,192,52078,1,0,0:0:0:0:
448,192,52078,1,0,0:0:0:0:
192,192,52208,1,0,0:0:0:0:
64,192,52208,1,0,0:0:0:0:
320,192,52274,1,0,0:0:0:0:
448,192,52274,1,0,0:0:0:0:
192,192,52339,1,0,0:0:0:0:
320,192,52404,1,0,0:0:0:0:
64,192,52469,1,0,0:0:0:0:
192,192,52502,1,0,0:0:0:0:
448,192,52534,1,0,0:0:0:0:
320,192,52567,1,0,0:0:0:0:
64,192,52600,1,0,0:0:0:0:
192,192,52600,1,0,0:0:0:0:
320,192,52730,1,0,0:0:0:0:
64,192,52730,1,0,0:0:0:0:
192,192,52730,1,0,0:0:0:0:
448,192,52795,1,0,0:0:0:0:
192,192,52861,1,0,0:0:0:0:
64,192,52861,1,0,0:0:0:0:
448,192,52926,1,0,0:0:0:0:
320,192,52926,1,0,0:0:0:0:
64,192,52991,1,0,0:0:0:0:
320,192,53056,1,0,0:0:0:0:
448,192,53056,1,0,0:0:0:0:
192,192,53121,128,0,53317:0:0:0:0:
64,192,53121,128,0,53317:0:0:0:0:
448,192,53252,1,0,0:0:0:0:
192,192,53382,1,0,0:0:0:0:
64,192,53382,1,0,0:0:0:0:
320,192,53382,1,0,0:0:0:0:
192,192,53513,1,0,0:0:0:0:
64,192,53513,1,0,0:0:0:0:
320,192,53513,1,0,0:0:0:0:
448,192,53643,1,0,0:0:0:0:
64,192,53643,1,0,0:0:0:0:
192,192,53774,1,0,0:0:0:0:
64,192,53774,1,0,0:0:0:0:
320,192,53774,1,0,0:0:0:0:
320,192,53904,1,0,0:0:0:0:
448,192,53904,1,0,0:0:0:0:
192,192,53969,1,0,0:0:0:0:
320,192,54034,1,0,0:0:0:0:
448,192,54034,1,0,0:0:0:0:
64,192,54100,1,0,0:0:0:0:
192,192,54100,1,0,0:0:0:0:
320,192,54165,1,0,0:0:0:0:
448,192,54165,1,0,0:0:0:0:
64,192,54230,1,0,0:0:0:0:
448,192,54295,1,0,0:0:0:0:
320,192,54328,1,0,0:0:0:0:
192,192,54361,1,0,0:0:0:0:
64,192,54393,1,0,0:0:0:0:
448,192,54426,1,0,0:0:0:0:
320,192,54426,1,0,0:0:0:0:
192,192,54513,1,0,0:0:0:0:
320,192,54600,1,0,0:0:0:0:
64,192,54687,1,0,0:0:0:0:
192,192,54687,1,0,0:0:0:0:
448,192,54687,128,0,54947:0:0:0:0:
320,192,54817,1,0,0:0:0:0:
64,192,54947,1,0,0:0:0:0:
192,192,54980,1,0,0:0:0:0:
320,192,55013,1,0,0:0:0:0:
448,192,55045,1,0,0:0:0:0:
64,192,55078,1,0,0:0:0:0:
192,192,55111,1,0,0:0:0:0:
320,192,55143,1,0,0:0:0:0:
448,192,55176,1,0,0:0:0:0:
64,192,55208,128,0,55469:0:0:0:0:
192,192,55208,128,0,55339:0:0:0:0:
448,192,55469,1,0,0:0:0:0:
192,192,55469,1,0,0:0:0:0:
320,192,55469,1,0,0:0:0:0:
192,192,55600,1,0,0:0:0:0:
448,192,55600,1,0,0:0:0:0:
320,192,55600,1,0,0:0:0:0:
64,192,55730,1,0,0:0:0:0:
320,192,55730,1,0,0:0:0:0:
192,192,55861,1,0,0:0:0:0:
448,192,55861,1,0,0:0:0:0:
320,192,55861,1,0,0:0:0:0:
64,192,55991,1,0,0:0:0:0:
192,192,55991,1,0,0:0:0:0:
448,192,56121,1,0,0:0:0:0:
64,192,56121,1,0,0:0:0:0:
192,192,56187,1,0,0:0:0:0:
320,192,56187,1,0,0:0:0:0:
64,192,56252,1,0,0:0:0:0:
448,192,56252,1,0,0:0:0:0:
192,192,56382,1,0,0:0:0:0:
64,192,56382,1,0,0:0:0:0:
320,192,56447,1,0,0:0:0:0:
448,192,56447,1,0,0:0:0:0:
192,192,56513,1,0,0:0:0:0:
320,192,56578,1,0,0:0:0:0:
64,192,56643,1,0,0:0:0:0:
192,192,56643,128,0,56774:0:0:0:0:
448,192,56774,1,0,0:0:0:0:
320,192,56774,1,0,0:0:0:0:
448,192,56904,1,0,0:0:0:0:
320,192,56904,1,0,0:0:0:0:
192,192,56904,1,0,0:0:0:0:
64,192,56969,1,0,0:0:0:0:
320,192,57034,1,0,0:0:0:0:
448,192,57034,1,0,0:0:0:0:
64,192,57100,1,0,0:0:0:0:
192,192,57100,1,0,0:0:0:0:
320,192,57165,1,0,0:0:0:0:
64,192,57230,1,0,0:0:0:0:
192,192,57230,1,0,0:0:0:0:
320,192,57295,1,0,0:0:0:0:
448,192,57295,128,0,57426:0:0:0:0:
192,192,57426,1,0,0:0:0:0:
320,192,57426,128,0,57556:0:0:0:0:
64,192,57556,1,0,0:0:0:0:
192,192,57556,128,0,57687:0:0:0:0:
448,192,57687,1,0,0:0:0:0:
64,192,57687,128,0,57817:0:0:0:0:
448,192,57817,128,0,57947:0:0:0:0:
320,192,57817,1,0,0:0:0:0:
192,192,57817,1,0,0:0:0:0:
320,192,57947,128,0,58078:0:0:0:0:
64,192,57947,1,0,0:0:0:0:
192,192,58078,128,0,58208:0:0:0:0:
448,192,58078,1,0,0:0:0:0:
320,192,58165,1,0,0:0:0:0:
64,192,58208,128,0,58339:0:0:0:0:
448,192,58252,1,0,0:0:0:0:
320,192,58339,128,0,58404:0:0:0:0:
192,192,58339,128,0,58404:0:0:0:0:
192,192,58469,128,0,58534:0:0:0:0:
320,192,58469,128,0,58534:0:0:0:0:
320,192,58600,128,0,58665:0:0:0:0:
64,192,58600,128,0,58665:0:0:0:0:
64,192,58730,128,0,58795:0:0:0:0:
320,192,58730,128,0,58795:0:0:0:0:
192,192,58861,128,0,58926:0:0:0:0:
448,192,58861,128,0,58926:0:0:0:0:
64,192,58861,128,0,58926:0:0:0:0:
192,192,58991,128,0,59056:0:0:0:0:
448,192,58991,128,0,59056:0:0:0:0:
64,192,58991,128,0,59056:0:0:0:0:
320,192,59121,128,0,59187:0:0:0:0:
192,192,59121,128,0,59187:0:0:0:0:
448,192,59121,128,0,59187:0:0:0:0:
192,192,59252,128,0,59317:0:0:0:0:
320,192,59252,128,0,59317:0:0:0:0:
448,192,59252,128,0,59317:0:0:0:0:
64,192,59382,128,0,59578:0:0:0:0:
320,192,59382,128,0,59578:0:0:0:0:
192,192,59382,1,0,0:0:0:0:
448,192,59382,128,0,59578:0:0:0:0:
320,192,59643,128,0,59839:0:0:0:0:
448,192,59643,128,0,59839:0:0:0:0:
64,192,59643,128,0,59839:0:0:0:0:
320,192,59904,1,0,0:0:0:0:
448,192,59904,1,0,0:0:0:0:
64,192,60034,1,0,0:0:0:0:
192,192,60034,1,0,0:0:0:0:
448,192,60034,1,0,0:0:0:0:
320,192,60165,1,0,0:0:0:0:
192,192,60295,1,0,0:0:0:0:
64,192,60295,1,0,0:0:0:0:
448,192,60361,1,0,0:0:0:0:
320,192,60361,1,0,0:0:0:0:
64,192,60426,1,0,0:0:0:0:
192,192,60426,1,0,0:0:0:0:
320,192,60556,1,0,0:0:0:0:
448,192,60556,1,0,0:0:0:0:
192,192,60621,1,0,0:0:0:0:
64,192,60621,1,0,0:0:0:0:
448,192,60687,1,0,0:0:0:0:
64,192,60752,1,0,0:0:0:0:
320,192,60817,1,0,0:0:0:0:
448,192,60850,1,0,0:0:0:0:
192,192,60882,1,0,0:0:0:0:
64,192,60915,1,0,0:0:0:0:
320,192,60947,1,0,0:0:0:0:
448,192,60947,1,0,0:0:0:0:
64,192,61078,1,0,0:0:0:0:
448,192,61078,1,0,0:0:0:0:
192,192,61078,1,0,0:0:0:0:
320,192,61143,1,0,0:0:0:0:
192,192,61208,1,0,0:0:0:0:
64,192,61208,1,0,0:0:0:0:
448,192,61274,1,0,0:0:0:0:
320,192,61274,1,0,0:0:0:0:
64,192,61339,1,0,0:0:0:0:
448,192,61404,1,0,0:0:0:0:
320,192,61404,1,0,0:0:0:0:
64,192,61469,128,0,61665:0:0:0:0:
192,192,61469,128,0,61665:0:0:0:0:
448,192,61600,1,0,0:0:0:0:
320,192,61730,1,0,0:0:0:0:
64,192,61730,1,0,0:0:0:0:
192,192,61730,1,0,0:0:0:0:
192,192,61861,1,0,0:0:0:0:
64,192,61861,1,0,0:0:0:0:
320,192,61861,1,0,0:0:0:0:
448,192,61991,1,0,0:0:0:0:
64,192,61991,1,0,0:0:0:0:
64,192,62121,1,0,0:0:0:0:
192,192,62121,1,0,0:0:0:0:
320,192,62121,1,0,0:0:0:0:
320,192,62252,1,0,0:0:0:0:
448,192,62252,1,0,0:0:0:0:
192,192,62317,1,0,0:0:0:0:
320,192,62382,1,0,0:0:0:0:
448,192,62382,1,0,0:0:0:0:
64,192,62447,1,0,0:0:0:0:
192,192,62447,1,0,0:0:0:0:
320,192,62513,1,0,0:0:0:0:
448,192,62513,1,0,0:0:0:0:
64,192,62578,1,0,0:0:0:0:
448,192,62643,1,0,0:0:0:0:
320,192,62676,1,0,0:0:0:0:
192,192,62708,1,0,0:0:0:0:
64,192,62741,1,0,0:0:0:0:
320,192,62774,1,0,0:0:0:0:
448,192,62774,1,0,0:0:0:0:
192,192,62861,1,0,0:0:0:0:
320,192,62947,1,0,0:0:0:0:
64,192,63034,128,0,63295:0:0:0:0:
192,192,63034,1,0,0:0:0:0:
448,192,63034,1,0,0:0:0:0:
320,192,63165,1,0,0:0:0:0:
448,192,63295,1,0,0:0:0:0:
320,192,63328,1,0,0:0:0:0:
192,192,63361,1,0,0:0:0:0:
64,192,63393,1,0,0:0:0:0:
448,192,63426,1,0,0:0:0:0:
320,192,63458,1,0,0:0:0:0:
192,192,63491,1,0,0:0:0:0:
64,192,63524,1,0,0:0:0:0:
320,192,63556,128,0,63687:0:0:0:0:
448,192,63556,128,0,63817:0:0:0:0:
192,192,63817,1,0,0:0:0:0:
320,192,63817,1,0,0:0:0:0:
64,192,63817,1,0,0:0:0:0:
192,192,63947,1,0,0:0:0:0:
64,192,63947,1,0,0:0:0:0:
320,192,63947,1,0,0:0:0:0:
192,192,64078,1,0,0:0:0:0:
448,192,64078,1,0,0:0:0:0:
64,192,64208,1,0,0:0:0:0:
320,192,64208,1,0,0:0:0:0:
192,192,64208,1,0,0:0:0:0:
64,192,64339,1,0,0:0:0:0:
448,192,64339,1,0,0:0:0:0:
320,192,64469,1,0,0:0:0:0:
192,192,64469,1,0,0:0:0:0:
64,192,64534,1,0,0:0:0:0:
448,192,64534,1,0,0:0:0:0:
320,192,64600,1,0,0:0:0:0:
192,192,64600,1,0,0:0:0:0:
448,192,64730,1,0,0:0:0:0:
320,192,64730,1,0,0:0:0:0:
64,192,64795,1,0,0:0:0:0:
192,192,64795,1,0,0:0:0:0:
320,192,64861,1,0,0:0:0:0:
192,192,64926,1,0,0:0:0:0:
320,192,64991,1,0,0:0:0:0:
448,192,64991,128,0,65121:0:0:0:0:
64,192,65121,1,0,0:0:0:0:
192,192,65121,1,0,0:0:0:0:
320,192,65252,1,0,0:0:0:0:
192,192,65252,1,0,0:0:0:0:
64,192,65252,1,0,0:0:0:0:
448,192,65317,1,0,0:0:0:0:
192,192,65382,1,0,0:0:0:0:
64,192,65382,1,0,0:0:0:0:
448,192,65447,1,0,0:0:0:0:
320,192,65447,1,0,0:0:0:0:
192,192,65513,1,0,0:0:0:0:
320,192,65578,1,0,0:0:0:0:
448,192,65578,1,0,0:0:0:0:
192,192,65643,128,0,65904:0:0:0:0:
64,192,65643,1,0,0:0:0:0:
192,192,66165,128,0,66426:0:0:0:0:
448,192,66295,1,0,0:0:0:0:
320,192,66426,128,0,66687:0:0:0:0:
64,192,66426,1,0,0:0:0:0:
192,192,66556,1,0,0:0:0:0:
64,192,66687,128,0,66817:0:0:0:0:
320,192,66817,128,0,66882:0:0:0:0:
448,192,66817,128,0,66882:0:0:0:0:
448,192,66947,128,0,67013:0:0:0:0:
320,192,66947,128,0,67013:0:0:0:0:
320,192,67078,128,0,67143:0:0:0:0:
448,192,67078,128,0,67143:0:0:0:0:
192,192,67208,1,0,0:0:0:0:
64,192,67208,1,0,0:0:0:0:
320,192,67274,1,0,0:0:0:0:
192,192,67274,1,0,0:0:0:0:
320,192,67339,1,0,0:0:0:0:
448,192,67339,1,0,0:0:0:0:
192,192,67404,1,0,0:0:0:0:
64,192,67404,1,0,0:0:0:0:
448,192,67469,128,0,67730:0:0:0:0:
320,192,67469,128,0,67600:0:0:0:0:
320,192,67730,1,0,0:0:0:0:
64,192,67730,128,0,67926:0:0:0:0:
192,192,67730,128,0,67926:0:0:0:0:
448,192,67991,128,0,68121:0:0:0:0:
64,192,67991,128,0,68187:0:0:0:0:
192,192,67991,128,0,68187:0:0:0:0:
64,192,68252,1,0,0:0:0:0:
448,192,68252,1,0,0:0:0:0:
192,192,68382,1,0,0:0:0:0:
320,192,68382,1,0,0:0:0:0:
448,192,68382,1,0,0:0:0:0:
64,192,68513,128,0,68643:0:0:0:0:
448,192,68643,1,0,0:0:0:0:
320,192,68643,1,0,0:0:0:0:
192,192,68708,1,0,0:0:0:0:
64,192,68708,1,0,0:0:0:0:
320,192,68774,1,0,0:0:0:0:
448,192,68774,1,0,0:0:0:0:
192,192,68904,1,0,0:0:0:0:
64,192,68904,1,0,0:0:0:0:
320,192,68969,1,0,0:0:0:0:
448,192,68969,1,0,0:0:0:0:
64,192,69034,128,0,69165:0:0:0:0:
192,192,69100,1,0,0:0:0:0:
448,192,69165,1,0,0:0:0:0:
320,192,69197,1,0,0:0:0:0:
192,192,69230,1,0,0:0:0:0:
64,192,69263,1,0,0:0:0:0:
320,192,69295,1,0,0:0:0:0:
448,192,69295,1,0,0:0:0:0:
192,192,69426,1,0,0:0:0:0:
320,192,69426,1,0,0:0:0:0:
64,192,69426,1,0,0:0:0:0:
448,192,69491,1,0,0:0:0:0:
192,192,69556,128,0,69687:0:0:0:0:
64,192,69556,1,0,0:0:0:0:
320,192,69621,1,0,0:0:0:0:
448,192,69621,1,0,0:0:0:0:
64,192,69687,1,0,0:0:0:0:
320,192,69752,1,0,0:0:0:0:
448,192,69752,1,0,0:0:0:0:
192,192,69817,128,0,70013:0:0:0:0:
64,192,69817,128,0,70013:0:0:0:0:
320,192,69947,1,0,0:0:0:0:
192,192,70078,1,0,0:0:0:0:
64,192,70078,1,0,0:0:0:0:
448,192,70078,128,0,70208:0:0:0:0:
192,192,70208,1,0,0:0:0:0:
64,192,70208,1,0,0:0:0:0:
320,192,70208,1,0,0:0:0:0:
448,192,70339,1,0,0:0:0:0:
320,192,70339,1,0,0:0:0:0:
192,192,70469,1,0,0:0:0:0:
64,192,70469,1,0,0:0:0:0:
320,192,70469,1,0,0:0:0:0:
448,192,70600,1,0,0:0:0:0:
64,192,70600,128,0,70730:0:0:0:0:
192,192,70665,1,0,0:0:0:0:
320,192,70730,1,0,0:0:0:0:
448,192,70730,1,0,0:0:0:0:
64,192,70795,1,0,0:0:0:0:
192,192,70795,1,0,0:0:0:0:
320,192,70861,1,0,0:0:0:0:
448,192,70861,1,0,0:0:0:0:
64,192,70926,1,0,0:0:0:0:
448,192,70991,1,0,0:0:0:0:
320,192,71024,1,0,0:0:0:0:
192,192,71056,1,0,0:0:0:0:
64,192,71089,1,0,0:0:0:0:
448,192,71121,1,0,0:0:0:0:
320,192,71121,1,0,0:0:0:0:
192,192,71208,1,0,0:0:0:0:
320,192,71295,1,0,0:0:0:0:
64,192,71382,1,0,0:0:0:0:
192,192,71382,1,0,0:0:0:0:
448,192,71382,128,0,71643:0:0:0:0:
320,192,71513,1,0,0:0:0:0:
64,192,71643,1,0,0:0:0:0:
192,192,71676,1,0,0:0:0:0:
320,192,71708,1,0,0:0:0:0:
448,192,71741,1,0,0:0:0:0:
64,192,71774,1,0,0:0:0:0:
192,192,71806,1,0,0:0:0:0:
320,192,71839,1,0,0:0:0:0:
448,192,71871,1,0,0:0:0:0:
64,192,71904,128,0,72165:0:0:0:0:
192,192,71904,128,0,72034:0:0:0:0:
192,192,72165,1,0,0:0:0:0:
320,192,72165,1,0,0:0:0:0:
448,192,72165,128,0,72295:0:0:0:0:
192,192,72295,1,0,0:0:0:0:
64,192,72295,1,0,0:0:0:0:
320,192,72295,1,0,0:0:0:0:
64,192,72426,1,0,0:0:0:0:
448,192,72426,1,0,0:0:0:0:
192,192,72556,1,0,0:0:0:0:
320,192,72556,1,0,0:0:0:0:
64,192,72556,1,0,0:0:0:0:
192,192,72687,1,0,0:0:0:0:
320,192,72687,128,0,72817:0:0:0:0:
448,192,72817,1,0,0:0:0:0:
64,192,72817,1,0,0:0:0:0:
192,192,72882,1,0,0:0:0:0:
320,192,72882,1,0,0:0:0:0:
64,192,72947,1,0,0:0:0:0:
448,192,72947,1,0,0:0:0:0:
192,192,73078,1,0,0:0:0:0:
64,192,73078,1,0,0:0:0:0:
320,192,73143,1,0,0:0:0:0:
448,192,73143,1,0,0:0:0:0:
192,192,73208,128,0,73339:0:0:0:0:
320,192,73274,1,0,0:0:0:0:
64,192,73339,128,0,73469:0:0:0:0:
448,192,73339,1,0,0:0:0:0:
192,192,73469,1,0,0:0:0:0:
320,192,73469,1,0,0:0:0:0:
448,192,73600,1,0,0:0:0:0:
320,192,73600,1,0,0:0:0:0:
192,192,73600,1,0,0:0:0:0:
64,192,73665,1,0,0:0:0:0:
448,192,73730,128,0,73861:0:0:0:0:
320,192,73730,1,0,0:0:0:0:
192,192,73795,1,0,0:0:0:0:
64,192,73795,1,0,0:0:0:0:
320,192,73861,1,0,0:0:0:0:
64,192,73926,1,0,0:0:0:0:
192,192,73926,1,0,0:0:0:0:
320,192,73991,1,0,0:0:0:0:
448,192,73991,128,0,74121:0:0:0:0:
64,192,74121,1,0,0:0:0:0:
192,192,74121,128,0,74252:0:0:0:0:
320,192,74252,128,0,74382:0:0:0:0:
448,192,74252,128,0,74382:0:0:0:0:
64,192,74382,128,0,74513:0:0:0:0:
192,192,74382,1,0,0:0:0:0:
448,192,74513,128,0,74643:0:0:0:0:
320,192,74513,1,0,0:0:0:0:
192,192,74513,1,0,0:0:0:0:
320,192,74643,128,0,74774:0:0:0:0:
64,192,74643,1,0,0:0:0:0:
192,192,74774,128,0,74904:0:0:0:0:
448,192,74774,128,0,74904:0:0:0:0:
64,192,74904,128,0,75034:0:0:0:0:
320,192,74904,1,0,0:0:0:0:
320,192,75034,128,0,75100:0:0:0:0:
192,192,75034,128,0,75100:0:0:0:0:
192,192,75165,128,0,75230:0:0:0:0:
320,192,75165,128,0,75230:0:0:0:0:
320,192,75295,128,0,75361:0:0:0:0:
64,192,75295,128,0,75361:0:0:0:0:
64,192,75426,128,0,75491:0:0:0:0:
320,192,75426,128,0,75491:0:0:0:0:
192,192,75556,128,0,75621:0:0:0:0:
448,192,75556,128,0,75621:0:0:0:0:
64,192,75556,128,0,75621:0:0:0:0:
192,192,75687,128,0,75752:0:0:0:0:
448,192,75687,128,0,75752:0:0:0:0:
64,192,75687,128,0,75752:0:0:0:0:
320,192,75817,128,0,75882:0:0:0:0:
192,192,75817,128,0,75882:0:0:0:0:
448,192,75817,128,0,75882:0:0:0:0:
192,192,75947,128,0,76013:0:0:0:0:
320,192,75947,128,0,76013:0:0:0:0:
448,192,75947,128,0,76013:0:0:0:0:
320,192,76078,128,0,76274:0:0:0:0:
192,192,76078,1,0,0:0:0:0:
448,192,76078,128,0,76274:0:0:0:0:
64,192,76078,1,0,0:0:0:0:
320,192,76339,128,0,76534:0:0:0:0:
448,192,76339,128,0,76534:0:0:0:0:
64,192,76339,128,0,76469:0:0:0:0:
320,192,76600,1,0,0:0:0:0:
448,192,76600,1,0,0:0:0:0:
64,192,76730,1,0,0:0:0:0:
192,192,76730,1,0,0:0:0:0:
448,192,76730,1,0,0:0:0:0:
320,192,76861,128,0,76991:0:0:0:0:
192,192,76991,1,0,0:0:0:0:
64,192,76991,1,0,0:0:0:0:
448,192,77056,1,0,0:0:0:0:
320,192,77056,1,0,0:0:0:0:
64,192,77121,1,0,0:0:0:0:
192,192,77121,1,0,0:0:0:0:
320,192,77252,1,0,0:0:0:0:
448,192,77252,1,0,0:0:0:0:
192,192,77317,1,0,0:0:0:0:
64,192,77317,1,0,0:0:0:0:
448,192,77382,128,0,77513:0:0:0:0:
320,192,77447,1,0,0:0:0:0:
64,192,77513,1,0,0:0:0:0:
192,192,77545,1,0,0:0:0:0:
320,192,77578,1,0,0:0:0:0:
448,192,77611,1,0,0:0:0:0:
64,192,77643,1,0,0:0:0:0:
192,192,77643,1,0,0:0:0:0:
64,192,77774,1,0,0:0:0:0:
448,192,77774,1,0,0:0:0:0:
320,192,77774,1,0,0:0:0:0:
192,192,77839,1,0,0:0:0:0:
448,192,77904,128,0,78034:0:0:0:0:
320,192,77904,1,0,0:0:0:0:
192,192,77969,1,0,0:0:0:0:
64,192,77969,1,0,0:0:0:0:
320,192,78034,1,0,0:0:0:0:
192,192,78100,1,0,0:0:0:0:
64,192,78100,1,0,0:0:0:0:
448,192,78165,128,0,78361:0:0:0:0:
320,192,78165,128,0,78361:0:0:0:0:
64,192,78295,1,0,0:0:0:0:
320,192,78426,1,0,0:0:0:0:
448,192,78426,1,0,0:0:0:0:
64,192,78426,128,0,78556:0:0:0:0:
192,192,78556,1,0,0:0:0:0:
448,192,78556,1,0,0:0:0:0:
320,192,78556,1,0,0:0:0:0:
192,192,78687,1,0,0:0:0:0:
64,192,78687,1,0,0:0:0:0:
320,192,78817,1,0,0:0:0:0:
192,192,78817,1,0,0:0:0:0:
448,192,78817,1,0,0:0:0:0:
320,192,78947,1,0,0:0:0:0:
64,192,78947,128,0,79078:0:0:0:0:
192,192,79013,1,0,0:0:0:0:
448,192,79078,1,0,0:0:0:0:
320,192,79078,1,0,0:0:0:0:
64,192,79143,1,0,0:0:0:0:
192,192,79143,1,0,0:0:0:0:
320,192,79208,1,0,0:0:0:0:
448,192,79208,1,0,0:0:0:0:
192,192,79274,1,0,0:0:0:0:
448,192,79339,1,0,0:0:0:0:
320,192,79371,1,0,0:0:0:0:
192,192,79404,1,0,0:0:0:0:
64,192,79437,1,0,0:0:0:0:
320,192,79469,1,0,0:0:0:0:
448,192,79469,1,0,0:0:0:0:
192,192,79556,1,0,0:0:0:0:
320,192,79643,1,0,0:0:0:0:
64,192,79730,128,0,79991:0:0:0:0:
192,192,79730,1,0,0:0:0:0:
448,192,79730,1,0,0:0:0:0:
320,192,79861,1,0,0:0:0:0:
448,192,79991,1,0,0:0:0:0:
320,192,80024,1,0,0:0:0:0:
192,192,80056,1,0,0:0:0:0:
64,192,80089,1,0,0:0:0:0:
448,192,80121,1,0,0:0:0:0:
320,192,80154,1,0,0:0:0:0:
192,192,80187,1,0,0:0:0:0:
64,192,80219,1,0,0:0:0:0:
320,192,80252,128,0,80382:0:0:0:0:
448,192,80252,128,0,80513:0:0:0:0:
192,192,80513,1,0,0:0:0:0:
320,192,80513,1,0,0:0:0:0:
64,192,80513,128,0,80643:0:0:0:0:
192,192,80643,1,0,0:0:0:0:
448,192,80643,1,0,0:0:0:0:
320,192,80643,1,0,0:0:0:0:
64,192,80774,1,0,0:0:0:0:
448,192,80774,1,0,0:0:0:0:
448,192,80904,1,0,0:0:0:0:
320,192,80904,1,0,0:0:0:0:
192,192,80904,1,0,0:0:0:0:
64,192,81034,1,0,0:0:0:0:
192,192,81034,128,0,81165:0:0:0:0:
448,192,81165,1,0,0:0:0:0:
320,192,81165,1,0,0:0:0:0:
64,192,81230,1,0,0:0:0:0:
192,192,81230,1,0,0:0:0:0:
320,192,81295,1,0,0:0:0:0:
448,192,81295,1,0,0:0:0:0:
448,192,81426,1,0,0:0:0:0:
320,192,81426,1,0,0:0:0:0:
64,192,81491,1,0,0:0:0:0:
192,192,81491,1,0,0:0:0:0:
320,192,81556,128,0,81687:0:0:0:0:
192,192,81621,1,0,0:0:0:0:
448,192,81687,128,0,81817:0:0:0:0:
64,192,81687,1,0,0:0:0:0:
320,192,81817,1,0,0:0:0:0:
192,192,81817,1,0,0:0:0:0:
192,192,81947,1,0,0:0:0:0:
320,192,81947,1,0,0:0:0:0:
448,192,81947,1,0,0:0:0:0:
64,192,82013,1,0,0:0:0:0:
448,192,82078,128,0,82208:0:0:0:0:
320,192,82078,1,0,0:0:0:0:
64,192,82143,1,0,0:0:0:0:
192,192,82143,1,0,0:0:0:0:
320,192,82208,1,0,0:0:0:0:
192,192,82274,1,0,0:0:0:0:
64,192,82274,1,0,0:0:0:0:
320,192,82339,128,0,82600:0:0:0:0:
448,192,82339,1,0,0:0:0:0:
320,192,82861,128,0,83121:0:0:0:0:
64,192,82991,1,0,0:0:0:0:
192,192,83121,128,0,83382:0:0:0:0:
448,192,83121,1,0,0:0:0:0:
64,192,83252,128,0,83382:0:0:0:0:
448,192,83382,1,0,0:0:0:0:
320,192,83415,1,0,0:0:0:0:
192,192,83447,1,0,0:0:0:0:
64,192,83480,1,0,0:0:0:0:
448,192,83513,1,0,0:0:0:0:
320,192,83545,1,0,0:0:0:0:
192,192,83578,1,0,0:0:0:0:
64,192,83611,1,0,0:0:0:0:
448,192,83643,128,0,83708:0:0:0:0:
320,192,83708,128,0,83774:0:0:0:0:
192,192,83774,128,0,83839:0:0:0:0:
64,192,83839,128,0,83904:0:0:0:0:
448,192,83904,128,0,83969:0:0:0:0:
320,192,83904,128,0,83969:0:0:0:0:
448,192,84034,128,0,84100:0:0:0:0:
320,192,84034,128,0,84100:0:0:0:0:
320,192,84165,128,0,84230:0:0:0:0:
448,192,84165,128,0,84230:0:0:0:0:
448,192,84295,128,0,84361:0:0:0:0:
320,192,84295,128,0,84361:0:0:0:0:
320,192,84426,1,0,0:0:0:0:
448,192,84426,1,0,0:0:0:0:
64,192,84426,128,0,84687:0:0:0:0:
448,192,84687,128,0,84947:0:0:0:0:
320,192,84947,1,0,0:0:0:0:
192,192,84947,1,0,0:0:0:0:
64,192,85078,128,0,85208:0:0:0:0:
192,192,85208,128,0,85339:0:0:0:0:
448,192,85208,1,0,0:0:0:0:
320,192,85339,128,0,85469:0:0:0:0:
64,192,85339,1,0,0:0:0:0:
192,192,85469,1,0,0:0:0:0:
64,192,85600,128,0,85730:0:0:0:0:
320,192,85600,128,0,85730:0:0:0:0:
448,192,85730,1,0,0:0:0:0:
64,192,85861,128,0,85991:0:0:0:0:
320,192,85861,128,0,85991:0:0:0:0:
448,192,85991,1,0,0:0:0:0:
192,192,85991,128,0,86143:0:0:0:0:
320,192,86143,1,0,0:0:0:0:
192,192,86252,128,0,86404:0:0:0:0:
320,192,86404,1,0,0:0:0:0:
192,192,86513,128,0,86774:0:0:0:0:
64,192,86513,1,0,0:0:0:0:
448,192,86513,1,0,0:0:0:0:
64,192,86774,128,0,87034:0:0:0:0:
192,192,86904,1,0,0:0:0:0:
448,192,87034,1,0,0:0:0:0:
320,192,87034,1,0,0:0:0:0:
192,192,87165,128,0,87295:0:0:0:0:
320,192,87295,128,0,87426:0:0:0:0:
64,192,87295,1,0,0:0:0:0:
192,192,87382,1,0,0:0:0:0:
448,192,87426,128,0,87556:0:0:0:0:
64,192,87469,1,0,0:0:0:0:
320,192,87556,1,0,0:0:0:0:
64,192,87687,128,0,87817:0:0:0:0:
192,192,87687,128,0,87817:0:0:0:0:
448,192,87817,1,0,0:0:0:0:
320,192,87904,1,0,0:0:0:0:
192,192,87947,128,0,88078:0:0:0:0:
64,192,87947,128,0,88078:0:0:0:0:
448,192,87991,1,0,0:0:0:0:
320,192,88078,1,0,0:0:0:0:
64,192,88165,1,0,0:0:0:0:
192,192,88208,1,0,0:0:0:0:
320,192,88252,1,0,0:0:0:0:
448,192,88295,1,0,0:0:0:0:
64,192,88339,1,0,0:0:0:0:
192,192,88339,1,0,0:0:0:0:
448,192,88600,128,0,88861:0:0:0:0:
64,192,88600,1,0,0:0:0:0:
192,192,88600,1,0,0:0:0:0:
320,192,88861,128,0,89034:0:0:0:0:
192,192,89121,1,0,0:0:0:0:
320,192,89121,1,0,0:0:0:0:
448,192,89252,128,0,89382:0:0:0:0:
320,192,89382,128,0,89513:0:0:0:0:
64,192,89382,1,0,0:0:0:0:
192,192,89513,128,0,89643:0:0:0:0:
448,192,89513,1,0,0:0:0:0:
320,192,89643,1,0,0:0:0:0:
448,192,89774,128,0,89904:0:0:0:0:
64,192,89774,128,0,89904:0:0:0:0:
192,192,89904,1,0,0:0:0:0:
64,192,90034,128,0,90165:0:0:0:0:
448,192,90034,128,0,90165:0:0:0:0:
192,192,90165,128,0,90687:0:0:0:0:
320,192,90165,1,0,0:0:0:0:
448,192,90687,128,0,90947:0:0:0:0:
320,192,90687,1,0,0:0:0:0:
64,192,90687,1,0,0:0:0:0:
64,192,90947,128,0,91208:0:0:0:0:
320,192,91078,1,0,0:0:0:0:
192,192,91208,1,0,0:0:0:0:
448,192,91208,128,0,91339:0:0:0:0:
192,192,91469,1,0,0:0:0:0:
448,192,91469,1,0,0:0:0:0:
64,192,91556,1,0,0:0:0:0:
320,192,91600,128,0,91861:0:0:0:0:
192,192,91643,1,0,0:0:0:0:
64,192,91730,1,0,0:0:0:0:
448,192,91861,128,0,91991:0:0:0:0:
192,192,91861,1,0,0:0:0:0:
64,192,91991,128,0,92252:0:0:0:0:
320,192,91991,1,0,0:0:0:0:
448,192,92252,1,0,0:0:0:0:
192,192,92252,1,0,0:0:0:0:
320,192,92426,1,0,0:0:0:0:
448,192,92513,1,0,0:0:0:0:
64,192,92513,1,0,0:0:0:0:
192,192,92687,1,0,0:0:0:0:
64,192,92774,128,0,93034:0:0:0:0:
320,192,92774,1,0,0:0:0:0:
448,192,92774,1,0,0:0:0:0:
448,192,93034,128,0,93295:0:0:0:0:
192,192,93295,1,0,0:0:0:0:
64,192,93295,1,0,0:0:0:0:
320,192,93426,128,0,93556:0:0:0:0:
192,192,93556,128,0,93687:0:0:0:0:
448,192,93556,1,0,0:0:0:0:
64,192,93687,128,0,93817:0:0:0:0:
320,192,93687,1,0,0:0:0:0:
192,192,93817,1,0,0:0:0:0:
320,192,93947,128,0,94078:0:0:0:0:
448,192,93947,128,0,94078:0:0:0:0:
192,192,94078,1,0,0:0:0:0:
320,192,94208,128,0,94339:0:0:0:0:
448,192,94208,128,0,94339:0:0:0:0:
64,192,94339,128,0,94491:0:0:0:0:
192,192,94339,1,0,0:0:0:0:
320,192,94491,1,0,0:0:0:0:
64,192,94600,128,0,94730:0:0:0:0:
320,192,94730,1,0,0:0:0:0:
192,192,94861,128,0,95382:0:0:0:0:
64,192,95382,1,0,0:0:0:0:
448,192,95382,1,0,0:0:0:0:
320,192,95611,128,0,95741:0:0:0:0:
192,192,95904,1,0,0:0:0:0:
64,192,95904,1,0,0:0:0:0:
448,192,96034,128,0,96165:0:0:0:0:
320,192,96034,128,0,96165:0:0:0:0:
64,192,96165,1,0,0:0:0:0:
192,192,96252,1,0,0:0:0:0:
320,192,96295,128,0,96426:0:0:0:0:
448,192,96295,128,0,96426:0:0:0:0:
64,192,96339,1,0,0:0:0:0:
192,192,96426,1,0,0:0:0:0:
448,192,96513,1,0,0:0:0:0:
320,192,96556,1,0,0:0:0:0:
192,192,96600,1,0,0:0:0:0:
64,192,96643,1,0,0:0:0:0:
448,192,96687,1,0,0:0:0:0:
320,192,96687,1,0,0:0:0:0:
192,192,96817,1,0,0:0:0:0:
64,192,96947,128,0,97208:0:0:0:0:
448,192,96947,128,0,97208:0:0:0:0:
320,192,96947,1,0,0:0:0:0:
192,192,97208,128,0,97382:0:0:0:0:
192,192,97469,1,0,0:0:0:0:
320,192,97469,1,0,0:0:0:0:
448,192,97600,128,0,97730:0:0:0:0:
192,192,97730,128,0,97861:0:0:0:0:
320,192,97730,1,0,0:0:0:0:
64,192,97861,128,0,97991:0:0:0:0:
448,192,97861,1,0,0:0:0:0:
320,192,97991,1,0,0:0:0:0:
192,192,98121,128,0,98252:0:0:0:0:
64,192,98121,128,0,98252:0:0:0:0:
320,192,98252,1,0,0:0:0:0:
192,192,98382,128,0,98513:0:0:0:0:
64,192,98382,128,0,98513:0:0:0:0:
448,192,98513,128,0,98904:0:0:0:0:
320,192,98513,1,0,0:0:0:0:
192,192,98643,1,0,0:0:0:0:
64,192,98708,1,0,0:0:0:0:
320,192,98774,128,0,98904:0:0:0:0:
192,192,98904,1,0,0:0:0:0:
64,192,98904,128,0,100600:0:0:0:0:
448,192,100600,1,0,0:0:0:0:
320,192,100600,1,0,0:0:0:0:
192,192,100861,128,0,101121:0:0:0:0:
320,192,100861,128,0,101121:0:0:0:0:
448,192,101121,128,0,103208:0:0:0:0:
64,192,101121,1,0,0:0:0:0:
192,192,101904,128,0,101969:0:0:0:0:
320,192,101904,128,0,101969:0:0:0:0:
64,192,102165,128,0,102230:0:0:0:0:
64,192,102556,128,0,102621:0:0:0:0:
320,192,102687,128,0,103208:0:0:0:0:
320,192,103991,128,0,104056:0:0:0:0:
320,192,104774,128,0,105295:0:0:0:0:
448,192,105295,128,0,107382:0:0:0:0:
192,192,106078,128,0,106143:0:0:0:0:
320,192,106078,128,0,106143:0:0:0:0:
64,192,106339,128,0,106404:0:0:0:0:
64,192,106730,128,0,106795:0:0:0:0:
320,192,106861,128,0,107382:0:0:0:0:
320,192,108165,128,0,108230:0:0:0:0:
320,192,108947,128,0,109469:0:0:0:0:
64,192,109208,128,0,109469:0:0:0:0:
448,192,109469,128,0,111556:0:0:0:0:
192,192,109469,1,0,0:0:0:0:
192,192,109991,1,0,0:0:0:0:
64,192,109991,1,0,0:0:0:0:
192,192,110252,128,0,110317:0:0:0:0:
320,192,110252,128,0,110317:0:0:0:0:
64,192,110513,128,0,110578:0:0:0:0:
320,192,110513,1,0,0:0:0:0:
320,192,110774,1,0,0:0:0:0:
64,192,110904,128,0,110969:0:0:0:0:
320,192,111034,128,0,111556:0:0:0:0:
192,192,111034,1,0,0:0:0:0:
192,192,111556,1,0,0:0:0:0:
64,192,111556,1,0,0:0:0:0:
64,192,111687,1,0,0:0:0:0:
320,192,112078,1,0,0:0:0:0:
448,192,112078,1,0,0:0:0:0:
320,192,112339,128,0,112404:0:0:0:0:
192,192,112469,1,0,0:0:0:0:
64,192,112600,1,0,0:0:0:0:
192,192,112600,1,0,0:0:0:0:
192,192,112861,1,0,0:0:0:0:
64,192,112861,1,0,0:0:0:0:
320,192,113121,128,0,113643:0:0:0:0:
448,192,113121,1,0,0:0:0:0:
64,192,113121,1,0,0:0:0:0:
448,192,113643,128,0,115730:0:0:0:0:
192,192,113643,1,0,0:0:0:0:
192,192,114165,1,0,0:0:0:0:
64,192,114165,1,0,0:0:0:0:
192,192,114426,128,0,114491:0:0:0:0:
320,192,114426,128,0,114491:0:0:0:0:
64,192,114687,128,0,114752:0:0:0:0:
320,192,114687,1,0,0:0:0:0:
320,192,114947,1,0,0:0:0:0:
64,192,115078,128,0,115143:0:0:0:0:
320,192,115208,128,0,115730:0:0:0:0:
192,192,115208,1,0,0:0:0:0:
192,192,115730,1,0,0:0:0:0:
64,192,115730,1,0,0:0:0:0:
64,192,115861,1,0,0:0:0:0:
320,192,116252,1,0,0:0:0:0:
448,192,116252,1,0,0:0:0:0:
320,192,116513,128,0,116578:0:0:0:0:
192,192,116643,1,0,0:0:0:0:
64,192,116774,1,0,0:0:0:0:
192,192,116774,1,0,0:0:0:0:
192,192,117034,1,0,0:0:0:0:
64,192,117034,1,0,0:0:0:0:
320,192,117295,128,0,117556:0:0:0:0:
448,192,117295,1,0,0:0:0:0:
64,192,117295,1,0,0:0:0:0:
192,192,117556,128,0,117817:0:0:0:0:
448,192,117817,1,0,0:0:0:0:
320,192,117817,1,0,0:0:0:0:
64,192,117817,1,0,0:0:0:0:
320,192,118078,1,0,0:0:0:0:
448,192,118078,1,0,0:0:0:0:
448,192,118339,1,0,0:0:0:0:
320,192,118339,1,0,0:0:0:0:
64,192,118339,1,0,0:0:0:0:
448,192,118600,1,0,0:0:0:0:
320,192,118600,1,0,0:0:0:0:
192,192,118600,1,0,0:0:0:0:
192,192,118730,1,0,0:0:0:0:
320,192,118861,1,0,0:0:0:0:
448,192,118861,1,0,0:0:0:0:
64,192,118861,1,0,0:0:0:0:
448,192,119121,1,0,0:0:0:0:
320,192,119121,1,0,0:0:0:0:
64,192,119252,1,0,0:0:0:0:
192,192,119252,1,0,0:0:0:0:
320,192,119382,1,0,0:0:0:0:
448,192,119382,1,0,0:0:0:0:
192,192,119382,1,0,0:0:0:0:
64,192,119513,1,0,0:0:0:0:
192,192,119578,1,0,0:0:0:0:
448,192,119643,1,0,0:0:0:0:
320,192,119643,128,0,119904:0:0:0:0:
64,192,119774,1,0,0:0:0:0:
448,192,119904,1,0,0:0:0:0:
64,192,119904,1,0,0:0:0:0:
192,192,119904,1,0,0:0:0:0:
192,192,120165,1,0,0:0:0:0:
64,192,120165,1,0,0:0:0:0:
320,192,120295,1,0,0:0:0:0:
64,192,120426,1,0,0:0:0:0:
192,192,120426,1,0,0:0:0:0:
448,192,120426,1,0,0:0:0:0:
64,192,120687,1,0,0:0:0:0:
192,192,120687,1,0,0:0:0:0:
320,192,120687,1,0,0:0:0:0:
448,192,120774,1,0,0:0:0:0:
320,192,120861,1,0,0:0:0:0:
192,192,120947,1,0,0:0:0:0:
64,192,120947,1,0,0:0:0:0:
448,192,120947,1,0,0:0:0:0:
320,192,121078,128,0,121208:0:0:0:0:
64,192,121208,1,0,0:0:0:0:
192,192,121208,1,0,0:0:0:0:
448,192,121295,1,0,0:0:0:0:
320,192,121339,1,0,0:0:0:0:
192,192,121339,1,0,0:0:0:0:
64,192,121382,1,0,0:0:0:0:
448,192,121469,1,0,0:0:0:0:
320,192,121469,1,0,0:0:0:0:
192,192,121600,1,0,0:0:0:0:
64,192,121600,1,0,0:0:0:0:
320,192,121730,1,0,0:0:0:0:
192,192,121730,1,0,0:0:0:0:
64,192,121730,1,0,0:0:0:0:
320,192,121861,1,0,0:0:0:0:
448,192,121861,1,0,0:0:0:0:
192,192,121926,1,0,0:0:0:0:
448,192,121991,1,0,0:0:0:0:
320,192,121991,1,0,0:0:0:0:
64,192,121991,1,0,0:0:0:0:
192,192,122252,1,0,0:0:0:0:
448,192,122252,1,0,0:0:0:0:
448,192,122513,1,0,0:0:0:0:
192,192,122513,1,0,0:0:0:0:
64,192,122513,1,0,0:0:0:0:
448,192,122774,1,0,0:0:0:0:
192,192,122774,1,0,0:0:0:0:
320,192,122774,1,0,0:0:0:0:
320,192,122904,1,0,0:0:0:0:
192,192,123034,1,0,0:0:0:0:
448,192,123034,1,0,0:0:0:0:
64,192,123034,1,0,0:0:0:0:
448,192,123295,1,0,0:0:0:0:
192,192,123295,1,0,0:0:0:0:
64,192,123426,1,0,0:0:0:0:
320,192,123426,1,0,0:0:0:0:
192,192,123556,1,0,0:0:0:0:
448,192,123556,1,0,0:0:0:0:
320,192,123556,1,0,0:0:0:0:
64,192,123687,1,0,0:0:0:0:
192,192,123752,1,0,0:0:0:0:
448,192,123817,1,0,0:0:0:0:
320,192,123817,128,0,124078:0:0:0:0:
192,192,123947,1,0,0:0:0:0:
448,192,124078,1,0,0:0:0:0:
64,192,124078,1,0,0:0:0:0:
192,192,124078,1,0,0:0:0:0:
320,192,124339,1,0,0:0:0:0:
64,192,124339,1,0,0:0:0:0:
192,192,124469,1,0,0:0:0:0:
64,192,124600,1,0,0:0:0:0:
320,192,124600,1,0,0:0:0:0:
448,192,124600,1,0,0:0:0:0:
64,192,124861,1,0,0:0:0:0:
320,192,124861,1,0,0:0:0:0:
192,192,124861,1,0,0:0:0:0:
448,192,124947,1,0,0:0:0:0:
192,192,125034,1,0,0:0:0:0:
320,192,125121,1,0,0:0:0:0:
64,192,125121,1,0,0:0:0:0:
448,192,125121,1,0,0:0:0:0:
320,192,125252,128,0,125382:0:0:0:0:
64,192,125382,1,0,0:0:0:0:
192,192,125382,1,0,0:0:0:0:
448,192,125382,1,0,0:0:0:0:
320,192,125469,1,0,0:0:0:0:
64,192,125513,1,0,0:0:0:0:
448,192,125513,1,0,0:0:0:0:
192,192,125556,1,0,0:0:0:0:
448,192,125643,1,0,0:0:0:0:
320,192,125643,1,0,0:0:0:0:
192,192,125774,1,0,0:0:0:0:
64,192,125774,1,0,0:0:0:0:
192,192,125904,1,0,0:0:0:0:
320,192,125904,1,0,0:0:0:0:
64,192,125904,1,0,0:0:0:0:
64,192,126034,1,0,0:0:0:0:
448,192,126034,1,0,0:0:0:0:
192,192,126100,1,0,0:0:0:0:
64,192,126165,1,0,0:0:0:0:
448,192,126165,1,0,0:0:0:0:
320,192,126165,1,0,0:0:0:0:
320,192,126426,1,0,0:0:0:0:
448,192,126426,1,0,0:0:0:0:
64,192,126426,1,0,0:0:0:0:
192,192,126556,1,0,0:0:0:0:
320,192,126556,1,0,0:0:0:0:
192,192,126687,1,0,0:0:0:0:
448,192,126687,1,0,0:0:0:0:
64,192,126687,1,0,0:0:0:0:
320,192,126947,1,0,0:0:0:0:
448,192,126947,1,0,0:0:0:0:
64,192,126947,1,0,0:0:0:0:
320,192,127078,1,0,0:0:0:0:
448,192,127208,1,0,0:0:0:0:
192,192,127208,1,0,0:0:0:0:
64,192,127208,1,0,0:0:0:0:
64,192,127469,1,0,0:0:0:0:
192,192,127469,1,0,0:0:0:0:
448,192,127469,1,0,0:0:0:0:
320,192,127600,1,0,0:0:0:0:
192,192,127600,1,0,0:0:0:0:
320,192,127730,1,0,0:0:0:0:
448,192,127730,1,0,0:0:0:0:
64,192,127730,1,0,0:0:0:0:
192,192,127861,1,0,0:0:0:0:
320,192,127926,1,0,0:0:0:0:
448,192,127991,128,0,128252:0:0:0:0:
64,192,127991,1,0,0:0:0:0:
192,192,127991,1,0,0:0:0:0:
320,192,128121,1,0,0:0:0:0:
64,192,128252,1,0,0:0:0:0:
192,192,128252,1,0,0:0:0:0:
320,192,128252,1,0,0:0:0:0:
192,192,128513,1,0,0:0:0:0:
64,192,128513,1,0,0:0:0:0:
320,192,128513,1,0,0:0:0:0:
448,192,128643,1,0,0:0:0:0:
64,192,128643,1,0,0:0:0:0:
192,192,128774,1,0,0:0:0:0:
320,192,128774,1,0,0:0:0:0:
448,192,128774,1,0,0:0:0:0:
448,192,129034,1,0,0:0:0:0:
320,192,129034,1,0,0:0:0:0:
192,192,129034,1,0,0:0:0:0:
64,192,129121,1,0,0:0:0:0:
192,192,129208,1,0,0:0:0:0:
64,192,129295,1,0,0:0:0:0:
320,192,129295,1,0,0:0:0:0:
448,192,129295,1,0,0:0:0:0:
320,192,129426,128,0,129556:0:0:0:0:
192,192,129556,1,0,0:0:0:0:
64,192,129556,1,0,0:0:0:0:
448,192,129556,1,0,0:0:0:0:
320,192,129643,1,0,0:0:0:0:
192,192,129687,1,0,0:0:0:0:
448,192,129730,1,0,0:0:0:0:
192,192,129817,1,0,0:0:0:0:
64,192,129817,1,0,0:0:0:0:
320,192,129817,1,0,0:0:0:0:
64,192,129947,1,0,0:0:0:0:
320,192,130078,1,0,0:0:0:0:
192,192,130078,1,0,0:0:0:0:
448,192,130078,1,0,0:0:0:0:
64,192,130208,1,0,0:0:0:0:
320,192,130208,1,0,0:0:0:0:
192,192,130274,1,0,0:0:0:0:
320,192,130339,1,0,0:0:0:0:
448,192,130339,1,0,0:0:0:0:
64,192,130339,1,0,0:0:0:0:
192,192,130469,1,0,0:0:0:0:
320,192,130469,1,0,0:0:0:0:
192,192,130600,1,0,0:0:0:0:
64,192,130600,1,0,0:0:0:0:
320,192,130730,1,0,0:0:0:0:
64,192,130730,1,0,0:0:0:0:
320,192,130861,1,0,0:0:0:0:
448,192,130861,1,0,0:0:0:0:
192,192,130861,1,0,0:0:0:0:
448,192,130991,1,0,0:0:0:0:
64,192,130991,1,0,0:0:0:0:
64,192,131121,1,0,0:0:0:0:
320,192,131121,1,0,0:0:0:0:
192,192,131252,1,0,0:0:0:0:
320,192,131252,1,0,0:0:0:0:
448,192,131382,1,0,0:0:0:0:
192,192,131382,1,0,0:0:0:0:
64,192,131382,1,0,0:0:0:0:
320,192,131513,1,0,0:0:0:0:
448,192,131513,1,0,0:0:0:0:
320,192,131643,1,0,0:0:0:0:
64,192,131643,1,0,0:0:0:0:
64,192,131774,1,0,0:0:0:0:
192,192,131774,1,0,0:0:0:0:
192,192,131904,1,0,0:0:0:0:
320,192,131904,1,0,0:0:0:0:
448,192,131904,1,0,0:0:0:0:
320,192,132034,1,0,0:0:0:0:
64,192,132034,1,0,0:0:0:0:
192,192,132100,1,0,0:0:0:0:
448,192,132165,1,0,0:0:0:0:
64,192,132165,128,0,132426:0:0:0:0:
320,192,132295,1,0,0:0:0:0:
448,192,132295,1,0,0:0:0:0:
448,192,132426,128,0,132687:0:0:0:0:
320,192,132426,1,0,0:0:0:0:
192,192,132426,1,0,0:0:0:0:
64,192,132491,1,0,0:0:0:0:
192,192,132556,1,0,0:0:0:0:
320,192,132621,1,0,0:0:0:0:
192,192,132687,128,0,132947:0:0:0:0:
64,192,132687,1,0,0:0:0:0:
448,192,132752,1,0,0:0:0:0:
320,192,132817,1,0,0:0:0:0:
64,192,132882,1,0,0:0:0:0:
320,192,132947,128,0,133208:0:0:0:0:
448,192,132947,1,0,0:0:0:0:
64,192,133013,1,0,0:0:0:0:
192,192,133078,1,0,0:0:0:0:
448,192,133143,1,0,0:0:0:0:
64,192,133208,128,0,133469:0:0:0:0:
192,192,133208,1,0,0:0:0:0:
448,192,133274,1,0,0:0:0:0:
320,192,133339,1,0,0:0:0:0:
192,192,133404,1,0,0:0:0:0:
448,192,133469,1,0,0:0:0:0:
320,192,133502,1,0,0:0:0:0:
192,192,133534,1,0,0:0:0:0:
64,192,133567,1,0,0:0:0:0:
448,192,133600,1,0,0:0:0:0:
320,192,133632,1,0,0:0:0:0:
192,192,133665,1,0,0:0:0:0:
64,192,133697,1,0,0:0:0:0:
448,192,133730,128,0,133795:0:0:0:0:
320,192,133795,128,0,133861:0:0:0:0:
192,192,133861,128,0,133926:0:0:0:0:
64,192,133926,128,0,133991:0:0:0:0:
448,192,133991,128,0,134056:0:0:0:0:
320,192,133991,128,0,134056:0:0:0:0:
448,192,134121,128,0,134187:0:0:0:0:
320,192,134121,128,0,134187:0:0:0:0:
448,192,134252,128,0,134317:0:0:0:0:
320,192,134252,128,0,134317:0:0:0:0:
448,192,134382,128,0,134447:0:0:0:0:
320,192,134382,128,0,134447:0:0:0:0:
192,192,134513,1,0,0:0:0:0:
448,192,134513,128,0,134708:0:0:0:0:
320,192,134513,128,0,134708:0:0:0:0:
64,192,134513,1,0,0:0:0:0:
192,192,134708,1,0,0:0:0:0:
64,192,134708,1,0,0:0:0:0:
320,192,134774,1,0,0:0:0:0:
448,192,134774,1,0,0:0:0:0:
192,192,134904,128,0,135165:0:0:0:0:
64,192,134904,128,0,135165:0:0:0:0:
448,192,134904,1,0,0:0:0:0:
320,192,135034,1,0,0:0:0:0:
448,192,135165,1,0,0:0:0:0:
320,192,135165,128,0,135230:0:0:0:0:
192,192,135295,1,0,0:0:0:0:
64,192,135295,1,0,0:0:0:0:
448,192,135295,1,0,0:0:0:0:
448,192,135426,1,0,0:0:0:0:
320,192,135426,1,0,0:0:0:0:
64,192,135491,1,0,0:0:0:0:
192,192,135491,1,0,0:0:0:0:
448,192,135556,128,0,135817:0:0:0:0:
320,192,135556,1,0,0:0:0:0:
64,192,135687,128,0,135817:0:0:0:0:
320,192,135817,1,0,0:0:0:0:
192,192,135817,1,0,0:0:0:0:
448,192,135882,1,0,0:0:0:0:
64,192,135882,1,0,0:0:0:0:
320,192,135947,1,0,0:0:0:0:
192,192,135947,1,0,0:0:0:0:
448,192,136013,1,0,0:0:0:0:
192,192,136078,1,0,0:0:0:0:
64,192,136078,1,0,0:0:0:0:
320,192,136143,1,0,0:0:0:0:
448,192,136143,128,0,136208:0:0:0:0:
192,192,136208,1,0,0:0:0:0:
64,192,136208,1,0,0:0:0:0:
320,192,136274,1,0,0:0:0:0:
448,192,136274,128,0,136339:0:0:0:0:
192,192,136339,128,0,136469:0:0:0:0:
64,192,136339,1,0,0:0:0:0:
320,192,136469,128,0,136600:0:0:0:0:
448,192,136469,1,0,0:0:0:0:
448,192,136600,1,0,0:0:0:0:
64,192,136600,128,0,136795:0:0:0:0:
192,192,136600,128,0,136795:0:0:0:0:
320,192,136795,1,0,0:0:0:0:
448,192,136795,1,0,0:0:0:0:
192,192,136861,1,0,0:0:0:0:
64,192,136861,1,0,0:0:0:0:
320,192,136991,128,0,137121:0:0:0:0:
448,192,136991,128,0,137121:0:0:0:0:
192,192,136991,1,0,0:0:0:0:
64,192,137121,1,0,0:0:0:0:
192,192,137154,1,0,0:0:0:0:
320,192,137187,1,0,0:0:0:0:
448,192,137219,1,0,0:0:0:0:
64,192,137252,1,0,0:0:0:0:
192,192,137252,128,0,137317:0:0:0:0:
320,192,137382,1,0,0:0:0:0:
64,192,137382,1,0,0:0:0:0:
448,192,137382,1,0,0:0:0:0:
448,192,137513,1,0,0:0:0:0:
320,192,137513,1,0,0:0:0:0:
192,192,137578,1,0,0:0:0:0:
64,192,137578,1,0,0:0:0:0:
448,192,137643,1,0,0:0:0:0:
320,192,137643,128,0,137708:0:0:0:0:
64,192,137708,1,0,0:0:0:0:
192,192,137708,1,0,0:0:0:0:
320,192,137774,1,0,0:0:0:0:
448,192,137774,128,0,137904:0:0:0:0:
192,192,137904,1,0,0:0:0:0:
64,192,137904,1,0,0:0:0:0:
448,192,137969,1,0,0:0:0:0:
320,192,137969,1,0,0:0:0:0:
64,192,138034,1,0,0:0:0:0:
192,192,138034,1,0,0:0:0:0:
320,192,138100,1,0,0:0:0:0:
448,192,138165,128,0,138361:0:0:0:0:
192,192,138165,1,0,0:0:0:0:
64,192,138230,128,0,138295:0:0:0:0:
64,192,138361,128,0,138426:0:0:0:0:
448,192,138426,128,0,138621:0:0:0:0:
320,192,138426,1,0,0:0:0:0:
192,192,138426,128,0,138556:0:0:0:0:
64,192,138556,128,0,138687:0:0:0:0:
192,192,138687,128,0,138882:0:0:0:0:
448,192,138687,128,0,138882:0:0:0:0:
320,192,138687,1,0,0:0:0:0:
320,192,138882,1,0,0:0:0:0:
64,192,138882,1,0,0:0:0:0:
192,192,138947,1,0,0:0:0:0:
448,192,138947,1,0,0:0:0:0:
320,192,139078,128,0,139339:0:0:0:0:
64,192,139078,128,0,139339:0:0:0:0:
192,192,139078,1,0,0:0:0:0:
448,192,139208,1,0,0:0:0:0:
448,192,139339,1,0,0:0:0:0:
192,192,139339,128,0,139404:0:0:0:0:
64,192,139469,1,0,0:0:0:0:
320,192,139469,1,0,0:0:0:0:
448,192,139469,1,0,0:0:0:0:
64,192,139600,1,0,0:0:0:0:
192,192,139600,1,0,0:0:0:0:
320,192,139665,1,0,0:0:0:0:
448,192,139665,1,0,0:0:0:0:
192,192,139730,128,0,139991:0:0:0:0:
64,192,139730,1,0,0:0:0:0:
448,192,139861,128,0,139991:0:0:0:0:
64,192,139991,1,0,0:0:0:0:
320,192,139991,1,0,0:0:0:0:
192,192,140056,1,0,0:0:0:0:
448,192,140056,1,0,0:0:0:0:
320,192,140121,1,0,0:0:0:0:
64,192,140121,1,0,0:0:0:0:
192,192,140187,1,0,0:0:0:0:
448,192,140252,1,0,0:0:0:0:
320,192,140252,1,0,0:0:0:0:
64,192,140317,128,0,140382:0:0:0:0:
192,192,140317,1,0,0:0:0:0:
320,192,140382,1,0,0:0:0:0:
448,192,140382,1,0,0:0:0:0:
64,192,140447,128,0,140513:0:0:0:0:
192,192,140447,1,0,0:0:0:0:
320,192,140513,128,0,140643:0:0:0:0:
448,192,140513,1,0,0:0:0:0:
192,192,140643,128,0,140774:0:0:0:0:
64,192,140643,1,0,0:0:0:0:
64,192,140774,128,0,140969:0:0:0:0:
448,192,140774,1,0,0:0:0:0:
320,192,140774,128,0,140904:0:0:0:0:
192,192,140904,128,0,140969:0:0:0:0:
448,192,140969,1,0,0:0:0:0:
320,192,140969,1,0,0:0:0:0:
192,192,141034,1,0,0:0:0:0:
64,192,141034,1,0,0:0:0:0:
448,192,141165,128,0,141426:0:0:0:0:
64,192,141165,1,0,0:0:0:0:
192,192,141165,128,0,141230:0:0:0:0:
320,192,141295,1,0,0:0:0:0:
64,192,141361,1,0,0:0:0:0:
192,192,141426,1,0,0:0:0:0:
320,192,141426,1,0,0:0:0:0:
448,192,141491,1,0,0:0:0:0:
64,192,141556,1,0,0:0:0:0:
320,192,141556,1,0,0:0:0:0:
192,192,141556,1,0,0:0:0:0:
448,192,141621,1,0,0:0:0:0:
192,192,141687,1,0,0:0:0:0:
64,192,141687,1,0,0:0:0:0:
320,192,141752,1,0,0:0:0:0:
448,192,141752,1,0,0:0:0:0:
192,192,141817,1,0,0:0:0:0:
64,192,141817,128,0,141947:0:0:0:0:
64,192,142078,128,0,142208:0:0:0:0:
448,192,142143,1,0,0:0:0:0:
320,192,142208,1,0,0:0:0:0:
192,192,142208,128,0,142339:0:0:0:0:
64,192,142274,1,0,0:0:0:0:
320,192,142339,1,0,0:0:0:0:
448,192,142339,1,0,0:0:0:0:
64,192,142469,1,0,0:0:0:0:
192,192,142502,1,0,0:0:0:0:
320,192,142534,1,0,0:0:0:0:
448,192,142567,1,0,0:0:0:0:
64,192,142600,128,0,142795:0:0:0:0:
448,192,142861,1,0,0:0:0:0:
64,192,142861,1,0,0:0:0:0:
192,192,142861,128,0,142991:0:0:0:0:
448,192,142991,1,0,0:0:0:0:
320,192,142991,1,0,0:0:0:0:
64,192,143056,1,0,0:0:0:0:
192,192,143056,1,0,0:0:0:0:
448,192,143121,1,0,0:0:0:0:
320,192,143121,1,0,0:0:0:0:
192,192,143187,1,0,0:0:0:0:
64,192,143252,1,0,0:0:0:0:
448,192,143252,1,0,0:0:0:0:
320,192,143252,128,0,143382:0:0:0:0:
192,192,143382,1,0,0:0:0:0:
448,192,143513,1,0,0:0:0:0:
64,192,143513,128,0,143578:0:0:0:0:
320,192,143643,1,0,0:0:0:0:
448,192,143643,1,0,0:0:0:0:
192,192,143643,1,0,0:0:0:0:
64,192,143774,1,0,0:0:0:0:
192,192,143774,1,0,0:0:0:0:
448,192,143839,1,0,0:0:0:0:
320,192,143839,1,0,0:0:0:0:
64,192,143904,128,0,144165:0:0:0:0:
192,192,143904,1,0,0:0:0:0:
448,192,144034,128,0,144165:0:0:0:0:
192,192,144165,1,0,0:0:0:0:
320,192,144165,1,0,0:0:0:0:
64,192,144230,1,0,0:0:0:0:
448,192,144230,1,0,0:0:0:0:
192,192,144295,1,0,0:0:0:0:
320,192,144295,1,0,0:0:0:0:
64,192,144361,1,0,0:0:0:0:
320,192,144426,1,0,0:0:0:0:
448,192,144426,1,0,0:0:0:0:
192,192,144491,1,0,0:0:0:0:
64,192,144491,128,0,144556:0:0:0:0:
320,192,144556,1,0,0:0:0:0:
448,192,144556,1,0,0:0:0:0:
192,192,144621,1,0,0:0:0:0:
64,192,144621,128,0,144687:0:0:0:0:
320,192,144687,128,0,144817:0:0:0:0:
448,192,144687,1,0,0:0:0:0:
192,192,144817,128,0,144947:0:0:0:0:
64,192,144817,1,0,0:0:0:0:
64,192,144947,1,0,0:0:0:0:
448,192,144947,128,0,145143:0:0:0:0:
320,192,144947,128,0,145143:0:0:0:0:
192,192,145143,1,0,0:0:0:0:
64,192,145143,1,0,0:0:0:0:
320,192,145208,1,0,0:0:0:0:
448,192,145208,1,0,0:0:0:0:
192,192,145339,128,0,145469:0:0:0:0:
64,192,145339,128,0,145469:0:0:0:0:
320,192,145339,1,0,0:0:0:0:
448,192,145469,1,0,0:0:0:0:
320,192,145502,1,0,0:0:0:0:
192,192,145534,1,0,0:0:0:0:
64,192,145567,1,0,0:0:0:0:
448,192,145600,1,0,0:0:0:0:
320,192,145600,128,0,145665:0:0:0:0:
192,192,145730,1,0,0:0:0:0:
448,192,145730,1,0,0:0:0:0:
64,192,145730,1,0,0:0:0:0:
64,192,145861,1,0,0:0:0:0:
192,192,145861,1,0,0:0:0:0:
320,192,145926,1,0,0:0:0:0:
448,192,145926,1,0,0:0:0:0:
192,192,145991,1,0,0:0:0:0:
64,192,145991,128,0,146056:0:0:0:0:
448,192,146056,1,0,0:0:0:0:
320,192,146056,1,0,0:0:0:0:
64,192,146121,1,0,0:0:0:0:
192,192,146121,128,0,146252:0:0:0:0:
448,192,146252,1,0,0:0:0:0:
320,192,146252,1,0,0:0:0:0:
64,192,146317,1,0,0:0:0:0:
192,192,146317,1,0,0:0:0:0:
448,192,146382,1,0,0:0:0:0:
320,192,146382,1,0,0:0:0:0:
64,192,146447,1,0,0:0:0:0:
192,192,146447,1,0,0:0:0:0:
320,192,146513,128,0,146708:0:0:0:0:
448,192,146513,1,0,0:0:0:0:
192,192,146578,128,0,146643:0:0:0:0:
192,192,146708,128,0,146774:0:0:0:0:
320,192,146774,128,0,146969:0:0:0:0:
448,192,146774,1,0,0:0:0:0:
64,192,146774,128,0,146904:0:0:0:0:
192,192,146904,128,0,147034:0:0:0:0:
448,192,147034,128,0,147230:0:0:0:0:
64,192,147034,128,0,147230:0:0:0:0:
320,192,147034,1,0,0:0:0:0:
192,192,147230,1,0,0:0:0:0:
320,192,147230,1,0,0:0:0:0:
448,192,147295,1,0,0:0:0:0:
64,192,147295,1,0,0:0:0:0:
192,192,147426,128,0,147687:0:0:0:0:
320,192,147426,128,0,147687:0:0:0:0:
64,192,147426,1,0,0:0:0:0:
448,192,147556,1,0,0:0:0:0:
64,192,147687,1,0,0:0:0:0:
448,192,147687,128,0,147752:0:0:0:0:
320,192,147817,1,0,0:0:0:0:
192,192,147817,1,0,0:0:0:0:
64,192,147817,1,0,0:0:0:0:
448,192,147947,1,0,0:0:0:0:
320,192,147947,1,0,0:0:0:0:
192,192,148013,1,0,0:0:0:0:
64,192,148013,1,0,0:0:0:0:
320,192,148078,128,0,148339:0:0:0:0:
448,192,148078,1,0,0:0:0:0:
64,192,148208,128,0,148339:0:0:0:0:
448,192,148339,1,0,0:0:0:0:
192,192,148339,1,0,0:0:0:0:
320,192,148404,1,0,0:0:0:0:
64,192,148404,1,0,0:0:0:0:
192,192,148469,1,0,0:0:0:0:
448,192,148469,1,0,0:0:0:0:
320,192,148534,1,0,0:0:0:0:
192,192,148600,128,0,148665:0:0:0:0:
448,192,148600,128,0,148665:0:0:0:0:
64,192,148600,128,0,148665:0:0:0:0:
192,192,148730,128,0,148795:0:0:0:0:
448,192,148730,128,0,148795:0:0:0:0:
64,192,148730,128,0,148795:0:0:0:0:
192,192,148861,128,0,148926:0:0:0:0:
448,192,148861,128,0,148926:0:0:0:0:
64,192,148861,128,0,148926:0:0:0:0:
192,192,148991,128,0,149056:0:0:0:0:
448,192,148991,128,0,149056:0:0:0:0:
64,192,148991,128,0,149056:0:0:0:0:
448,192,149121,128,0,149317:0:0:0:0:
64,192,149121,1,0,0:0:0:0:
192,192,149121,128,0,149252:0:0:0:0:
320,192,149252,128,0,149317:0:0:0:0:
64,192,149317,1,0,0:0:0:0:
192,192,149317,1,0,0:0:0:0:
320,192,149382,1,0,0:0:0:0:
448,192,149382,1,0,0:0:0:0:
320,192,149513,128,0,149578:0:0:0:0:
64,192,149513,128,0,149774:0:0:0:0:
448,192,149513,1,0,0:0:0:0:
192,192,149643,1,0,0:0:0:0:
448,192,149708,1,0,0:0:0:0:
320,192,149774,1,0,0:0:0:0:
192,192,149774,1,0,0:0:0:0:
64,192,149839,1,0,0:0:0:0:
448,192,149904,1,0,0:0:0:0:
192,192,149904,1,0,0:0:0:0:
320,192,149904,1,0,0:0:0:0:
64,192,149969,1,0,0:0:0:0:
320,192,150034,1,0,0:0:0:0:
448,192,150034,1,0,0:0:0:0:
192,192,150100,1,0,0:0:0:0:
64,192,150100,1,0,0:0:0:0:
320,192,150165,1,0,0:0:0:0:
448,192,150165,1,0,0:0:0:0:
64,192,150295,1,0,0:0:0:0:
192,192,150328,1,0,0:0:0:0:
448,192,150361,1,0,0:0:0:0:
320,192,150393,1,0,0:0:0:0:
192,192,150426,1,0,0:0:0:0:
64,192,150426,1,0,0:0:0:0:
448,192,150556,1,0,0:0:0:0:
320,192,150589,1,0,0:0:0:0:
64,192,150621,1,0,0:0:0:0:
192,192,150654,1,0,0:0:0:0:
448,192,150687,1,0,0:0:0:0:
320,192,150719,1,0,0:0:0:0:
192,192,150752,1,0,0:0:0:0:
64,192,150784,1,0,0:0:0:0:
448,192,150817,1,0,0:0:0:0:
320,192,150850,1,0,0:0:0:0:
192,192,150882,1,0,0:0:0:0:
64,192,150915,1,0,0:0:0:0:
448,192,150947,128,0,151013:0:0:0:0:
320,192,151013,128,0,151078:0:0:0:0:
192,192,151078,128,0,151143:0:0:0:0:
64,192,151143,128,0,151208:0:0:0:0:
192,192,151208,1,0,0:0:0:0:
448,192,151208,128,0,151404:0:0:0:0:
320,192,151208,128,0,151404:0:0:0:0:
192,192,151404,1,0,0:0:0:0:
64,192,151404,1,0,0:0:0:0:
320,192,151469,1,0,0:0:0:0:
448,192,151469,128,0,151600:0:0:0:0:
64,192,151600,128,0,151861:0:0:0:0:
192,192,151600,128,0,151861:0:0:0:0:
320,192,151600,1,0,0:0:0:0:
448,192,151730,1,0,0:0:0:0:
320,192,151861,128,0,151926:0:0:0:0:
448,192,151861,1,0,0:0:0:0:
192,192,151991,1,0,0:0:0:0:
64,192,151991,1,0,0:0:0:0:
320,192,151991,128,0,152121:0:0:0:0:
64,192,152121,1,0,0:0:0:0:
192,192,152121,1,0,0:0:0:0:
448,192,152187,1,0,0:0:0:0:
320,192,152187,1,0,0:0:0:0:
192,192,152252,128,0,152513:0:0:0:0:
64,192,152252,1,0,0:0:0:0:
320,192,152382,128,0,152513:0:0:0:0:
448,192,152513,1,0,0:0:0:0:
64,192,152513,128,0,152643:0:0:0:0:
320,192,152578,1,0,0:0:0:0:
448,192,152643,1,0,0:0:0:0:
192,192,152643,1,0,0:0:0:0:
64,192,152708,1,0,0:0:0:0:
320,192,152774,1,0,0:0:0:0:
448,192,152774,1,0,0:0:0:0:
192,192,152839,1,0,0:0:0:0:
64,192,152839,128,0,152904:0:0:0:0:
320,192,152904,1,0,0:0:0:0:
448,192,152904,1,0,0:0:0:0:
192,192,152969,1,0,0:0:0:0:
64,192,152969,128,0,153034:0:0:0:0:
320,192,153034,128,0,153165:0:0:0:0:
448,192,153034,128,0,153165:0:0:0:0:
192,192,153165,128,0,153295:0:0:0:0:
64,192,153165,1,0,0:0:0:0:
320,192,153295,128,0,153491:0:0:0:0:
64,192,153295,128,0,153491:0:0:0:0:
192,192,153491,1,0,0:0:0:0:
448,192,153491,1,0,0:0:0:0:
320,192,153556,1,0,0:0:0:0:
64,192,153556,128,0,153687:0:0:0:0:
320,192,153687,128,0,153817:0:0:0:0:
448,192,153687,128,0,153817:0:0:0:0:
192,192,153687,1,0,0:0:0:0:
64,192,153817,1,0,0:0:0:0:
192,192,153850,1,0,0:0:0:0:
320,192,153882,1,0,0:0:0:0:
448,192,153915,1,0,0:0:0:0:
64,192,153947,1,0,0:0:0:0:
192,192,153947,128,0,154013:0:0:0:0:
192,192,154078,1,0,0:0:0:0:
64,192,154078,1,0,0:0:0:0:
448,192,154078,128,0,154208:0:0:0:0:
64,192,154208,1,0,0:0:0:0:
192,192,154208,1,0,0:0:0:0:
320,192,154274,1,0,0:0:0:0:
448,192,154274,1,0,0:0:0:0:
192,192,154339,128,0,154404:0:0:0:0:
64,192,154339,1,0,0:0:0:0:
448,192,154404,1,0,0:0:0:0:
320,192,154404,1,0,0:0:0:0:
192,192,154469,1,0,0:0:0:0:
64,192,154469,128,0,154600:0:0:0:0:
448,192,154600,1,0,0:0:0:0:
320,192,154600,128,0,154730:0:0:0:0:
64,192,154665,1,0,0:0:0:0:
192,192,154665,1,0,0:0:0:0:
448,192,154730,1,0,0:0:0:0:
192,192,154795,1,0,0:0:0:0:
64,192,154861,128,0,155056:0:0:0:0:
320,192,154861,1,0,0:0:0:0:
448,192,154926,128,0,154991:0:0:0:0:
448,192,155056,128,0,155121:0:0:0:0:
64,192,155121,128,0,155317:0:0:0:0:
192,192,155121,1,0,0:0:0:0:
320,192,155121,128,0,155252:0:0:0:0:
448,192,155252,128,0,155382:0:0:0:0:
320,192,155382,128,0,155578:0:0:0:0:
64,192,155382,128,0,155578:0:0:0:0:
192,192,155382,1,0,0:0:0:0:
192,192,155578,1,0,0:0:0:0:
448,192,155578,1,0,0:0:0:0:
320,192,155643,1,0,0:0:0:0:
64,192,155643,128,0,155774:0:0:0:0:
192,192,155774,128,0,156034:0:0:0:0:
448,192,155774,128,0,156034:0:0:0:0:
320,192,155774,1,0,0:0:0:0:
64,192,155904,1,0,0:0:0:0:
64,192,156034,1,0,0:0:0:0:
320,192,156034,128,0,156100:0:0:0:0:
448,192,156165,1,0,0:0:0:0:
64,192,156165,1,0,0:0:0:0:
192,192,156165,128,0,156295:0:0:0:0:
448,192,156295,1,0,0:0:0:0:
320,192,156295,1,0,0:0:0:0:
192,192,156361,1,0,0:0:0:0:
64,192,156361,1,0,0:0:0:0:
320,192,156426,128,0,156687:0:0:0:0:
448,192,156426,1,0,0:0:0:0:
64,192,156556,128,0,156687:0:0:0:0:
448,192,156687,1,0,0:0:0:0:
192,192,156687,128,0,156817:0:0:0:0:
320,192,156752,1,0,0:0:0:0:
64,192,156817,1,0,0:0:0:0:
448,192,156817,1,0,0:0:0:0:
320,192,156882,1,0,0:0:0:0:
64,192,156947,1,0,0:0:0:0:
192,192,156947,1,0,0:0:0:0:
448,192,157013,128,0,157078:0:0:0:0:
320,192,157013,1,0,0:0:0:0:
192,192,157078,1,0,0:0:0:0:
64,192,157078,1,0,0:0:0:0:
448,192,157143,128,0,157208:0:0:0:0:
320,192,157143,1,0,0:0:0:0:
192,192,157208,128,0,157339:0:0:0:0:
64,192,157208,1,0,0:0:0:0:
320,192,157339,128,0,157469:0:0:0:0:
448,192,157339,1,0,0:0:0:0:
448,192,157469,128,0,157665:0:0:0:0:
64,192,157469,1,0,0:0:0:0:
192,192,157469,128,0,157600:0:0:0:0:
320,192,157600,128,0,157665:0:0:0:0:
64,192,157665,1,0,0:0:0:0:
192,192,157665,1,0,0:0:0:0:
320,192,157730,1,0,0:0:0:0:
448,192,157730,128,0,157861:0:0:0:0:
64,192,157861,128,0,158121:0:0:0:0:
192,192,157861,1,0,0:0:0:0:
320,192,157861,128,0,157926:0:0:0:0:
192,192,157991,1,0,0:0:0:0:
448,192,158056,1,0,0:0:0:0:
320,192,158121,1,0,0:0:0:0:
192,192,158121,1,0,0:0:0:0:
64,192,158187,1,0,0:0:0:0:
448,192,158252,1,0,0:0:0:0:
320,192,158252,1,0,0:0:0:0:
192,192,158252,128,0,158382:0:0:0:0:
64,192,158317,1,0,0:0:0:0:
320,192,158382,1,0,0:0:0:0:
448,192,158382,1,0,0:0:0:0:
192,192,158447,1,0,0:0:0:0:
64,192,158447,1,0,0:0:0:0:
320,192,158513,1,0,0:0:0:0:
448,192,158513,128,0,158643:0:0:0:0:
448,192,158774,128,0,158904:0:0:0:0:
64,192,158839,1,0,0:0:0:0:
192,192,158904,1,0,0:0:0:0:
320,192,158904,128,0,159034:0:0:0:0:
448,192,158969,1,0,0:0:0:0:
192,192,159034,1,0,0:0:0:0:
64,192,159034,1,0,0:0:0:0:
448,192,159165,1,0,0:0:0:0:
320,192,159197,1,0,0:0:0:0:
192,192,159230,1,0,0:0:0:0:
64,192,159263,1,0,0:0:0:0:
448,192,159295,128,0,159491:0:0:0:0:
64,192,159556,1,0,0:0:0:0:
448,192,159556,1,0,0:0:0:0:
320,192,159556,128,0,159687:0:0:0:0:
64,192,159687,1,0,0:0:0:0:
192,192,159687,1,0,0:0:0:0:
448,192,159752,1,0,0:0:0:0:
320,192,159752,1,0,0:0:0:0:
64,192,159817,1,0,0:0:0:0:
192,192,159817,1,0,0:0:0:0:
320,192,159882,1,0,0:0:0:0:
448,192,159947,1,0,0:0:0:0:
64,192,159947,1,0,0:0:0:0:
192,192,159947,128,0,160078:0:0:0:0:
320,192,160078,1,0,0:0:0:0:
64,192,160208,1,0,0:0:0:0:
448,192,160208,128,0,160274:0:0:0:0:
192,192,160339,1,0,0:0:0:0:
64,192,160339,1,0,0:0:0:0:
320,192,160339,1,0,0:0:0:0:
448,192,160469,1,0,0:0:0:0:
320,192,160469,1,0,0:0:0:0:
64,192,160534,1,0,0:0:0:0:
192,192,160534,1,0,0:0:0:0:
448,192,160600,128,0,160861:0:0:0:0:
320,192,160600,1,0,0:0:0:0:
64,192,160730,128,0,160861:0:0:0:0:
320,192,160861,1,0,0:0:0:0:
192,192,160861,1,0,0:0:0:0:
448,192,160926,1,0,0:0:0:0:
64,192,160926,1,0,0:0:0:0:
320,192,160991,1,0,0:0:0:0:
192,192,160991,1,0,0:0:0:0:
448,192,161056,1,0,0:0:0:0:
192,192,161121,1,0,0:0:0:0:
64,192,161121,1,0,0:0:0:0:
320,192,161187,1,0,0:0:0:0:
448,192,161187,128,0,161252:0:0:0:0:
192,192,161252,1,0,0:0:0:0:
64,192,161252,1,0,0:0:0:0:
320,192,161317,1,0,0:0:0:0:
448,192,161317,128,0,161382:0:0:0:0:
192,192,161382,128,0,161513:0:0:0:0:
64,192,161382,1,0,0:0:0:0:
320,192,161513,128,0,161643:0:0:0:0:
448,192,161513,1,0,0:0:0:0:
448,192,161643,1,0,0:0:0:0:
64,192,161643,128,0,161839:0:0:0:0:
192,192,161643,128,0,161839:0:0:0:0:
320,192,161839,1,0,0:0:0:0:
448,192,161839,1,0,0:0:0:0:
192,192,161904,1,0,0:0:0:0:
64,192,161904,1,0,0:0:0:0:
320,192,162034,128,0,162165:0:0:0:0:
448,192,162034,128,0,162165:0:0:0:0:
192,192,162034,1,0,0:0:0:0:
64,192,162165,1,0,0:0:0:0:
192,192,162197,1,0,0:0:0:0:
320,192,162230,1,0,0:0:0:0:
448,192,162263,1,0,0:0:0:0:
64,192,162295,1,0,0:0:0:0:
192,192,162295,128,0,162361:0:0:0:0:
320,192,162426,1,0,0:0:0:0:
64,192,162426,1,0,0:0:0:0:
448,192,162426,1,0,0:0:0:0:
448,192,162556,1,0,0:0:0:0:
320,192,162556,1,0,0:0:0:0:
192,192,162621,1,0,0:0:0:0:
64,192,162621,1,0,0:0:0:0:
320,192,162687,1,0,0:0:0:0:
448,192,162687,128,0,162752:0:0:0:0:
64,192,162752,1,0,0:0:0:0:
192,192,162752,1,0,0:0:0:0:
448,192,162817,1,0,0:0:0:0:
320,192,162817,128,0,162947:0:0:0:0:
64,192,162947,1,0,0:0:0:0:
192,192,162947,1,0,0:0:0:0:
448,192,163013,1,0,0:0:0:0:
320,192,163013,1,0,0:0:0:0:
64,192,163078,1,0,0:0:0:0:
192,192,163078,1,0,0:0:0:0:
448,192,163143,1,0,0:0:0:0:
320,192,163143,1,0,0:0:0:0:
192,192,163208,128,0,163404:0:0:0:0:
64,192,163208,1,0,0:0:0:0:
320,192,163274,128,0,163339:0:0:0:0:
320,192,163404,128,0,163469:0:0:0:0:
192,192,163469,128,0,163665:0:0:0:0:
64,192,163469,1,0,0:0:0:0:
448,192,163469,128,0,163600:0:0:0:0:
320,192,163600,128,0,163730:0:0:0:0:
64,192,163730,128,0,163926:0:0:0:0:
448,192,163730,128,0,163926:0:0:0:0:
192,192,163730,1,0,0:0:0:0:
320,192,163926,1,0,0:0:0:0:
192,192,163926,1,0,0:0:0:0:
64,192,163991,1,0,0:0:0:0:
448,192,163991,1,0,0:0:0:0:
320,192,164121,128,0,164382:0:0:0:0:
192,192,164121,128,0,164382:0:0:0:0:
448,192,164121,1,0,0:0:0:0:
64,192,164252,1,0,0:0:0:0:
448,192,164382,1,0,0:0:0:0:
64,192,164382,128,0,164447:0:0:0:0:
192,192,164513,1,0,0:0:0:0:
320,192,164513,1,0,0:0:0:0:
448,192,164513,1,0,0:0:0:0:
64,192,164643,1,0,0:0:0:0:
192,192,164643,1,0,0:0:0:0:
320,192,164708,1,0,0:0:0:0:
448,192,164708,1,0,0:0:0:0:
192,192,164774,128,0,165034:0:0:0:0:
448,192,164904,128,0,165034:0:0:0:0:
64,192,165034,1,0,0:0:0:0:
320,192,165034,1,0,0:0:0:0:
192,192,165100,1,0,0:0:0:0:
448,192,165100,1,0,0:0:0:0:
320,192,165165,1,0,0:0:0:0:
64,192,165165,1,0,0:0:0:0:
192,192,165230,1,0,0:0:0:0:
448,192,165295,1,0,0:0:0:0:
320,192,165295,1,0,0:0:0:0:
64,192,165361,1,0,0:0:0:0:
192,192,165361,128,0,165426:0:0:0:0:
320,192,165426,1,0,0:0:0:0:
448,192,165426,1,0,0:0:0:0:
64,192,165491,1,0,0:0:0:0:
192,192,165491,128,0,165556:0:0:0:0:
448,192,165556,1,0,0:0:0:0:
320,192,165556,128,0,165687:0:0:0:0:
192,192,165687,1,0,0:0:0:0:
64,192,165687,128,0,165817:0:0:0:0:
192,192,165817,1,0,0:0:0:0:
448,192,165817,1,0,0:0:0:0:
320,192,165817,1,0,0:0:0:0:
64,192,165882,1,0,0:0:0:0:
192,192,165947,1,0,0:0:0:0:
320,192,166013,1,0,0:0:0:0:
448,192,166013,1,0,0:0:0:0:
192,192,166078,1,0,0:0:0:0:
64,192,166078,1,0,0:0:0:0:
448,192,166143,1,0,0:0:0:0:
192,192,166208,1,0,0:0:0:0:
64,192,166208,1,0,0:0:0:0:
320,192,166208,1,0,0:0:0:0:
448,192,166274,1,0,0:0:0:0:
320,192,166339,1,0,0:0:0:0:
192,192,166404,1,0,0:0:0:0:
64,192,166469,1,0,0:0:0:0:
448,192,166469,1,0,0:0:0:0:
192,192,166534,1,0,0:0:0:0:
64,192,166600,1,0,0:0:0:0:
320,192,166600,1,0,0:0:0:0:
448,192,166600,1,0,0:0:0:0:
192,192,166665,1,0,0:0:0:0:
448,192,166730,1,0,0:0:0:0:
320,192,166730,1,0,0:0:0:0:
192,192,166795,1,0,0:0:0:0:
64,192,166795,1,0,0:0:0:0:
448,192,166861,128,0,167056:0:0:0:0:
320,192,166861,1,0,0:0:0:0:
448,192,167121,128,0,167382:0:0:0:0:
64,192,167382,128,0,167447:0:0:0:0:
192,192,167382,128,0,167447:0:0:0:0:
64,192,167513,128,0,167578:0:0:0:0:
192,192,167513,128,0,167578:0:0:0:0:
64,192,167643,128,0,167708:0:0:0:0:
192,192,167643,128,0,167708:0:0:0:0:
64,192,167774,128,0,167839:0:0:0:0:
192,192,167774,128,0,167839:0:0:0:0:
192,192,167904,1,0,0:0:0:0:
64,192,167904,1,0,0:0:0:0:
448,192,167904,128,0,168165:0:0:0:0:
64,192,168165,128,0,168426:0:0:0:0:
192,192,168426,1,0,0:0:0:0:
320,192,168426,1,0,0:0:0:0:
448,192,168556,128,0,168687:0:0:0:0:
320,192,168687,128,0,168817:0:0:0:0:
64,192,168687,1,0,0:0:0:0:
192,192,168817,128,0,168947:0:0:0:0:
448,192,168817,1,0,0:0:0:0:
320,192,168947,1,0,0:0:0:0:
448,192,169078,128,0,169208:0:0:0:0:
192,192,169078,128,0,169208:0:0:0:0:
64,192,169208,1,0,0:0:0:0:
448,192,169339,128,0,169469:0:0:0:0:
192,192,169339,128,0,169469:0:0:0:0:
64,192,169469,1,0,0:0:0:0:
320,192,169469,128,0,169621:0:0:0:0:
192,192,169621,1,0,0:0:0:0:
320,192,169730,128,0,169882:0:0:0:0:
192,192,169882,1,0,0:0:0:0:
320,192,169991,128,0,170252:0:0:0:0:
448,192,169991,1,0,0:0:0:0:
64,192,169991,1,0,0:0:0:0:
448,192,170252,128,0,170513:0:0:0:0:
320,192,170382,1,0,0:0:0:0:
64,192,170513,1,0,0:0:0:0:
192,192,170513,1,0,0:0:0:0:
320,192,170643,128,0,170774:0:0:0:0:
192,192,170774,128,0,170904:0:0:0:0:
448,192,170774,1,0,0:0:0:0:
320,192,170861,1,0,0:0:0:0:
64,192,170904,128,0,171034:0:0:0:0:
448,192,170947,1,0,0:0:0:0:
192,192,171034,1,0,0:0:0:0:
448,192,171165,128,0,171295:0:0:0:0:
320,192,171165,128,0,171295:0:0:0:0:
64,192,171295,1,0,0:0:0:0:
192,192,171382,1,0,0:0:0:0:
320,192,171426,128,0,171556:0:0:0:0:
448,192,171426,128,0,171556:0:0:0:0:
64,192,171469,1,0,0:0:0:0:
192,192,171556,1,0,0:0:0:0:
448,192,171643,1,0,0:0:0:0:
320,192,171687,1,0,0:0:0:0:
192,192,171730,1,0,0:0:0:0:
64,192,171774,1,0,0:0:0:0:
448,192,171817,1,0,0:0:0:0:
320,192,171817,1,0,0:0:0:0:
64,192,172078,128,0,172339:0:0:0:0:
448,192,172078,1,0,0:0:0:0:
320,192,172078,1,0,0:0:0:0:
192,192,172339,128,0,172513:0:0:0:0:
320,192,172600,1,0,0:0:0:0:
192,192,172600,1,0,0:0:0:0:
64,192,172730,128,0,172861:0:0:0:0:
192,192,172861,128,0,172991:0:0:0:0:
448,192,172861,1,0,0:0:0:0:
320,192,172991,128,0,173121:0:0:0:0:
64,192,172991,1,0,0:0:0:0:
192,192,173121,1,0,0:0:0:0:
64,192,173252,128,0,173382:0:0:0:0:
448,192,173252,128,0,173382:0:0:0:0:
320,192,173382,1,0,0:0:0:0:
448,192,173513,128,0,173643:0:0:0:0:
64,192,173513,128,0,173643:0:0:0:0:
320,192,173643,128,0,174165:0:0:0:0:
192,192,173643,1,0,0:0:0:0:
64,192,174165,128,0,174426:0:0:0:0:
192,192,174165,1,0,0:0:0:0:
448,192,174165,1,0,0:0:0:0:
448,192,174426,128,0,174687:0:0:0:0:
192,192,174556,1,0,0:0:0:0:
320,192,174687,1,0,0:0:0:0:
64,192,174687,128,0,174817:0:0:0:0:
320,192,174947,1,0,0:0:0:0:
64,192,174947,1,0,0:0:0:0:
448,192,175034,1,0,0:0:0:0:
192,192,175078,128,0,175339:0:0:0:0:
320,192,175121,1,0,0:0:0:0:
448,192,175208,1,0,0:0:0:0:
64,192,175339,128,0,175469:0:0:0:0:
320,192,175339,1,0,0:0:0:0:
448,192,175469,128,0,175730:0:0:0:0:
192,192,175469,1,0,0:0:0:0:
64,192,175730,1,0,0:0:0:0:
320,192,175730,1,0,0:0:0:0:
192,192,175904,1,0,0:0:0:0:
64,192,175991,1,0,0:0:0:0:
448,192,175991,1,0,0:0:0:0:
320,192,176165,1,0,0:0:0:0:
448,192,176252,128,0,176513:0:0:0:0:
192,192,176252,1,0,0:0:0:0:
64,192,176252,1,0,0:0:0:0:
64,192,176513,128,0,176774:0:0:0:0:
320,192,176774,1,0,0:0:0:0:
448,192,176774,1,0,0:0:0:0:
192,192,176904,128,0,177034:0:0:0:0:
320,192,177034,128,0,177165:0:0:0:0:
64,192,177034,1,0,0:0:0:0:
448,192,177165,128,0,177295:0:0:0:0:
192,192,177165,1,0,0:0:0:0:
320,192,177295,1,0,0:0:0:0:
192,192,177426,128,0,177556:0:0:0:0:
64,192,177426,128,0,177556:0:0:0:0:
320,192,177556,1,0,0:0:0:0:
192,192,177687,128,0,177817:0:0:0:0:
64,192,177687,128,0,177817:0:0:0:0:
448,192,177817,128,0,177969:0:0:0:0:
320,192,177817,1,0,0:0:0:0:
192,192,177969,1,0,0:0:0:0:
448,192,178078,128,0,178208:0:0:0:0:
192,192,178208,1,0,0:0:0:0:
320,192,178339,128,0,178861:0:0:0:0:
448,192,178861,1,0,0:0:0:0:
64,192,178861,1,0,0:0:0:0:
192,192,179089,128,0,179219:0:0:0:0:
320,192,179382,1,0,0:0:0:0:
448,192,179382,1,0,0:0:0:0:
64,192,179513,128,0,179643:0:0:0:0:
192,192,179513,128,0,179643:0:0:0:0:
448,192,179643,1,0,0:0:0:0:
320,192,179730,1,0,0:0:0:0:
192,192,179774,128,0,179904:0:0:0:0:
64,192,179774,128,0,179904:0:0:0:0:
448,192,179817,1,0,0:0:0:0:
320,192,179904,1,0,0:0:0:0:
64,192,179991,1,0,0:0:0:0:
192,192,180034,1,0,0:0:0:0:
320,192,180078,1,0,0:0:0:0:
448,192,180121,1,0,0:0:0:0:
64,192,180165,1,0,0:0:0:0:
192,192,180165,1,0,0:0:0:0:
320,192,180295,1,0,0:0:0:0:
448,192,180426,128,0,180687:0:0:0:0:
64,192,180426,128,0,180687:0:0:0:0:
192,192,180426,1,0,0:0:0:0:
320,192,180687,128,0,180861:0:0:0:0:
320,192,180947,1,0,0:0:0:0:
192,192,180947,1,0,0:0:0:0:
64,192,181078,128,0,181208:0:0:0:0:
320,192,181208,128,0,181339:0:0:0:0:
192,192,181208,1,0,0:0:0:0:
448,192,181339,128,0,181469:0:0:0:0:
64,192,181339,1,0,0:0:0:0:
192,192,181469,1,0,0:0:0:0:
320,192,181600,128,0,181730:0:0:0:0:
448,192,181600,128,0,181730:0:0:0:0:
192,192,181730,1,0,0:0:0:0:
320,192,181861,128,0,181991:0:0:0:0:
448,192,181861,128,0,181991:0:0:0:0:
64,192,181991,128,0,182382:0:0:0:0:
192,192,181991,1,0,0:0:0:0:
320,192,182121,1,0,0:0:0:0:
448,192,182187,1,0,0:0:0:0:
192,192,182252,128,0,182382:0:0:0:0:
320,192,182382,1,0,0:0:0:0:
448,192,182382,128,0,184600:0:0:0:0:
64,192,183817,1,0,0:0:0:0:
192,192,183947,1,0,0:0:0:0:
64,192,184078,1,0,0:0:0:0:
192,192,184208,1,0,0:0:0:0:
64,192,184339,1,0,0:0:0:0:
192,192,184469,1,0,0:0:0:0:
64,192,184600,5,0,0:0:0:0:
320,192,184600,1,0,0:0:0:0:
448,192,184730,1,0,0:0:0:0:
192,192,184861,1,0,0:0:0:0:
448,192,184991,1,0,0:0:0:0:
192,192,185121,1,0,0:0:0:0:
320,192,185121,1,0,0:0:0:0:
448,192,185252,1,0,0:0:0:0:
64,192,185382,1,0,0:0:0:0:
192,192,185382,1,0,0:0:0:0:
448,192,185513,1,0,0:0:0:0:
320,192,185643,1,0,0:0:0:0:
64,192,185643,1,0,0:0:0:0:
192,192,185774,1,0,0:0:0:0:
448,192,185774,1,0,0:0:0:0:
320,192,185904,1,0,0:0:0:0:
448,192,186034,1,0,0:0:0:0:
192,192,186034,1,0,0:0:0:0:
320,192,186165,1,0,0:0:0:0:
192,192,186295,1,0,0:0:0:0:
64,192,186295,1,0,0:0:0:0:
320,192,186426,1,0,0:0:0:0:
64,192,186426,1,0,0:0:0:0:
192,192,186556,1,0,0:0:0:0:
448,192,186556,1,0,0:0:0:0:
448,192,186687,1,0,0:0:0:0:
320,192,186687,1,0,0:0:0:0:
64,192,186817,1,0,0:0:0:0:
320,192,186947,1,0,0:0:0:0:
64,192,187078,1,0,0:0:0:0:
320,192,187208,1,0,0:0:0:0:
448,192,187208,1,0,0:0:0:0:
64,192,187339,1,0,0:0:0:0:
320,192,187469,1,0,0:0:0:0:
192,192,187469,1,0,0:0:0:0:
64,192,187600,1,0,0:0:0:0:
448,192,187730,1,0,0:0:0:0:
320,192,187730,1,0,0:0:0:0:
192,192,187861,1,0,0:0:0:0:
64,192,187861,1,0,0:0:0:0:
448,192,187991,1,0,0:0:0:0:
192,192,188121,1,0,0:0:0:0:
64,192,188121,1,0,0:0:0:0:
448,192,188252,1,0,0:0:0:0:
192,192,188382,1,0,0:0:0:0:
448,192,188513,1,0,0:0:0:0:
320,192,188513,1,0,0:0:0:0:
192,192,188643,1,0,0:0:0:0:
64,192,188774,1,0,0:0:0:0:
320,192,188774,1,0,0:0:0:0:
448,192,188904,1,0,0:0:0:0:
64,192,189034,1,0,0:0:0:0:
448,192,189165,1,0,0:0:0:0:
64,192,189295,1,0,0:0:0:0:
320,192,189295,1,0,0:0:0:0:
448,192,189426,1,0,0:0:0:0:
64,192,189556,1,0,0:0:0:0:
192,192,189556,1,0,0:0:0:0:
448,192,189687,1,0,0:0:0:0:
192,192,189817,1,0,0:0:0:0:
64,192,189817,1,0,0:0:0:0:
320,192,189947,1,0,0:0:0:0:
448,192,189947,1,0,0:0:0:0:
192,192,190078,1,0,0:0:0:0:
320,192,190208,1,0,0:0:0:0:
448,192,190208,1,0,0:0:0:0:
192,192,190339,1,0,0:0:0:0:
320,192,190469,1,0,0:0:0:0:
192,192,190600,1,0,0:0:0:0:
64,192,190600,1,0,0:0:0:0:
320,192,190730,1,0,0:0:0:0:
64,192,190861,1,0,0:0:0:0:
448,192,190861,1,0,0:0:0:0:
192,192,190991,1,0,0:0:0:0:
64,192,191121,1,0,0:0:0:0:
320,192,191121,1,0,0:0:0:0:
192,192,191252,1,0,0:0:0:0:
64,192,191382,1,0,0:0:0:0:
448,192,191382,1,0,0:0:0:0:
192,192,191513,1,0,0:0:0:0:
448,192,191643,1,0,0:0:0:0:
64,192,191643,1,0,0:0:0:0:
192,192,191774,1,0,0:0:0:0:
320,192,191774,1,0,0:0:0:0:
448,192,191904,1,0,0:0:0:0:
192,192,192034,1,0,0:0:0:0:
320,192,192165,1,0,0:0:0:0:
64,192,192295,1,0,0:0:0:0:
448,192,192426,1,0,0:0:0:0:
192,192,192556,1,0,0:0:0:0:
320,192,192687,1,0,0:0:0:0:
64,192,192817,1,0,0:0:0:0:
320,192,192947,5,0,0:0:0:0:
192,192,192947,1,0,0:0:0:0:
64,192,193078,1,0,0:0:0:0:
320,192,193208,1,0,0:0:0:0:
64,192,193339,1,0,0:0:0:0:
320,192,193469,1,0,0:0:0:0:
192,192,193469,1,0,0:0:0:0:
64,192,193600,1,0,0:0:0:0:
448,192,193730,1,0,0:0:0:0:
320,192,193730,1,0,0:0:0:0:
64,192,193861,1,0,0:0:0:0:
192,192,193991,1,0,0:0:0:0:
448,192,193991,1,0,0:0:0:0:
320,192,194121,1,0,0:0:0:0:
64,192,194121,1,0,0:0:0:0:
192,192,194252,1,0,0:0:0:0:
64,192,194382,1,0,0:0:0:0:
320,192,194382,1,0,0:0:0:0:
192,192,194513,1,0,0:0:0:0:
320,192,194643,1,0,0:0:0:0:
448,192,194643,1,0,0:0:0:0:
192,192,194774,1,0,0:0:0:0:
448,192,194774,1,0,0:0:0:0:
320,192,194904,1,0,0:0:0:0:
64,192,194904,1,0,0:0:0:0:
64,192,195034,1,0,0:0:0:0:
192,192,195034,1,0,0:0:0:0:
448,192,195165,1,0,0:0:0:0:
192,192,195295,1,0,0:0:0:0:
448,192,195426,1,0,0:0:0:0:
192,192,195556,1,0,0:0:0:0:
64,192,195556,1,0,0:0:0:0:
448,192,195687,1,0,0:0:0:0:
192,192,195817,1,0,0:0:0:0:
320,192,195817,1,0,0:0:0:0:
448,192,195947,1,0,0:0:0:0:
64,192,196078,1,0,0:0:0:0:
192,192,196078,1,0,0:0:0:0:
320,192,196208,1,0,0:0:0:0:
448,192,196208,1,0,0:0:0:0:
64,192,196339,1,0,0:0:0:0:
320,192,196469,1,0,0:0:0:0:
448,192,196469,1,0,0:0:0:0:
64,192,196600,1,0,0:0:0:0:
320,192,196730,1,0,0:0:0:0:
64,192,196861,1,0,0:0:0:0:
192,192,196861,1,0,0:0:0:0:
320,192,196991,1,0,0:0:0:0:
448,192,197121,1,0,0:0:0:0:
192,192,197121,1,0,0:0:0:0:
64,192,197252,1,0,0:0:0:0:
448,192,197382,1,0,0:0:0:0:
64,192,197513,1,0,0:0:0:0:
448,192,197643,1,0,0:0:0:0:
192,192,197643,1,0,0:0:0:0:
64,192,197774,1,0,0:0:0:0:
448,192,197904,1,0,0:0:0:0:
320,192,197904,1,0,0:0:0:0:
64,192,198034,1,0,0:0:0:0:
320,192,198165,1,0,0:0:0:0:
448,192,198165,1,0,0:0:0:0:
192,192,198295,1,0,0:0:0:0:
64,192,198295,1,0,0:0:0:0:
320,192,198426,1,0,0:0:0:0:
192,192,198556,1,0,0:0:0:0:
64,192,198556,1,0,0:0:0:0:
320,192,198687,1,0,0:0:0:0:
192,192,198817,1,0,0:0:0:0:
448,192,198817,1,0,0:0:0:0:
320,192,198947,1,0,0:0:0:0:
192,192,199078,1,0,0:0:0:0:
448,192,199078,1,0,0:0:0:0:
64,192,199208,1,0,0:0:0:0:
320,192,199339,1,0,0:0:0:0:
192,192,199469,1,0,0:0:0:0:
320,192,199600,1,0,0:0:0:0:
64,192,199730,1,0,0:0:0:0:
448,192,199861,1,0,0:0:0:0:
192,192,199991,1,0,0:0:0:0:
448,192,200121,1,0,0:0:0:0:
320,192,200252,1,0,0:0:0:0:
192,192,200382,1,0,0:0:0:0:
448,192,200513,1,0,0:0:0:0:
192,192,200643,1,0,0:0:0:0:
320,192,200774,1,0,0:0:0:0:
64,192,200904,1,0,0:0:0:0:
448,192,201034,1,0,0:0:0:0:
64,192,201165,1,0,0:0:0:0:
320,192,201295,1,0,0:0:0:0:
