osu file format v14

[General]
AudioFilename: audio.mp3
AudioLeadIn: 0
PreviewTime: -1
Countdown: 0
SampleSet: Normal
StackLeniency: 0.7
Mode: 1
LetterboxInBreaks: 0
WidescreenStoryboard: 1

[Editor]
DistanceSpacing: 0.5
BeatDivisor: 4
GridSize: 4
TimelineZoom: 2

[Metadata]
Title:Angelic Jelly
TitleUnicode:Angelic Jelly
Artist:t+pazolite
ArtistUnicode:t+pazolite
Creator:sweetbravery
Version:Muzukashii
Source:SOUND VOLTEX III GRAVITY WARS
Tags:HAPPY で HARDCORE (HAPPY DE HARDCORE) beatmania IIDX 23 copula jubeat Qubell SOUND VOLTEX III GRAVITY WARS natsu no ryuusei festa 2016 DanceDanceRevolution REFLEC BEAT pop'n music
BeatmapID:1282096
BeatmapSetID:606786

[Difficulty]
HPDrainRate:7.5
CircleSize:5
OverallDifficulty:5.5
ApproachRate:6
SliderMultiplier:1.4
SliderTickRate:1

[Events]
//Background and Video events
0,0,"Jelly Wallpaper 6827711.jpg",0,0
//Break Periods
2,23980,27230
//Storyboard Layer 0 (Background)
//Storyboard Layer 1 (Fail)
//Storyboard Layer 2 (Pass)
//Storyboard Layer 3 (Foreground)
//Storyboard Layer 4 (Overlay)
//Storyboard Sound Samples

[TimingPoints]
2180,300,4,1,0,80,1,0
23780,-100,4,1,0,80,0,0
47780,-100,4,1,0,90,0,1
66980,-100,4,1,0,80,0,0
96980,-100,4,1,0,90,0,1
116180,-100,4,1,0,5,0,0

[HitObjects]
256,200,2180,5,0,0:0:0:0:
256,192,2780,12,0,3680,0:0:0:0:
256,200,3980,5,8,0:0:0:0:
256,200,4280,5,0,0:0:0:0:
256,200,4430,1,0,0:0:0:0:
256,200,4580,5,0,0:0:0:0:
256,200,4880,1,8,0:0:0:0:
256,200,5180,1,0,0:0:0:0:
256,200,5330,1,8,0:0:0:0:
256,200,5480,1,8,0:0:0:0:
256,200,5630,1,8,0:0:0:0:
256,200,5780,1,0,0:0:0:0:
256,200,6080,1,8,0:0:0:0:
256,200,6380,1,8,0:0:0:0:
256,200,6530,1,8,0:0:0:0:
256,200,6680,1,0,0:0:0:0:
256,200,6830,1,0,0:0:0:0:
256,200,6980,1,0,0:0:0:0:
256,200,7280,1,8,0:0:0:0:
256,200,7580,1,0,0:0:0:0:
256,200,7655,1,0,0:0:0:0:
256,200,7730,1,0,0:0:0:0:
256,200,7880,1,8,0:0:0:0:
256,200,8180,1,0,0:0:0:0:
256,200,8480,1,0,0:0:0:0:
256,200,8780,5,8,0:0:0:0:
256,200,8855,1,8,0:0:0:0:
256,200,8930,1,8,0:0:0:0:
256,200,9080,1,0,0:0:0:0:
256,200,9380,1,0,0:0:0:0:
256,200,9680,1,8,0:0:0:0:
288,188,9830,1,0,0:0:0:0:
256,200,10130,1,8,0:0:0:0:
256,200,10280,1,8,0:0:0:0:
256,200,10430,1,8,0:0:0:0:
256,200,10580,1,0,0:0:0:0:
256,200,10880,1,8,0:0:0:0:
256,200,11030,1,0,0:0:0:0:
256,200,11330,1,8,0:0:0:0:
256,200,11480,1,8,0:0:0:0:
256,200,11630,1,0,0:0:0:0:
256,200,11780,1,0,0:0:0:0:
256,200,12080,1,8,0:0:0:0:
256,200,12380,1,0,0:0:0:0:
256,200,12530,1,8,0:0:0:0:
256,200,12680,1,0,0:0:0:0:
256,200,12830,1,0,0:0:0:0:
256,200,12905,1,0,0:0:0:0:
256,200,12980,1,0,0:0:0:0:
256,200,13280,1,8,0:0:0:0:
256,200,13580,1,0,0:0:0:0:
256,200,13880,1,8,0:0:0:0:
256,200,13955,1,8,0:0:0:0:
256,200,14030,1,8,0:0:0:0:
256,200,14180,1,4,0:0:0:0:
256,200,14480,1,8,0:0:0:0:
256,200,14780,1,8,0:0:0:0:
256,200,14930,1,0,0:0:0:0:
256,200,15080,1,8,0:0:0:0:
256,200,15155,1,8,0:0:0:0:
256,200,15230,1,8,0:0:0:0:
256,200,15380,1,0,0:0:0:0:
256,200,15680,1,8,0:0:0:0:
256,200,15980,1,8,0:0:0:0:
256,200,16130,1,0,0:0:0:0:
256,200,16280,1,0,0:0:0:0:
256,200,16355,1,0,0:0:0:0:
256,200,16430,1,0,0:0:0:0:
256,200,16580,1,0,0:0:0:0:
256,200,16880,1,8,0:0:0:0:
256,200,17180,1,0,0:0:0:0:
256,200,17330,1,0,0:0:0:0:
256,200,17480,1,8,0:0:0:0:
256,200,17630,1,0,0:0:0:0:
256,200,17780,1,0,0:0:0:0:
256,200,18080,1,8,0:0:0:0:
256,200,18230,1,0,0:0:0:0:
256,200,18380,1,8,0:0:0:0:
256,200,18530,1,8,0:0:0:0:
256,200,18680,1,8,0:0:0:0:
256,200,18755,1,8,0:0:0:0:
256,200,18830,1,8,0:0:0:0:
256,200,18980,1,0,0:0:0:0:
256,200,19280,1,8,0:0:0:0:
256,200,19430,1,0,0:0:0:0:
256,200,19730,1,8,0:0:0:0:
256,200,19880,1,0,0:0:0:0:
256,200,20180,1,0,0:0:0:0:
256,200,20480,1,8,0:0:0:0:
256,200,20630,1,0,0:0:0:0:
256,200,20930,1,8,0:0:0:0:
256,200,21080,1,0,0:0:0:0:
256,200,21230,1,8,0:0:0:0:
256,200,21380,1,0,0:0:0:0:
256,200,21530,1,0,0:0:0:0:
256,200,21680,1,8,0:0:0:0:
256,200,21830,1,8,0:0:0:0:
256,200,21980,1,0,0:0:0:0:
256,200,22280,1,8,0:0:0:0:
256,200,22430,1,0,0:0:0:0:
256,200,22580,1,8,0:0:0:0:
256,200,22730,1,8,0:0:0:0:
256,200,22880,1,8,0:0:0:0:
256,200,23180,1,0,0:0:0:0:
256,200,23255,1,0,0:0:0:0:
256,200,23330,1,0,0:0:0:0:
256,200,23480,1,8,0:0:0:0:
256,200,23780,1,12,0:0:0:0:
256,200,28280,5,0,0:0:0:0:
256,200,28430,5,0,0:0:0:0:
256,200,28580,5,0,0:0:0:0:
256,200,28880,1,0,0:0:0:0:
256,200,29180,1,8,0:0:0:0:
256,200,29480,1,0,0:0:0:0:
256,200,29780,1,0,0:0:0:0:
256,200,29930,1,8,0:0:0:0:
256,200,30080,1,8,0:0:0:0:
256,200,30380,1,0,0:0:0:0:
256,200,30530,1,8,0:0:0:0:
256,200,30680,1,8,0:0:0:0:
256,200,30980,5,0,0:0:0:0:
256,200,31280,1,0,0:0:0:0:
256,200,31580,1,8,0:0:0:0:
256,200,31880,1,0,0:0:0:0:
256,200,32180,1,0,0:0:0:0:
256,200,32330,1,8,0:0:0:0:
256,200,32480,1,8,0:0:0:0:
256,200,32780,1,8,0:0:0:0:
256,200,32930,1,8,0:0:0:0:
256,200,33080,1,0,0:0:0:0:
256,200,33155,1,0,0:0:0:0:
256,200,33230,1,0,0:0:0:0:
256,200,33380,1,0,0:0:0:0:
256,200,33680,1,0,0:0:0:0:
256,200,33980,1,8,0:0:0:0:
256,200,34280,1,0,0:0:0:0:
256,200,34430,1,0,0:0:0:0:
256,200,34580,1,0,0:0:0:0:
256,200,34730,1,8,0:0:0:0:
256,200,34880,1,8,0:0:0:0:
256,200,35180,1,0,0:0:0:0:
256,200,35330,1,8,0:0:0:0:
256,200,35480,1,8,0:0:0:0:
256,200,35780,1,0,0:0:0:0:
256,200,36080,1,0,0:0:0:0:
256,192,36380,1,8,0:0:0:0:
256,192,36680,1,8,0:0:0:0:
256,192,36830,1,0,0:0:0:0:
256,192,36980,1,0,0:0:0:0:
256,192,37280,1,8,0:0:0:0:
256,192,37580,1,8,0:0:0:0:
256,192,37730,1,0,0:0:0:0:
256,200,37880,1,8,0:0:0:0:
256,200,37955,1,8,0:0:0:0:
256,200,38030,1,8,0:0:0:0:
256,200,38180,1,0,0:0:0:0:
256,200,38480,1,0,0:0:0:0:
256,200,38780,1,8,0:0:0:0:
256,200,39080,1,0,0:0:0:0:
256,200,39380,1,0,0:0:0:0:
256,200,39530,1,8,0:0:0:0:
256,200,39680,1,8,0:0:0:0:
256,200,39980,1,0,0:0:0:0:
256,200,40130,1,8,0:0:0:0:
256,200,40280,1,8,0:0:0:0:
184,200,40580,2,0,B|184:112|256:36|336:112|336:248,1,280
256,200,41480,1,0,0:0:0:0:
256,200,41780,1,8,0:0:0:0:
256,200,42380,1,0,0:0:0:0:
256,192,42980,12,0,45380,0:0:0:0:
256,192,45980,5,0,0:0:0:0:
256,192,46280,1,0,0:0:0:0:
256,192,46580,5,0,0:0:0:0:
256,192,46730,1,0,0:0:0:0:
256,192,46880,1,8,0:0:0:0:
256,192,47030,1,0,0:0:0:0:
256,192,47180,1,8,0:0:0:0:
256,192,47255,1,8,0:0:0:0:
256,192,47330,1,8,0:0:0:0:
256,192,47480,1,0,0:0:0:0:
256,192,47555,1,0,0:0:0:0:
256,192,47630,1,0,0:0:0:0:
256,192,47780,1,4,0:0:0:0:
256,192,48080,1,8,0:0:0:0:
256,192,48380,1,0,0:0:0:0:
256,192,48530,1,0,0:0:0:0:
256,192,48680,1,8,0:0:0:0:
256,192,48980,1,0,0:0:0:0:
256,192,49055,1,0,0:0:0:0:
256,192,49130,1,0,0:0:0:0:
256,192,49280,1,8,0:0:0:0:
256,192,49430,1,8,0:0:0:0:
256,192,49580,1,0,0:0:0:0:
256,192,49730,1,0,0:0:0:0:
256,192,49880,1,8,0:0:0:0:
256,192,50180,1,0,0:0:0:0:
256,192,50330,1,0,0:0:0:0:
256,192,50480,1,8,0:0:0:0:
256,192,50630,1,0,0:0:0:0:
256,192,50780,1,0,0:0:0:0:
256,192,50930,1,8,0:0:0:0:
256,192,51080,1,8,0:0:0:0:
256,192,51380,1,8,0:0:0:0:
256,192,51530,1,0,0:0:0:0:
256,192,51680,1,8,0:0:0:0:
256,192,51830,1,8,0:0:0:0:
256,192,51980,1,0,0:0:0:0:
256,192,52280,1,8,0:0:0:0:
256,192,52355,1,8,0:0:0:0:
256,192,52430,1,8,0:0:0:0:
256,192,52580,1,0,0:0:0:0:
256,192,52880,1,8,0:0:0:0:
256,192,53180,1,0,0:0:0:0:
256,192,53255,1,0,0:0:0:0:
256,192,53330,1,0,0:0:0:0:
256,192,53480,1,8,0:0:0:0:
256,192,53780,1,0,0:0:0:0:
256,192,53930,1,0,0:0:0:0:
256,192,54080,1,8,0:0:0:0:
256,192,54230,1,0,0:0:0:0:
256,192,54305,1,0,0:0:0:0:
256,192,54380,1,0,0:0:0:0:
256,192,54530,1,8,0:0:0:0:
256,192,54680,1,8,0:0:0:0:
256,192,54980,1,0,0:0:0:0:
256,192,55130,1,0,0:0:0:0:
256,192,55280,1,8,0:0:0:0:
256,192,55430,1,0,0:0:0:0:
256,192,55580,1,8,0:0:0:0:
256,192,55880,1,0,0:0:0:0:
256,192,56030,1,0,0:0:0:0:
256,192,56105,1,0,0:0:0:0:
256,192,56180,1,0,0:0:0:0:
256,192,56480,1,8,0:0:0:0:
256,192,56780,1,8,0:0:0:0:
256,192,56855,1,8,0:0:0:0:
256,192,56930,1,8,0:0:0:0:
256,192,57080,1,0,0:0:0:0:
256,192,57380,1,4,0:0:0:0:
256,192,57680,1,8,0:0:0:0:
256,192,57980,1,0,0:0:0:0:
256,192,58130,1,0,0:0:0:0:
256,192,58280,1,8,0:0:0:0:
256,192,58580,1,8,0:0:0:0:
256,192,58880,1,0,0:0:0:0:
256,192,59030,1,0,0:0:0:0:
256,192,59180,1,0,0:0:0:0:
256,192,59480,1,8,0:0:0:0:
256,192,59630,1,0,0:0:0:0:
256,192,59780,1,0,0:0:0:0:
256,192,60080,1,8,0:0:0:0:
256,192,60230,1,8,0:0:0:0:
256,192,60380,1,8,0:0:0:0:
256,192,60680,1,0,0:0:0:0:
256,192,60830,1,0,0:0:0:0:
256,192,60980,1,0,0:0:0:0:
256,192,61280,1,0,0:0:0:0:
256,192,61580,1,8,0:0:0:0:
256,192,61655,1,8,0:0:0:0:
256,192,61730,1,8,0:0:0:0:
256,192,61880,1,0,0:0:0:0:
256,192,61955,1,0,0:0:0:0:
256,192,62030,1,0,0:0:0:0:
256,192,62180,1,4,0:0:0:0:
256,192,62480,1,8,0:0:0:0:
256,192,62780,1,0,0:0:0:0:
256,192,62930,1,0,0:0:0:0:
256,192,63080,1,8,0:0:0:0:
256,192,63380,1,8,0:0:0:0:
256,192,63530,1,0,0:0:0:0:
256,192,63680,1,8,0:0:0:0:
256,192,63980,1,0,0:0:0:0:
256,192,64130,1,8,0:0:0:0:
256,192,64280,1,0,0:0:0:0:
256,192,64580,1,0,0:0:0:0:
256,192,64730,1,8,0:0:0:0:
256,192,64880,1,0,0:0:0:0:
256,192,65030,1,0,0:0:0:0:
256,192,65105,1,0,0:0:0:0:
256,192,65180,1,0,0:0:0:0:
256,192,65330,1,8,0:0:0:0:
256,192,65480,1,8,0:0:0:0:
256,192,65555,1,8,0:0:0:0:
256,192,65630,1,8,0:0:0:0:
256,192,65780,1,8,0:0:0:0:
256,192,66080,1,8,0:0:0:0:
256,192,66380,1,0,0:0:0:0:
256,192,66680,1,8,0:0:0:0:
256,192,66980,1,12,0:0:0:0:
256,192,67130,1,0,0:0:0:0:
256,192,67430,1,0,0:0:0:0:
256,192,67730,1,0,0:0:0:0:
256,192,67880,1,8,0:0:0:0:
256,192,68180,1,8,0:0:0:0:
256,192,68330,1,0,0:0:0:0:
256,192,68630,1,0,0:0:0:0:
256,192,68930,1,0,0:0:0:0:
256,192,69080,1,8,0:0:0:0:
256,192,69380,1,8,0:0:0:0:
256,192,69530,1,0,0:0:0:0:
256,192,69830,1,0,0:0:0:0:
256,192,70130,1,0,0:0:0:0:
256,192,70280,1,8,0:0:0:0:
256,192,70580,1,0,0:0:0:0:
256,192,70730,1,0,0:0:0:0:
256,192,70880,1,8,0:0:0:0:
256,192,71030,1,0,0:0:0:0:
256,192,71180,1,0,0:0:0:0:
256,192,71255,1,0,0:0:0:0:
256,192,71330,1,0,0:0:0:0:
256,192,71480,1,12,0:0:0:0:
256,192,71780,1,0,0:0:0:0:
256,192,71930,1,0,0:0:0:0:
256,192,72230,1,0,0:0:0:0:
256,192,72530,1,8,0:0:0:0:
256,192,72680,1,8,0:0:0:0:
256,192,72980,1,0,0:0:0:0:
256,192,73130,1,0,0:0:0:0:
256,192,73430,1,0,0:0:0:0:
256,192,73730,1,8,0:0:0:0:
256,192,73880,1,8,0:0:0:0:
256,192,74180,1,0,0:0:0:0:
256,192,74330,1,0,0:0:0:0:
256,192,74630,1,0,0:0:0:0:
256,192,74930,1,8,0:0:0:0:
256,192,75080,1,8,0:0:0:0:
256,192,75380,1,0,0:0:0:0:
256,192,75530,1,0,0:0:0:0:
256,192,75680,1,8,0:0:0:0:
256,192,75830,1,8,0:0:0:0:
256,192,75980,1,0,0:0:0:0:
256,192,76055,1,0,0:0:0:0:
256,192,76130,1,0,0:0:0:0:
256,192,76280,1,12,0:0:0:0:
256,192,76580,1,8,0:0:0:0:
256,192,76730,1,0,0:0:0:0:
256,192,77030,1,0,0:0:0:0:
256,192,77330,1,0,0:0:0:0:
256,192,77480,1,8,0:0:0:0:
256,192,77780,1,8,0:0:0:0:
256,192,77930,1,0,0:0:0:0:
256,192,78230,1,0,0:0:0:0:
256,192,78530,1,0,0:0:0:0:
256,192,78680,1,8,0:0:0:0:
256,192,78980,1,8,0:0:0:0:
256,192,79130,1,0,0:0:0:0:
256,192,79430,1,0,0:0:0:0:
256,192,79730,1,0,0:0:0:0:
256,192,79880,1,8,0:0:0:0:
256,192,80180,1,8,0:0:0:0:
256,192,80330,1,0,0:0:0:0:
256,192,80480,1,8,0:0:0:0:
256,192,80630,1,0,0:0:0:0:
256,192,80780,1,0,0:0:0:0:
256,192,80855,1,0,0:0:0:0:
256,192,80930,1,0,0:0:0:0:
256,192,81080,1,12,0:0:0:0:
256,192,81380,1,0,0:0:0:0:
256,192,81530,1,0,0:0:0:0:
256,192,81680,1,8,0:0:0:0:
256,192,81980,1,0,0:0:0:0:
256,192,82130,1,0,0:0:0:0:
256,192,82280,1,8,0:0:0:0:
256,192,82580,1,0,0:0:0:0:
256,192,82730,1,0,0:0:0:0:
256,192,82880,1,8,0:0:0:0:
256,192,83180,1,0,0:0:0:0:
256,192,83330,1,0,0:0:0:0:
256,192,83480,1,8,0:0:0:0:
256,192,83780,1,0,0:0:0:0:
256,192,83930,1,0,0:0:0:0:
256,192,84080,1,8,0:0:0:0:
256,192,84380,1,8,0:0:0:0:
256,192,84530,1,8,0:0:0:0:
256,192,84680,1,0,0:0:0:0:
256,192,84755,1,0,0:0:0:0:
256,192,84830,1,0,0:0:0:0:
256,192,84980,1,8,0:0:0:0:
256,192,85280,1,8,0:0:0:0:
256,192,85580,1,8,0:0:0:0:
256,192,85880,1,8,0:0:0:0:
256,192,86180,1,8,0:0:0:0:
256,192,86330,1,0,0:0:0:0:
256,192,86480,1,8,0:0:0:0:
256,192,86630,1,0,0:0:0:0:
256,192,86705,1,0,0:0:0:0:
256,192,86780,1,0,0:0:0:0:
256,192,86930,1,0,0:0:0:0:
256,192,87080,1,8,0:0:0:0:
256,192,87380,1,4,0:0:0:0:
256,192,87680,1,8,0:0:0:0:
256,192,87830,1,0,0:0:0:0:
256,192,87980,1,8,0:0:0:0:
256,192,88130,1,8,0:0:0:0:
256,192,88205,1,8,0:0:0:0:
256,192,88280,1,8,0:0:0:0:
256,192,88430,1,0,0:0:0:0:
256,192,88580,1,0,0:0:0:0:
256,192,88880,1,8,0:0:0:0:
256,192,89030,1,8,0:0:0:0:
256,192,89180,1,0,0:0:0:0:
256,192,89330,1,0,0:0:0:0:
256,192,89405,1,0,0:0:0:0:
256,192,89480,1,0,0:0:0:0:
256,192,89630,1,8,0:0:0:0:
256,192,89780,1,0,0:0:0:0:
256,192,90080,1,8,0:0:0:0:
256,192,90230,1,0,0:0:0:0:
256,192,90380,1,8,0:0:0:0:
256,192,90530,1,0,0:0:0:0:
256,192,90680,1,8,0:0:0:0:
256,192,90830,1,8,0:0:0:0:
256,192,90905,1,8,0:0:0:0:
256,192,90980,1,8,0:0:0:0:
256,192,91280,2,0,B|192:148|256:120|464:120,1,280
256,192,92180,1,0,0:0:0:0:
256,192,92330,1,8,0:0:0:0:
256,192,92480,1,0,0:0:0:0:
256,192,92555,1,0,0:0:0:0:
256,192,92630,1,0,0:0:0:0:
256,192,92780,1,0,0:0:0:0:
256,192,93080,5,8,0:0:0:0:
256,192,93230,1,0,0:0:0:0:
256,192,93380,1,0,0:0:0:0:
256,192,93680,1,8,0:0:0:0:
256,192,93830,1,8,0:0:0:0:
256,192,93980,1,8,0:0:0:0:
256,192,94055,1,8,0:0:0:0:
256,192,94130,1,8,0:0:0:0:
256,192,94280,1,0,0:0:0:0:
256,192,94580,1,8,0:0:0:0:
256,192,94880,1,8,0:0:0:0:
256,192,95030,1,0,0:0:0:0:
256,192,95180,1,0,0:0:0:0:
256,192,95255,1,0,0:0:0:0:
256,192,95330,1,0,0:0:0:0:
256,192,95480,1,8,0:0:0:0:
256,192,95780,1,8,0:0:0:0:
256,192,96080,1,0,0:0:0:0:
256,192,96380,1,8,0:0:0:0:
256,192,96680,1,8,0:0:0:0:
256,192,96830,1,0,0:0:0:0:
256,192,96980,1,4,0:0:0:0:
256,192,97280,1,8,0:0:0:0:
256,192,97430,1,8,0:0:0:0:
256,192,97580,1,0,0:0:0:0:
256,192,97880,1,8,0:0:0:0:
256,192,98030,1,0,0:0:0:0:
256,192,98180,1,0,0:0:0:0:
256,192,98480,1,8,0:0:0:0:
256,192,98630,1,8,0:0:0:0:
256,192,98780,1,8,0:0:0:0:
256,192,98930,1,0,0:0:0:0:
256,192,99080,1,8,0:0:0:0:
256,192,99380,1,0,0:0:0:0:
256,192,99530,1,8,0:0:0:0:
256,192,99680,1,8,0:0:0:0:
256,192,99830,1,0,0:0:0:0:
256,192,99980,1,8,0:0:0:0:
256,192,100280,1,8,0:0:0:0:
256,192,100355,1,8,0:0:0:0:
256,192,100430,1,8,0:0:0:0:
256,192,100580,1,0,0:0:0:0:
256,192,100880,12,0,101780,0:0:0:0:
256,192,102080,5,0,0:0:0:0:
256,192,102230,1,8,0:0:0:0:
256,192,102380,1,8,0:0:0:0:
256,192,102680,5,0,0:0:0:0:
256,192,102830,1,8,0:0:0:0:
256,192,102980,1,0,0:0:0:0:
256,192,103280,1,8,0:0:0:0:
256,192,103430,1,8,0:0:0:0:
256,192,103580,1,0,0:0:0:0:
256,192,103730,1,8,0:0:0:0:
256,192,103880,1,0,0:0:0:0:
256,192,104180,1,8,0:0:0:0:
256,192,104255,1,8,0:0:0:0:
256,192,104330,1,8,0:0:0:0:
256,192,104480,1,0,0:0:0:0:
256,192,104630,1,0,0:0:0:0:
256,192,104705,1,0,0:0:0:0:
256,192,104780,1,0,0:0:0:0:
256,192,104930,1,8,0:0:0:0:
256,192,105080,1,0,0:0:0:0:
256,192,105230,1,0,0:0:0:0:
256,192,105380,1,12,0:0:0:0:
256,192,105680,1,12,0:0:0:0:
256,192,105980,1,4,0:0:0:0:
256,192,106280,1,12,0:0:0:0:
256,192,106580,1,0,0:0:0:0:
256,192,106880,1,0,0:0:0:0:
256,192,107180,1,0,0:0:0:0:
256,192,107330,1,0,0:0:0:0:
256,192,107630,1,0,0:0:0:0:
256,192,107780,1,0,0:0:0:0:
256,192,108080,1,0,0:0:0:0:
256,192,108380,1,0,0:0:0:0:
256,192,108530,1,0,0:0:0:0:
256,192,108830,1,0,0:0:0:0:
256,192,108980,1,0,0:0:0:0:
256,192,109280,1,0,0:0:0:0:
256,192,109580,1,0,0:0:0:0:
256,192,109730,1,0,0:0:0:0:
256,192,110030,1,0,0:0:0:0:
256,192,110180,1,0,0:0:0:0:
256,192,110480,1,0,0:0:0:0:
256,192,110630,1,0,0:0:0:0:
256,192,110780,1,0,0:0:0:0:
256,192,111080,1,4,0:0:0:0:
256,192,111380,1,8,0:0:0:0:
256,192,111680,1,8,0:0:0:0:
256,192,111980,1,8,0:0:0:0:
256,192,112130,1,8,0:0:0:0:
256,192,112430,1,8,0:0:0:0:
256,192,112580,1,8,0:0:0:0:
256,192,112880,1,8,0:0:0:0:
256,192,113180,1,8,0:0:0:0:
256,192,113330,1,8,0:0:0:0:
256,192,113630,1,8,0:0:0:0:
256,192,113780,1,8,0:0:0:0:
256,192,113930,1,0,0:0:0:0:
256,192,114080,1,0,0:0:0:0:
256,192,114380,1,8,0:0:0:0:
256,192,114530,1,0,0:0:0:0:
256,192,114680,1,0,0:0:0:0:
256,192,114980,1,8,0:0:0:0:
256,192,115130,1,0,0:0:0:0:
256,192,115280,1,0,0:0:0:0:
256,192,115580,1,0,0:0:0:0:
256,192,115655,1,0,0:0:0:0:
256,192,115730,1,0,0:0:0:0:
256,192,115880,1,8,0:0:0:0:
256,192,116030,1,4,0:0:0:0:
