osu file format v14

[General]
AudioFilename: audio.mp3
AudioLeadIn: 0
PreviewTime: 46200
Countdown: 0
SampleSet: None
StackLeniency: 0.7
Mode: 1
LetterboxInBreaks: 0
WidescreenStoryboard: 1

[Editor]
DistanceSpacing: 1.4
BeatDivisor: 4
GridSize: 16
TimelineZoom: 2.9

[Metadata]
Title:Angelic Jelly
TitleUnicode:Angelic Jelly
Artist:t+pazolite
ArtistUnicode:t+pazolite
Creator:mliencheng
Version:Inner Oni
Source:SOUND VOLTEX III GRAVITY WARS
Tags:beatmania IIDX 23 copula jubeat Qubell DanceDanceRevolution A MÚSECA pop'n music éclale REFLEC BEAT VOLZZA 2
BeatmapID:1246741
BeatmapSetID:588927

[Difficulty]
HPDrainRate:7
CircleSize:2
OverallDifficulty:5
ApproachRate:5
SliderMultiplier:1.4999999666214
SliderTickRate:1

[Events]
//Background and Video events
0,0,"angelic jelly.png",0,0
//Break Periods
//Storyboard Layer 0 (Background)
//Storyboard Layer 1 (Fail)
//Storyboard Layer 2 (Pass)
//Storyboard Layer 3 (Foreground)
//Storyboard Sound Samples

[TimingPoints]
600,300,4,1,0,100,1,0
11400,-90.9090909090909,4,1,0,100,0,0
11700,-83.3333333333333,4,1,0,100,0,0
12000,-76.9230769230769,4,1,0,100,0,0
12675,-100,4,1,0,100,0,0
19800,-95.2380952380952,4,1,0,100,0,0
19950,-90.9090909090909,4,1,0,100,0,0
20100,-86.9565217391304,4,1,0,100,0,0
20250,-83.3333333333333,4,1,0,100,0,0
20400,-80,4,1,0,100,0,0
20550,-76.9230769230769,4,1,0,100,0,0
20700,-74.0740740740741,4,1,0,100,0,0
20850,-71.4285714285714,4,1,0,100,0,0
21000,-68.9655172413793,4,1,0,100,0,0
23100,-200,4,1,0,100,0,0
41400,-181.818181818182,4,1,0,100,0,0
41700,-166.666666666667,4,2,0,40,0,0
41850,-153.846153846154,4,2,0,40,0,0
42150,-142.857142857143,4,2,0,40,0,0
42300,-133.333333333333,4,2,0,40,0,0
42450,-125,4,2,0,40,0,0
42750,-117.647058823529,4,2,0,40,0,0
42825,-111.111111111111,4,2,0,40,0,0
43050,-105.263157894737,4,2,0,40,0,0
43350,-100,4,2,0,40,0,0
43800,-100,4,1,0,100,0,0
45600,-83.3333333333333,4,1,0,100,0,0
45900,-76.9230769230769,4,1,0,100,0,0
46200,-100,4,1,0,100,0,1
48300,-83.3333333333333,4,1,0,100,0,1
48600,-100,4,1,0,100,0,1
53100,-83.3333333333333,4,1,0,100,0,1
53400,-100,4,1,0,100,0,1
54600,-100,4,1,0,100,0,0
54750,-105.263157894737,4,1,0,100,0,0
54825,-111.111111111111,4,1,0,100,0,0
54900,-117.647058823529,4,1,0,100,0,0
55050,-125,4,1,0,100,0,0
55200,-117.647058823529,4,1,0,100,0,0
55275,-111.111111111111,4,1,0,100,0,0
55350,-105.263157894737,4,1,0,100,0,0
55425,-100,4,1,0,100,0,0
60000,-76.9230769230769,4,1,0,100,0,0
60300,-100,4,1,0,100,0,0
63000,-98.0392156862745,4,1,0,100,0,0
63150,-96.1538461538461,4,1,0,100,0,0
63300,-94.3396226415094,4,1,0,100,0,0
63450,-92.5925925925926,4,1,0,100,0,0
63600,-90.9090909090909,4,1,0,100,0,0
63675,-89.2857142857143,4,1,0,100,0,0
63750,-87.719298245614,4,1,0,100,0,0
63825,-86.2068965517241,4,1,0,100,0,0
63900,-84.7457627118644,4,1,0,100,0,0
63975,-83.3333333333333,4,1,0,100,0,0
64050,-81.9672131147541,4,1,0,100,0,0
64125,-80.6451612903226,4,1,0,100,0,0
64200,-79.3650793650794,4,1,0,100,0,0
64500,-86.2068965517241,4,1,0,100,0,0
64800,-83.3333333333333,4,1,0,100,0,0
65100,-66.6666666666667,4,1,0,100,0,0
65400,-83.3333333333333,4,1,0,100,0,0
66300,-25,4,1,0,100,0,0
66600,-83.3333333333333,4,1,0,100,0,0
67500,-25,4,1,0,100,0,0
67800,-83.3333333333333,4,1,0,100,0,0
68700,-25,4,1,0,100,0,0
69000,-100,4,1,0,100,0,0
70200,-83.3333333333333,4,1,0,100,0,0
71100,-25,4,1,0,100,0,0
71400,-83.3333333333333,4,1,0,100,0,0
72300,-25,4,1,0,100,0,0
72600,-83.3333333333333,4,1,0,100,0,0
73500,-25,4,1,0,100,0,0
73800,-100,4,1,0,100,0,0
75000,-83.3333333333333,4,1,0,100,0,0
75900,-25,4,1,0,100,0,0
76200,-83.3333333333333,4,1,0,100,0,0
77100,-25,4,1,0,100,0,0
77400,-83.3333333333333,4,1,0,100,0,0
78300,-25,4,1,0,100,0,0
78600,-100,4,1,0,100,0,0
79800,-83.3333333333333,4,1,0,100,0,0
80100,-25,4,1,0,100,0,0
80400,-83.3333333333333,4,1,0,100,0,0
80700,-25,4,1,0,100,0,0
81000,-83.3333333333333,4,1,0,100,0,0
81300,-25,4,1,0,100,0,0
81600,-83.3333333333333,4,1,0,100,0,0
81900,-25,4,1,0,100,0,0
82200,-83.3333333333333,4,1,0,100,0,0
83700,-90.9090909090909,4,1,0,100,0,0
84000,-100,4,1,0,100,0,0
85800,-90.9090909090909,4,1,0,100,0,1
87900,-76.9230769230769,4,1,0,100,0,1
88200,-90.9090909090909,4,1,0,100,0,1
89400,-76.9230769230769,4,1,0,100,0,1
89700,-90.9090909090909,4,1,0,100,0,1
90000,-76.9230769230769,4,1,0,100,0,1
90300,-90.9090909090909,4,1,0,100,0,1
92700,-76.9230769230769,4,1,0,100,0,1
93000,-90.9090909090909,4,1,0,100,0,1
95100,-76.9230769230769,4,1,0,100,0,1
95400,-90.9090909090909,4,1,0,100,0,1
97500,-76.9230769230769,4,1,0,100,0,1
97800,-90.9090909090909,4,1,0,100,0,1
102600,-90.0900900900901,4,1,0,100,0,1
102675,-89.2857142857143,4,1,0,100,0,1
102750,-88.4955752212389,4,1,0,100,0,1
102825,-87.719298245614,4,1,0,100,0,1
102900,-86.9565217391304,4,1,0,100,0,1
102975,-86.2068965517241,4,1,0,100,0,1
103050,-85.4700854700855,4,1,0,100,0,1
103125,-84.7457627118644,4,1,0,100,0,1
103200,-84.0336134453781,4,1,0,100,0,1
103275,-83.3333333333333,4,1,0,100,0,1
103350,-82.6446280991736,4,1,0,100,0,1
103425,-81.9672131147541,4,1,0,100,0,1
103500,-81.3008130081301,4,1,0,100,0,1
103575,-80.6451612903226,4,1,0,100,0,1
103650,-80,4,1,0,100,0,1
103725,-79.3650793650794,4,1,0,100,0,1
103800,-78.7401574803149,4,1,0,100,0,1
104100,-78.125,4,1,0,100,0,1
104400,-77.5193798449612,4,1,0,100,0,1
104700,-76.9230769230769,4,1,0,100,0,1
105000,-76.9230769230769,4,1,0,100,0,0
112200,-76.3358778625954,4,1,0,100,0,0
112275,-75.7575757575758,4,1,0,100,0,0
112350,-75.187969924812,4,1,0,100,0,0
112425,-74.6268656716418,4,1,0,100,0,0
112500,-74.0740740740741,4,1,0,100,0,0
113700,-73.5294117647059,4,1,0,100,0,0
113750,-72.992700729927,4,1,0,100,0,0
113800,-72.463768115942,4,1,0,100,0,0
113850,-71.9424460431655,4,1,0,100,0,0
113900,-71.4285714285714,4,1,0,100,0,0
113950,-70.9219858156028,4,1,0,100,0,0
114000,-70.4225352112676,4,1,0,100,0,0
114150,-67.5675675675676,4,1,0,100,0,0
114300,-64.9350649350649,4,1,0,100,0,0
114450,-62.5,4,1,0,100,0,0

[HitObjects]
224,112,600,5,4,0:0:0:0:
224,128,1050,1,0,0:0:0:0:
336,128,1200,1,2,0:0:0:0:
240,80,1500,1,2,0:0:0:0:
240,80,1650,1,0,0:0:0:0:
256,80,1800,1,2,0:0:0:0:
240,224,1950,1,0,0:0:0:0:
240,224,2025,1,2,0:0:0:0:
240,224,2100,1,0,0:0:0:0:
240,224,2175,1,0,0:0:0:0:
240,224,2250,1,0,0:0:0:0:
240,224,2325,1,0,0:0:0:0:
240,224,2400,1,2,0:0:0:0:
144,176,2475,1,2,0:0:0:0:
208,160,2550,1,2,0:0:0:0:
208,176,2625,1,2,0:0:0:0:
208,176,2700,1,0,0:0:0:0:
272,288,2850,1,2,0:0:0:0:
272,288,3000,1,0,0:0:0:0:
240,224,3150,1,2,0:0:0:0:
320,320,3225,1,2,0:0:0:0:
288,288,3300,1,0,0:0:0:0:
240,256,3450,1,2,0:0:0:0:
320,320,3525,1,2,0:0:0:0:
384,160,3600,1,0,0:0:0:0:
256,272,3750,1,2,0:0:0:0:
256,272,3825,1,2,0:0:0:0:
384,160,3900,1,0,0:0:0:0:
272,288,3975,1,0,0:0:0:0:
256,288,4050,1,2,0:0:0:0:
480,352,4125,1,2,0:0:0:0:
384,160,4200,1,0,0:0:0:0:
272,288,4350,1,2,0:0:0:0:
480,336,4425,1,2,0:0:0:0:
384,160,4500,1,0,0:0:0:0:
272,304,4650,1,2,0:0:0:0:
480,352,4725,1,2,0:0:0:0:
384,160,4800,1,0,0:0:0:0:
480,352,4950,1,2,0:0:0:0:
480,352,5025,1,2,0:0:0:0:
368,176,5100,1,0,0:0:0:0:
480,352,5175,1,2,0:0:0:0:
480,352,5250,1,0,0:0:0:0:
480,352,5325,1,2,0:0:0:0:
320,192,5400,1,0,0:0:0:0:
400,192,5550,1,2,0:0:0:0:
400,192,5625,1,2,0:0:0:0:
304,208,5700,1,0,0:0:0:0:
416,192,5850,1,2,0:0:0:0:
384,192,5925,1,2,0:0:0:0:
304,208,6000,1,0,0:0:0:0:
272,144,6075,1,2,0:0:0:0:
272,144,6150,1,2,0:0:0:0:
272,144,6225,1,2,0:0:0:0:
304,208,6300,1,0,0:0:0:0:
272,176,6375,1,0,0:0:0:0:
256,160,6450,1,2,0:0:0:0:
272,176,6525,1,0,0:0:0:0:
224,224,6600,1,2,0:0:0:0:
272,176,6750,1,0,0:0:0:0:
272,176,6825,1,0,0:0:0:0:
176,224,6900,1,2,0:0:0:0:
256,176,7050,1,0,0:0:0:0:
256,176,7125,1,2,0:0:0:0:
144,224,7200,1,2,0:0:0:0:
272,176,7350,1,2,0:0:0:0:
272,192,7425,1,2,0:0:0:0:
128,224,7500,1,0,0:0:0:0:
272,192,7575,1,2,0:0:0:0:
240,128,7650,1,2,0:0:0:0:
240,112,7725,1,2,0:0:0:0:
128,224,7800,1,0,0:0:0:0:
240,128,7950,1,2,0:0:0:0:
240,128,8025,1,2,0:0:0:0:
128,224,8100,1,0,0:0:0:0:
240,128,8250,1,2,0:0:0:0:
240,128,8325,1,2,0:0:0:0:
128,224,8400,1,0,0:0:0:0:
256,128,8550,1,2,0:0:0:0:
240,128,8625,1,2,0:0:0:0:
128,224,8700,1,0,0:0:0:0:
256,128,8775,1,0,0:0:0:0:
256,128,8850,1,2,0:0:0:0:
256,128,8925,1,2,0:0:0:0:
128,224,9000,1,0,0:0:0:0:
272,128,9150,1,2,0:0:0:0:
272,128,9225,1,2,0:0:0:0:
128,224,9300,1,0,0:0:0:0:
272,144,9450,1,2,0:0:0:0:
272,144,9525,1,2,0:0:0:0:
128,224,9600,1,0,0:0:0:0:
272,144,9750,1,2,0:0:0:0:
272,144,9825,1,2,0:0:0:0:
128,224,9900,1,0,0:0:0:0:
272,144,9975,1,2,0:0:0:0:
272,144,10050,1,0,0:0:0:0:
272,144,10125,1,2,0:0:0:0:
128,224,10200,1,0,0:0:0:0:
272,144,10350,1,2,0:0:0:0:
272,144,10425,1,2,0:0:0:0:
128,224,10500,1,0,0:0:0:0:
272,144,10650,1,2,0:0:0:0:
272,144,10725,1,2,0:0:0:0:
128,224,10800,1,0,0:0:0:0:
272,144,10875,1,2,0:0:0:0:
272,144,10950,1,2,0:0:0:0:
272,160,11025,1,2,0:0:0:0:
128,224,11100,1,0,0:0:0:0:
272,160,11175,1,2,0:0:0:0:
272,160,11250,1,0,0:0:0:0:
272,160,11325,1,2,0:0:0:0:
128,224,11400,1,4,0:0:0:0:
128,224,11700,1,4,0:0:0:0:
128,224,12000,1,6,0:0:0:0:
128,224,12300,1,2,0:0:0:0:
272,160,12375,1,0,0:0:0:0:
272,160,12450,1,2,0:0:0:0:
272,160,12525,1,2,0:0:0:0:
128,224,12600,1,0,0:0:0:0:
304,160,12750,1,2,0:0:0:0:
304,160,12825,1,2,0:0:0:0:
128,224,12900,1,0,0:0:0:0:
304,160,13050,1,2,0:0:0:0:
304,160,13125,1,2,0:0:0:0:
128,224,13200,1,0,0:0:0:0:
304,160,13350,1,2,0:0:0:0:
304,160,13425,1,2,0:0:0:0:
128,224,13500,1,0,0:0:0:0:
304,176,13575,1,0,0:0:0:0:
320,176,13650,1,2,0:0:0:0:
320,176,13725,1,2,0:0:0:0:
144,224,13800,1,0,0:0:0:0:
320,176,13950,1,2,0:0:0:0:
320,176,14025,1,2,0:0:0:0:
144,224,14100,1,0,0:0:0:0:
320,176,14250,1,2,0:0:0:0:
320,176,14325,1,2,0:0:0:0:
144,224,14400,1,0,0:0:0:0:
320,176,14550,1,2,0:0:0:0:
320,176,14625,1,2,0:0:0:0:
144,224,14700,1,0,0:0:0:0:
320,176,14775,1,2,0:0:0:0:
320,176,14850,1,0,0:0:0:0:
320,176,14925,1,2,0:0:0:0:
144,224,15000,1,0,0:0:0:0:
320,176,15150,1,2,0:0:0:0:
320,176,15225,1,2,0:0:0:0:
144,224,15300,1,0,0:0:0:0:
320,176,15450,1,2,0:0:0:0:
320,176,15525,1,2,0:0:0:0:
144,224,15600,1,0,0:0:0:0:
320,176,15675,1,2,0:0:0:0:
320,176,15750,1,2,0:0:0:0:
320,176,15825,1,2,0:0:0:0:
144,224,15900,1,0,0:0:0:0:
320,176,15975,1,0,0:0:0:0:
320,176,16050,1,2,0:0:0:0:
320,176,16125,1,0,0:0:0:0:
144,224,16200,1,2,0:0:0:0:
224,96,16350,1,0,0:0:0:0:
224,96,16425,1,0,0:0:0:0:
144,224,16500,1,2,0:0:0:0:
224,112,16650,1,0,0:0:0:0:
224,112,16725,1,2,0:0:0:0:
144,224,16800,1,2,0:0:0:0:
240,112,16950,1,0,0:0:0:0:
240,112,17025,1,2,0:0:0:0:
144,224,17100,1,2,0:0:0:0:
240,112,17250,1,2,0:0:0:0:
240,112,17325,1,2,0:0:0:0:
144,224,17400,1,0,0:0:0:0:
240,128,17550,1,2,0:0:0:0:
240,128,17625,1,0,0:0:0:0:
144,224,17700,1,2,0:0:0:0:
256,128,17850,1,0,0:0:0:0:
256,128,17925,1,2,0:0:0:0:
144,224,18000,1,0,0:0:0:0:
336,240,18150,1,2,0:0:0:0:
336,240,18225,1,2,0:0:0:0:
144,224,18300,1,0,0:0:0:0:
336,240,18450,1,2,0:0:0:0:
144,224,18600,1,0,0:0:0:0:
352,256,18750,1,2,0:0:0:0:
336,256,18825,1,0,0:0:0:0:
144,224,18900,1,2,0:0:0:0:
352,256,18975,1,2,0:0:0:0:
352,256,19050,1,0,0:0:0:0:
144,224,19200,1,0,0:0:0:0:
352,272,19350,1,2,0:0:0:0:
352,272,19425,1,2,0:0:0:0:
144,224,19500,1,0,0:0:0:0:
352,272,19575,1,2,0:0:0:0:
352,272,19650,1,2,0:0:0:0:
352,272,19725,1,2,0:0:0:0:
144,224,19800,1,2,0:0:0:0:
352,272,19950,1,0,0:0:0:0:
144,224,20100,1,2,0:0:0:0:
352,272,20250,1,0,0:0:0:0:
144,224,20400,1,2,0:0:0:0:
352,272,20550,1,0,0:0:0:0:
144,224,20700,1,2,0:0:0:0:
352,272,20850,1,0,0:0:0:0:
144,224,21000,1,2,0:0:0:0:
352,272,21075,1,2,0:0:0:0:
352,272,21150,1,2,0:0:0:0:
352,272,21225,1,2,0:0:0:0:
144,224,21300,1,2,0:0:0:0:
352,272,21375,1,2,0:0:0:0:
352,272,21450,1,2,0:0:0:0:
352,272,21525,1,2,0:0:0:0:
144,224,21600,1,2,0:0:0:0:
352,272,21675,1,2,0:0:0:0:
352,272,21750,1,2,0:0:0:0:
352,272,21825,1,2,0:0:0:0:
144,224,21900,1,0,0:0:0:0:
272,208,21975,1,0,0:0:0:0:
272,208,22050,1,2,0:0:0:0:
304,208,22125,1,0,0:0:0:0:
144,224,22200,1,2,0:0:0:0:
144,224,23100,1,2,0:0:0:0:
144,224,23400,1,2,0:0:0:0:
144,224,23700,1,2,0:0:0:0:
144,224,24000,1,2,0:0:0:0:
144,224,24300,1,0,0:0:0:0:
144,224,24600,1,0,0:0:0:0:
144,224,24900,1,2,0:0:0:0:
144,224,25500,1,2,0:0:0:0:
144,224,25800,1,0,0:0:0:0:
208,112,26700,1,0,0:0:0:0:
176,192,26850,1,2,0:0:0:0:
144,224,27000,1,0,0:0:0:0:
144,224,27300,1,0,0:0:0:0:
192,192,27600,1,2,0:0:0:0:
160,224,27900,1,2,0:0:0:0:
192,192,28050,1,0,0:0:0:0:
160,240,28200,1,2,0:0:0:0:
208,208,28350,1,0,0:0:0:0:
160,240,28500,1,2,0:0:0:0:
160,240,28800,1,0,0:0:0:0:
240,208,28950,1,0,0:0:0:0:
160,240,29100,1,2,0:0:0:0:
160,240,29400,1,0,0:0:0:0:
160,240,29700,1,0,0:0:0:0:
256,224,29850,1,0,0:0:0:0:
176,240,30000,1,2,0:0:0:0:
176,240,30300,1,2,0:0:0:0:
224,176,30450,1,0,0:0:0:0:
176,240,30600,1,2,0:0:0:0:
208,176,30750,1,0,0:0:0:0:
176,240,30900,1,2,0:0:0:0:
224,176,31050,1,2,0:0:0:0:
224,192,31125,1,2,0:0:0:0:
176,240,31200,1,0,0:0:0:0:
224,192,31350,1,0,0:0:0:0:
176,240,31500,1,0,0:0:0:0:
224,192,31575,1,0,0:0:0:0:
224,192,31650,1,2,0:0:0:0:
176,240,31800,1,0,0:0:0:0:
176,240,32100,1,0,0:0:0:0:
224,192,32250,1,0,0:0:0:0:
176,240,32400,1,2,0:0:0:0:
224,192,32550,1,2,0:0:0:0:
192,240,32700,1,0,0:0:0:0:
240,192,32850,1,0,0:0:0:0:
192,240,33000,1,2,0:0:0:0:
240,192,33150,1,0,0:0:0:0:
192,240,33300,1,2,0:0:0:0:
240,192,33450,1,0,0:0:0:0:
192,240,33600,1,0,0:0:0:0:
240,192,33750,1,0,0:0:0:0:
208,240,33900,1,2,0:0:0:0:
256,192,33975,1,0,0:0:0:0:
240,192,34050,1,2,0:0:0:0:
256,192,34125,1,2,0:0:0:0:
224,240,34200,1,0,0:0:0:0:
336,224,34350,1,0,0:0:0:0:
224,240,34500,1,0,0:0:0:0:
304,224,34650,1,0,0:0:0:0:
224,240,34800,1,2,0:0:0:0:
352,224,34950,1,2,0:0:0:0:
224,240,35100,1,2,0:0:0:0:
368,224,35250,1,0,0:0:0:0:
224,240,35400,1,2,0:0:0:0:
368,240,35550,1,0,0:0:0:0:
224,240,35700,1,2,0:0:0:0:
368,240,35850,1,0,0:0:0:0:
256,240,36000,1,0,0:0:0:0:
384,240,36150,1,2,0:0:0:0:
272,224,36300,1,2,0:0:0:0:
384,256,36375,1,0,0:0:0:0:
384,240,36450,1,2,0:0:0:0:
384,240,36525,1,2,0:0:0:0:
320,240,36600,1,0,0:0:0:0:
384,256,36750,1,0,0:0:0:0:
352,240,36900,1,0,0:0:0:0:
384,256,37050,1,0,0:0:0:0:
368,224,37200,1,2,0:0:0:0:
384,256,37350,1,0,0:0:0:0:
352,224,37500,1,2,0:0:0:0:
384,256,37650,1,2,0:0:0:0:
288,224,37800,1,0,0:0:0:0:
384,256,37950,1,0,0:0:0:0:
224,224,38100,1,0,0:0:0:0:
384,256,38250,1,2,0:0:0:0:
176,224,38400,1,0,0:0:0:0:
384,256,38550,1,2,0:0:0:0:
144,224,38700,1,2,0:0:0:0:
384,256,38775,1,0,0:0:0:0:
384,256,38850,1,2,0:0:0:0:
384,256,38925,1,2,0:0:0:0:
128,224,39000,1,0,0:0:0:0:
384,256,39150,1,2,0:0:0:0:
112,224,39300,1,0,0:0:0:0:
384,256,39450,1,0,0:0:0:0:
96,224,39600,1,0,0:0:0:0:
384,256,39750,1,2,0:0:0:0:
144,224,39900,1,0,0:0:0:0:
384,256,40050,1,2,0:0:0:0:
256,224,40200,1,0,0:0:0:0:
384,256,40350,1,0,0:0:0:0:
320,224,40500,1,0,0:0:0:0:
384,256,40650,1,2,0:0:0:0:
336,224,40800,1,2,0:0:0:0:
384,256,40950,1,2,0:0:0:0:
368,224,41100,1,0,0:0:0:0:
384,256,41175,1,2,0:0:0:0:
384,256,41250,1,0,0:0:0:0:
384,256,41325,1,0,0:0:0:0:
384,224,41400,1,2,0:0:0:0:
320,192,41700,1,0,0:0:0:0:
320,176,41850,1,2,0:0:0:0:
288,208,42150,1,0,0:0:0:0:
288,224,42300,1,0,0:0:0:0:
176,96,42450,1,2,0:0:0:0:
208,96,42750,1,2,0:0:0:0:
272,224,42825,1,2,0:0:0:0:
192,160,43050,1,2,0:0:0:0:
192,160,43350,1,2,0:0:0:0:
256,224,43425,1,2,0:0:0:0:
80,192,43650,1,2,0:0:0:0:
256,224,43800,1,0,0:0:0:0:
224,304,43875,1,0,0:0:0:0:
208,288,43950,1,2,0:0:0:0:
224,304,44025,1,2,0:0:0:0:
256,224,44100,1,2,0:0:0:0:
224,320,44175,1,0,0:0:0:0:
224,320,44250,1,2,0:0:0:0:
224,320,44325,1,0,0:0:0:0:
256,224,44400,1,2,0:0:0:0:
224,320,44475,1,2,0:0:0:0:
224,320,44550,1,0,0:0:0:0:
224,320,44625,1,0,0:0:0:0:
256,224,44700,1,2,0:0:0:0:
240,320,44775,1,0,0:0:0:0:
240,320,44850,1,2,0:0:0:0:
240,320,44925,1,0,0:0:0:0:
256,224,45000,1,2,0:0:0:0:
240,320,45150,1,0,0:0:0:0:
256,224,45300,1,2,0:0:0:0:
240,320,45450,1,2,0:0:0:0:
256,224,45600,1,4,0:0:0:0:
240,208,45900,1,6,0:0:0:0:
240,208,46200,1,0,0:0:0:0:
224,192,46275,1,2,0:0:0:0:
208,176,46350,1,2,0:0:0:0:
416,320,46425,1,0,0:0:0:0:
240,224,46500,1,0,0:0:0:0:
304,320,46575,1,2,0:0:0:0:
320,336,46725,1,2,0:0:0:0:
240,224,46800,1,0,0:0:0:0:
320,336,46875,1,2,0:0:0:0:
304,336,46950,1,2,0:0:0:0:
304,336,47025,1,0,0:0:0:0:
240,224,47100,1,0,0:0:0:0:
384,352,47175,1,2,0:0:0:0:
208,240,47250,1,2,0:0:0:0:
256,224,47400,1,0,0:0:0:0:
208,240,47475,1,2,0:0:0:0:
208,240,47550,1,2,0:0:0:0:
160,256,47625,1,0,0:0:0:0:
256,224,47700,1,0,0:0:0:0:
160,256,47775,1,2,0:0:0:0:
176,256,47850,1,2,0:0:0:0:
176,272,47925,1,2,0:0:0:0:
256,224,48000,1,0,0:0:0:0:
176,272,48075,1,2,0:0:0:0:
192,288,48150,1,2,0:0:0:0:
256,224,48300,1,2,0:0:0:0:
240,240,48350,1,2,0:0:0:0:
176,288,48450,1,2,0:0:0:0:
256,240,48500,1,2,0:0:0:0:
256,224,48600,1,0,0:0:0:0:
224,224,48675,1,2,0:0:0:0:
224,224,48750,1,2,0:0:0:0:
240,256,48825,1,0,0:0:0:0:
256,224,48900,1,0,0:0:0:0:
256,272,48975,1,2,0:0:0:0:
256,272,49125,1,2,0:0:0:0:
256,224,49200,1,0,0:0:0:0:
256,272,49275,1,2,0:0:0:0:
256,272,49350,1,2,0:0:0:0:
256,272,49425,1,0,0:0:0:0:
256,224,49500,1,0,0:0:0:0:
288,272,49575,1,2,0:0:0:0:
272,272,49650,1,2,0:0:0:0:
256,224,49800,1,0,0:0:0:0:
240,288,49875,1,0,0:0:0:0:
240,288,49950,1,2,0:0:0:0:
240,288,50025,1,0,0:0:0:0:
256,224,50100,1,2,0:0:0:0:
160,160,50175,1,2,0:0:0:0:
304,176,50250,1,2,0:0:0:0:
336,192,50325,1,0,0:0:0:0:
256,224,50400,1,2,0:0:0:0:
288,128,50450,1,2,0:0:0:0:
288,128,50500,1,0,0:0:0:0:
288,128,50550,1,2,0:0:0:0:
224,176,50625,1,0,0:0:0:0:
256,224,50700,1,2,0:0:0:0:
288,192,50775,1,0,0:0:0:0:
304,192,50850,1,2,0:0:0:0:
304,192,50925,1,0,0:0:0:0:
256,224,51000,1,0,0:0:0:0:
352,224,51075,1,2,0:0:0:0:
336,224,51150,1,2,0:0:0:0:
416,304,51225,1,0,0:0:0:0:
256,224,51300,1,0,0:0:0:0:
416,320,51375,1,2,0:0:0:0:
432,320,51525,1,2,0:0:0:0:
256,224,51600,1,0,0:0:0:0:
432,320,51675,1,2,0:0:0:0:
432,320,51750,1,2,0:0:0:0:
432,320,51825,1,0,0:0:0:0:
256,224,51900,1,0,0:0:0:0:
432,320,51975,1,2,0:0:0:0:
432,320,52050,1,2,0:0:0:0:
256,224,52200,1,0,0:0:0:0:
448,320,52275,1,2,0:0:0:0:
448,320,52350,1,2,0:0:0:0:
464,320,52425,1,0,0:0:0:0:
256,224,52500,1,0,0:0:0:0:
464,320,52575,1,2,0:0:0:0:
464,336,52650,1,0,0:0:0:0:
464,336,52725,1,2,0:0:0:0:
256,224,52800,1,0,0:0:0:0:
464,336,52875,1,2,0:0:0:0:
464,336,52950,1,2,0:0:0:0:
256,224,53100,1,6,0:0:0:0:
480,336,53250,1,6,0:0:0:0:
256,224,53400,1,0,0:0:0:0:
320,288,53475,1,2,0:0:0:0:
320,288,53550,1,2,0:0:0:0:
320,288,53625,1,0,0:0:0:0:
336,304,53700,1,0,0:0:0:0:
336,304,53775,1,2,0:0:0:0:
304,272,53925,1,2,0:0:0:0:
256,224,54000,1,0,0:0:0:0:
304,272,54050,1,2,0:0:0:0:
208,144,54100,1,2,0:0:0:0:
304,272,54150,1,0,0:0:0:0:
304,272,54225,1,2,0:0:0:0:
256,224,54300,1,0,0:0:0:0:
304,288,54375,1,2,0:0:0:0:
320,288,54450,1,0,0:0:0:0:
192,160,54525,1,2,0:0:0:0:
256,224,54600,1,0,0:0:0:0:
384,288,54750,1,2,0:0:0:0:
384,288,54825,1,0,0:0:0:0:
256,224,54900,1,2,0:0:0:0:
400,304,55050,1,2,0:0:0:0:
256,224,55200,1,0,0:0:0:0:
240,272,55275,1,2,0:0:0:0:
240,256,55350,1,0,0:0:0:0:
240,256,55425,1,2,0:0:0:0:
256,224,55500,1,2,0:0:0:0:
256,256,55650,1,2,0:0:0:0:
256,224,55800,1,0,0:0:0:0:
224,112,55950,1,2,0:0:0:0:
224,128,56025,1,0,0:0:0:0:
256,224,56100,1,0,0:0:0:0:
208,80,56250,1,2,0:0:0:0:
208,80,56325,1,2,0:0:0:0:
256,224,56400,1,0,0:0:0:0:
272,80,56550,1,2,0:0:0:0:
272,80,56625,1,2,0:0:0:0:
256,224,56700,1,2,0:0:0:0:
272,96,56775,1,0,0:0:0:0:
272,96,56850,1,2,0:0:0:0:
288,96,56925,1,0,0:0:0:0:
256,224,57000,1,2,0:0:0:0:
352,112,57075,1,0,0:0:0:0:
352,112,57150,1,0,0:0:0:0:
352,112,57225,1,2,0:0:0:0:
256,224,57300,1,2,0:0:0:0:
272,128,57450,1,2,0:0:0:0:
272,128,57525,1,2,0:0:0:0:
256,224,57600,1,0,0:0:0:0:
272,144,57750,1,2,0:0:0:0:
272,144,57825,1,0,0:0:0:0:
256,224,57900,1,6,0:0:0:0:
272,144,58050,1,6,0:0:0:0:
256,224,58200,1,0,0:0:0:0:
256,160,58350,1,2,0:0:0:0:
256,160,58425,1,0,0:0:0:0:
256,224,58500,1,0,0:0:0:0:
256,160,58650,1,2,0:0:0:0:
256,160,58725,1,2,0:0:0:0:
256,224,58800,1,0,0:0:0:0:
256,160,58950,1,2,0:0:0:0:
256,160,59025,1,2,0:0:0:0:
256,224,59100,1,0,0:0:0:0:
192,96,59250,1,2,0:0:0:0:
192,96,59325,1,2,0:0:0:0:
256,224,59400,1,0,0:0:0:0:
192,96,59550,1,0,0:0:0:0:
256,224,59700,1,0,0:0:0:0:
192,96,59850,1,0,0:0:0:0:
256,224,60000,1,2,0:0:0:0:
208,160,60050,1,2,0:0:0:0:
192,96,60150,1,2,0:0:0:0:
224,160,60200,1,2,0:0:0:0:
256,224,60300,1,2,0:0:0:0:
368,272,60350,1,2,0:0:0:0:
368,272,60400,1,0,0:0:0:0:
368,272,60450,1,0,0:0:0:0:
368,272,60500,1,0,0:0:0:0:
368,272,60550,1,2,0:0:0:0:
256,224,60600,1,0,0:0:0:0:
400,256,60675,1,2,0:0:0:0:
368,272,60750,1,2,0:0:0:0:
400,256,60825,1,0,0:0:0:0:
256,224,60900,1,0,0:0:0:0:
384,272,60975,1,2,0:0:0:0:
384,272,61125,1,2,0:0:0:0:
256,224,61200,1,0,0:0:0:0:
400,256,61275,1,2,0:0:0:0:
400,256,61350,1,2,0:0:0:0:
400,256,61425,1,0,0:0:0:0:
256,224,61500,1,0,0:0:0:0:
400,256,61575,1,2,0:0:0:0:
400,256,61650,1,2,0:0:0:0:
256,224,61800,1,0,0:0:0:0:
416,272,61875,1,2,0:0:0:0:
416,272,61950,1,2,0:0:0:0:
416,272,62025,1,0,0:0:0:0:
256,224,62100,1,0,0:0:0:0:
416,272,62175,1,2,0:0:0:0:
416,272,62325,1,2,0:0:0:0:
256,224,62400,1,0,0:0:0:0:
336,336,62475,1,2,0:0:0:0:
352,336,62550,1,2,0:0:0:0:
240,160,62625,1,0,0:0:0:0:
256,224,62700,1,0,0:0:0:0:
112,192,62750,1,2,0:0:0:0:
272,176,62800,1,2,0:0:0:0:
272,176,62850,1,2,0:0:0:0:
256,224,63000,1,0,0:0:0:0:
320,192,63150,1,2,0:0:0:0:
256,224,63300,1,0,0:0:0:0:
336,192,63450,1,2,0:0:0:0:
256,224,63600,1,0,0:0:0:0:
352,192,63675,1,2,0:0:0:0:
352,192,63750,1,0,0:0:0:0:
352,192,63825,1,2,0:0:0:0:
256,224,63900,1,0,0:0:0:0:
352,192,63975,1,2,0:0:0:0:
352,192,64050,1,2,0:0:0:0:
352,192,64125,1,2,0:0:0:0:
256,224,64200,1,0,0:0:0:0:
256,224,64500,1,0,0:0:0:0:
256,224,64800,1,2,0:0:0:0:
256,224,65100,1,6,0:0:0:0:
256,224,65400,1,4,0:0:0:0:
224,192,65550,1,4,0:0:0:0:
224,96,65850,1,4,0:0:0:0:
256,224,66150,1,4,0:0:0:0:
256,224,66300,1,6,0:0:0:0:
256,224,66600,1,4,0:0:0:0:
144,96,66750,1,4,0:0:0:0:
240,80,67050,1,4,0:0:0:0:
320,144,67350,1,4,0:0:0:0:
256,224,67500,1,6,0:0:0:0:
256,224,67800,1,4,0:0:0:0:
336,160,67950,1,4,0:0:0:0:
336,160,68250,1,4,0:0:0:0:
208,176,68550,1,4,0:0:0:0:
256,224,68700,1,6,0:0:0:0:
256,224,69000,1,0,0:0:0:0:
224,176,69150,1,2,0:0:0:0:
256,224,69300,1,2,0:0:0:0:
224,176,69450,1,0,0:0:0:0:
256,224,69600,1,2,0:0:0:0:
240,176,69750,1,2,0:0:0:0:
256,224,69900,1,2,0:0:0:0:
256,176,70050,1,0,0:0:0:0:
256,224,70200,1,4,0:0:0:0:
256,176,70350,1,4,0:0:0:0:
240,80,70650,1,4,0:0:0:0:
272,160,70950,1,4,0:0:0:0:
256,224,71100,1,6,0:0:0:0:
256,224,71400,1,4,0:0:0:0:
272,176,71550,1,4,0:0:0:0:
272,112,71850,1,4,0:0:0:0:
240,64,72150,1,4,0:0:0:0:
256,224,72300,1,6,0:0:0:0:
256,224,72600,1,4,0:0:0:0:
240,80,72750,1,4,0:0:0:0:
224,80,73050,1,4,0:0:0:0:
224,64,73350,1,4,0:0:0:0:
256,224,73500,1,6,0:0:0:0:
256,224,73800,1,0,0:0:0:0:
224,64,73950,1,2,0:0:0:0:
256,224,74100,1,2,0:0:0:0:
224,64,74250,1,0,0:0:0:0:
256,224,74400,1,2,0:0:0:0:
224,80,74550,1,2,0:0:0:0:
256,224,74700,1,2,0:0:0:0:
224,80,74775,1,2,0:0:0:0:
240,80,74850,1,0,0:0:0:0:
240,80,74925,1,0,0:0:0:0:
256,224,75000,1,4,0:0:0:0:
208,128,75150,1,4,0:0:0:0:
256,144,75450,1,4,0:0:0:0:
224,80,75750,1,4,0:0:0:0:
256,224,75900,1,6,0:0:0:0:
256,224,76200,1,4,0:0:0:0:
256,96,76350,1,4,0:0:0:0:
256,96,76650,1,4,0:0:0:0:
240,96,76950,1,4,0:0:0:0:
256,224,77100,1,6,0:0:0:0:
256,224,77400,1,4,0:0:0:0:
240,96,77550,1,4,0:0:0:0:
240,80,77850,1,4,0:0:0:0:
224,48,78150,1,4,0:0:0:0:
256,224,78300,1,6,0:0:0:0:
256,224,78600,1,0,0:0:0:0:
256,96,78750,1,2,0:0:0:0:
256,224,78900,1,2,0:0:0:0:
256,96,79050,1,0,0:0:0:0:
240,224,79200,1,2,0:0:0:0:
256,96,79350,1,2,0:0:0:0:
240,224,79500,1,2,0:0:0:0:
256,96,79650,1,0,0:0:0:0:
256,224,79800,1,4,0:0:0:0:
256,96,79950,1,4,0:0:0:0:
240,112,80100,1,6,0:0:0:0:
256,224,80400,1,4,0:0:0:0:
256,128,80550,1,4,0:0:0:0:
256,224,80700,1,6,0:0:0:0:
256,208,81000,1,4,0:0:0:0:
256,128,81150,1,4,0:0:0:0:
240,208,81300,1,6,0:0:0:0:
240,192,81600,1,4,0:0:0:0:
272,128,81750,1,4,0:0:0:0:
240,192,81900,1,6,0:0:0:0:
240,192,82200,1,4,0:0:0:0:
272,128,82350,1,4,0:0:0:0:
240,192,82500,1,4,0:0:0:0:
240,112,82650,1,4,0:0:0:0:
224,192,82800,1,0,0:0:0:0:
256,112,82850,1,0,0:0:0:0:
128,160,82900,1,2,0:0:0:0:
240,112,82950,1,0,0:0:0:0:
256,112,83025,1,0,0:0:0:0:
224,192,83100,1,2,0:0:0:0:
256,112,83150,1,2,0:0:0:0:
96,176,83200,1,0,0:0:0:0:
80,176,83250,1,0,0:0:0:0:
256,112,83325,1,2,0:0:0:0:
224,192,83400,1,0,0:0:0:0:
224,192,83700,1,0,0:0:0:0:
240,192,84000,1,2,0:0:0:0:
160,96,84300,1,2,0:0:0:0:
176,96,84375,1,0,0:0:0:0:
160,96,84450,1,2,0:0:0:0:
176,96,84525,1,0,0:0:0:0:
240,192,84600,1,2,0:0:0:0:
176,112,84750,1,2,0:0:0:0:
240,192,84900,1,0,0:0:0:0:
208,128,85050,1,0,0:0:0:0:
240,192,85200,1,2,0:0:0:0:
224,128,85350,1,0,0:0:0:0:
240,208,85500,1,2,0:0:0:0:
368,288,85537,1,2,0:0:0:0:
240,128,85575,1,0,0:0:0:0:
224,128,85650,1,2,0:0:0:0:
368,288,85687,1,2,0:0:0:0:
240,128,85725,1,0,0:0:0:0:
240,208,85800,1,0,0:0:0:0:
304,208,85875,1,2,0:0:0:0:
336,224,85950,1,2,0:0:0:0:
336,224,86025,1,0,0:0:0:0:
240,208,86100,1,0,0:0:0:0:
352,224,86175,1,2,0:0:0:0:
256,240,86250,1,0,0:0:0:0:
352,224,86325,1,0,0:0:0:0:
240,208,86400,1,0,0:0:0:0:
352,224,86475,1,2,0:0:0:0:
256,224,86550,1,2,0:0:0:0:
352,224,86625,1,0,0:0:0:0:
256,208,86700,1,0,0:0:0:0:
256,240,86775,1,2,0:0:0:0:
256,240,86850,1,0,0:0:0:0:
272,256,86925,1,0,0:0:0:0:
256,208,87000,1,0,0:0:0:0:
272,256,87075,1,2,0:0:0:0:
272,256,87150,1,2,0:0:0:0:
272,256,87225,1,0,0:0:0:0:
256,208,87300,1,0,0:0:0:0:
224,240,87375,1,2,0:0:0:0:
224,240,87450,1,0,0:0:0:0:
224,240,87525,1,0,0:0:0:0:
256,208,87600,1,0,0:0:0:0:
192,240,87675,1,2,0:0:0:0:
192,240,87750,1,2,0:0:0:0:
192,240,87825,1,0,0:0:0:0:
256,208,87900,1,6,0:0:0:0:
192,240,88050,1,6,0:0:0:0:
256,208,88200,1,0,0:0:0:0:
208,192,88275,1,2,0:0:0:0:
208,192,88350,1,2,0:0:0:0:
208,192,88425,1,0,0:0:0:0:
256,208,88500,1,0,0:0:0:0:
304,224,88575,1,2,0:0:0:0:
304,224,88650,1,0,0:0:0:0:
304,224,88725,1,0,0:0:0:0:
256,208,88800,1,0,0:0:0:0:
304,240,88875,1,2,0:0:0:0:
304,240,88950,1,2,0:0:0:0:
304,224,89025,1,0,0:0:0:0:
256,208,89100,1,0,0:0:0:0:
240,176,89175,1,2,0:0:0:0:
240,176,89250,1,2,0:0:0:0:
240,176,89325,1,0,0:0:0:0:
256,208,89400,1,6,0:0:0:0:
240,176,89550,1,6,0:0:0:0:
256,208,89700,1,0,0:0:0:0:
240,208,89775,1,0,0:0:0:0:
240,208,89850,1,0,0:0:0:0:
240,208,89925,1,0,0:0:0:0:
256,208,90000,1,6,0:0:0:0:
256,224,90150,1,6,0:0:0:0:
256,208,90300,1,2,0:0:0:0:
288,256,90375,1,0,0:0:0:0:
288,256,90450,1,0,0:0:0:0:
288,256,90525,1,2,0:0:0:0:
256,208,90600,1,0,0:0:0:0:
304,272,90675,1,2,0:0:0:0:
304,272,90750,1,2,0:0:0:0:
304,272,90825,1,0,0:0:0:0:
256,208,90900,1,0,0:0:0:0:
304,272,90975,1,2,0:0:0:0:
304,272,91050,1,0,0:0:0:0:
304,272,91125,1,0,0:0:0:0:
256,208,91200,1,0,0:0:0:0:
304,272,91275,1,2,0:0:0:0:
304,272,91350,1,2,0:0:0:0:
304,272,91425,1,0,0:0:0:0:
256,208,91500,1,0,0:0:0:0:
304,272,91575,1,2,0:0:0:0:
304,272,91650,1,0,0:0:0:0:
304,272,91725,1,0,0:0:0:0:
256,208,91800,1,0,0:0:0:0:
304,272,91875,1,2,0:0:0:0:
304,272,91950,1,2,0:0:0:0:
304,272,92025,1,0,0:0:0:0:
256,208,92100,1,0,0:0:0:0:
304,272,92175,1,2,0:0:0:0:
304,272,92250,1,0,0:0:0:0:
304,272,92325,1,0,0:0:0:0:
256,208,92400,1,2,0:0:0:0:
304,272,92475,1,0,0:0:0:0:
320,272,92550,1,0,0:0:0:0:
320,272,92625,1,2,0:0:0:0:
256,208,92700,1,4,0:0:0:0:
320,288,92850,1,4,0:0:0:0:
256,208,93000,1,0,0:0:0:0:
320,288,93075,1,2,0:0:0:0:
320,288,93150,1,2,0:0:0:0:
320,288,93225,1,0,0:0:0:0:
256,208,93300,1,0,0:0:0:0:
320,288,93375,1,2,0:0:0:0:
320,288,93450,1,2,0:0:0:0:
320,288,93525,1,0,0:0:0:0:
256,208,93600,1,2,0:0:0:0:
320,304,93675,1,2,0:0:0:0:
320,288,93750,1,0,0:0:0:0:
320,288,93825,1,2,0:0:0:0:
256,192,93900,1,2,0:0:0:0:
320,304,93975,1,0,0:0:0:0:
320,304,94050,1,2,0:0:0:0:
320,304,94125,1,2,0:0:0:0:
256,192,94200,1,0,0:0:0:0:
320,304,94350,1,2,0:0:0:0:
320,304,94425,1,2,0:0:0:0:
256,192,94500,1,0,0:0:0:0:
320,304,94650,1,2,0:0:0:0:
320,304,94725,1,0,0:0:0:0:
256,176,94800,1,2,0:0:0:0:
320,304,94875,1,2,0:0:0:0:
320,304,94950,1,2,0:0:0:0:
320,304,95025,1,0,0:0:0:0:
256,176,95100,1,6,0:0:0:0:
320,304,95250,1,6,0:0:0:0:
256,160,95400,1,0,0:0:0:0:
320,320,95475,1,2,0:0:0:0:
320,320,95550,1,2,0:0:0:0:
320,320,95625,1,0,0:0:0:0:
256,144,95700,1,0,0:0:0:0:
320,320,95775,1,2,0:0:0:0:
320,320,95850,1,0,0:0:0:0:
320,320,95925,1,0,0:0:0:0:
256,144,96000,1,0,0:0:0:0:
320,320,96075,1,2,0:0:0:0:
320,320,96150,1,2,0:0:0:0:
320,320,96225,1,0,0:0:0:0:
256,128,96300,1,0,0:0:0:0:
320,320,96375,1,2,0:0:0:0:
320,320,96450,1,0,0:0:0:0:
320,320,96525,1,0,0:0:0:0:
256,112,96600,1,0,0:0:0:0:
320,320,96675,1,2,0:0:0:0:
320,320,96750,1,2,0:0:0:0:
320,320,96825,1,0,0:0:0:0:
256,112,96900,1,0,0:0:0:0:
320,320,96975,1,2,0:0:0:0:
320,320,97050,1,2,0:0:0:0:
320,320,97125,1,0,0:0:0:0:
256,128,97200,1,2,0:0:0:0:
320,320,97275,1,0,0:0:0:0:
320,320,97350,1,0,0:0:0:0:
320,320,97425,1,2,0:0:0:0:
224,160,97500,1,4,0:0:0:0:
320,320,97650,1,4,0:0:0:0:
224,176,97800,1,0,0:0:0:0:
224,144,97875,1,2,0:0:0:0:
224,144,97950,1,2,0:0:0:0:
224,144,98025,1,0,0:0:0:0:
208,208,98100,1,0,0:0:0:0:
224,144,98175,1,2,0:0:0:0:
224,144,98250,1,0,0:0:0:0:
224,144,98325,1,0,0:0:0:0:
176,224,98400,1,0,0:0:0:0:
224,144,98475,1,2,0:0:0:0:
224,144,98550,1,2,0:0:0:0:
224,144,98625,1,0,0:0:0:0:
160,256,98700,1,2,0:0:0:0:
224,144,98775,1,0,0:0:0:0:
224,144,98850,1,0,0:0:0:0:
224,144,98925,1,2,0:0:0:0:
144,256,99000,1,4,0:0:0:0:
240,160,99150,1,2,0:0:0:0:
240,176,99225,1,2,0:0:0:0:
240,176,99300,1,0,0:0:0:0:
240,192,99375,1,2,0:0:0:0:
240,176,99450,1,2,0:0:0:0:
240,192,99525,1,2,0:0:0:0:
64,304,99600,1,2,0:0:0:0:
256,288,99637,1,2,0:0:0:0:
256,192,99675,1,0,0:0:0:0:
256,192,99750,1,0,0:0:0:0:
256,288,99787,1,0,0:0:0:0:
256,192,99825,1,2,0:0:0:0:
80,272,99900,1,2,0:0:0:0:
336,160,99950,1,2,0:0:0:0:
336,160,100000,1,0,0:0:0:0:
336,160,100050,1,0,0:0:0:0:
336,160,100100,1,0,0:0:0:0:
336,160,100150,1,2,0:0:0:0:
96,240,100200,1,0,0:0:0:0:
288,240,100275,1,0,0:0:0:0:
288,224,100350,1,2,0:0:0:0:
288,224,100425,1,2,0:0:0:0:
256,256,100500,1,0,0:0:0:0:
304,240,100575,1,2,0:0:0:0:
304,240,100650,1,2,0:0:0:0:
304,240,100725,1,0,0:0:0:0:
128,272,100800,1,2,0:0:0:0:
304,240,100875,1,2,0:0:0:0:
304,240,100950,1,0,0:0:0:0:
304,240,101025,1,2,0:0:0:0:
112,288,101100,1,2,0:0:0:0:
304,256,101175,1,0,0:0:0:0:
304,256,101250,1,2,0:0:0:0:
304,256,101325,1,0,0:0:0:0:
32,304,101400,1,2,0:0:0:0:
304,256,101475,1,0,0:0:0:0:
304,256,101550,1,2,0:0:0:0:
304,256,101625,1,2,0:0:0:0:
48,240,101700,1,0,0:0:0:0:
304,256,101775,1,2,0:0:0:0:
304,256,101850,1,2,0:0:0:0:
304,256,101925,1,0,0:0:0:0:
64,224,102000,1,2,0:0:0:0:
320,256,102075,1,2,0:0:0:0:
304,256,102150,1,0,0:0:0:0:
304,256,102225,1,2,0:0:0:0:
112,176,102300,1,0,0:0:0:0:
304,256,102375,1,0,0:0:0:0:
304,256,102450,1,0,0:0:0:0:
304,256,102525,1,0,0:0:0:0:
128,160,102600,1,2,0:0:0:0:
320,256,102675,1,2,0:0:0:0:
320,256,102750,1,0,0:0:0:0:
320,256,102825,1,2,0:0:0:0:
176,112,102900,1,0,0:0:0:0:
320,256,102975,1,2,0:0:0:0:
320,256,103050,1,0,0:0:0:0:
320,256,103125,1,2,0:0:0:0:
176,96,103200,1,2,0:0:0:0:
320,256,103275,1,2,0:0:0:0:
320,256,103350,1,2,0:0:0:0:
320,256,103425,1,2,0:0:0:0:
208,80,103500,1,2,0:0:0:0:
320,272,103575,1,2,0:0:0:0:
320,272,103650,1,2,0:0:0:0:
320,272,103725,1,2,0:0:0:0:
208,64,103800,1,0,0:0:0:0:
240,96,104100,1,0,0:0:0:0:
256,112,104400,1,4,0:0:0:0:
272,160,104700,1,6,0:0:0:0:
288,176,105000,1,4,0:0:0:0:
320,272,105150,1,4,0:0:0:0:
288,192,105300,1,4,0:0:0:0:
240,272,105450,1,4,0:0:0:0:
304,208,105600,1,4,0:0:0:0:
240,272,105750,1,4,0:0:0:0:
320,224,105900,1,4,0:0:0:0:
256,272,106050,1,4,0:0:0:0:
336,256,106200,1,4,0:0:0:0:
256,272,106350,1,4,0:0:0:0:
336,272,106500,1,4,0:0:0:0:
256,272,106650,1,4,0:0:0:0:
352,288,106800,1,4,0:0:0:0:
256,272,106950,1,4,0:0:0:0:
384,320,107100,1,4,0:0:0:0:
256,272,107250,1,4,0:0:0:0:
384,336,107400,1,4,0:0:0:0:
256,272,107550,1,4,0:0:0:0:
336,336,107700,1,4,0:0:0:0:
256,272,107850,1,4,0:0:0:0:
272,336,108000,1,4,0:0:0:0:
256,272,108150,1,4,0:0:0:0:
240,352,108300,1,4,0:0:0:0:
256,272,108450,1,4,0:0:0:0:
224,336,108600,1,4,0:0:0:0:
256,272,108750,1,4,0:0:0:0:
192,336,108900,1,4,0:0:0:0:
256,272,109050,1,4,0:0:0:0:
160,336,109200,1,0,0:0:0:0:
256,272,109275,1,0,0:0:0:0:
256,272,109350,1,0,0:0:0:0:
288,272,109425,1,0,0:0:0:0:
144,336,109500,1,2,0:0:0:0:
192,112,109550,1,2,0:0:0:0:
192,112,109600,1,0,0:0:0:0:
256,272,109650,1,0,0:0:0:0:
192,112,109700,1,0,0:0:0:0:
192,112,109750,1,2,0:0:0:0:
96,336,109800,1,0,0:0:0:0:
256,208,109875,1,0,0:0:0:0:
256,208,109950,1,2,0:0:0:0:
256,208,110025,1,0,0:0:0:0:
80,320,110100,1,0,0:0:0:0:
256,224,110175,1,0,0:0:0:0:
256,224,110250,1,2,0:0:0:0:
256,224,110325,1,0,0:0:0:0:
32,320,110400,1,0,0:0:0:0:
256,224,110475,1,0,0:0:0:0:
256,224,110550,1,2,0:0:0:0:
256,224,110625,1,0,0:0:0:0:
16,320,110700,1,0,0:0:0:0:
256,240,110775,1,0,0:0:0:0:
256,240,110850,1,2,0:0:0:0:
256,240,110925,1,0,0:0:0:0:
16,256,111000,1,0,0:0:0:0:
256,240,111075,1,0,0:0:0:0:
256,240,111150,1,2,0:0:0:0:
256,240,111225,1,0,0:0:0:0:
16,240,111300,1,0,0:0:0:0:
256,240,111375,1,0,0:0:0:0:
256,240,111450,1,2,0:0:0:0:
256,240,111525,1,0,0:0:0:0:
64,208,111600,1,0,0:0:0:0:
256,240,111675,1,0,0:0:0:0:
256,240,111750,1,2,0:0:0:0:
256,240,111825,1,0,0:0:0:0:
64,192,111900,1,0,0:0:0:0:
256,240,111975,1,0,0:0:0:0:
256,240,112050,1,2,0:0:0:0:
256,240,112125,1,0,0:0:0:0:
96,160,112200,1,2,0:0:0:0:
256,240,112275,1,2,0:0:0:0:
256,240,112350,1,2,0:0:0:0:
256,240,112425,1,2,0:0:0:0:
128,128,112500,1,2,0:0:0:0:
256,240,112575,1,2,0:0:0:0:
256,240,112650,1,2,0:0:0:0:
256,240,112725,1,2,0:0:0:0:
160,112,112800,1,2,0:0:0:0:
256,240,112875,1,2,0:0:0:0:
256,240,112950,1,2,0:0:0:0:
256,240,113025,1,2,0:0:0:0:
176,96,113100,1,2,0:0:0:0:
272,240,113175,1,2,0:0:0:0:
256,240,113250,1,2,0:0:0:0:
256,240,113325,1,2,0:0:0:0:
176,80,113400,1,2,0:0:0:0:
272,240,113475,1,2,0:0:0:0:
272,240,113550,1,2,0:0:0:0:
272,240,113625,1,2,0:0:0:0:
176,80,113700,1,2,0:0:0:0:
288,192,113750,1,2,0:0:0:0:
288,192,113800,1,2,0:0:0:0:
288,192,113850,1,2,0:0:0:0:
288,192,113900,1,2,0:0:0:0:
288,192,113950,1,2,0:0:0:0:
288,192,114000,1,2,0:0:0:0:
288,240,114150,1,0,0:0:0:0:
256,144,114300,1,0,0:0:0:0:
288,240,114450,1,4,0:0:0:0:
