osu file format v14

[General]
AudioFilename: audio.mp3
AudioLeadIn: 0
PreviewTime: 45624
Countdown: 0
SampleSet: Normal
StackLeniency: 0.7
Mode: 1
LetterboxInBreaks: 0
WidescreenStoryboard: 0

[Editor]
Bookmarks: 1224,3624,13224,22824,32424,42024,46824,51024,51624,55224,56424,60024,61224,66024,75624,86424,90024,91224,94824,96024,99624,100824,104424,105624,110124,110424,115074
DistanceSpacing: 0.8
BeatDivisor: 4
GridSize: 32
TimelineZoom: 2.899999

[Metadata]
Title:Angelic Jelly
TitleUnicode:Angelic Jelly
Artist:t+pazolite
ArtistUnicode:t+pazolite
Creator:eiri-
Version:Oni
Source:beatmania IIDX 23 copula
Tags:Ayyri jubeat Qubell SOUND VOLTEX III -GRAVITY WARS- NEW Generation Natsu no Ryuusei Festa 2016 夏の流星フェスタ2016 SDVX KONAMI BEMANI DanceDanceRevolution A DDR plus MÚSECA 1+1/2 MUSECA pop'n music éclale REFLEC BEAT VOLZZA 2 24 SINOBUZ RB 悠久のリフレシア
BeatmapID:1657904
BeatmapSetID:790035

[Difficulty]
HPDrainRate:5.5
CircleSize:2
OverallDifficulty:5.5
ApproachRate:10
SliderMultiplier:1.4
SliderTickRate:1

[Events]
//Background and Video events
0,0,"Angelic Jelly.png",0,50
//Break Periods
//Storyboard Layer 0 (Background)
//Storyboard Layer 1 (Fail)
//Storyboard Layer 2 (Pass)
//Storyboard Layer 3 (Foreground)
//Storyboard Sound Samples

[TimingPoints]
1224,300,4,1,0,50,1,0
2274,-100,4,1,0,25,0,0
2424,-100,4,1,0,50,0,0
23724,-111.111111111111,4,1,0,30,0,0
27324,-109.89010989011,4,1,0,30,0,0
27474,-108.695652173913,4,1,0,30,0,0
27624,-107.52688172043,4,1,0,35,0,0
32424,-105.263157894737,4,1,0,40,0,0
42024,-105.263157894737,4,1,0,45,0,0
44424,-100,4,1,0,50,0,0
46824,-100,4,1,0,50,0,1
51024,-100,4,1,0,50,0,0
51624,-100,4,1,0,50,0,1
55224,-100,4,1,0,50,0,0
56424,-100,4,1,0,50,0,1
60024,-100,4,1,0,50,0,0
61224,-100,4,1,0,50,0,1
66024,-100,4,1,0,50,0,0
86424,-100,4,1,0,50,0,1
90024,-100,4,1,0,50,0,0
91224,-100,4,1,0,50,0,1
94824,-100,4,1,0,50,0,0
96024,-100,4,1,0,50,0,1
99624,-100,4,1,0,50,0,0
100824,-100,4,1,0,50,0,1
104424,-100,4,1,0,50,0,0
105624,-100,4,1,0,50,0,1
110124,-100,4,1,0,50,0,0
110424,-100,4,1,0,50,0,1
115074,-100,4,1,0,50,0,0

[HitObjects]
256,192,1224,5,12,0:0:0:0:
256,192,1374,8,0,2274,0:0:0:0:
256,192,2424,5,0,0:0:0:0:
256,192,2574,1,0,0:0:0:0:
256,192,2649,1,0,0:0:0:0:
256,192,2724,1,8,0:0:0:0:
256,192,2874,1,0,0:0:0:0:
256,192,2949,1,8,0:0:0:0:
256,192,3099,1,8,0:0:0:0:
256,192,3174,1,0,0:0:0:0:
256,192,3324,1,8,0:0:0:0:
256,192,3624,1,12,0:0:0:0:
256,192,3774,1,0,0:0:0:0:
256,192,3849,1,0,0:0:0:0:
256,192,3924,1,8,0:0:0:0:
256,192,4074,1,0,0:0:0:0:
256,192,4224,1,8,0:0:0:0:
256,192,4374,1,0,0:0:0:0:
256,192,4524,1,8,0:0:0:0:
256,192,4674,1,8,0:0:0:0:
256,192,4824,1,0,0:0:0:0:
256,192,4974,1,0,0:0:0:0:
256,192,5049,1,0,0:0:0:0:
256,192,5124,1,8,0:0:0:0:
256,192,5274,1,8,0:0:0:0:
256,192,5424,1,0,0:0:0:0:
256,192,5574,1,8,0:0:0:0:
256,192,5724,1,8,0:0:0:0:
256,192,5874,1,8,0:0:0:0:
256,192,6024,1,0,0:0:0:0:
256,192,6174,1,0,0:0:0:0:
256,192,6249,1,0,0:0:0:0:
256,192,6324,1,8,0:0:0:0:
256,192,6474,1,0,0:0:0:0:
256,192,6624,1,8,0:0:0:0:
256,192,6699,1,0,0:0:0:0:
256,192,6774,1,0,0:0:0:0:
256,192,6849,1,0,0:0:0:0:
256,192,6924,1,8,0:0:0:0:
256,192,7074,1,8,0:0:0:0:
256,192,7224,1,0,0:0:0:0:
256,192,7374,1,8,0:0:0:0:
256,192,7524,1,0,0:0:0:0:
256,192,7824,1,0,0:0:0:0:
256,192,7974,1,0,0:0:0:0:
256,192,8049,1,8,0:0:0:0:
256,192,8124,1,8,0:0:0:0:
256,192,8274,1,0,0:0:0:0:
256,192,8424,1,8,0:0:0:0:
256,192,8574,1,0,0:0:0:0:
256,192,8649,1,0,0:0:0:0:
256,192,8724,1,8,0:0:0:0:
256,192,8874,1,0,0:0:0:0:
256,192,9024,1,8,0:0:0:0:
256,192,9174,1,0,0:0:0:0:
256,192,9324,1,8,0:0:0:0:
256,192,9474,1,8,0:0:0:0:
256,192,9624,1,0,0:0:0:0:
256,192,9774,1,0,0:0:0:0:
256,192,9849,1,0,0:0:0:0:
256,192,9924,1,8,0:0:0:0:
256,192,10074,1,8,0:0:0:0:
256,192,10224,1,0,0:0:0:0:
256,192,10374,1,8,0:0:0:0:
256,192,10524,1,8,0:0:0:0:
256,192,10674,1,8,0:0:0:0:
256,192,10824,1,0,0:0:0:0:
256,192,10974,1,0,0:0:0:0:
256,192,11049,1,0,0:0:0:0:
256,192,11124,1,8,0:0:0:0:
256,192,11274,1,0,0:0:0:0:
256,192,11424,1,8,0:0:0:0:
256,192,11499,1,0,0:0:0:0:
256,192,11574,1,8,0:0:0:0:
256,192,11724,1,0,0:0:0:0:
256,192,11799,1,0,0:0:0:0:
256,192,11874,1,0,0:0:0:0:
256,192,11949,1,0,0:0:0:0:
256,192,12024,1,8,0:0:0:0:
256,192,12324,1,0,0:0:0:0:
256,192,12624,1,8,0:0:0:0:
256,192,12924,1,0,0:0:0:0:
256,192,13224,1,12,0:0:0:0:
256,192,13374,1,0,0:0:0:0:
256,192,13449,1,0,0:0:0:0:
256,192,13524,1,8,0:0:0:0:
256,192,13674,1,0,0:0:0:0:
256,192,13824,1,0,0:0:0:0:
256,192,13974,1,8,0:0:0:0:
256,192,14049,1,0,0:0:0:0:
256,192,14124,1,8,0:0:0:0:
256,192,14274,1,0,0:0:0:0:
256,192,14424,1,8,0:0:0:0:
256,192,14574,1,0,0:0:0:0:
256,192,14649,1,0,0:0:0:0:
256,192,14724,1,8,0:0:0:0:
256,192,14874,1,8,0:0:0:0:
256,192,15024,1,0,0:0:0:0:
256,192,15174,1,8,0:0:0:0:
256,192,15249,1,0,0:0:0:0:
256,192,15324,1,8,0:0:0:0:
256,192,15474,1,8,0:0:0:0:
256,192,15624,1,0,0:0:0:0:
256,192,15774,1,0,0:0:0:0:
256,192,15849,1,0,0:0:0:0:
256,192,15924,1,8,0:0:0:0:
256,192,16074,1,8,0:0:0:0:
256,192,16224,1,8,0:0:0:0:
256,192,16299,1,0,0:0:0:0:
256,192,16374,1,0,0:0:0:0:
256,192,16449,1,0,0:0:0:0:
256,192,16524,1,8,0:0:0:0:
256,192,16674,1,0,0:0:0:0:
256,192,16824,1,8,0:0:0:0:
256,192,16974,1,0,0:0:0:0:
256,192,17049,1,0,0:0:0:0:
256,192,17124,1,8,0:0:0:0:
256,192,17424,1,8,0:0:0:0:
256,192,17574,1,0,0:0:0:0:
256,192,17649,1,8,0:0:0:0:
256,192,17724,1,8,0:0:0:0:
256,192,17874,1,0,0:0:0:0:
256,192,18024,1,8,0:0:0:0:
256,192,18174,1,0,0:0:0:0:
256,192,18249,1,0,0:0:0:0:
256,192,18324,1,8,0:0:0:0:
256,192,18474,1,8,0:0:0:0:
256,192,18624,1,0,0:0:0:0:
256,192,18774,1,8,0:0:0:0:
256,192,18849,1,0,0:0:0:0:
256,192,18924,1,8,0:0:0:0:
256,192,19074,1,8,0:0:0:0:
256,192,19149,1,8,0:0:0:0:
256,192,19224,1,0,0:0:0:0:
256,192,19374,1,0,0:0:0:0:
256,192,19524,1,8,0:0:0:0:
256,192,19599,1,0,0:0:0:0:
256,192,19674,1,8,0:0:0:0:
256,192,19824,1,0,0:0:0:0:
256,192,19974,1,8,0:0:0:0:
256,192,20124,1,8,0:0:0:0:
256,192,20199,1,0,0:0:0:0:
256,192,20274,1,8,0:0:0:0:
256,192,20424,1,0,0:0:0:0:
256,192,20499,1,0,0:0:0:0:
256,192,20574,1,8,0:0:0:0:
256,192,20724,1,0,0:0:0:0:
256,192,20874,1,8,0:0:0:0:
256,192,21024,1,0,0:0:0:0:
256,192,21099,1,0,0:0:0:0:
256,192,21174,1,8,0:0:0:0:
256,192,21324,1,0,0:0:0:0:
256,192,21474,1,8,0:0:0:0:
256,192,21624,1,8,0:0:0:0:
256,192,21699,1,0,0:0:0:0:
256,192,21774,1,0,0:0:0:0:
256,192,21849,1,0,0:0:0:0:
256,192,21924,1,8,0:0:0:0:
256,192,22074,1,0,0:0:0:0:
256,192,22224,1,8,0:0:0:0:
256,192,22299,1,0,0:0:0:0:
256,192,22374,1,8,0:0:0:0:
256,192,22449,1,0,0:0:0:0:
256,192,22524,1,8,0:0:0:0:
256,192,22599,1,0,0:0:0:0:
256,192,22674,1,8,0:0:0:0:
256,192,22824,1,4,0:0:0:0:
256,192,23724,1,0,0:0:0:0:
256,192,24024,1,8,0:0:0:0:
256,192,24324,1,8,0:0:0:0:
256,192,24624,1,0,0:0:0:0:
256,192,24924,1,8,0:0:0:0:
256,192,25224,1,0,0:0:0:0:
256,192,25524,1,8,0:0:0:0:
256,192,26124,1,8,0:0:0:0:
256,192,26424,1,0,0:0:0:0:
256,192,27324,1,0,0:0:0:0:
256,192,27474,1,8,0:0:0:0:
256,192,27624,1,0,0:0:0:0:
256,192,27924,1,0,0:0:0:0:
256,192,28224,1,8,0:0:0:0:
256,192,28524,1,0,0:0:0:0:
256,192,28674,1,8,0:0:0:0:
256,192,28824,1,8,0:0:0:0:
256,192,28974,1,0,0:0:0:0:
256,192,29124,1,8,0:0:0:0:
256,192,29424,1,8,0:0:0:0:
256,192,29574,1,0,0:0:0:0:
256,192,29724,1,8,0:0:0:0:
256,192,30024,1,0,0:0:0:0:
256,192,30324,1,0,0:0:0:0:
256,192,30624,1,8,0:0:0:0:
256,192,30924,1,0,0:0:0:0:
256,192,31074,1,8,0:0:0:0:
256,192,31224,1,0,0:0:0:0:
256,192,31374,1,8,0:0:0:0:
256,192,31524,1,8,0:0:0:0:
256,192,31674,1,0,0:0:0:0:
256,192,31749,1,0,0:0:0:0:
256,192,31824,1,8,0:0:0:0:
256,192,32124,1,8,0:0:0:0:
256,192,32199,1,8,0:0:0:0:
256,192,32274,1,8,0:0:0:0:
256,192,32424,1,0,0:0:0:0:
256,192,32724,1,0,0:0:0:0:
256,192,32874,1,8,0:0:0:0:
256,192,33024,1,0,0:0:0:0:
256,192,33174,1,0,0:0:0:0:
256,192,33324,1,8,0:0:0:0:
256,192,33474,1,8,0:0:0:0:
256,192,33624,1,0,0:0:0:0:
256,192,33924,1,8,0:0:0:0:
256,192,34074,1,0,0:0:0:0:
256,192,34224,1,8,0:0:0:0:
256,192,34374,1,0,0:0:0:0:
256,192,34524,1,8,0:0:0:0:
256,192,34674,1,8,0:0:0:0:
256,192,34749,1,8,0:0:0:0:
256,192,34824,1,0,0:0:0:0:
256,192,35124,1,0,0:0:0:0:
256,192,35424,1,8,0:0:0:0:
256,192,35724,1,0,0:0:0:0:
256,192,35874,1,8,0:0:0:0:
256,192,36024,1,0,0:0:0:0:
256,192,36174,1,0,0:0:0:0:
256,192,36324,1,8,0:0:0:0:
256,192,36624,1,8,0:0:0:0:
256,192,36774,1,8,0:0:0:0:
256,192,36924,1,0,0:0:0:0:
256,192,37074,1,8,0:0:0:0:
256,192,37149,1,8,0:0:0:0:
256,192,37224,1,0,0:0:0:0:
256,192,37524,1,0,0:0:0:0:
256,192,37824,1,8,0:0:0:0:
256,192,38124,1,0,0:0:0:0:
256,192,38274,1,8,0:0:0:0:
256,192,38424,1,8,0:0:0:0:
256,192,38574,1,0,0:0:0:0:
256,192,38724,1,8,0:0:0:0:
256,192,39024,1,0,0:0:0:0:
256,192,39174,1,0,0:0:0:0:
256,192,39324,1,8,0:0:0:0:
256,192,39474,1,8,0:0:0:0:
256,192,39549,1,8,0:0:0:0:
256,192,39624,1,0,0:0:0:0:
256,192,39924,1,0,0:0:0:0:
256,192,40074,1,8,0:0:0:0:
256,192,40224,1,0,0:0:0:0:
256,192,40524,1,8,0:0:0:0:
256,192,40674,1,0,0:0:0:0:
256,192,40824,1,8,0:0:0:0:
256,192,40974,1,0,0:0:0:0:
256,192,41124,1,8,0:0:0:0:
256,192,41424,1,0,0:0:0:0:
256,192,41724,1,8,0:0:0:0:
256,192,41799,1,8,0:0:0:0:
256,192,41874,1,8,0:0:0:0:
256,192,42024,1,4,0:0:0:0:
256,192,42174,8,0,44274,0:0:0:0:
256,192,44424,5,12,0:0:0:0:
256,192,44574,1,0,0:0:0:0:
256,192,44724,1,8,0:0:0:0:
256,192,44874,1,8,0:0:0:0:
256,192,45024,1,0,0:0:0:0:
256,192,45324,1,8,0:0:0:0:
256,192,45474,1,0,0:0:0:0:
256,192,45624,1,12,0:0:0:0:
256,192,45924,1,0,0:0:0:0:
256,192,46074,1,0,0:0:0:0:
256,192,46224,1,8,0:0:0:0:
256,192,46524,1,12,0:0:0:0:
256,192,46824,1,12,0:0:0:0:
256,192,46974,1,0,0:0:0:0:
256,192,47049,1,8,0:0:0:0:
256,192,47124,1,0,0:0:0:0:
256,192,47274,1,0,0:0:0:0:
256,192,47424,1,8,0:0:0:0:
256,192,47574,1,0,0:0:0:0:
256,192,47724,1,8,0:0:0:0:
256,192,48024,1,0,0:0:0:0:
256,192,48099,1,0,0:0:0:0:
256,192,48174,1,8,0:0:0:0:
256,192,48249,1,8,0:0:0:0:
256,192,48324,1,0,0:0:0:0:
256,192,48474,1,8,0:0:0:0:
256,192,48624,1,0,0:0:0:0:
256,192,48774,1,0,0:0:0:0:
256,192,48849,1,0,0:0:0:0:
256,192,48924,1,8,0:0:0:0:
256,192,49074,1,8,0:0:0:0:
256,192,49224,1,0,0:0:0:0:
256,192,49374,1,0,0:0:0:0:
256,192,49449,1,8,0:0:0:0:
256,192,49524,1,8,0:0:0:0:
256,192,49674,1,0,0:0:0:0:
256,192,49824,1,8,0:0:0:0:
256,192,49899,1,0,0:0:0:0:
256,192,49974,1,8,0:0:0:0:
256,192,50124,1,0,0:0:0:0:
256,192,50424,1,8,0:0:0:0:
256,192,50574,1,0,0:0:0:0:
256,192,50649,1,0,0:0:0:0:
256,192,50724,1,8,0:0:0:0:
256,192,50799,1,8,0:0:0:0:
256,192,50874,1,0,0:0:0:0:
256,192,51024,1,12,0:0:0:0:
256,192,51324,1,0,0:0:0:0:
256,192,51474,1,0,0:0:0:0:
256,192,51624,1,12,0:0:0:0:
256,192,51774,1,0,0:0:0:0:
256,192,51849,1,8,0:0:0:0:
256,192,51924,1,0,0:0:0:0:
256,192,52074,1,0,0:0:0:0:
256,192,52224,1,8,0:0:0:0:
256,192,52374,1,0,0:0:0:0:
256,192,52524,1,8,0:0:0:0:
256,192,52824,1,0,0:0:0:0:
256,192,52899,1,0,0:0:0:0:
256,192,52974,1,8,0:0:0:0:
256,192,53049,1,8,0:0:0:0:
256,192,53124,1,0,0:0:0:0:
256,192,53274,1,8,0:0:0:0:
256,192,53424,1,0,0:0:0:0:
256,192,53574,1,0,0:0:0:0:
256,192,53649,1,0,0:0:0:0:
256,192,53724,1,8,0:0:0:0:
256,192,53874,1,8,0:0:0:0:
256,192,54024,1,0,0:0:0:0:
256,192,54174,1,0,0:0:0:0:
256,192,54249,1,8,0:0:0:0:
256,192,54324,1,8,0:0:0:0:
256,192,54474,1,0,0:0:0:0:
256,192,54624,1,8,0:0:0:0:
256,192,54699,1,0,0:0:0:0:
256,192,54774,1,8,0:0:0:0:
256,192,54924,1,0,0:0:0:0:
256,192,55074,1,0,0:0:0:0:
256,192,55224,1,8,0:0:0:0:
256,192,55524,1,0,0:0:0:0:
256,192,55674,1,0,0:0:0:0:
256,192,55824,1,0,0:0:0:0:
256,192,55899,1,0,0:0:0:0:
256,192,55974,1,0,0:0:0:0:
256,192,56124,1,12,0:0:0:0:
256,192,56424,1,12,0:0:0:0:
256,192,56574,1,8,0:0:0:0:
256,192,56649,1,8,0:0:0:0:
256,192,56724,1,0,0:0:0:0:
256,192,56874,1,8,0:0:0:0:
256,192,57024,1,0,0:0:0:0:
256,192,57174,1,8,0:0:0:0:
256,192,57324,1,8,0:0:0:0:
256,192,57399,1,0,0:0:0:0:
256,192,57474,1,8,0:0:0:0:
256,192,57624,1,0,0:0:0:0:
256,192,57924,1,0,0:0:0:0:
256,192,58074,1,8,0:0:0:0:
256,192,58224,1,0,0:0:0:0:
256,192,58374,1,8,0:0:0:0:
256,192,58449,1,0,0:0:0:0:
256,192,58524,1,8,0:0:0:0:
256,192,58674,1,8,0:0:0:0:
256,192,58824,1,0,0:0:0:0:
256,192,58974,1,8,0:0:0:0:
256,192,59049,1,8,0:0:0:0:
256,192,59124,1,0,0:0:0:0:
256,192,59274,1,8,0:0:0:0:
256,192,59424,1,0,0:0:0:0:
256,192,59574,1,8,0:0:0:0:
256,192,59649,1,8,0:0:0:0:
256,192,59724,1,0,0:0:0:0:
256,192,59874,1,8,0:0:0:0:
256,192,60024,1,0,0:0:0:0:
256,192,60324,1,0,0:0:0:0:
256,192,60624,1,8,0:0:0:0:
256,192,60774,1,8,0:0:0:0:
256,192,60924,1,8,0:0:0:0:
256,192,60999,1,0,0:0:0:0:
256,192,61074,1,8,0:0:0:0:
256,192,61224,1,12,0:0:0:0:
256,192,61374,1,0,0:0:0:0:
256,192,61449,1,8,0:0:0:0:
256,192,61524,1,0,0:0:0:0:
256,192,61674,1,0,0:0:0:0:
256,192,61824,1,8,0:0:0:0:
256,192,61974,1,0,0:0:0:0:
256,192,62124,1,8,0:0:0:0:
256,192,62424,1,0,0:0:0:0:
256,192,62499,1,0,0:0:0:0:
256,192,62574,1,8,0:0:0:0:
256,192,62649,1,8,0:0:0:0:
256,192,62724,1,0,0:0:0:0:
256,192,62874,1,8,0:0:0:0:
256,192,63024,1,0,0:0:0:0:
256,192,63174,1,0,0:0:0:0:
256,192,63249,1,0,0:0:0:0:
256,192,63324,1,8,0:0:0:0:
256,192,63624,1,8,0:0:0:0:
256,192,63774,1,0,0:0:0:0:
256,192,63849,1,0,0:0:0:0:
256,192,63924,1,8,0:0:0:0:
256,192,64074,1,0,0:0:0:0:
256,192,64224,1,8,0:0:0:0:
256,192,64299,1,0,0:0:0:0:
256,192,64374,1,8,0:0:0:0:
256,192,64524,1,8,0:0:0:0:
256,192,64599,1,8,0:0:0:0:
256,192,64674,1,0,0:0:0:0:
256,192,64824,1,4,0:0:0:0:
256,192,65124,1,8,0:0:0:0:
256,192,65424,1,0,0:0:0:0:
256,192,65724,1,12,0:0:0:0:
256,192,66024,1,4,0:0:0:0:
256,192,66174,1,4,0:0:0:0:
256,192,66474,1,4,0:0:0:0:
256,192,66774,1,4,0:0:0:0:
256,192,66924,1,12,0:0:0:0:
256,192,67224,1,4,0:0:0:0:
256,192,67374,1,4,0:0:0:0:
256,192,67674,1,4,0:0:0:0:
256,192,67974,1,4,0:0:0:0:
256,192,68124,1,12,0:0:0:0:
256,192,68424,1,4,0:0:0:0:
256,192,68574,1,4,0:0:0:0:
256,192,68874,1,4,0:0:0:0:
256,192,69174,1,4,0:0:0:0:
256,192,69324,1,12,0:0:0:0:
256,192,69624,1,0,0:0:0:0:
256,192,69774,1,8,0:0:0:0:
256,192,69924,1,8,0:0:0:0:
256,192,70074,1,8,0:0:0:0:
256,192,70224,1,0,0:0:0:0:
256,192,70374,1,8,0:0:0:0:
256,192,70524,1,0,0:0:0:0:
256,192,70824,1,4,0:0:0:0:
256,192,70974,1,4,0:0:0:0:
256,192,71274,1,4,0:0:0:0:
256,192,71574,1,4,0:0:0:0:
256,192,71724,1,12,0:0:0:0:
256,192,72024,1,4,0:0:0:0:
256,192,72174,1,4,0:0:0:0:
256,192,72474,1,4,0:0:0:0:
256,192,72774,1,4,0:0:0:0:
256,192,72924,1,12,0:0:0:0:
256,192,73224,1,4,0:0:0:0:
256,192,73374,1,4,0:0:0:0:
256,192,73674,1,4,0:0:0:0:
256,192,73974,1,4,0:0:0:0:
256,192,74124,1,12,0:0:0:0:
256,192,74424,1,8,0:0:0:0:
256,192,74574,1,0,0:0:0:0:
256,192,74724,1,8,0:0:0:0:
256,192,74874,1,8,0:0:0:0:
256,192,75024,1,0,0:0:0:0:
256,192,75174,1,0,0:0:0:0:
256,192,75324,1,12,0:0:0:0:
256,192,75624,1,4,0:0:0:0:
256,192,75774,1,4,0:0:0:0:
256,192,76074,1,4,0:0:0:0:
256,192,76374,1,4,0:0:0:0:
256,192,76524,1,12,0:0:0:0:
256,192,76824,1,4,0:0:0:0:
256,192,76974,1,4,0:0:0:0:
256,192,77274,1,4,0:0:0:0:
256,192,77574,1,4,0:0:0:0:
256,192,77724,1,12,0:0:0:0:
256,192,78024,1,4,0:0:0:0:
256,192,78174,1,4,0:0:0:0:
256,192,78474,1,4,0:0:0:0:
256,192,78774,1,4,0:0:0:0:
256,192,78924,1,12,0:0:0:0:
256,192,79224,1,0,0:0:0:0:
256,192,79374,1,8,0:0:0:0:
256,192,79524,1,8,0:0:0:0:
256,192,79674,1,8,0:0:0:0:
256,192,79824,1,0,0:0:0:0:
256,192,79974,1,8,0:0:0:0:
256,192,80124,1,0,0:0:0:0:
256,192,80424,1,4,0:0:0:0:
256,192,80574,1,4,0:0:0:0:
256,192,80724,1,12,0:0:0:0:
256,192,81024,1,4,0:0:0:0:
256,192,81174,1,4,0:0:0:0:
256,192,81324,1,12,0:0:0:0:
256,192,81624,1,4,0:0:0:0:
256,192,81774,1,4,0:0:0:0:
256,192,81924,1,12,0:0:0:0:
256,192,82224,1,4,0:0:0:0:
256,192,82374,1,4,0:0:0:0:
256,192,82524,1,12,0:0:0:0:
256,192,82824,1,12,0:0:0:0:
256,192,82974,1,0,0:0:0:0:
256,192,83124,1,12,0:0:0:0:
256,192,83274,1,0,0:0:0:0:
256,192,83424,1,8,0:0:0:0:
256,192,83499,1,0,0:0:0:0:
256,192,83574,1,8,0:0:0:0:
256,192,83724,1,8,0:0:0:0:
256,192,83799,1,8,0:0:0:0:
256,192,83874,1,0,0:0:0:0:
256,192,84024,1,4,0:0:0:0:
256,192,84324,1,8,0:0:0:0:
256,192,84624,1,0,0:0:0:0:
256,192,84924,1,8,0:0:0:0:
256,192,84999,1,0,0:0:0:0:
256,192,85074,1,8,0:0:0:0:
256,192,85224,1,4,0:0:0:0:
256,192,85374,1,8,0:0:0:0:
256,192,85524,1,8,0:0:0:0:
256,192,85674,1,0,0:0:0:0:
256,192,85824,1,8,0:0:0:0:
256,192,86124,1,12,0:0:0:0:
256,192,86424,1,12,0:0:0:0:
256,192,86574,1,0,0:0:0:0:
256,192,86649,1,8,0:0:0:0:
256,192,86724,1,0,0:0:0:0:
256,192,86874,1,0,0:0:0:0:
256,192,87024,1,8,0:0:0:0:
256,192,87174,1,0,0:0:0:0:
256,192,87249,1,0,0:0:0:0:
256,192,87324,1,8,0:0:0:0:
256,192,87624,1,0,0:0:0:0:
256,192,87699,1,0,0:0:0:0:
256,192,87774,1,8,0:0:0:0:
256,192,87849,1,8,0:0:0:0:
256,192,87924,1,0,0:0:0:0:
256,192,88074,1,8,0:0:0:0:
256,192,88224,1,0,0:0:0:0:
256,192,88374,1,0,0:0:0:0:
256,192,88449,1,0,0:0:0:0:
256,192,88524,1,8,0:0:0:0:
256,192,88674,1,8,0:0:0:0:
256,192,88824,1,0,0:0:0:0:
256,192,88974,1,0,0:0:0:0:
256,192,89049,1,8,0:0:0:0:
256,192,89124,1,8,0:0:0:0:
256,192,89274,1,0,0:0:0:0:
256,192,89424,1,8,0:0:0:0:
256,192,89499,1,0,0:0:0:0:
256,192,89574,1,8,0:0:0:0:
256,192,89724,1,0,0:0:0:0:
256,192,90024,1,8,0:0:0:0:
256,192,90174,1,0,0:0:0:0:
256,192,90249,1,0,0:0:0:0:
256,192,90324,1,0,0:0:0:0:
256,192,90474,1,8,0:0:0:0:
256,192,90624,1,0,0:0:0:0:
256,192,90924,1,8,0:0:0:0:
256,192,90999,1,8,0:0:0:0:
256,192,91074,1,0,0:0:0:0:
256,192,91224,1,12,0:0:0:0:
256,192,91374,1,0,0:0:0:0:
256,192,91449,1,8,0:0:0:0:
256,192,91524,1,0,0:0:0:0:
256,192,91674,1,0,0:0:0:0:
256,192,91824,1,8,0:0:0:0:
256,192,91974,1,0,0:0:0:0:
256,192,92124,1,8,0:0:0:0:
256,192,92424,1,0,0:0:0:0:
256,192,92499,1,0,0:0:0:0:
256,192,92574,1,8,0:0:0:0:
256,192,92649,1,8,0:0:0:0:
256,192,92724,1,0,0:0:0:0:
256,192,92874,1,8,0:0:0:0:
256,192,93024,1,0,0:0:0:0:
256,192,93174,1,0,0:0:0:0:
256,192,93249,1,0,0:0:0:0:
256,192,93324,1,8,0:0:0:0:
256,192,93474,1,8,0:0:0:0:
256,192,93624,1,0,0:0:0:0:
256,192,93774,1,8,0:0:0:0:
256,192,93849,1,8,0:0:0:0:
256,192,93924,1,0,0:0:0:0:
256,192,93999,1,8,0:0:0:0:
256,192,94074,1,0,0:0:0:0:
256,192,94224,1,8,0:0:0:0:
256,192,94299,1,0,0:0:0:0:
256,192,94374,1,8,0:0:0:0:
256,192,94524,1,0,0:0:0:0:
256,192,94674,1,0,0:0:0:0:
256,192,94824,1,8,0:0:0:0:
256,192,95124,1,0,0:0:0:0:
256,192,95274,1,8,0:0:0:0:
256,192,95424,1,0,0:0:0:0:
256,192,95499,1,0,0:0:0:0:
256,192,95574,1,0,0:0:0:0:
256,192,95724,1,12,0:0:0:0:
256,192,96024,1,12,0:0:0:0:
256,192,96174,1,0,0:0:0:0:
256,192,96249,1,8,0:0:0:0:
256,192,96324,1,0,0:0:0:0:
256,192,96474,1,0,0:0:0:0:
256,192,96549,1,0,0:0:0:0:
256,192,96624,1,8,0:0:0:0:
256,192,96774,1,0,0:0:0:0:
256,192,96924,1,8,0:0:0:0:
256,192,96999,1,0,0:0:0:0:
256,192,97074,1,8,0:0:0:0:
256,192,97224,1,0,0:0:0:0:
256,192,97299,1,0,0:0:0:0:
256,192,97374,1,8,0:0:0:0:
256,192,97449,1,8,0:0:0:0:
256,192,97524,1,0,0:0:0:0:
256,192,97674,1,8,0:0:0:0:
256,192,97824,1,0,0:0:0:0:
256,192,97974,1,0,0:0:0:0:
256,192,98049,1,0,0:0:0:0:
256,192,98124,1,8,0:0:0:0:
256,192,98274,1,8,0:0:0:0:
256,192,98424,1,0,0:0:0:0:
256,192,98574,1,0,0:0:0:0:
256,192,98649,1,8,0:0:0:0:
256,192,98724,1,8,0:0:0:0:
256,192,98874,1,0,0:0:0:0:
256,192,99024,1,8,0:0:0:0:
256,192,99099,1,0,0:0:0:0:
256,192,99174,1,8,0:0:0:0:
256,192,99324,1,0,0:0:0:0:
256,192,99624,1,8,0:0:0:0:
256,192,99774,1,0,0:0:0:0:
256,192,99849,1,0,0:0:0:0:
256,192,99924,1,0,0:0:0:0:
256,192,100074,1,8,0:0:0:0:
256,192,100224,1,0,0:0:0:0:
256,192,100524,1,8,0:0:0:0:
256,192,100599,1,8,0:0:0:0:
256,192,100674,1,0,0:0:0:0:
256,192,100824,1,12,0:0:0:0:
256,192,100974,1,0,0:0:0:0:
256,192,101049,1,0,0:0:0:0:
256,192,101124,1,8,0:0:0:0:
256,192,101274,1,8,0:0:0:0:
256,192,101574,1,8,0:0:0:0:
256,192,101649,1,0,0:0:0:0:
256,192,101724,1,8,0:0:0:0:
256,192,101874,1,0,0:0:0:0:
256,192,102024,1,8,0:0:0:0:
256,192,102174,1,0,0:0:0:0:
256,192,102249,1,0,0:0:0:0:
256,192,102324,1,8,0:0:0:0:
256,192,102474,1,8,0:0:0:0:
256,192,102774,1,8,0:0:0:0:
256,192,102924,1,0,0:0:0:0:
256,192,102999,1,0,0:0:0:0:
256,192,103074,1,8,0:0:0:0:
256,192,103224,1,0,0:0:0:0:
256,192,103374,1,0,0:0:0:0:
256,192,103524,1,8,0:0:0:0:
256,192,103674,1,8,0:0:0:0:
256,192,103824,1,0,0:0:0:0:
256,192,103899,1,0,0:0:0:0:
256,192,103974,1,8,0:0:0:0:
256,192,104049,1,0,0:0:0:0:
256,192,104124,1,8,0:0:0:0:
256,192,104199,1,8,0:0:0:0:
256,192,104274,1,0,0:0:0:0:
256,192,104424,1,4,0:0:0:0:
256,192,104724,1,8,0:0:0:0:
256,192,105024,1,4,0:0:0:0:
256,192,105324,1,12,0:0:0:0:
256,192,105624,1,4,0:0:0:0:
256,192,105774,1,8,0:0:0:0:
256,192,105924,1,0,0:0:0:0:
256,192,106074,1,8,0:0:0:0:
256,192,106224,1,0,0:0:0:0:
256,192,106374,1,8,0:0:0:0:
256,192,106524,1,0,0:0:0:0:
256,192,106674,1,8,0:0:0:0:
256,192,106824,1,0,0:0:0:0:
256,192,106974,1,8,0:0:0:0:
256,192,107124,1,0,0:0:0:0:
256,192,107274,1,8,0:0:0:0:
256,192,107424,1,0,0:0:0:0:
256,192,107574,1,8,0:0:0:0:
256,192,107724,1,0,0:0:0:0:
256,192,107874,1,8,0:0:0:0:
256,192,108024,1,0,0:0:0:0:
256,192,108174,1,8,0:0:0:0:
256,192,108324,1,0,0:0:0:0:
256,192,108474,1,8,0:0:0:0:
256,192,108624,1,0,0:0:0:0:
256,192,108774,1,8,0:0:0:0:
256,192,108924,1,0,0:0:0:0:
256,192,109074,1,8,0:0:0:0:
256,192,109224,1,0,0:0:0:0:
256,192,109374,1,8,0:0:0:0:
256,192,109524,1,0,0:0:0:0:
256,192,109674,1,8,0:0:0:0:
256,192,109824,1,0,0:0:0:0:
256,192,109899,1,0,0:0:0:0:
256,192,109974,1,0,0:0:0:0:
256,192,110049,1,0,0:0:0:0:
256,192,110124,1,8,0:0:0:0:
256,192,110424,1,4,0:0:0:0:
256,192,110574,1,8,0:0:0:0:
256,192,110649,1,8,0:0:0:0:
256,192,110724,1,0,0:0:0:0:
256,192,110874,1,8,0:0:0:0:
256,192,111024,1,0,0:0:0:0:
256,192,111174,1,8,0:0:0:0:
256,192,111249,1,8,0:0:0:0:
256,192,111324,1,0,0:0:0:0:
256,192,111474,1,8,0:0:0:0:
256,192,111624,1,0,0:0:0:0:
256,192,111774,1,8,0:0:0:0:
256,192,111849,1,8,0:0:0:0:
256,192,111924,1,0,0:0:0:0:
256,192,112074,1,8,0:0:0:0:
256,192,112224,1,0,0:0:0:0:
256,192,112374,1,8,0:0:0:0:
256,192,112449,1,8,0:0:0:0:
256,192,112524,1,0,0:0:0:0:
256,192,112674,1,8,0:0:0:0:
256,192,112824,1,0,0:0:0:0:
256,192,112899,1,0,0:0:0:0:
256,192,112974,1,8,0:0:0:0:
256,192,113049,1,8,0:0:0:0:
256,192,113124,1,0,0:0:0:0:
256,192,113274,1,8,0:0:0:0:
256,192,113424,1,0,0:0:0:0:
256,192,113499,1,0,0:0:0:0:
256,192,113574,1,8,0:0:0:0:
256,192,113649,1,8,0:0:0:0:
256,192,113724,1,0,0:0:0:0:
256,192,113874,1,8,0:0:0:0:
256,192,114024,1,0,0:0:0:0:
256,192,114099,1,0,0:0:0:0:
256,192,114174,1,8,0:0:0:0:
256,192,114249,1,8,0:0:0:0:
256,192,114324,1,0,0:0:0:0:
256,192,114399,1,0,0:0:0:0:
256,192,114474,1,8,0:0:0:0:
256,192,114624,1,0,0:0:0:0:
256,192,114774,1,0,0:0:0:0:
256,192,114924,1,0,0:0:0:0:
256,192,115074,1,12,0:0:0:0:
