osu file format v14

[General]
AudioFilename: audio.mp3
AudioLeadIn: 0
PreviewTime: 47780
Countdown: 0
SampleSet: None
StackLeniency: 0.7
Mode: 1
LetterboxInBreaks: 0
WidescreenStoryboard: 0

[Editor]
DistanceSpacing: 0.5
BeatDivisor: 4
GridSize: 4
TimelineZoom: 2.22

[Metadata]
Title:Angelic Jelly
TitleUnicode:Angelic Jelly
Artist:t+pazolite
ArtistUnicode:t+pazolite
Creator:LunaticP
Version:Taiko Eclipse
Source:SOUND VOLTEX III GRAVITY WARS
Tags:
BeatmapID:1397371
BeatmapSetID:659883

[Difficulty]
HPDrainRate:6
CircleSize:5
OverallDifficulty:5
ApproachRate:5
SliderMultiplier:1.4
SliderTickRate:1

[Events]
//Background and Video events
0,0,"Co74dHlUMAInPpN.jpg",0,0
//Break Periods
//Storyboard Layer 0 (Background)
//Storyboard Layer 1 (Fail)
//Storyboard Layer 2 (Pass)
//Storyboard Layer 3 (Foreground)
//Storyboard Sound Samples

[TimingPoints]
2180,300,4,1,0,100,1,0
13280,-125,4,1,0,100,0,0
13580,-166.666666666667,4,1,0,100,0,0
13880,-166.666666666667,4,1,0,100,0,0
14180,-100,4,1,0,100,0,0
24680,-166.666666666667,4,1,0,100,0,0
45380,-100,4,1,0,100,0,0
45530,-105.263157894737,4,1,0,100,0,0
45680,-111.111111111111,4,1,0,100,0,0
45830,-125,4,1,0,100,0,0
45830,-117.647058823529,4,1,0,100,0,0
45980,-133.333333333333,4,1,0,100,0,0
46130,-142.857142857143,4,1,0,100,0,0
46280,-153.846153846154,4,1,0,100,0,0
46430,-166.666666666667,4,1,0,100,0,0
46580,-181.818181818182,4,1,0,100,0,0
46730,-153.846153846154,4,1,0,100,0,0
46880,-133.333333333333,4,1,0,100,0,0
47030,-117.647058823529,4,1,0,100,0,0
47180,-105.263157894737,4,1,0,100,0,0
47480,-83.3333333333333,4,1,0,100,0,0
47780,-100,4,1,0,100,0,1
66980,-100,4,1,0,100,0,0
67130,-90.9090909090909,4,1,0,100,0,0
67430,-83.3333333333333,4,1,0,100,0,0
67730,-76.9230769230769,4,1,0,100,0,0
67880,-71.4285714285714,4,1,0,100,0,0
68180,-100,4,1,0,100,0,0
68330,-90.9090909090909,4,1,0,100,0,0
68630,-83.3333333333333,4,1,0,100,0,0
68930,-76.9230769230769,4,1,0,100,0,0
69080,-71.4285714285714,4,1,0,100,0,0
69380,-100,4,1,0,100,0,0
69530,-90.9090909090909,4,1,0,100,0,0
69830,-83.3333333333333,4,1,0,100,0,0
70130,-76.9230769230769,4,1,0,100,0,0
70280,-71.4285714285714,4,1,0,100,0,0
70580,-100,4,1,0,100,0,0
71930,-90.9090909090909,4,1,0,100,0,0
72230,-83.3333333333333,4,1,0,100,0,0
72530,-76.9230769230769,4,1,0,100,0,0
72680,-71.4285714285714,4,1,0,100,0,0
72980,-100,4,1,0,100,0,0
73130,-90.9090909090909,4,1,0,100,0,0
73430,-83.3333333333333,4,1,0,100,0,0
73730,-76.9230769230769,4,1,0,100,0,0
73880,-71.4285714285714,4,1,0,100,0,0
74180,-100,4,1,0,100,0,0
74330,-90.9090909090909,4,1,0,100,0,0
74630,-83.3333333333333,4,1,0,100,0,0
74930,-76.9230769230769,4,1,0,100,0,0
75080,-71.4285714285714,4,1,0,100,0,0
75380,-100,4,1,0,100,0,0
76730,-90.9090909090909,4,1,0,100,0,0
77030,-83.3333333333333,4,1,0,100,0,0
77330,-76.9230769230769,4,1,0,100,0,0
77480,-71.4285714285714,4,1,0,100,0,0
77780,-100,4,1,0,100,0,0
77930,-90.9090909090909,4,1,0,100,0,0
78230,-83.3333333333333,4,1,0,100,0,0
78530,-76.9230769230769,4,1,0,100,0,0
78680,-71.4285714285714,4,1,0,100,0,0
78980,-100,4,1,0,100,0,0
79130,-90.9090909090909,4,1,0,100,0,0
79430,-83.3333333333333,4,1,0,100,0,0
79730,-76.9230769230769,4,1,0,100,0,0
79880,-71.4285714285714,4,1,0,100,0,0
80180,-100,4,1,0,100,0,0
85280,-113.636363636364,4,1,0,100,0,0
85580,-131.578947368421,4,1,0,100,0,0
85880,-156.25,4,1,0,100,0,0
86180,-100,4,1,0,100,0,0
87380,-100,4,1,0,100,0,1
96980,-90.9090909090909,4,1,0,100,0,1
105380,-90.9090909090909,4,1,0,100,0,0
106580,-90.9090909090909,4,1,0,100,0,1
115580,-66.6666666666667,4,1,0,100,0,1
116180,-66.6666666666667,4,1,0,100,0,0

[HitObjects]
256,192,2180,12,0,3980,0:0:0:0:
380,224,4280,5,0,0:0:0:0:
380,224,4430,1,8,0:0:0:0:
200,208,4580,5,0,0:0:0:0:
200,208,4730,1,8,0:0:0:0:
144,156,4880,1,0,0:0:0:0:
144,156,4955,1,0,0:0:0:0:
144,156,5030,1,8,0:0:0:0:
144,160,5180,1,0,0:0:0:0:
144,160,5330,1,8,0:0:0:0:
264,160,5405,1,8,0:0:0:0:
264,160,5480,1,0,0:0:0:0:
264,160,5555,1,0,0:0:0:0:
264,160,5630,1,8,0:0:0:0:
264,160,5780,1,0,0:0:0:0:
352,168,5930,1,8,0:0:0:0:
352,168,6005,1,8,0:0:0:0:
352,168,6080,1,0,0:0:0:0:
352,168,6230,1,8,0:0:0:0:
292,208,6380,1,0,0:0:0:0:
272,136,6530,1,8,0:0:0:0:
272,136,6605,1,8,0:0:0:0:
288,224,6680,1,0,0:0:0:0:
292,208,6755,1,0,0:0:0:0:
288,204,6830,1,0,0:0:0:0:
408,168,6980,1,0,0:0:0:0:
176,220,7130,1,8,0:0:0:0:
160,340,7280,1,0,0:0:0:0:
196,320,7355,1,0,0:0:0:0:
192,316,7430,1,8,0:0:0:0:
408,272,7580,1,0,0:0:0:0:
404,268,7655,1,8,0:0:0:0:
408,272,7730,1,8,0:0:0:0:
304,284,7880,1,0,0:0:0:0:
304,292,8030,1,0,0:0:0:0:
328,184,8180,1,8,0:0:0:0:
216,120,8255,1,8,0:0:0:0:
216,128,8330,1,0,0:0:0:0:
216,128,8405,1,0,0:0:0:0:
216,132,8480,1,8,0:0:0:0:
296,332,8630,1,0,0:0:0:0:
296,332,8780,1,8,0:0:0:0:
412,220,8930,1,8,0:0:0:0:
312,224,8980,1,8,0:0:0:0:
312,224,9030,1,8,0:0:0:0:
412,220,9080,1,0,0:0:0:0:
364,172,9380,1,0,0:0:0:0:
148,96,9530,1,8,0:0:0:0:
176,224,9680,1,0,0:0:0:0:
176,224,9755,1,0,0:0:0:0:
180,216,9830,1,0,0:0:0:0:
180,216,9980,1,0,0:0:0:0:
180,212,10130,1,8,0:0:0:0:
176,224,10205,1,0,0:0:0:0:
236,128,10280,1,8,0:0:0:0:
232,128,10355,1,0,0:0:0:0:
232,128,10430,1,8,0:0:0:0:
360,152,10580,1,0,0:0:0:0:
212,196,10730,1,8,0:0:0:0:
208,184,10805,1,8,0:0:0:0:
204,180,10880,1,0,0:0:0:0:
244,224,11030,1,8,0:0:0:0:
172,292,11180,1,0,0:0:0:0:
176,288,11330,1,8,0:0:0:0:
176,280,11405,1,8,0:0:0:0:
176,280,11480,1,0,0:0:0:0:
176,272,11555,1,0,0:0:0:0:
176,276,11630,1,0,0:0:0:0:
380,160,11780,1,0,0:0:0:0:
380,160,11930,1,8,0:0:0:0:
380,160,12005,1,8,0:0:0:0:
380,160,12080,1,0,0:0:0:0:
372,164,12230,1,8,0:0:0:0:
276,256,12380,1,0,0:0:0:0:
276,248,12455,1,0,0:0:0:0:
272,236,12530,1,0,0:0:0:0:
272,228,12605,1,0,0:0:0:0:
268,224,12680,1,8,0:0:0:0:
396,200,12730,1,8,0:0:0:0:
404,196,12780,1,8,0:0:0:0:
400,192,12830,1,8,0:0:0:0:
248,128,12880,1,8,0:0:0:0:
248,128,12930,1,8,0:0:0:0:
248,124,12980,1,0,0:0:0:0:
444,144,13280,1,8,0:0:0:0:
324,216,13580,1,8,0:0:0:0:
372,240,13880,1,0,0:0:0:0:
96,256,14180,1,0,0:0:0:0:
96,248,14330,1,8,0:0:0:0:
96,248,14480,1,0,0:0:0:0:
96,248,14555,1,0,0:0:0:0:
96,248,14630,1,0,0:0:0:0:
336,256,14780,1,8,0:0:0:0:
248,196,14930,1,8,0:0:0:0:
248,196,15005,1,0,0:0:0:0:
248,196,15080,1,0,0:0:0:0:
248,196,15155,1,0,0:0:0:0:
248,192,15230,1,8,0:0:0:0:
76,280,15380,1,0,0:0:0:0:
88,284,15530,1,8,0:0:0:0:
328,184,15605,1,8,0:0:0:0:
328,184,15680,1,0,0:0:0:0:
328,184,15830,1,8,0:0:0:0:
328,184,15980,1,0,0:0:0:0:
232,236,16130,1,8,0:0:0:0:
232,236,16205,1,8,0:0:0:0:
232,236,16280,1,0,0:0:0:0:
232,236,16355,1,0,0:0:0:0:
232,236,16430,1,8,0:0:0:0:
376,180,16580,1,0,0:0:0:0:
320,144,16730,1,8,0:0:0:0:
316,272,16805,1,8,0:0:0:0:
316,272,16880,1,0,0:0:0:0:
316,272,17030,1,8,0:0:0:0:
280,224,17180,1,8,0:0:0:0:
280,224,17255,1,8,0:0:0:0:
280,224,17330,1,8,0:0:0:0:
248,92,17480,1,0,0:0:0:0:
248,92,17630,1,8,0:0:0:0:
320,204,17780,1,8,0:0:0:0:
320,204,17855,1,8,0:0:0:0:
320,204,17930,1,0,0:0:0:0:
320,204,18005,1,0,0:0:0:0:
320,204,18080,1,8,0:0:0:0:
320,204,18155,1,0,0:0:0:0:
320,204,18230,1,0,0:0:0:0:
320,204,18305,1,0,0:0:0:0:
320,204,18380,1,8,0:0:0:0:
380,132,18530,1,8,0:0:0:0:
380,132,18605,1,0,0:0:0:0:
380,132,18680,1,8,0:0:0:0:
380,132,18830,1,8,0:0:0:0:
400,228,18980,1,0,0:0:0:0:
280,136,19130,1,0,0:0:0:0:
280,128,19280,1,8,0:0:0:0:
280,132,19355,1,8,0:0:0:0:
280,128,19430,1,0,0:0:0:0:
288,216,19580,1,0,0:0:0:0:
220,192,19730,1,8,0:0:0:0:
220,192,19805,1,8,0:0:0:0:
220,192,19880,1,0,0:0:0:0:
220,192,19955,1,0,0:0:0:0:
220,200,20030,1,8,0:0:0:0:
220,200,20180,1,0,0:0:0:0:
248,96,20330,1,0,0:0:0:0:
244,100,20480,1,8,0:0:0:0:
244,104,20555,1,0,0:0:0:0:
240,104,20630,1,8,0:0:0:0:
240,104,20780,1,0,0:0:0:0:
396,200,20930,1,8,0:0:0:0:
396,200,21005,1,0,0:0:0:0:
396,200,21080,1,0,0:0:0:0:
400,208,21155,1,0,0:0:0:0:
408,136,21230,1,0,0:0:0:0:
300,208,21380,1,8,0:0:0:0:
304,160,21530,1,0,0:0:0:0:
304,152,21680,1,8,0:0:0:0:
304,152,21755,1,8,0:0:0:0:
304,152,21830,1,0,0:0:0:0:
296,148,21980,1,8,0:0:0:0:
228,112,22055,1,0,0:0:0:0:
232,116,22130,1,0,0:0:0:0:
232,116,22205,1,8,0:0:0:0:
232,112,22280,1,8,0:0:0:0:
236,116,22430,1,0,0:0:0:0:
252,212,22580,1,8,0:0:0:0:
252,208,22655,1,8,0:0:0:0:
252,212,22730,1,0,0:0:0:0:
252,212,22805,1,8,0:0:0:0:
252,212,22880,1,0,0:0:0:0:
252,212,22955,1,0,0:0:0:0:
248,216,23030,1,0,0:0:0:0:
252,212,23105,1,0,0:0:0:0:
252,212,23180,1,8,0:0:0:0:
252,212,23255,1,8,0:0:0:0:
252,212,23330,1,8,0:0:0:0:
252,212,23405,1,8,0:0:0:0:
252,212,23480,1,0,0:0:0:0:
456,204,23530,1,0,0:0:0:0:
452,196,23580,1,0,0:0:0:0:
440,192,23630,1,0,0:0:0:0:
440,188,23680,1,0,0:0:0:0:
440,188,23730,1,0,0:0:0:0:
300,216,23780,1,8,0:0:0:0:
236,156,24680,1,0,0:0:0:0:
256,148,24980,1,8,0:0:0:0:
392,232,25280,1,0,0:0:0:0:
328,192,25580,1,8,0:0:0:0:
324,196,25880,1,8,0:0:0:0:
264,224,26180,1,0,0:0:0:0:
272,216,26480,1,8,0:0:0:0:
332,148,27080,1,8,0:0:0:0:
332,148,27380,1,0,0:0:0:0:
356,156,28280,1,8,0:0:0:0:
352,168,28430,1,8,0:0:0:0:
352,168,28580,1,0,0:0:0:0:
324,224,28880,1,8,0:0:0:0:
288,136,29180,1,8,0:0:0:0:
252,244,29480,1,8,0:0:0:0:
252,244,29630,1,0,0:0:0:0:
248,240,29780,1,0,0:0:0:0:
444,248,29930,1,0,0:0:0:0:
256,228,30080,1,8,0:0:0:0:
332,152,30380,1,8,0:0:0:0:
332,152,30530,1,0,0:0:0:0:
332,152,30680,1,8,0:0:0:0:
328,196,30980,1,8,0:0:0:0:
348,204,31280,1,0,0:0:0:0:
352,204,31430,1,0,0:0:0:0:
212,200,31580,1,8,0:0:0:0:
348,204,31730,1,0,0:0:0:0:
352,204,31880,1,8,0:0:0:0:
308,256,32180,1,0,0:0:0:0:
308,256,32330,1,8,0:0:0:0:
300,256,32480,1,8,0:0:0:0:
296,136,32630,1,8,0:0:0:0:
300,128,32705,1,0,0:0:0:0:
296,144,32780,1,0,0:0:0:0:
328,204,32930,1,0,0:0:0:0:
328,208,33080,1,8,0:0:0:0:
360,224,33230,1,0,0:0:0:0:
368,224,33305,1,0,0:0:0:0:
364,220,33380,1,8,0:0:0:0:
372,136,33680,1,0,0:0:0:0:
372,136,33980,1,8,0:0:0:0:
256,192,34280,1,8,0:0:0:0:
256,196,34430,1,0,0:0:0:0:
256,192,34580,1,8,0:0:0:0:
260,100,34730,1,8,0:0:0:0:
260,104,34880,1,8,0:0:0:0:
244,176,35180,1,8,0:0:0:0:
240,180,35330,1,0,0:0:0:0:
240,176,35480,1,0,0:0:0:0:
344,180,35780,1,0,0:0:0:0:
344,188,36080,1,8,0:0:0:0:
300,112,36380,1,0,0:0:0:0:
272,180,36680,1,8,0:0:0:0:
272,180,36830,1,8,0:0:0:0:
272,180,36980,1,0,0:0:0:0:
348,248,37130,1,8,0:0:0:0:
344,240,37280,1,8,0:0:0:0:
280,160,37580,1,0,0:0:0:0:
300,168,37730,1,0,0:0:0:0:
232,80,37880,1,8,0:0:0:0:
392,176,38030,1,0,0:0:0:0:
388,184,38180,1,8,0:0:0:0:
324,168,38480,1,8,0:0:0:0:
256,204,38780,1,0,0:0:0:0:
324,168,39080,1,8,0:0:0:0:
320,168,39230,1,0,0:0:0:0:
316,168,39380,1,8,0:0:0:0:
324,88,39680,1,8,0:0:0:0:
380,208,39980,1,0,0:0:0:0:
380,200,40130,1,0,0:0:0:0:
380,200,40280,1,8,0:0:0:0:
184,216,40580,1,8,0:0:0:0:
192,216,40880,1,8,0:0:0:0:
260,184,41030,1,0,0:0:0:0:
208,160,41180,1,8,0:0:0:0:
280,132,41480,1,0,0:0:0:0:
364,228,41780,1,8,0:0:0:0:
208,220,41930,1,0,0:0:0:0:
208,212,42080,1,8,0:0:0:0:
440,208,42380,1,0,0:0:0:0:
232,256,42680,1,0,0:0:0:0:
232,256,42755,1,0,0:0:0:0:
232,256,42830,1,0,0:0:0:0:
256,192,42980,12,0,44780,0:0:0:0:
368,208,45380,5,0,0:0:0:0:
364,208,45530,1,8,0:0:0:0:
368,208,45680,1,8,0:0:0:0:
360,208,45830,1,0,0:0:0:0:
284,128,45980,1,8,0:0:0:0:
296,136,46130,1,0,0:0:0:0:
244,216,46280,1,8,0:0:0:0:
244,216,46430,1,8,0:0:0:0:
220,144,46580,1,0,0:0:0:0:
220,144,46730,1,8,0:0:0:0:
324,216,46880,1,8,0:0:0:0:
324,216,47030,1,0,0:0:0:0:
336,216,47180,1,8,0:0:0:0:
324,152,47480,1,12,0:0:0:0:
208,160,47780,1,4,0:0:0:0:
208,160,47930,1,8,0:0:0:0:
300,148,48080,1,0,0:0:0:0:
300,152,48155,1,0,0:0:0:0:
300,148,48230,1,8,0:0:0:0:
336,160,48380,1,8,0:0:0:0:
332,160,48455,1,0,0:0:0:0:
328,156,48530,1,0,0:0:0:0:
328,156,48680,1,0,0:0:0:0:
328,156,48755,1,0,0:0:0:0:
328,156,48830,1,8,0:0:0:0:
348,268,48980,1,0,0:0:0:0:
348,268,49130,1,8,0:0:0:0:
200,180,49280,1,0,0:0:0:0:
200,184,49355,1,0,0:0:0:0:
200,180,49430,1,0,0:0:0:0:
200,184,49505,1,8,0:0:0:0:
304,144,49580,1,8,0:0:0:0:
304,144,49655,1,8,0:0:0:0:
304,148,49730,1,0,0:0:0:0:
304,148,49880,1,8,0:0:0:0:
464,224,50030,1,0,0:0:0:0:
304,244,50180,1,0,0:0:0:0:
308,232,50330,1,8,0:0:0:0:
224,232,50480,1,0,0:0:0:0:
224,232,50555,1,8,0:0:0:0:
224,232,50630,1,0,0:0:0:0:
224,232,50705,1,8,0:0:0:0:
224,232,50780,1,8,0:0:0:0:
296,168,50930,1,0,0:0:0:0:
296,168,51080,1,8,0:0:0:0:
296,168,51155,1,0,0:0:0:0:
296,168,51230,1,0,0:0:0:0:
364,204,51380,1,8,0:0:0:0:
364,204,51530,1,0,0:0:0:0:
244,104,51680,1,8,0:0:0:0:
244,104,51755,1,8,0:0:0:0:
240,112,51830,1,0,0:0:0:0:
240,112,51905,1,0,0:0:0:0:
220,192,51980,1,8,0:0:0:0:
220,192,52055,1,0,0:0:0:0:
224,196,52130,1,0,0:0:0:0:
220,192,52205,1,0,0:0:0:0:
220,192,52280,1,8,0:0:0:0:
344,200,52430,1,8,0:0:0:0:
188,220,52580,1,0,0:0:0:0:
192,216,52730,1,8,0:0:0:0:
336,208,52880,1,0,0:0:0:0:
316,168,52955,1,0,0:0:0:0:
312,160,53105,1,0,0:0:0:0:
312,156,53180,1,8,0:0:0:0:
312,156,53330,1,0,0:0:0:0:
416,224,53480,1,0,0:0:0:0:
416,216,53555,1,0,0:0:0:0:
416,208,53630,1,8,0:0:0:0:
412,204,53705,1,0,0:0:0:0:
412,204,53780,1,0,0:0:0:0:
304,64,53930,1,8,0:0:0:0:
280,196,54080,1,8,0:0:0:0:
280,196,54155,1,0,0:0:0:0:
280,196,54230,1,0,0:0:0:0:
280,196,54380,1,8,0:0:0:0:
280,196,54530,1,8,0:0:0:0:
216,112,54605,1,0,0:0:0:0:
216,112,54680,1,8,0:0:0:0:
396,112,54830,1,8,0:0:0:0:
376,184,54980,1,0,0:0:0:0:
240,248,55130,1,8,0:0:0:0:
244,240,55280,1,0,0:0:0:0:
244,244,55355,1,0,0:0:0:0:
244,240,55505,1,8,0:0:0:0:
216,80,55580,1,8,0:0:0:0:
216,80,55655,1,0,0:0:0:0:
216,80,55730,1,8,0:0:0:0:
216,80,55805,1,0,0:0:0:0:
216,80,55880,1,0,0:0:0:0:
296,184,56030,1,8,0:0:0:0:
344,148,56180,1,0,0:0:0:0:
160,284,56255,1,0,0:0:0:0:
236,248,56405,1,0,0:0:0:0:
236,248,56480,1,0,0:0:0:0:
496,244,56630,1,0,0:0:0:0:
332,128,56780,1,0,0:0:0:0:
348,256,56855,1,0,0:0:0:0:
332,128,56930,1,8,0:0:0:0:
260,152,56980,1,8,0:0:0:0:
260,152,57030,1,8,0:0:0:0:
392,104,57080,1,8,0:0:0:0:
336,180,57380,1,8,0:0:0:0:
264,216,57680,1,0,0:0:0:0:
272,220,57830,1,8,0:0:0:0:
268,224,57980,1,0,0:0:0:0:
268,224,58055,1,0,0:0:0:0:
264,228,58130,1,8,0:0:0:0:
268,224,58280,1,0,0:0:0:0:
336,256,58430,1,0,0:0:0:0:
352,184,58580,1,8,0:0:0:0:
284,140,58655,1,0,0:0:0:0:
284,140,58730,1,0,0:0:0:0:
284,140,58880,1,8,0:0:0:0:
284,140,58955,1,0,0:0:0:0:
284,140,59030,1,8,0:0:0:0:
500,288,59180,1,8,0:0:0:0:
488,272,59330,1,0,0:0:0:0:
284,220,59480,1,8,0:0:0:0:
284,220,59555,1,8,0:0:0:0:
284,220,59630,1,8,0:0:0:0:
284,220,59780,1,0,0:0:0:0:
316,152,60080,1,8,0:0:0:0:
216,148,60230,1,0,0:0:0:0:
212,160,60380,1,8,0:0:0:0:
188,248,60455,1,0,0:0:0:0:
192,240,60530,1,8,0:0:0:0:
396,148,60680,1,8,0:0:0:0:
452,88,60830,1,0,0:0:0:0:
324,216,60980,1,0,0:0:0:0:
324,216,61055,1,0,0:0:0:0:
320,224,61130,1,8,0:0:0:0:
320,224,61280,1,0,0:0:0:0:
316,224,61355,1,8,0:0:0:0:
312,224,61430,1,8,0:0:0:0:
312,220,61580,1,0,0:0:0:0:
316,220,61655,1,0,0:0:0:0:
312,216,61730,1,0,0:0:0:0:
312,212,61805,1,0,0:0:0:0:
312,216,61880,1,8,0:0:0:0:
424,180,61930,1,8,0:0:0:0:
424,180,61980,1,8,0:0:0:0:
424,180,62030,1,8,0:0:0:0:
424,180,62080,1,0,0:0:0:0:
424,180,62130,1,0,0:0:0:0:
424,180,62180,1,8,0:0:0:0:
496,148,62330,1,0,0:0:0:0:
220,176,62480,1,0,0:0:0:0:
228,176,62555,1,0,0:0:0:0:
228,172,62630,1,8,0:0:0:0:
228,176,62780,1,8,0:0:0:0:
280,204,62855,1,8,0:0:0:0:
284,208,62930,1,0,0:0:0:0:
312,232,63080,1,0,0:0:0:0:
312,224,63155,1,8,0:0:0:0:
312,224,63230,1,8,0:0:0:0:
264,112,63380,1,0,0:0:0:0:
264,112,63455,1,0,0:0:0:0:
260,120,63530,1,8,0:0:0:0:
236,216,63680,1,0,0:0:0:0:
236,216,63755,1,0,0:0:0:0:
240,212,63830,1,8,0:0:0:0:
240,212,63905,1,8,0:0:0:0:
236,216,63980,1,8,0:0:0:0:
328,168,64130,1,0,0:0:0:0:
388,136,64280,1,8,0:0:0:0:
340,172,64580,1,0,0:0:0:0:
340,172,64655,1,0,0:0:0:0:
336,172,64730,1,8,0:0:0:0:
336,168,64880,1,0,0:0:0:0:
340,160,64955,1,0,0:0:0:0:
336,160,65030,1,8,0:0:0:0:
168,200,65180,1,0,0:0:0:0:
180,208,65255,1,0,0:0:0:0:
200,208,65330,1,8,0:0:0:0:
436,152,65405,1,8,0:0:0:0:
432,152,65480,1,8,0:0:0:0:
432,152,65530,1,8,0:0:0:0:
432,152,65580,1,8,0:0:0:0:
200,100,65630,1,8,0:0:0:0:
272,112,65780,1,8,0:0:0:0:
420,244,66080,1,0,0:0:0:0:
424,220,66380,1,8,0:0:0:0:
424,220,66680,1,0,0:0:0:0:
280,144,66980,1,4,0:0:0:0:
280,136,67130,1,4,0:0:0:0:
228,168,67430,1,4,0:0:0:0:
296,188,67730,1,4,0:0:0:0:
296,188,67880,1,12,0:0:0:0:
280,144,68180,1,4,0:0:0:0:
280,136,68330,1,4,0:0:0:0:
228,168,68630,1,4,0:0:0:0:
296,188,68930,1,4,0:0:0:0:
296,188,69080,1,12,0:0:0:0:
280,144,69380,1,4,0:0:0:0:
280,136,69530,1,4,0:0:0:0:
228,168,69830,1,4,0:0:0:0:
296,188,70130,1,4,0:0:0:0:
296,188,70280,1,12,0:0:0:0:
200,216,70580,1,0,0:0:0:0:
216,204,70730,1,8,0:0:0:0:
216,192,70880,1,8,0:0:0:0:
212,192,71030,1,0,0:0:0:0:
344,136,71180,1,8,0:0:0:0:
336,136,71330,1,8,0:0:0:0:
336,136,71480,1,8,0:0:0:0:
268,104,71630,1,0,0:0:0:0:
280,144,71780,1,4,0:0:0:0:
280,136,71930,1,4,0:0:0:0:
228,168,72230,1,4,0:0:0:0:
296,188,72530,1,4,0:0:0:0:
296,188,72680,1,12,0:0:0:0:
280,144,72980,1,4,0:0:0:0:
280,136,73130,1,4,0:0:0:0:
228,168,73430,1,4,0:0:0:0:
296,188,73730,1,4,0:0:0:0:
296,188,73880,1,12,0:0:0:0:
280,144,74180,1,4,0:0:0:0:
280,136,74330,1,4,0:0:0:0:
228,168,74630,1,4,0:0:0:0:
296,188,74930,1,4,0:0:0:0:
296,188,75080,1,12,0:0:0:0:
200,216,75380,1,0,0:0:0:0:
316,280,75455,1,0,0:0:0:0:
216,204,75530,1,8,0:0:0:0:
216,192,75680,1,8,0:0:0:0:
212,192,75830,1,0,0:0:0:0:
344,136,75980,1,8,0:0:0:0:
392,268,76055,1,0,0:0:0:0:
336,136,76130,1,8,0:0:0:0:
336,136,76280,1,8,0:0:0:0:
268,104,76430,1,0,0:0:0:0:
280,144,76580,1,4,0:0:0:0:
280,136,76730,1,4,0:0:0:0:
228,168,77030,1,4,0:0:0:0:
296,188,77330,1,4,0:0:0:0:
296,188,77480,1,12,0:0:0:0:
280,144,77780,1,4,0:0:0:0:
280,136,77930,1,4,0:0:0:0:
228,168,78230,1,4,0:0:0:0:
296,188,78530,1,4,0:0:0:0:
296,188,78680,1,12,0:0:0:0:
280,144,78980,1,4,0:0:0:0:
280,136,79130,1,4,0:0:0:0:
228,168,79430,1,4,0:0:0:0:
296,188,79730,1,4,0:0:0:0:
296,188,79880,1,12,0:0:0:0:
200,216,80180,1,0,0:0:0:0:
316,280,80255,1,0,0:0:0:0:
216,204,80330,1,8,0:0:0:0:
384,104,80405,1,0,0:0:0:0:
216,192,80480,1,8,0:0:0:0:
212,192,80630,1,0,0:0:0:0:
344,136,80780,1,8,0:0:0:0:
392,268,80855,1,0,0:0:0:0:
336,136,80930,1,8,0:0:0:0:
412,200,81005,1,0,0:0:0:0:
336,136,81080,1,8,0:0:0:0:
268,104,81230,1,0,0:0:0:0:
168,148,81380,1,4,0:0:0:0:
168,152,81530,1,4,0:0:0:0:
216,192,81680,1,8,0:0:0:0:
224,200,81755,1,8,0:0:0:0:
224,200,81830,1,8,0:0:0:0:
220,196,81980,1,4,0:0:0:0:
220,200,82130,1,4,0:0:0:0:
216,200,82280,1,8,0:0:0:0:
216,200,82355,1,8,0:0:0:0:
216,200,82430,1,8,0:0:0:0:
168,148,82580,1,4,0:0:0:0:
168,152,82730,1,4,0:0:0:0:
216,192,82880,1,8,0:0:0:0:
224,200,82955,1,8,0:0:0:0:
224,200,83030,1,8,0:0:0:0:
220,196,83180,1,4,0:0:0:0:
220,200,83330,1,4,0:0:0:0:
216,200,83480,1,8,0:0:0:0:
216,200,83555,1,8,0:0:0:0:
216,200,83630,1,8,0:0:0:0:
348,148,83780,1,8,0:0:0:0:
348,152,83930,1,0,0:0:0:0:
268,192,84080,1,8,0:0:0:0:
268,192,84155,1,8,0:0:0:0:
268,192,84230,1,0,0:0:0:0:
268,192,84305,1,0,0:0:0:0:
264,188,84380,1,8,0:0:0:0:
284,124,84455,1,8,0:0:0:0:
284,128,84530,1,0,0:0:0:0:
280,128,84605,1,0,0:0:0:0:
280,128,84680,1,8,0:0:0:0:
280,128,84730,1,8,0:0:0:0:
216,144,84780,1,8,0:0:0:0:
284,124,84830,1,8,0:0:0:0:
432,200,84980,1,0,0:0:0:0:
392,112,85280,1,8,0:0:0:0:
392,112,85580,1,8,0:0:0:0:
392,112,85880,1,0,0:0:0:0:
284,152,86180,1,0,0:0:0:0:
284,152,86330,1,8,0:0:0:0:
284,152,86480,1,8,0:0:0:0:
280,160,86630,1,0,0:0:0:0:
320,220,86780,1,8,0:0:0:0:
320,220,86930,1,8,0:0:0:0:
272,112,87080,1,0,0:0:0:0:
208,160,87380,1,4,0:0:0:0:
208,160,87530,1,8,0:0:0:0:
300,148,87680,1,0,0:0:0:0:
300,152,87755,1,0,0:0:0:0:
300,148,87830,1,8,0:0:0:0:
336,160,87980,1,8,0:0:0:0:
332,160,88055,1,8,0:0:0:0:
328,156,88130,1,0,0:0:0:0:
328,156,88280,1,0,0:0:0:0:
328,156,88355,1,0,0:0:0:0:
328,156,88430,1,8,0:0:0:0:
348,268,88580,1,0,0:0:0:0:
348,268,88730,1,8,0:0:0:0:
200,180,88880,1,0,0:0:0:0:
200,184,88955,1,0,0:0:0:0:
200,180,89030,1,0,0:0:0:0:
200,184,89105,1,8,0:0:0:0:
304,144,89180,1,8,0:0:0:0:
304,144,89255,1,8,0:0:0:0:
304,148,89330,1,0,0:0:0:0:
264,96,89405,1,0,0:0:0:0:
304,148,89480,1,8,0:0:0:0:
464,224,89630,1,0,0:0:0:0:
304,244,89780,1,0,0:0:0:0:
308,232,89930,1,8,0:0:0:0:
224,232,90080,1,0,0:0:0:0:
224,232,90155,1,8,0:0:0:0:
224,232,90230,1,0,0:0:0:0:
224,232,90380,1,8,0:0:0:0:
296,168,90455,1,0,0:0:0:0:
296,168,90605,1,0,0:0:0:0:
296,168,90680,1,8,0:0:0:0:
404,144,90755,1,8,0:0:0:0:
488,248,90830,1,8,0:0:0:0:
492,260,90905,1,0,0:0:0:0:
364,204,90980,1,8,0:0:0:0:
364,204,91130,1,0,0:0:0:0:
244,104,91280,1,8,0:0:0:0:
244,104,91355,1,8,0:0:0:0:
240,112,91430,1,0,0:0:0:0:
216,136,91580,1,8,0:0:0:0:
192,120,91655,1,8,0:0:0:0:
192,120,91730,1,0,0:0:0:0:
192,120,91805,1,0,0:0:0:0:
192,112,91880,1,8,0:0:0:0:
344,200,92030,1,8,0:0:0:0:
188,220,92180,1,0,0:0:0:0:
192,216,92330,1,8,0:0:0:0:
336,208,92480,1,0,0:0:0:0:
316,168,92555,1,0,0:0:0:0:
312,160,92705,1,0,0:0:0:0:
312,156,92780,1,8,0:0:0:0:
312,156,92930,1,0,0:0:0:0:
416,224,93080,1,0,0:0:0:0:
416,216,93155,1,0,0:0:0:0:
416,208,93230,1,8,0:0:0:0:
412,204,93305,1,0,0:0:0:0:
412,204,93380,1,0,0:0:0:0:
304,64,93530,1,8,0:0:0:0:
280,196,93680,1,8,0:0:0:0:
280,196,93755,1,0,0:0:0:0:
280,196,93830,1,0,0:0:0:0:
280,196,93980,1,8,0:0:0:0:
280,196,94130,1,0,0:0:0:0:
216,112,94205,1,0,0:0:0:0:
216,112,94280,1,8,0:0:0:0:
348,224,94355,1,0,0:0:0:0:
396,112,94430,1,8,0:0:0:0:
376,184,94580,1,0,0:0:0:0:
240,248,94730,1,8,0:0:0:0:
244,240,94880,1,0,0:0:0:0:
244,244,94955,1,0,0:0:0:0:
244,240,95105,1,8,0:0:0:0:
216,80,95180,1,8,0:0:0:0:
216,80,95330,1,8,0:0:0:0:
216,80,95405,1,0,0:0:0:0:
216,80,95480,1,0,0:0:0:0:
296,184,95630,1,8,0:0:0:0:
344,148,95780,1,0,0:0:0:0:
160,284,95855,1,0,0:0:0:0:
236,248,96005,1,0,0:0:0:0:
236,248,96080,1,0,0:0:0:0:
496,244,96230,1,0,0:0:0:0:
332,128,96380,1,0,0:0:0:0:
348,256,96455,1,0,0:0:0:0:
332,128,96530,1,8,0:0:0:0:
260,152,96580,1,8,0:0:0:0:
260,152,96630,1,8,0:0:0:0:
392,104,96680,1,8,0:0:0:0:
212,232,96980,1,0,0:0:0:0:
216,236,97130,1,8,0:0:0:0:
304,200,97280,1,0,0:0:0:0:
304,200,97355,1,0,0:0:0:0:
304,200,97430,1,8,0:0:0:0:
304,200,97505,1,0,0:0:0:0:
304,200,97580,1,8,0:0:0:0:
272,256,97655,1,0,0:0:0:0:
272,248,97730,1,0,0:0:0:0:
272,240,97805,1,0,0:0:0:0:
272,244,97880,1,8,0:0:0:0:
304,148,97955,1,0,0:0:0:0:
304,148,98030,1,8,0:0:0:0:
388,232,98180,1,0,0:0:0:0:
392,212,98330,1,8,0:0:0:0:
176,184,98480,1,0,0:0:0:0:
188,176,98555,1,0,0:0:0:0:
188,176,98630,1,8,0:0:0:0:
192,176,98705,1,0,0:0:0:0:
328,128,98780,1,8,0:0:0:0:
348,256,98855,1,8,0:0:0:0:
328,128,98930,1,0,0:0:0:0:
348,264,99005,1,0,0:0:0:0:
320,136,99080,1,8,0:0:0:0:
312,176,99155,1,0,0:0:0:0:
312,176,99230,1,8,0:0:0:0:
328,160,99380,1,0,0:0:0:0:
336,164,99530,1,8,0:0:0:0:
232,128,99680,1,0,0:0:0:0:
224,136,99755,1,8,0:0:0:0:
224,132,99830,1,8,0:0:0:0:
224,132,99905,1,0,0:0:0:0:
240,200,99980,1,8,0:0:0:0:
392,204,100055,1,0,0:0:0:0:
236,208,100130,1,0,0:0:0:0:
344,144,100205,1,0,0:0:0:0:
204,156,100280,1,8,0:0:0:0:
204,156,100355,1,8,0:0:0:0:
204,156,100430,1,8,0:0:0:0:
204,156,100505,1,0,0:0:0:0:
200,160,100580,1,0,0:0:0:0:
316,228,100730,1,0,0:0:0:0:
312,216,100780,1,0,0:0:0:0:
472,216,100830,1,0,0:0:0:0:
308,212,100880,1,0,0:0:0:0:
224,84,101030,1,0,0:0:0:0:
248,88,101105,1,0,0:0:0:0:
244,100,101180,1,8,0:0:0:0:
312,136,101230,1,8,0:0:0:0:
312,136,101280,1,8,0:0:0:0:
312,136,101330,1,8,0:0:0:0:
432,124,101480,1,8,0:0:0:0:
416,220,101780,1,8,0:0:0:0:
228,168,101855,1,8,0:0:0:0:
316,232,101930,1,0,0:0:0:0:
212,252,102005,1,0,0:0:0:0:
316,224,102080,1,8,0:0:0:0:
212,180,102155,1,0,0:0:0:0:
320,216,102230,1,0,0:0:0:0:
216,184,102305,1,8,0:0:0:0:
216,184,102380,1,8,0:0:0:0:
212,184,102455,1,0,0:0:0:0:
348,260,102530,1,0,0:0:0:0:
284,280,102605,1,8,0:0:0:0:
284,280,102680,1,0,0:0:0:0:
348,260,102755,1,0,0:0:0:0:
348,260,102830,1,8,0:0:0:0:
308,160,102980,1,8,0:0:0:0:
248,104,103055,1,0,0:0:0:0:
248,104,103130,1,0,0:0:0:0:
248,96,103205,1,8,0:0:0:0:
248,96,103280,1,8,0:0:0:0:
248,96,103355,1,0,0:0:0:0:
248,96,103430,1,0,0:0:0:0:
248,96,103505,1,0,0:0:0:0:
248,96,103580,1,8,0:0:0:0:
248,96,103655,1,8,0:0:0:0:
248,96,103730,1,8,0:0:0:0:
240,100,103805,1,8,0:0:0:0:
240,96,103880,1,0,0:0:0:0:
368,176,103955,1,0,0:0:0:0:
368,180,104030,1,8,0:0:0:0:
260,264,104180,1,0,0:0:0:0:
272,248,104255,1,0,0:0:0:0:
268,236,104330,1,0,0:0:0:0:
272,232,104405,1,0,0:0:0:0:
268,232,104480,1,8,0:0:0:0:
264,232,104555,1,8,0:0:0:0:
264,232,104630,1,8,0:0:0:0:
264,232,104705,1,8,0:0:0:0:
452,200,104780,1,0,0:0:0:0:
448,196,104830,1,0,0:0:0:0:
444,192,104880,1,0,0:0:0:0:
440,192,104930,1,0,0:0:0:0:
440,192,104980,1,0,0:0:0:0:
436,196,105030,1,0,0:0:0:0:
432,196,105080,1,8,0:0:0:0:
432,196,105130,1,8,0:0:0:0:
428,200,105180,1,8,0:0:0:0:
428,204,105230,1,8,0:0:0:0:
424,204,105280,1,8,0:0:0:0:
244,144,105330,1,8,0:0:0:0:
352,160,105380,1,8,0:0:0:0:
404,140,105680,1,0,0:0:0:0:
304,92,105980,1,8,0:0:0:0:
304,92,106280,1,0,0:0:0:0:
224,168,106580,1,4,0:0:0:0:
216,168,106730,1,4,0:0:0:0:
224,168,106880,1,4,0:0:0:0:
216,168,107030,1,4,0:0:0:0:
224,168,107180,1,4,0:0:0:0:
216,168,107330,1,4,0:0:0:0:
224,168,107480,1,4,0:0:0:0:
216,168,107630,1,4,0:0:0:0:
224,168,107780,1,4,0:0:0:0:
216,168,107930,1,4,0:0:0:0:
224,168,108080,1,4,0:0:0:0:
216,168,108230,1,4,0:0:0:0:
224,168,108380,1,4,0:0:0:0:
216,168,108530,1,4,0:0:0:0:
224,168,108680,1,4,0:0:0:0:
216,168,108830,1,4,0:0:0:0:
224,168,108980,1,4,0:0:0:0:
216,168,109130,1,4,0:0:0:0:
224,168,109280,1,4,0:0:0:0:
216,168,109430,1,4,0:0:0:0:
224,168,109580,1,4,0:0:0:0:
216,168,109730,1,4,0:0:0:0:
224,168,109880,1,4,0:0:0:0:
216,168,110030,1,4,0:0:0:0:
224,168,110180,1,4,0:0:0:0:
216,168,110330,1,4,0:0:0:0:
224,168,110480,1,4,0:0:0:0:
216,168,110630,1,4,0:0:0:0:
224,168,110780,1,4,0:0:0:0:
216,168,110930,1,4,0:0:0:0:
344,200,111080,1,12,0:0:0:0:
272,124,111380,1,8,0:0:0:0:
272,124,111455,1,0,0:0:0:0:
272,124,111530,1,0,0:0:0:0:
272,124,111605,1,0,0:0:0:0:
272,124,111680,1,8,0:0:0:0:
272,124,111755,1,0,0:0:0:0:
272,124,111830,1,0,0:0:0:0:
272,124,111905,1,0,0:0:0:0:
272,124,111980,1,8,0:0:0:0:
272,124,112055,1,0,0:0:0:0:
272,124,112130,1,0,0:0:0:0:
272,124,112205,1,0,0:0:0:0:
272,124,112280,1,8,0:0:0:0:
272,124,112355,1,0,0:0:0:0:
272,124,112430,1,0,0:0:0:0:
272,124,112505,1,0,0:0:0:0:
272,124,112580,1,8,0:0:0:0:
272,124,112655,1,8,0:0:0:0:
272,124,112730,1,0,0:0:0:0:
272,124,112805,1,0,0:0:0:0:
272,124,112880,1,8,0:0:0:0:
272,124,112955,1,8,0:0:0:0:
272,124,113030,1,0,0:0:0:0:
384,140,113105,1,0,0:0:0:0:
272,124,113180,1,8,0:0:0:0:
272,124,113255,1,8,0:0:0:0:
272,124,113330,1,0,0:0:0:0:
384,140,113405,1,0,0:0:0:0:
272,124,113480,1,8,0:0:0:0:
228,216,113555,1,8,0:0:0:0:
348,220,113630,1,0,0:0:0:0:
288,184,113705,1,0,0:0:0:0:
204,128,113780,1,8,0:0:0:0:
204,136,113855,1,0,0:0:0:0:
204,136,113930,1,8,0:0:0:0:
204,136,114005,1,0,0:0:0:0:
204,128,114080,1,8,0:0:0:0:
204,136,114155,1,0,0:0:0:0:
204,136,114230,1,8,0:0:0:0:
204,136,114305,1,0,0:0:0:0:
204,128,114380,1,8,0:0:0:0:
204,136,114455,1,0,0:0:0:0:
204,136,114530,1,8,0:0:0:0:
204,136,114605,1,0,0:0:0:0:
204,128,114680,1,8,0:0:0:0:
204,136,114755,1,0,0:0:0:0:
204,136,114830,1,8,0:0:0:0:
204,136,114905,1,0,0:0:0:0:
400,192,114980,1,8,0:0:0:0:
332,256,115030,1,8,0:0:0:0:
332,256,115080,1,8,0:0:0:0:
332,256,115130,1,8,0:0:0:0:
332,256,115180,1,8,0:0:0:0:
332,256,115230,1,8,0:0:0:0:
332,256,115280,1,8,0:0:0:0:
408,268,115317,1,8,0:0:0:0:
408,268,115355,1,8,0:0:0:0:
408,268,115392,1,8,0:0:0:0:
408,268,115430,1,8,0:0:0:0:
408,268,115467,1,8,0:0:0:0:
272,244,115505,1,8,0:0:0:0:
284,132,115580,1,4,0:0:0:0:
292,136,115730,1,4,0:0:0:0:
288,136,115880,1,4,0:0:0:0:
288,136,116030,1,12,0:0:0:0:
