osu file format v14

[General]
AudioFilename: audio.mp3
AudioLeadIn: 0
PreviewTime: 46583
Countdown: 1
SampleSet: Normal
StackLeniency: 0.7
Mode: 3
LetterboxInBreaks: 0
SpecialStyle: 0
WidescreenStoryboard: 1

[Editor]
DistanceSpacing: 1.5
BeatDivisor: 4
GridSize: 4
TimelineZoom: 3.699999

[Metadata]
Title:Angelic Jelly
TitleUnicode:Angelic Jelly
Artist:t+pazolite
ArtistUnicode:t+pazolite
Creator:Kyouya-
Version:NOVICE
Source:SOUND VOLTEX III GRAVITY WARS
Tags:SDVX New Generation 夏の流星フェスタ2016 bemani konami beatmania IIDX 23 copula jubeat qubel movic12
BeatmapID:1150127
BeatmapSetID:542566

[Difficulty]
HPDrainRate:7
CircleSize:4
OverallDifficulty:7
ApproachRate:5
SliderMultiplier:1.4
SliderTickRate:1

[Events]
//Background and Video events
0,0,"BG.jpg",0,0
//Break Periods
//Storyboard Layer 0 (Background)
//Storyboard Layer 1 (Fail)
//Storyboard Layer 2 (Pass)
//Storyboard Layer 3 (Foreground)
//Storyboard Sound Samples

[TimingPoints]
2183,300,4,1,0,45,1,0
47775,-100,4,1,0,45,0,1
66975,-100,4,1,0,45,0,0
87375,-100,4,1,0,45,0,1
105375,-100,4,1,0,45,0,0
106575,-100,4,1,0,45,0,1
116175,-100,4,1,0,45,0,0

[HitObjects]
64,192,2183,5,0,0:0:0:0:
448,192,2183,128,0,3383:0:0:0:0:
320,192,3383,1,0,0:0:0:0:
64,192,3533,1,0,0:0:0:0:
192,192,3683,1,0,0:0:0:0:
320,192,3833,1,0,0:0:0:0:
192,192,4133,1,0,0:0:0:0:
320,192,4283,1,0,0:0:0:0:
448,192,4283,1,0,0:0:0:0:
192,192,4433,1,0,0:0:0:0:
64,192,4583,1,0,0:0:0:0:
320,192,4583,1,0,0:0:0:0:
192,192,4733,1,0,0:0:0:0:
448,192,4883,1,0,0:0:0:0:
192,192,5033,1,0,0:0:0:0:
64,192,5183,1,0,0:0:0:0:
192,192,5333,1,0,0:0:0:0:
320,192,5483,1,0,0:0:0:0:
320,192,5633,1,0,0:0:0:0:
448,192,5783,1,0,0:0:0:0:
64,192,5783,1,0,0:0:0:0:
192,192,5933,1,0,0:0:0:0:
320,192,6083,1,0,0:0:0:0:
192,192,6233,1,0,0:0:0:0:
448,192,6383,1,0,0:0:0:0:
64,192,6533,1,0,0:0:0:0:
192,192,6683,1,0,0:0:0:0:
192,192,6833,1,0,0:0:0:0:
448,192,6983,1,0,0:0:0:0:
64,192,6983,1,0,0:0:0:0:
320,192,7133,1,0,0:0:0:0:
64,192,7283,1,0,0:0:0:0:
192,192,7433,1,0,0:0:0:0:
448,192,7583,1,0,0:0:0:0:
320,192,7733,1,0,0:0:0:0:
192,192,7883,1,0,0:0:0:0:
448,192,8033,1,0,0:0:0:0:
192,192,8183,1,0,0:0:0:0:
64,192,8183,1,0,0:0:0:0:
320,192,8333,1,0,0:0:0:0:
448,192,8483,1,0,0:0:0:0:
192,192,8633,1,0,0:0:0:0:
64,192,8783,1,0,0:0:0:0:
320,192,8933,1,0,0:0:0:0:
192,192,9083,1,0,0:0:0:0:
448,192,9083,1,0,0:0:0:0:
64,192,9383,1,0,0:0:0:0:
320,192,9383,1,0,0:0:0:0:
192,192,9533,1,0,0:0:0:0:
320,192,9683,1,0,0:0:0:0:
64,192,9833,1,0,0:0:0:0:
448,192,9983,1,0,0:0:0:0:
192,192,10133,1,0,0:0:0:0:
448,192,10283,1,0,0:0:0:0:
448,192,10433,1,0,0:0:0:0:
64,192,10583,1,0,0:0:0:0:
192,192,10583,1,0,0:0:0:0:
448,192,10733,1,0,0:0:0:0:
192,192,10883,1,0,0:0:0:0:
64,192,11033,1,0,0:0:0:0:
320,192,11183,1,0,0:0:0:0:
448,192,11333,1,0,0:0:0:0:
64,192,11483,1,0,0:0:0:0:
64,192,11633,1,0,0:0:0:0:
448,192,11783,1,0,0:0:0:0:
192,192,11783,1,0,0:0:0:0:
320,192,11933,1,0,0:0:0:0:
64,192,12083,1,0,0:0:0:0:
320,192,12233,1,0,0:0:0:0:
448,192,12383,1,0,0:0:0:0:
192,192,12533,1,0,0:0:0:0:
448,192,12683,1,0,0:0:0:0:
320,192,12833,1,0,0:0:0:0:
192,192,12983,1,0,0:0:0:0:
64,192,12983,1,0,0:0:0:0:
448,192,13283,1,0,0:0:0:0:
192,192,13283,1,0,0:0:0:0:
192,192,13583,1,0,0:0:0:0:
64,192,13583,1,0,0:0:0:0:
192,192,13883,128,0,14033:0:0:0:0:
320,192,13883,128,0,14033:0:0:0:0:
448,192,14183,1,0,0:0:0:0:
64,192,14183,1,0,0:0:0:0:
192,192,14333,1,0,0:0:0:0:
320,192,14483,1,0,0:0:0:0:
448,192,14633,1,0,0:0:0:0:
192,192,14783,1,0,0:0:0:0:
64,192,14933,1,0,0:0:0:0:
320,192,15083,1,0,0:0:0:0:
320,192,15233,1,0,0:0:0:0:
64,192,15383,1,0,0:0:0:0:
448,192,15383,1,0,0:0:0:0:
192,192,15533,1,0,0:0:0:0:
448,192,15683,1,0,0:0:0:0:
192,192,15833,1,0,0:0:0:0:
64,192,15983,1,0,0:0:0:0:
320,192,16133,1,0,0:0:0:0:
64,192,16283,1,0,0:0:0:0:
64,192,16433,1,0,0:0:0:0:
320,192,16583,1,0,0:0:0:0:
192,192,16583,1,0,0:0:0:0:
448,192,16733,1,0,0:0:0:0:
64,192,16883,1,0,0:0:0:0:
320,192,17033,1,0,0:0:0:0:
192,192,17183,1,0,0:0:0:0:
448,192,17333,1,0,0:0:0:0:
64,192,17483,1,0,0:0:0:0:
320,192,17633,1,0,0:0:0:0:
192,192,17783,1,0,0:0:0:0:
64,192,17783,1,0,0:0:0:0:
320,192,17933,1,0,0:0:0:0:
448,192,18083,1,0,0:0:0:0:
192,192,18233,1,0,0:0:0:0:
64,192,18383,1,0,0:0:0:0:
320,192,18533,1,0,0:0:0:0:
448,192,18683,1,0,0:0:0:0:
192,192,18683,1,0,0:0:0:0:
64,192,18983,1,0,0:0:0:0:
320,192,18983,1,0,0:0:0:0:
192,192,19133,1,0,0:0:0:0:
320,192,19283,1,0,0:0:0:0:
448,192,19433,1,0,0:0:0:0:
192,192,19583,1,0,0:0:0:0:
64,192,19733,1,0,0:0:0:0:
192,192,19883,1,0,0:0:0:0:
448,192,20033,1,0,0:0:0:0:
64,192,20183,1,0,0:0:0:0:
320,192,20183,1,0,0:0:0:0:
192,192,20333,5,0,0:0:0:0:
64,192,20483,1,0,0:0:0:0:
320,192,20633,1,0,0:0:0:0:
448,192,20783,1,0,0:0:0:0:
320,192,20933,1,0,0:0:0:0:
64,192,21083,1,0,0:0:0:0:
448,192,21233,1,0,0:0:0:0:
64,192,21383,128,0,21533:0:0:0:0:
320,192,21533,1,0,0:0:0:0:
448,192,21683,128,0,21833:0:0:0:0:
192,192,21833,1,0,0:0:0:0:
64,192,21983,128,0,22133:0:0:0:0:
320,192,22133,1,0,0:0:0:0:
448,192,22283,128,0,22433:0:0:0:0:
192,192,22433,1,0,0:0:0:0:
448,192,22583,1,0,0:0:0:0:
64,192,22583,128,0,23783:0:0:0:0:
320,192,22733,1,0,0:0:0:0:
192,192,22883,1,0,0:0:0:0:
320,192,23033,1,0,0:0:0:0:
448,192,23183,1,0,0:0:0:0:
192,192,23333,1,0,0:0:0:0:
320,192,23483,1,0,0:0:0:0:
448,192,23633,1,0,0:0:0:0:
192,192,23783,1,0,0:0:0:0:
320,192,23783,1,0,0:0:0:0:
64,192,24683,1,0,0:0:0:0:
448,192,24983,1,0,0:0:0:0:
320,192,24983,1,0,0:0:0:0:
192,192,25283,1,0,0:0:0:0:
64,192,25583,1,0,0:0:0:0:
320,192,25883,1,0,0:0:0:0:
64,192,26183,1,0,0:0:0:0:
448,192,26183,1,0,0:0:0:0:
192,192,26483,1,0,0:0:0:0:
64,192,27083,1,0,0:0:0:0:
448,192,27383,1,0,0:0:0:0:
320,192,27383,1,0,0:0:0:0:
192,192,28283,1,0,0:0:0:0:
320,192,28433,1,0,0:0:0:0:
448,192,28583,1,0,0:0:0:0:
64,192,28583,1,0,0:0:0:0:
320,192,28883,1,0,0:0:0:0:
64,192,29483,1,0,0:0:0:0:
192,192,29783,1,0,0:0:0:0:
448,192,29783,1,0,0:0:0:0:
64,192,30083,1,0,0:0:0:0:
448,192,30983,1,0,0:0:0:0:
192,192,30983,1,0,0:0:0:0:
320,192,31433,1,0,0:0:0:0:
64,192,31883,1,0,0:0:0:0:
192,192,32183,1,0,0:0:0:0:
448,192,32183,1,0,0:0:0:0:
320,192,32633,1,0,0:0:0:0:
192,192,32708,1,0,0:0:0:0:
64,192,32783,1,0,0:0:0:0:
320,192,32933,1,0,0:0:0:0:
64,192,33083,1,0,0:0:0:0:
320,192,33233,1,0,0:0:0:0:
192,192,33383,1,0,0:0:0:0:
448,192,33383,1,0,0:0:0:0:
320,192,34283,1,0,0:0:0:0:
448,192,34583,1,0,0:0:0:0:
64,192,34583,1,0,0:0:0:0:
320,192,34883,1,0,0:0:0:0:
64,192,35183,1,0,0:0:0:0:
192,192,35483,1,0,0:0:0:0:
448,192,35783,1,0,0:0:0:0:
192,192,35783,1,0,0:0:0:0:
64,192,36083,1,0,0:0:0:0:
448,192,36683,1,0,0:0:0:0:
192,192,36833,1,0,0:0:0:0:
64,192,36983,1,0,0:0:0:0:
320,192,36983,1,0,0:0:0:0:
192,192,37883,1,0,0:0:0:0:
320,192,38033,1,0,0:0:0:0:
448,192,38183,1,0,0:0:0:0:
64,192,38183,1,0,0:0:0:0:
192,192,38483,1,0,0:0:0:0:
448,192,39083,1,0,0:0:0:0:
320,192,39233,1,0,0:0:0:0:
448,192,39383,1,0,0:0:0:0:
64,192,39383,1,0,0:0:0:0:
320,192,39683,1,0,0:0:0:0:
192,192,39683,1,0,0:0:0:0:
320,192,40583,1,0,0:0:0:0:
192,192,40583,1,0,0:0:0:0:
448,192,41033,1,0,0:0:0:0:
64,192,41033,1,0,0:0:0:0:
320,192,41483,1,0,0:0:0:0:
192,192,41633,1,0,0:0:0:0:
64,192,41783,1,0,0:0:0:0:
448,192,41783,1,0,0:0:0:0:
320,192,42083,1,0,0:0:0:0:
448,192,42383,1,0,0:0:0:0:
320,192,42533,1,0,0:0:0:0:
64,192,42683,1,0,0:0:0:0:
192,192,42833,1,0,0:0:0:0:
64,192,42983,1,0,0:0:0:0:
448,192,42983,128,0,45383:0:0:0:0:
192,192,45383,128,0,45533:0:0:0:0:
64,192,45533,128,0,45683:0:0:0:0:
320,192,45683,128,0,45833:0:0:0:0:
192,192,45833,128,0,45983:0:0:0:0:
448,192,45983,128,0,46133:0:0:0:0:
64,192,46133,128,0,46283:0:0:0:0:
192,192,46283,128,0,46433:0:0:0:0:
320,192,46433,128,0,46583:0:0:0:0:
448,192,46583,1,0,0:0:0:0:
64,192,46583,1,0,0:0:0:0:
448,192,46883,1,0,0:0:0:0:
320,192,46883,1,0,0:0:0:0:
320,192,47183,1,0,0:0:0:0:
64,192,47183,1,0,0:0:0:0:
64,192,47483,1,0,0:0:0:0:
448,192,47483,128,0,47783:0:0:0:0:
192,192,47633,1,0,0:0:0:0:
320,192,47783,1,0,0:0:0:0:
64,192,47783,1,0,0:0:0:0:
192,192,47933,1,0,0:0:0:0:
320,192,48083,1,0,0:0:0:0:
192,192,48233,1,0,0:0:0:0:
448,192,48383,1,0,0:0:0:0:
64,192,48533,1,0,0:0:0:0:
192,192,48683,1,0,0:0:0:0:
320,192,48833,1,0,0:0:0:0:
192,192,48983,1,0,0:0:0:0:
64,192,48983,1,0,0:0:0:0:
320,192,49133,1,0,0:0:0:0:
448,192,49283,1,0,0:0:0:0:
192,192,49433,1,0,0:0:0:0:
64,192,49583,1,0,0:0:0:0:
448,192,49733,1,0,0:0:0:0:
192,192,49883,1,0,0:0:0:0:
192,192,50033,1,0,0:0:0:0:
64,192,50183,1,0,0:0:0:0:
448,192,50183,1,0,0:0:0:0:
320,192,50333,1,0,0:0:0:0:
64,192,50483,1,0,0:0:0:0:
192,192,50633,1,0,0:0:0:0:
448,192,50783,1,0,0:0:0:0:
64,192,50933,1,0,0:0:0:0:
320,192,51083,1,0,0:0:0:0:
192,192,51233,1,0,0:0:0:0:
320,192,51383,1,0,0:0:0:0:
448,192,51383,1,0,0:0:0:0:
192,192,51533,1,0,0:0:0:0:
448,192,51683,1,0,0:0:0:0:
64,192,51833,1,0,0:0:0:0:
320,192,51983,1,0,0:0:0:0:
448,192,51983,128,0,52283:0:0:0:0:
320,192,52283,128,0,52583:0:0:0:0:
192,192,52283,1,0,0:0:0:0:
448,192,52583,1,0,0:0:0:0:
64,192,52583,1,0,0:0:0:0:
192,192,52733,1,0,0:0:0:0:
448,192,52883,1,0,0:0:0:0:
64,192,53033,1,0,0:0:0:0:
320,192,53183,1,0,0:0:0:0:
192,192,53333,1,0,0:0:0:0:
448,192,53483,1,0,0:0:0:0:
64,192,53633,1,0,0:0:0:0:
448,192,53783,1,0,0:0:0:0:
320,192,53783,1,0,0:0:0:0:
64,192,53933,1,0,0:0:0:0:
320,192,54083,1,0,0:0:0:0:
192,192,54233,1,0,0:0:0:0:
448,192,54383,1,0,0:0:0:0:
64,192,54533,1,0,0:0:0:0:
320,192,54683,1,0,0:0:0:0:
320,192,54833,1,0,0:0:0:0:
192,192,54983,1,0,0:0:0:0:
64,192,54983,1,0,0:0:0:0:
448,192,55133,1,0,0:0:0:0:
64,192,55283,1,0,0:0:0:0:
192,192,55433,1,0,0:0:0:0:
448,192,55583,1,0,0:0:0:0:
192,192,55733,1,0,0:0:0:0:
320,192,55883,1,0,0:0:0:0:
64,192,56033,1,0,0:0:0:0:
448,192,56183,128,0,56633:0:0:0:0:
192,192,56183,1,0,0:0:0:0:
320,192,56633,128,0,56783:0:0:0:0:
64,192,56783,128,0,57083:0:0:0:0:
448,192,56933,1,0,0:0:0:0:
320,192,57083,1,0,0:0:0:0:
192,192,57233,1,0,0:0:0:0:
448,192,57383,1,0,0:0:0:0:
64,192,57383,1,0,0:0:0:0:
320,192,57533,1,0,0:0:0:0:
192,192,57683,1,0,0:0:0:0:
448,192,57833,1,0,0:0:0:0:
64,192,57983,1,0,0:0:0:0:
192,192,58133,1,0,0:0:0:0:
64,192,58283,1,0,0:0:0:0:
320,192,58433,1,0,0:0:0:0:
448,192,58583,1,0,0:0:0:0:
192,192,58583,1,0,0:0:0:0:
320,192,58733,1,0,0:0:0:0:
64,192,58883,1,0,0:0:0:0:
448,192,59033,1,0,0:0:0:0:
192,192,59183,1,0,0:0:0:0:
320,192,59333,1,0,0:0:0:0:
192,192,59483,1,0,0:0:0:0:
192,192,59633,1,0,0:0:0:0:
64,192,59783,1,0,0:0:0:0:
320,192,59783,1,0,0:0:0:0:
448,192,59933,1,0,0:0:0:0:
192,192,60083,1,0,0:0:0:0:
320,192,60233,1,0,0:0:0:0:
64,192,60383,1,0,0:0:0:0:
448,192,60533,1,0,0:0:0:0:
320,192,60683,1,0,0:0:0:0:
192,192,60833,1,0,0:0:0:0:
448,192,60983,1,0,0:0:0:0:
64,192,60983,1,0,0:0:0:0:
192,192,61133,1,0,0:0:0:0:
320,192,61283,1,0,0:0:0:0:
192,192,61433,1,0,0:0:0:0:
448,192,61583,128,0,61883:0:0:0:0:
64,192,61883,1,0,0:0:0:0:
192,192,61958,1,0,0:0:0:0:
320,192,62033,1,0,0:0:0:0:
448,192,62183,1,0,0:0:0:0:
64,192,62183,1,0,0:0:0:0:
192,192,62333,1,0,0:0:0:0:
320,192,62483,1,0,0:0:0:0:
64,192,62633,1,0,0:0:0:0:
448,192,62783,1,0,0:0:0:0:
320,192,62933,1,0,0:0:0:0:
64,192,63083,1,0,0:0:0:0:
192,192,63233,1,0,0:0:0:0:
448,192,63383,1,0,0:0:0:0:
320,192,63383,1,0,0:0:0:0:
192,192,63533,1,0,0:0:0:0:
64,192,63683,1,0,0:0:0:0:
448,192,63833,1,0,0:0:0:0:
320,192,63983,1,0,0:0:0:0:
192,192,64133,1,0,0:0:0:0:
448,192,64283,128,0,64433:0:0:0:0:
64,192,64283,128,0,64433:0:0:0:0:
192,192,64583,1,0,0:0:0:0:
320,192,64583,1,0,0:0:0:0:
64,192,64733,1,0,0:0:0:0:
448,192,64883,1,0,0:0:0:0:
192,192,65033,1,0,0:0:0:0:
64,192,65183,1,0,0:0:0:0:
448,192,65183,128,0,65783:0:0:0:0:
192,192,65333,1,0,0:0:0:0:
320,192,65483,1,0,0:0:0:0:
192,192,65633,1,0,0:0:0:0:
320,192,65783,1,0,0:0:0:0:
64,192,65783,1,0,0:0:0:0:
192,192,66083,1,0,0:0:0:0:
320,192,66083,1,0,0:0:0:0:
448,192,66383,1,0,0:0:0:0:
192,192,66383,1,0,0:0:0:0:
448,192,66683,128,0,66833:0:0:0:0:
64,192,66683,128,0,66833:0:0:0:0:
192,192,66983,1,0,0:0:0:0:
320,192,67133,1,0,0:0:0:0:
64,192,67133,1,0,0:0:0:0:
448,192,67433,1,0,0:0:0:0:
192,192,67433,1,0,0:0:0:0:
320,192,67733,1,0,0:0:0:0:
448,192,67883,1,0,0:0:0:0:
192,192,67883,1,0,0:0:0:0:
192,192,68183,1,0,0:0:0:0:
320,192,68333,1,0,0:0:0:0:
64,192,68333,1,0,0:0:0:0:
448,192,68633,1,0,0:0:0:0:
192,192,68633,1,0,0:0:0:0:
320,192,68933,1,0,0:0:0:0:
448,192,69083,1,0,0:0:0:0:
192,192,69083,1,0,0:0:0:0:
64,192,69383,1,0,0:0:0:0:
448,192,69533,1,0,0:0:0:0:
192,192,69533,1,0,0:0:0:0:
64,192,69833,1,0,0:0:0:0:
320,192,69833,1,0,0:0:0:0:
448,192,70133,1,0,0:0:0:0:
64,192,70283,1,0,0:0:0:0:
320,192,70283,1,0,0:0:0:0:
448,192,70583,1,0,0:0:0:0:
320,192,70733,1,0,0:0:0:0:
64,192,70883,1,0,0:0:0:0:
192,192,71033,1,0,0:0:0:0:
320,192,71183,1,0,0:0:0:0:
448,192,71333,1,0,0:0:0:0:
192,192,71483,1,0,0:0:0:0:
64,192,71633,1,0,0:0:0:0:
448,192,71783,1,0,0:0:0:0:
320,192,71783,1,0,0:0:0:0:
192,192,71933,1,0,0:0:0:0:
448,192,72233,1,0,0:0:0:0:
64,192,72233,1,0,0:0:0:0:
192,192,72533,1,0,0:0:0:0:
320,192,72683,1,0,0:0:0:0:
448,192,72683,1,0,0:0:0:0:
192,192,72983,1,0,0:0:0:0:
64,192,72983,1,0,0:0:0:0:
320,192,73133,1,0,0:0:0:0:
448,192,73433,1,0,0:0:0:0:
192,192,73433,1,0,0:0:0:0:
320,192,73733,1,0,0:0:0:0:
64,192,73883,1,0,0:0:0:0:
448,192,73883,1,0,0:0:0:0:
448,192,74183,1,0,0:0:0:0:
192,192,74183,1,0,0:0:0:0:
320,192,74333,1,0,0:0:0:0:
320,192,74633,1,0,0:0:0:0:
64,192,74633,1,0,0:0:0:0:
64,192,74933,1,0,0:0:0:0:
448,192,75083,1,0,0:0:0:0:
192,192,75083,1,0,0:0:0:0:
64,192,75383,1,0,0:0:0:0:
192,192,75533,1,0,0:0:0:0:
320,192,75683,1,0,0:0:0:0:
192,192,75833,1,0,0:0:0:0:
448,192,75983,1,0,0:0:0:0:
320,192,76133,1,0,0:0:0:0:
192,192,76283,128,0,76433:0:0:0:0:
64,192,76283,128,0,76433:0:0:0:0:
320,192,76583,1,0,0:0:0:0:
448,192,76583,1,0,0:0:0:0:
192,192,76733,1,0,0:0:0:0:
448,192,77033,1,0,0:0:0:0:
64,192,77033,1,0,0:0:0:0:
320,192,77333,1,0,0:0:0:0:
192,192,77483,1,0,0:0:0:0:
448,192,77483,1,0,0:0:0:0:
64,192,77783,1,0,0:0:0:0:
320,192,77783,1,0,0:0:0:0:
192,192,77933,1,0,0:0:0:0:
448,192,78233,1,0,0:0:0:0:
192,192,78233,1,0,0:0:0:0:
192,192,78533,1,0,0:0:0:0:
64,192,78683,1,0,0:0:0:0:
448,192,78683,1,0,0:0:0:0:
64,192,78983,1,0,0:0:0:0:
448,192,78983,1,0,0:0:0:0:
320,192,79133,1,0,0:0:0:0:
64,192,79433,1,0,0:0:0:0:
320,192,79433,1,0,0:0:0:0:
64,192,79733,1,0,0:0:0:0:
448,192,79883,1,0,0:0:0:0:
192,192,79883,1,0,0:0:0:0:
320,192,80183,1,0,0:0:0:0:
192,192,80333,1,0,0:0:0:0:
64,192,80483,1,0,0:0:0:0:
320,192,80633,1,0,0:0:0:0:
448,192,80783,1,0,0:0:0:0:
192,192,80933,1,0,0:0:0:0:
64,192,81083,1,0,0:0:0:0:
320,192,81233,1,0,0:0:0:0:
64,192,81383,1,0,0:0:0:0:
64,192,81533,1,0,0:0:0:0:
448,192,81683,1,0,0:0:0:0:
320,192,81683,1,0,0:0:0:0:
448,192,81983,1,0,0:0:0:0:
448,192,82133,1,0,0:0:0:0:
192,192,82283,1,0,0:0:0:0:
64,192,82283,1,0,0:0:0:0:
192,192,82583,1,0,0:0:0:0:
192,192,82733,1,0,0:0:0:0:
320,192,82883,1,0,0:0:0:0:
448,192,82883,1,0,0:0:0:0:
320,192,83183,1,0,0:0:0:0:
320,192,83333,1,0,0:0:0:0:
192,192,83483,1,0,0:0:0:0:
64,192,83483,1,0,0:0:0:0:
448,192,83783,1,0,0:0:0:0:
64,192,83783,1,0,0:0:0:0:
320,192,83933,1,0,0:0:0:0:
192,192,84083,1,0,0:0:0:0:
64,192,84233,1,0,0:0:0:0:
448,192,84383,128,0,84983:0:0:0:0:
192,192,84383,1,0,0:0:0:0:
64,192,84533,1,0,0:0:0:0:
192,192,84683,1,0,0:0:0:0:
320,192,84833,1,0,0:0:0:0:
192,192,84983,1,0,0:0:0:0:
64,192,84983,1,0,0:0:0:0:
320,192,85283,1,0,0:0:0:0:
192,192,85583,1,0,0:0:0:0:
64,192,85883,1,0,0:0:0:0:
448,192,85883,1,0,0:0:0:0:
192,192,86033,1,0,0:0:0:0:
448,192,86183,1,0,0:0:0:0:
320,192,86183,1,0,0:0:0:0:
192,192,86333,1,0,0:0:0:0:
64,192,86483,1,0,0:0:0:0:
320,192,86633,1,0,0:0:0:0:
448,192,86783,1,0,0:0:0:0:
64,192,86933,1,0,0:0:0:0:
448,192,87083,1,0,0:0:0:0:
320,192,87233,1,0,0:0:0:0:
192,192,87383,1,0,0:0:0:0:
64,192,87383,1,0,0:0:0:0:
320,192,87533,1,0,0:0:0:0:
448,192,87683,1,0,0:0:0:0:
320,192,87833,1,0,0:0:0:0:
64,192,87983,1,0,0:0:0:0:
192,192,88133,1,0,0:0:0:0:
448,192,88283,1,0,0:0:0:0:
320,192,88433,1,0,0:0:0:0:
448,192,88583,1,0,0:0:0:0:
64,192,88583,1,0,0:0:0:0:
192,192,88733,1,0,0:0:0:0:
448,192,88883,1,0,0:0:0:0:
192,192,89033,1,0,0:0:0:0:
64,192,89183,1,0,0:0:0:0:
320,192,89333,1,0,0:0:0:0:
448,192,89483,1,0,0:0:0:0:
448,192,89633,1,0,0:0:0:0:
64,192,89783,1,0,0:0:0:0:
320,192,89783,1,0,0:0:0:0:
192,192,89933,1,0,0:0:0:0:
448,192,90083,1,0,0:0:0:0:
192,192,90233,1,0,0:0:0:0:
64,192,90383,1,0,0:0:0:0:
448,192,90533,1,0,0:0:0:0:
192,192,90683,1,0,0:0:0:0:
320,192,90833,1,0,0:0:0:0:
448,192,90983,1,0,0:0:0:0:
64,192,90983,1,0,0:0:0:0:
192,192,91133,1,0,0:0:0:0:
320,192,91283,1,0,0:0:0:0:
192,192,91433,1,0,0:0:0:0:
64,192,91583,1,0,0:0:0:0:
448,192,91583,128,0,92183:0:0:0:0:
192,192,91883,128,0,92183:0:0:0:0:
320,192,92183,1,0,0:0:0:0:
64,192,92183,1,0,0:0:0:0:
320,192,92333,1,0,0:0:0:0:
448,192,92483,1,0,0:0:0:0:
192,192,92633,1,0,0:0:0:0:
64,192,92783,1,0,0:0:0:0:
320,192,92933,1,0,0:0:0:0:
448,192,93083,1,0,0:0:0:0:
192,192,93233,1,0,0:0:0:0:
320,192,93383,1,0,0:0:0:0:
64,192,93383,1,0,0:0:0:0:
192,192,93533,1,0,0:0:0:0:
320,192,93683,1,0,0:0:0:0:
64,192,93833,1,0,0:0:0:0:
320,192,93983,1,0,0:0:0:0:
448,192,94133,1,0,0:0:0:0:
64,192,94283,1,0,0:0:0:0:
64,192,94433,1,0,0:0:0:0:
448,192,94583,1,0,0:0:0:0:
320,192,94583,1,0,0:0:0:0:
192,192,94733,1,0,0:0:0:0:
64,192,94883,1,0,0:0:0:0:
320,192,95033,1,0,0:0:0:0:
448,192,95183,128,0,95333:0:0:0:0:
64,192,95183,1,0,0:0:0:0:
192,192,95333,128,0,95483:0:0:0:0:
320,192,95483,128,0,95633:0:0:0:0:
64,192,95633,128,0,95783:0:0:0:0:
320,192,95783,1,0,0:0:0:0:
448,192,95783,128,0,96233:0:0:0:0:
320,192,96233,1,0,0:0:0:0:
192,192,96308,1,0,0:0:0:0:
64,192,96383,1,0,0:0:0:0:
448,192,96683,1,0,0:0:0:0:
192,192,96683,1,0,0:0:0:0:
320,192,96833,1,0,0:0:0:0:
448,192,96983,1,0,0:0:0:0:
64,192,96983,1,0,0:0:0:0:
192,192,97133,1,0,0:0:0:0:
448,192,97283,1,0,0:0:0:0:
64,192,97433,1,0,0:0:0:0:
320,192,97583,1,0,0:0:0:0:
192,192,97733,1,0,0:0:0:0:
448,192,97883,1,0,0:0:0:0:
64,192,98033,1,0,0:0:0:0:
448,192,98183,1,0,0:0:0:0:
320,192,98183,1,0,0:0:0:0:
64,192,98333,1,0,0:0:0:0:
448,192,98483,1,0,0:0:0:0:
192,192,98633,1,0,0:0:0:0:
320,192,98783,1,0,0:0:0:0:
64,192,98933,1,0,0:0:0:0:
320,192,99083,1,0,0:0:0:0:
320,192,99233,1,0,0:0:0:0:
64,192,99383,1,0,0:0:0:0:
192,192,99383,1,0,0:0:0:0:
448,192,99533,1,0,0:0:0:0:
192,192,99683,1,0,0:0:0:0:
448,192,99833,1,0,0:0:0:0:
64,192,99983,1,0,0:0:0:0:
320,192,100133,1,0,0:0:0:0:
192,192,100283,1,0,0:0:0:0:
448,192,100433,1,0,0:0:0:0:
192,192,100583,1,0,0:0:0:0:
64,192,100583,1,0,0:0:0:0:
448,192,100733,1,0,0:0:0:0:
320,192,100808,1,0,0:0:0:0:
192,192,100958,1,0,0:0:0:0:
320,192,101033,1,0,0:0:0:0:
64,192,101183,1,0,0:0:0:0:
448,192,101183,128,0,101483:0:0:0:0:
64,192,101483,128,0,101783:0:0:0:0:
320,192,101633,1,0,0:0:0:0:
192,192,101783,1,0,0:0:0:0:
448,192,101783,1,0,0:0:0:0:
320,192,101933,1,0,0:0:0:0:
64,192,102083,1,0,0:0:0:0:
192,192,102233,1,0,0:0:0:0:
448,192,102383,1,0,0:0:0:0:
192,192,102533,1,0,0:0:0:0:
64,192,102683,1,0,0:0:0:0:
320,192,102833,1,0,0:0:0:0:
448,192,102983,1,0,0:0:0:0:
192,192,102983,1,0,0:0:0:0:
64,192,103133,1,0,0:0:0:0:
320,192,103283,1,0,0:0:0:0:
448,192,103433,1,0,0:0:0:0:
64,192,103583,1,0,0:0:0:0:
448,192,103733,1,0,0:0:0:0:
320,192,103883,1,0,0:0:0:0:
192,192,104033,1,0,0:0:0:0:
64,192,104183,128,0,105383:0:0:0:0:
320,192,104183,1,0,0:0:0:0:
448,192,104333,1,0,0:0:0:0:
192,192,104483,1,0,0:0:0:0:
320,192,104633,1,0,0:0:0:0:
448,192,104783,1,0,0:0:0:0:
320,192,104933,1,0,0:0:0:0:
192,192,105083,1,0,0:0:0:0:
320,192,105233,1,0,0:0:0:0:
192,192,105383,1,0,0:0:0:0:
448,192,105383,1,0,0:0:0:0:
320,192,105683,5,0,0:0:0:0:
64,192,105683,1,0,0:0:0:0:
448,192,105983,1,0,0:0:0:0:
192,192,105983,1,0,0:0:0:0:
64,192,106283,1,0,0:0:0:0:
448,192,106283,1,0,0:0:0:0:
448,192,106583,1,0,0:0:0:0:
448,192,106733,1,0,0:0:0:0:
192,192,106883,1,0,0:0:0:0:
192,192,107033,1,0,0:0:0:0:
320,192,107183,1,0,0:0:0:0:
320,192,107333,1,0,0:0:0:0:
64,192,107483,1,0,0:0:0:0:
64,192,107633,1,0,0:0:0:0:
448,192,107783,1,0,0:0:0:0:
448,192,107933,1,0,0:0:0:0:
192,192,108083,1,0,0:0:0:0:
192,192,108233,1,0,0:0:0:0:
320,192,108383,1,0,0:0:0:0:
320,192,108533,1,0,0:0:0:0:
64,192,108683,1,0,0:0:0:0:
64,192,108833,1,0,0:0:0:0:
448,192,108983,1,0,0:0:0:0:
448,192,109133,1,0,0:0:0:0:
192,192,109283,1,0,0:0:0:0:
192,192,109433,1,0,0:0:0:0:
320,192,109583,1,0,0:0:0:0:
320,192,109733,1,0,0:0:0:0:
64,192,109883,1,0,0:0:0:0:
64,192,110033,1,0,0:0:0:0:
448,192,110183,1,0,0:0:0:0:
448,192,110333,1,0,0:0:0:0:
192,192,110483,1,0,0:0:0:0:
192,192,110633,1,0,0:0:0:0:
64,192,110783,1,0,0:0:0:0:
192,192,110858,1,0,0:0:0:0:
320,192,110933,1,0,0:0:0:0:
448,192,111008,1,0,0:0:0:0:
64,192,111083,128,0,111233:0:0:0:0:
192,192,111233,128,0,111383:0:0:0:0:
320,192,111383,1,0,0:0:0:0:
448,192,111383,1,0,0:0:0:0:
448,192,111533,1,0,0:0:0:0:
320,192,111683,1,0,0:0:0:0:
192,192,111833,1,0,0:0:0:0:
64,192,111983,1,0,0:0:0:0:
320,192,112133,1,0,0:0:0:0:
192,192,112283,1,0,0:0:0:0:
64,192,112433,1,0,0:0:0:0:
192,192,112583,1,0,0:0:0:0:
320,192,112733,1,0,0:0:0:0:
448,192,112883,1,0,0:0:0:0:
64,192,113033,1,0,0:0:0:0:
192,192,113183,1,0,0:0:0:0:
320,192,113333,1,0,0:0:0:0:
448,192,113483,1,0,0:0:0:0:
320,192,113633,1,0,0:0:0:0:
64,192,113783,1,0,0:0:0:0:
320,192,113933,1,0,0:0:0:0:
192,192,114083,1,0,0:0:0:0:
448,192,114233,1,0,0:0:0:0:
64,192,114383,1,0,0:0:0:0:
320,192,114533,1,0,0:0:0:0:
192,192,114683,1,0,0:0:0:0:
448,192,114833,1,0,0:0:0:0:
64,192,114983,1,0,0:0:0:0:
320,192,114983,1,0,0:0:0:0:
192,192,115133,1,0,0:0:0:0:
448,192,115283,128,0,115583:0:0:0:0:
64,192,115283,128,0,115583:0:0:0:0:
192,192,115583,1,0,0:0:0:0:
320,192,115583,1,0,0:0:0:0:
64,192,115733,1,0,0:0:0:0:
448,192,115733,1,0,0:0:0:0:
320,192,115883,1,0,0:0:0:0:
192,192,115883,1,0,0:0:0:0:
448,192,116033,128,0,117383:0:0:0:0:
64,192,116033,128,0,117383:0:0:0:0:
