osu file format v14

[General]
AudioFilename: audio.mp3
AudioLeadIn: 0
PreviewTime: 20534
Countdown: 1
SampleSet: Normal
StackLeniency: 0.7
Mode: 1
LetterboxInBreaks: 0
WidescreenStoryboard: 1

[Editor]
DistanceSpacing: 1.3
BeatDivisor: 4
GridSize: 32
TimelineZoom: 1.6

[Metadata]
Title:!!!chaos time!!!
TitleUnicode:!!!カオスタイム!!!
Artist:t+pazolite
ArtistUnicode:t+pazolite
Creator:DakeDekaane
Version:Muzukashii
Source:太鼓の達人
Tags:taiko no tatsujin murasaki version
BeatmapID:2552071
BeatmapSetID:741850

[Difficulty]
HPDrainRate:6
CircleSize:2
OverallDifficulty:5
ApproachRate:10
SliderMultiplier:1.4
SliderTickRate:1

[Events]
//Background and Video events
0,0,"bg.jpeg",0,0
//Break Periods
//Storyboard Layer 0 (Background)
//Storyboard Layer 1 (Fail)
//Storyboard Layer 2 (Pass)
//Storyboard Layer 3 (Foreground)
//Storyboard Layer 4 (Overlay)
//Storyboard Sound Samples

[TimingPoints]
260,333.333333333333,4,1,0,100,1,0
5593,234.375,4,1,0,100,1,0
5593,-66.6666666666667,4,1,0,100,0,0
6061,-100,4,1,0,100,0,0
7468,-66.6666666666667,4,1,0,100,0,0
7936,-100,4,1,0,100,0,0
9343,-66.6666666666667,4,1,0,100,0,0
9811,-100,4,1,0,100,0,0
10163,-66.6666666666667,4,1,0,100,0,0
10280,-100,4,1,0,100,0,0
10397,-66.6666666666667,4,1,0,100,0,0
10514,-100,4,1,0,100,0,0
11218,-33.3333333333333,4,1,0,100,0,0
12155,-100,4,1,0,100,0,0
31843,-140.350877192982,4,1,0,100,0,0
32253,-148.148148148148,4,1,0,100,0,0
32428,-156.862745098039,4,1,0,100,0,0
32604,-156.862745098039,4,1,0,100,0,0
32780,375,4,1,0,100,1,0
32780,-133.333333333333,4,1,0,100,0,0
56780,387.096774193548,4,1,0,100,1,0
56780,-129.198966408269,4,1,0,100,0,0
58328,234.375,4,1,0,100,1,0
58328,-66.6666666666667,4,1,0,100,0,0
59265,234.375,4,1,0,100,1,0
66530,-50,4,1,0,100,0,0
66765,-100,4,1,0,100,0,1
70280,-50,4,1,0,100,0,1
70515,-100,4,1,0,100,0,1
74030,-50,4,1,0,100,0,1
74265,-100,4,1,0,100,0,1
77780,-50,4,1,0,100,0,1
78015,-100,4,1,0,100,0,1
82702,234.375,4,1,0,100,1,0
85983,-33.3333333333333,4,1,0,100,0,0
86452,-100,4,1,0,100,0,0
89967,-50,4,1,0,100,0,0
90202,-100,4,1,0,100,0,1
97233,226.415094339623,4,1,0,100,1,8
97233,-66.6666666666667,4,1,0,100,0,1
97685,226.415094339623,4,1,0,100,1,1
104477,220.588235294118,4,1,0,100,1,8
104477,-66.6666666666667,4,1,0,100,0,1
104918,220.588235294118,4,1,0,100,1,1
110212,214.285714285714,4,1,0,100,1,1
111069,210.526315789474,4,1,0,100,1,1
111911,206.896551724138,4,1,0,100,1,1
116048,-100,4,1,0,100,0,1
117704,-100,4,1,0,100,0,0

[HitObjects]
256,192,5593,5,4,0:0:0:0:
256,192,5827,1,4,0:0:0:0:
256,192,7468,1,4,0:0:0:0:
256,192,7702,1,4,0:0:0:0:
256,192,9343,1,4,0:0:0:0:
256,192,9577,1,4,0:0:0:0:
256,192,10163,1,4,0:0:0:0:
256,192,10397,1,4,0:0:0:0:
256,192,11218,8,0,12155,0:0:0:0:
256,192,13093,5,0,0:0:0:0:
256,192,13327,1,0,0:0:0:0:
256,192,13444,1,0,0:0:0:0:
256,192,13561,1,0,0:0:0:0:
256,192,13678,1,0,0:0:0:0:
256,192,13796,1,8,0:0:0:0:
256,192,14030,1,0,0:0:0:0:
256,192,14264,1,0,0:0:0:0:
256,192,14382,1,0,0:0:0:0:
256,192,14499,1,0,0:0:0:0:
256,192,14616,1,0,0:0:0:0:
256,192,14733,1,8,0:0:0:0:
256,192,14968,1,0,0:0:0:0:
256,192,15202,1,0,0:0:0:0:
256,192,15436,1,8,0:0:0:0:
256,192,15553,1,8,0:0:0:0:
256,192,15788,1,0,0:0:0:0:
256,192,16022,1,0,0:0:0:0:
256,192,16139,1,0,0:0:0:0:
256,192,16257,1,8,0:0:0:0:
256,192,16374,1,0,0:0:0:0:
256,192,16608,1,0,0:0:0:0:
256,192,16843,1,0,0:0:0:0:
256,192,17077,1,0,0:0:0:0:
256,192,17194,1,0,0:0:0:0:
256,192,17311,1,0,0:0:0:0:
256,192,17428,1,0,0:0:0:0:
256,192,17546,1,8,0:0:0:0:
256,192,17780,1,0,0:0:0:0:
256,192,18014,1,0,0:0:0:0:
256,192,18132,1,0,0:0:0:0:
256,192,18249,1,0,0:0:0:0:
256,192,18366,1,0,0:0:0:0:
256,192,18483,1,8,0:0:0:0:
256,192,18718,1,0,0:0:0:0:
256,192,18952,1,0,0:0:0:0:
256,192,19186,1,8,0:0:0:0:
256,192,19303,1,8,0:0:0:0:
256,192,19538,1,0,0:0:0:0:
256,192,19772,1,0,0:0:0:0:
256,192,19889,1,0,0:0:0:0:
256,192,20007,1,8,0:0:0:0:
256,192,20124,1,0,0:0:0:0:
256,192,20358,1,0,0:0:0:0:
256,192,20593,1,0,0:0:0:0:
256,192,20827,1,8,0:0:0:0:
256,192,20983,1,0,0:0:0:0:
256,192,21061,1,0,0:0:0:0:
256,192,21218,1,8,0:0:0:0:
256,192,21530,1,0,0:0:0:0:
256,192,21686,1,0,0:0:0:0:
256,192,21764,1,8,0:0:0:0:
256,192,21921,1,0,0:0:0:0:
256,192,21999,1,0,0:0:0:0:
256,192,22233,1,8,0:0:0:0:
256,192,22468,1,0,0:0:0:0:
256,192,22702,1,8,0:0:0:0:
256,192,22858,1,0,0:0:0:0:
256,192,22936,1,0,0:0:0:0:
256,192,23093,1,8,0:0:0:0:
256,192,23405,1,0,0:0:0:0:
256,192,23561,1,8,0:0:0:0:
256,192,23639,1,0,0:0:0:0:
256,192,23796,1,0,0:0:0:0:
256,192,23874,1,0,0:0:0:0:
256,192,24343,1,0,0:0:0:0:
256,192,24577,1,8,0:0:0:0:
256,192,24811,1,0,0:0:0:0:
256,192,24968,1,0,0:0:0:0:
256,192,25046,1,0,0:0:0:0:
256,192,25280,1,0,0:0:0:0:
256,192,25514,1,8,0:0:0:0:
256,192,25749,1,0,0:0:0:0:
256,192,25905,1,8,0:0:0:0:
256,192,25983,1,0,0:0:0:0:
256,192,26218,1,0,0:0:0:0:
256,192,26335,1,8,0:0:0:0:
256,192,26452,1,0,0:0:0:0:
256,192,26569,1,8,0:0:0:0:
256,192,26686,1,0,0:0:0:0:
256,192,26803,1,8,0:0:0:0:
256,192,26921,1,0,0:0:0:0:
256,192,27155,1,0,0:0:0:0:
256,192,27272,1,0,0:0:0:0:
256,192,27389,1,8,0:0:0:0:
256,192,27507,1,8,0:0:0:0:
256,192,27624,1,0,0:0:0:0:
256,192,27741,1,0,0:0:0:0:
256,192,27858,1,8,0:0:0:0:
256,192,27975,1,8,0:0:0:0:
256,192,28093,8,0,29030,0:0:0:0:
256,192,29968,5,8,0:0:0:0:
256,192,30202,1,8,0:0:0:0:
256,192,30436,1,8,0:0:0:0:
256,192,30553,1,8,0:0:0:0:
256,192,30671,1,8,0:0:0:0:
256,192,30788,1,8,0:0:0:0:
256,192,31022,1,8,0:0:0:0:
256,192,31139,8,0,31725,0:0:0:0:
256,192,31843,8,0,32135,0:0:0:0:
256,192,32253,8,0,32604,0:0:0:0:
256,192,32780,5,0,0:0:0:0:
256,192,32873,1,0,0:0:0:0:
256,192,33061,1,0,0:0:0:0:
256,192,33248,1,0,0:0:0:0:
256,192,33342,1,0,0:0:0:0:
256,192,33530,1,8,0:0:0:0:
256,192,33905,1,0,0:0:0:0:
256,192,33998,1,0,0:0:0:0:
256,192,34186,1,0,0:0:0:0:
256,192,34373,1,0,0:0:0:0:
256,192,34467,1,0,0:0:0:0:
256,192,34655,1,0,0:0:0:0:
256,192,34842,1,0,0:0:0:0:
256,192,35030,1,8,0:0:0:0:
256,192,35123,1,0,0:0:0:0:
256,192,35311,1,0,0:0:0:0:
256,192,35405,1,8,0:0:0:0:
256,192,35780,1,0,0:0:0:0:
256,192,35873,1,0,0:0:0:0:
256,192,36061,1,0,0:0:0:0:
256,192,36248,1,0,0:0:0:0:
256,192,36342,1,0,0:0:0:0:
256,192,36530,1,8,0:0:0:0:
256,192,36905,1,0,0:0:0:0:
256,192,36998,1,0,0:0:0:0:
256,192,37186,1,0,0:0:0:0:
256,192,37373,1,0,0:0:0:0:
256,192,37467,1,0,0:0:0:0:
256,192,37655,1,0,0:0:0:0:
256,192,37842,1,0,0:0:0:0:
256,192,38030,1,8,0:0:0:0:
256,192,38123,1,0,0:0:0:0:
256,192,38311,1,0,0:0:0:0:
256,192,38405,1,8,0:0:0:0:
256,192,38780,1,0,0:0:0:0:
256,192,38873,1,0,0:0:0:0:
256,192,39061,1,0,0:0:0:0:
256,192,39248,1,0,0:0:0:0:
256,192,39342,1,0,0:0:0:0:
256,192,39530,1,8,0:0:0:0:
256,192,39717,1,8,0:0:0:0:
256,192,39905,1,0,0:0:0:0:
256,192,39998,1,0,0:0:0:0:
256,192,40186,1,0,0:0:0:0:
256,192,40373,1,0,0:0:0:0:
256,192,40467,1,0,0:0:0:0:
256,192,40655,1,0,0:0:0:0:
256,192,40842,1,0,0:0:0:0:
256,192,41030,1,8,0:0:0:0:
256,192,41123,1,0,0:0:0:0:
256,192,41311,1,0,0:0:0:0:
256,192,41405,1,8,0:0:0:0:
256,192,41780,1,0,0:0:0:0:
256,192,41873,1,0,0:0:0:0:
256,192,42061,1,0,0:0:0:0:
256,192,42248,1,0,0:0:0:0:
256,192,42342,1,0,0:0:0:0:
256,192,42530,1,8,0:0:0:0:
256,192,42717,1,8,0:0:0:0:
256,192,42905,1,0,0:0:0:0:
256,192,42998,1,0,0:0:0:0:
256,192,43186,1,0,0:0:0:0:
256,192,43373,1,0,0:0:0:0:
256,192,43467,1,0,0:0:0:0:
256,192,43655,1,0,0:0:0:0:
256,192,43842,1,0,0:0:0:0:
256,192,44030,1,8,0:0:0:0:
256,192,44123,1,0,0:0:0:0:
256,192,44311,1,0,0:0:0:0:
256,192,44405,1,8,0:0:0:0:
256,192,44780,1,0,0:0:0:0:
256,192,45155,1,8,0:0:0:0:
256,192,45342,1,0,0:0:0:0:
256,192,45530,1,8,0:0:0:0:
256,192,45717,1,8,0:0:0:0:
256,192,45811,1,8,0:0:0:0:
256,192,45905,1,8,0:0:0:0:
256,192,46092,1,8,0:0:0:0:
256,192,46280,1,0,0:0:0:0:
256,192,46467,1,0,0:0:0:0:
256,192,46561,1,0,0:0:0:0:
256,192,46655,1,0,0:0:0:0:
256,192,47030,1,8,0:0:0:0:
256,192,47217,1,0,0:0:0:0:
256,192,47311,1,0,0:0:0:0:
256,192,47405,1,0,0:0:0:0:
256,192,47780,1,0,0:0:0:0:
256,192,47967,1,0,0:0:0:0:
256,192,48061,1,0,0:0:0:0:
256,192,48155,1,0,0:0:0:0:
256,192,48342,1,0,0:0:0:0:
256,192,48530,1,8,0:0:0:0:
256,192,48717,1,8,0:0:0:0:
256,192,48811,1,8,0:0:0:0:
256,192,48905,1,8,0:0:0:0:
256,192,49092,1,8,0:0:0:0:
256,192,49280,1,0,0:0:0:0:
256,192,49467,1,0,0:0:0:0:
256,192,49561,1,0,0:0:0:0:
256,192,49655,1,0,0:0:0:0:
256,192,49842,1,0,0:0:0:0:
256,192,50030,1,8,0:0:0:0:
256,192,50405,1,8,0:0:0:0:
256,192,50780,1,0,0:0:0:0:
256,192,51530,5,8,0:0:0:0:
256,192,51717,1,0,0:0:0:0:
256,192,51905,1,0,0:0:0:0:
256,192,52092,1,8,0:0:0:0:
256,192,52186,1,0,0:0:0:0:
256,192,52373,1,0,0:0:0:0:
256,192,52467,1,8,0:0:0:0:
256,192,52655,1,0,0:0:0:0:
256,192,53030,1,0,0:0:0:0:
256,192,53217,1,8,0:0:0:0:
256,192,53311,1,8,0:0:0:0:
256,192,53405,1,8,0:0:0:0:
256,192,53780,1,0,0:0:0:0:
256,192,53967,1,0,0:0:0:0:
256,192,54061,1,0,0:0:0:0:
256,192,54155,1,0,0:0:0:0:
256,192,54342,1,0,0:0:0:0:
256,192,54530,1,8,0:0:0:0:
256,192,54717,1,8,0:0:0:0:
256,192,54811,1,8,0:0:0:0:
256,192,54905,1,8,0:0:0:0:
256,192,55092,1,8,0:0:0:0:
256,192,55280,1,0,0:0:0:0:
256,192,55467,1,0,0:0:0:0:
256,192,55561,1,0,0:0:0:0:
256,192,55655,1,0,0:0:0:0:
256,192,55842,1,8,0:0:0:0:
256,192,56030,1,0,0:0:0:0:
256,192,56405,1,8,0:0:0:0:
256,192,56780,1,0,0:0:0:0:
256,192,58328,1,4,0:0:0:0:
256,192,58562,1,4,0:0:0:0:
256,192,58796,1,12,0:0:0:0:
256,192,59031,1,12,0:0:0:0:
256,192,59265,1,4,0:0:0:0:
256,192,59499,1,8,0:0:0:0:
256,192,59616,1,8,0:0:0:0:
256,192,59733,1,0,0:0:0:0:
256,192,59850,1,0,0:0:0:0:
256,192,59968,1,8,0:0:0:0:
256,192,60202,1,0,0:0:0:0:
256,192,60554,1,0,0:0:0:0:
256,192,60905,1,0,0:0:0:0:
256,192,61140,1,4,0:0:0:0:
256,192,61374,1,8,0:0:0:0:
256,192,61491,1,8,0:0:0:0:
256,192,61608,1,0,0:0:0:0:
256,192,61725,1,0,0:0:0:0:
256,192,61843,1,8,0:0:0:0:
256,192,62077,1,0,0:0:0:0:
256,192,62429,1,0,0:0:0:0:
256,192,62780,1,0,0:0:0:0:
256,192,63015,1,4,0:0:0:0:
256,192,63249,1,8,0:0:0:0:
256,192,63366,1,8,0:0:0:0:
256,192,63483,1,0,0:0:0:0:
256,192,63600,1,0,0:0:0:0:
256,192,63718,1,8,0:0:0:0:
256,192,63952,1,0,0:0:0:0:
256,192,64069,1,8,0:0:0:0:
256,192,64186,1,0,0:0:0:0:
256,192,64304,1,8,0:0:0:0:
256,192,64421,1,0,0:0:0:0:
256,192,64538,1,8,0:0:0:0:
256,192,64655,1,0,0:0:0:0:
256,192,64772,1,8,0:0:0:0:
256,192,64890,8,0,65710,0:0:0:0:
256,192,66530,5,12,0:0:0:0:
256,192,66765,1,0,0:0:0:0:
256,192,66999,1,0,0:0:0:0:
256,192,67233,1,0,0:0:0:0:
256,192,67350,1,0,0:0:0:0:
256,192,67468,1,0,0:0:0:0:
256,192,67585,1,8,0:0:0:0:
256,192,67819,1,8,0:0:0:0:
256,192,67936,1,0,0:0:0:0:
256,192,68054,1,8,0:0:0:0:
256,192,68288,1,8,0:0:0:0:
256,192,68405,1,8,0:0:0:0:
256,192,68522,1,8,0:0:0:0:
256,192,68640,1,0,0:0:0:0:
256,192,68757,1,0,0:0:0:0:
256,192,68874,1,0,0:0:0:0:
256,192,68991,1,8,0:0:0:0:
256,192,69225,1,8,0:0:0:0:
256,192,69343,1,0,0:0:0:0:
256,192,69460,1,0,0:0:0:0:
256,192,69577,1,0,0:0:0:0:
256,192,69694,1,8,0:0:0:0:
256,192,70046,1,4,0:0:0:0:
256,192,70280,1,12,0:0:0:0:
256,192,70515,1,0,0:0:0:0:
256,192,70749,1,0,0:0:0:0:
256,192,70866,1,0,0:0:0:0:
256,192,70983,1,0,0:0:0:0:
256,192,71100,1,8,0:0:0:0:
256,192,71335,1,4,0:0:0:0:
256,192,71569,1,12,0:0:0:0:
256,192,71804,1,4,0:0:0:0:
256,192,72155,1,0,0:0:0:0:
256,192,72390,1,0,0:0:0:0:
256,192,72858,1,0,0:0:0:0:
256,192,72975,1,0,0:0:0:0:
256,192,73210,1,12,0:0:0:0:
256,192,73444,1,12,0:0:0:0:
256,192,73679,1,4,0:0:0:0:
256,192,74030,1,12,0:0:0:0:
256,192,74265,1,0,0:0:0:0:
256,192,74499,1,0,0:0:0:0:
256,192,74733,1,0,0:0:0:0:
256,192,74850,1,0,0:0:0:0:
256,192,74968,1,0,0:0:0:0:
256,192,75085,1,8,0:0:0:0:
256,192,75319,1,8,0:0:0:0:
256,192,75436,1,0,0:0:0:0:
256,192,75554,1,8,0:0:0:0:
256,192,75788,1,8,0:0:0:0:
256,192,75905,1,8,0:0:0:0:
256,192,76022,1,8,0:0:0:0:
256,192,76140,1,0,0:0:0:0:
256,192,76257,1,0,0:0:0:0:
256,192,76374,1,0,0:0:0:0:
256,192,76491,1,8,0:0:0:0:
256,192,76725,1,8,0:0:0:0:
256,192,76843,1,0,0:0:0:0:
256,192,76960,1,0,0:0:0:0:
256,192,77077,1,0,0:0:0:0:
256,192,77194,1,8,0:0:0:0:
256,192,77546,1,4,0:0:0:0:
256,192,77780,1,12,0:0:0:0:
256,192,78015,1,0,0:0:0:0:
256,192,78249,1,0,0:0:0:0:
256,192,78366,1,0,0:0:0:0:
256,192,78483,1,0,0:0:0:0:
256,192,78600,1,8,0:0:0:0:
256,192,78835,1,4,0:0:0:0:
256,192,79069,1,12,0:0:0:0:
256,192,79304,1,4,0:0:0:0:
256,192,79890,1,0,0:0:0:0:
256,192,80007,1,0,0:0:0:0:
256,192,80124,1,0,0:0:0:0:
256,192,80241,1,0,0:0:0:0:
256,192,80358,1,0,0:0:0:0:
256,192,80475,1,0,0:0:0:0:
256,192,80593,1,0,0:0:0:0:
256,192,80827,1,0,0:0:0:0:
256,192,80944,1,0,0:0:0:0:
256,192,81061,1,0,0:0:0:0:
256,192,81179,1,0,0:0:0:0:
256,192,81296,1,8,0:0:0:0:
256,192,81413,1,8,0:0:0:0:
256,192,81530,1,8,0:0:0:0:
256,192,81765,8,0,82585,0:0:0:0:
256,192,82702,5,4,0:0:0:0:
256,192,82936,1,8,0:0:0:0:
256,192,83405,1,8,0:0:0:0:
256,192,83522,1,8,0:0:0:0:
256,192,83873,1,8,0:0:0:0:
256,192,84108,1,8,0:0:0:0:
256,192,84342,1,8,0:0:0:0:
256,192,84577,1,0,0:0:0:0:
256,192,84811,1,8,0:0:0:0:
256,192,85280,1,8,0:0:0:0:
256,192,85397,1,8,0:0:0:0:
256,192,85983,8,0,86334,0:0:0:0:
256,192,86452,5,0,0:0:0:0:
256,192,86686,1,8,0:0:0:0:
256,192,86920,1,0,0:0:0:0:
256,192,87155,1,8,0:0:0:0:
256,192,87272,1,0,0:0:0:0:
256,192,87506,1,0,0:0:0:0:
256,192,87623,1,8,0:0:0:0:
256,192,87741,1,0,0:0:0:0:
256,192,87858,1,0,0:0:0:0:
256,192,88092,1,8,0:0:0:0:
256,192,88327,1,0,0:0:0:0:
256,192,88561,1,0,0:0:0:0:
256,192,88795,1,8,0:0:0:0:
256,192,89030,1,8,0:0:0:0:
256,192,89147,8,0,89733,0:0:0:0:
256,192,89967,5,12,0:0:0:0:
256,192,90202,5,0,0:0:0:0:
256,192,90436,1,0,0:0:0:0:
256,192,90670,1,0,0:0:0:0:
256,192,90787,1,0,0:0:0:0:
256,192,90905,1,0,0:0:0:0:
256,192,91022,1,8,0:0:0:0:
256,192,91256,1,8,0:0:0:0:
256,192,91373,1,8,0:0:0:0:
256,192,91491,1,8,0:0:0:0:
256,192,91608,1,0,0:0:0:0:
256,192,91842,1,0,0:0:0:0:
256,192,92077,1,0,0:0:0:0:
256,192,92311,1,0,0:0:0:0:
256,192,92545,1,0,0:0:0:0:
256,192,92662,1,0,0:0:0:0:
256,192,92780,1,8,0:0:0:0:
256,192,92897,1,0,0:0:0:0:
256,192,93952,1,0,0:0:0:0:
256,192,94186,1,0,0:0:0:0:
256,192,94420,1,0,0:0:0:0:
256,192,94537,1,0,0:0:0:0:
256,192,94655,1,0,0:0:0:0:
256,192,94772,1,8,0:0:0:0:
256,192,95006,1,8,0:0:0:0:
256,192,95123,1,8,0:0:0:0:
256,192,95241,1,8,0:0:0:0:
256,192,95358,1,0,0:0:0:0:
256,192,95592,1,0,0:0:0:0:
256,192,95827,1,0,0:0:0:0:
256,192,96061,1,8,0:0:0:0:
256,192,96295,1,0,0:0:0:0:
256,192,96412,1,8,0:0:0:0:
256,192,96530,1,0,0:0:0:0:
256,192,96647,1,0,0:0:0:0:
256,192,97233,1,12,0:0:0:0:
256,192,97459,1,12,0:0:0:0:
256,192,97685,1,0,0:0:0:0:
256,192,97911,1,0,0:0:0:0:
256,192,98137,1,0,0:0:0:0:
256,192,98251,1,0,0:0:0:0:
256,192,98364,1,0,0:0:0:0:
256,192,98477,1,8,0:0:0:0:
256,192,98703,1,8,0:0:0:0:
256,192,98817,1,8,0:0:0:0:
256,192,98930,1,8,0:0:0:0:
256,192,99043,1,0,0:0:0:0:
256,192,99269,1,0,0:0:0:0:
256,192,99496,1,0,0:0:0:0:
256,192,99722,1,0,0:0:0:0:
256,192,99949,1,0,0:0:0:0:
256,192,100062,1,0,0:0:0:0:
256,192,100175,1,8,0:0:0:0:
256,192,100288,1,0,0:0:0:0:
256,192,101307,1,0,0:0:0:0:
256,192,101420,1,0,0:0:0:0:
256,192,101647,1,8,0:0:0:0:
256,192,101760,1,0,0:0:0:0:
256,192,101986,1,0,0:0:0:0:
256,192,102100,1,8,0:0:0:0:
256,192,102326,1,8,0:0:0:0:
256,192,102439,1,8,0:0:0:0:
256,192,102552,1,8,0:0:0:0:
256,192,102666,1,0,0:0:0:0:
256,192,102892,1,0,0:0:0:0:
256,192,103118,1,0,0:0:0:0:
256,192,103232,1,0,0:0:0:0:
256,192,103458,1,8,0:0:0:0:
256,192,103571,1,0,0:0:0:0:
256,192,103798,1,8,0:0:0:0:
256,192,103911,1,0,0:0:0:0:
256,192,104477,1,12,0:0:0:0:
256,192,104697,1,12,0:0:0:0:
256,192,104918,1,0,0:0:0:0:
256,192,105138,1,0,0:0:0:0:
256,192,105359,1,8,0:0:0:0:
256,192,105469,1,8,0:0:0:0:
256,192,105579,1,0,0:0:0:0:
256,192,105800,1,0,0:0:0:0:
256,192,105910,1,8,0:0:0:0:
256,192,106020,1,0,0:0:0:0:
256,192,106131,1,0,0:0:0:0:
256,192,106241,1,8,0:0:0:0:
256,192,106682,1,0,0:0:0:0:
256,192,106903,1,0,0:0:0:0:
256,192,107013,1,8,0:0:0:0:
256,192,107234,1,8,0:0:0:0:
256,192,107454,1,8,0:0:0:0:
256,192,107565,1,0,0:0:0:0:
256,192,107785,1,0,0:0:0:0:
256,192,108006,1,0,0:0:0:0:
256,192,108226,1,0,0:0:0:0:
256,192,108447,1,0,0:0:0:0:
256,192,108557,1,8,0:0:0:0:
256,192,108668,1,8,0:0:0:0:
256,192,108778,1,8,0:0:0:0:
256,192,108888,1,0,0:0:0:0:
256,192,109109,1,0,0:0:0:0:
256,192,109219,1,8,0:0:0:0:
256,192,109440,1,8,0:0:0:0:
256,192,109550,1,0,0:0:0:0:
256,192,109770,1,8,0:0:0:0:
256,192,109991,1,8,0:0:0:0:
256,192,110212,1,0,0:0:0:0:
256,192,110426,1,0,0:0:0:0:
256,192,110533,1,8,0:0:0:0:
256,192,110747,1,8,0:0:0:0:
256,192,111069,1,0,0:0:0:0:
256,192,111174,1,0,0:0:0:0:
256,192,111279,1,0,0:0:0:0:
256,192,111384,1,0,0:0:0:0:
256,192,111490,1,8,0:0:0:0:
256,192,111595,1,8,0:0:0:0:
256,192,111700,1,0,0:0:0:0:
256,192,111911,1,0,0:0:0:0:
256,192,112014,1,0,0:0:0:0:
256,192,112117,1,8,0:0:0:0:
256,192,112221,1,8,0:0:0:0:
256,192,112324,1,0,0:0:0:0:
256,192,112428,1,8,0:0:0:0:
256,192,112531,1,0,0:0:0:0:
256,192,112738,1,4,0:0:0:0:
256,192,112945,1,4,0:0:0:0:
256,192,113152,1,12,0:0:0:0:
256,192,113359,1,12,0:0:0:0:
256,192,113566,8,0,114911,0:0:0:0:
256,192,116048,5,0,0:0:0:0:
256,192,116152,1,0,0:0:0:0:
256,192,116255,1,0,0:0:0:0:
256,192,116359,1,0,0:0:0:0:
256,192,116462,1,0,0:0:0:0:
256,192,116566,1,0,0:0:0:0:
256,192,116669,1,0,0:0:0:0:
256,192,116773,1,0,0:0:0:0:
256,192,116876,1,0,0:0:0:0:
256,192,116979,1,0,0:0:0:0:
256,192,117083,1,0,0:0:0:0:
256,192,117186,1,0,0:0:0:0:
256,192,117290,1,0,0:0:0:0:
256,192,117393,1,0,0:0:0:0:
256,192,117497,1,0,0:0:0:0:
256,192,117600,1,0,0:0:0:0:
256,192,117704,1,0,0:0:0:0:
