osu file format v14

[General]
AudioFilename: audio.mp3
AudioLeadIn: 0
PreviewTime: 20534
Countdown: 1
SampleSet: Normal
StackLeniency: 0.7
Mode: 1
LetterboxInBreaks: 0
WidescreenStoryboard: 1

[Editor]
DistanceSpacing: 1.3
BeatDivisor: 4
GridSize: 32
TimelineZoom: 1.6

[Metadata]
Title:!!!chaos time!!!
TitleUnicode:!!!カオスタイム!!!
Artist:t+pazolite
ArtistUnicode:t+pazolite
Creator:DakeDekaane
Version:Kantan
Source:太鼓の達人
Tags:taiko no tatsujin murasaki version
BeatmapID:2552070
BeatmapSetID:741850

[Difficulty]
HPDrainRate:7
CircleSize:2
OverallDifficulty:4
ApproachRate:10
SliderMultiplier:1.4
SliderTickRate:1

[Events]
//Background and Video events
0,0,"bg.jpeg",0,0
//Break Periods
//Storyboard Layer 0 (Background)
//Storyboard Layer 1 (Fail)
//Storyboard Layer 2 (Pass)
//Storyboard Layer 3 (Foreground)
//Storyboard Layer 4 (Overlay)
//Storyboard Sound Samples

[TimingPoints]
260,333.333333333333,4,1,0,100,1,0
5593,234.375,4,1,0,100,1,0
5593,-80,4,1,0,100,0,0
6061,-100,4,1,0,100,0,0
7468,-80,4,1,0,100,0,0
7936,-100,4,1,0,100,0,0
9343,-80,4,1,0,100,0,0
9811,-100,4,1,0,100,0,0
10163,-80,4,1,0,100,0,0
10280,-100,4,1,0,100,0,0
10397,-80,4,1,0,100,0,0
10514,-100,4,1,0,100,0,0
11218,-33.3333333333333,4,1,0,100,0,0
12155,-100,4,1,0,100,0,0
31843,-140.350877192982,4,1,0,100,0,0
32253,-148.148148148148,4,1,0,100,0,0
32428,-156.862745098039,4,1,0,100,0,0
32604,-156.862745098039,4,1,0,100,0,0
32780,375,4,1,0,100,1,0
32780,-133.333333333333,4,1,0,100,0,0
56780,387.096774193548,4,1,0,100,1,0
56780,-129.198966408269,4,1,0,100,0,0
58328,234.375,4,1,0,100,1,0
58328,-80,4,1,0,100,0,0
59265,234.375,4,1,0,100,1,0
66530,-66.6666666666667,4,1,0,100,0,0
66765,-100,4,1,0,100,0,1
70280,-66.6666666666667,4,1,0,100,0,1
70515,-100,4,1,0,100,0,1
74030,-66.6666666666667,4,1,0,100,0,1
74265,-100,4,1,0,100,0,1
77780,-66.6666666666667,4,1,0,100,0,1
78015,-100,4,1,0,100,0,1
82702,234.375,4,1,0,100,1,0
85983,-33.3333333333333,4,1,0,100,0,0
86452,-100,4,1,0,100,0,0
89967,-66.6666666666667,4,1,0,100,0,0
90202,-100,4,1,0,100,0,1
97233,226.415094339623,4,1,0,100,1,8
97233,-80,4,1,0,100,0,1
97685,226.415094339623,4,1,0,100,1,1
104477,220.588235294118,4,1,0,100,1,8
104477,-80,4,1,0,100,0,1
104918,220.588235294118,4,1,0,100,1,1
110212,214.285714285714,4,1,0,100,1,1
111069,210.526315789474,4,1,0,100,1,1
111911,206.896551724138,4,1,0,100,1,1
116048,-100,4,1,0,100,0,1
117704,-100,4,1,0,100,0,0

[HitObjects]
256,192,5593,5,4,0:0:0:0:
256,192,5827,1,4,0:0:0:0:
256,192,7468,1,4,0:0:0:0:
256,192,7702,1,4,0:0:0:0:
256,192,9343,1,4,0:0:0:0:
256,192,9577,1,4,0:0:0:0:
256,192,10163,1,4,0:0:0:0:
256,192,10397,1,4,0:0:0:0:
256,192,11218,8,0,12155,0:0:0:0:
256,192,13093,5,0,0:0:0:0:
256,192,13327,1,0,0:0:0:0:
256,192,13561,1,0,0:0:0:0:
256,192,14030,1,0,0:0:0:0:
256,192,14264,1,0,0:0:0:0:
256,192,14499,1,0,0:0:0:0:
256,192,14968,1,8,0:0:0:0:
256,192,15436,1,0,0:0:0:0:
256,192,15905,1,0,0:0:0:0:
256,192,16843,1,0,0:0:0:0:
256,192,17077,1,0,0:0:0:0:
256,192,17311,1,0,0:0:0:0:
256,192,17780,1,0,0:0:0:0:
256,192,18014,1,0,0:0:0:0:
256,192,18249,1,0,0:0:0:0:
256,192,18718,1,8,0:0:0:0:
256,192,19186,1,0,0:0:0:0:
256,192,19655,1,0,0:0:0:0:
256,192,20593,1,0,0:0:0:0:
256,192,21061,1,8,0:0:0:0:
256,192,21530,1,0,0:0:0:0:
256,192,22468,1,0,0:0:0:0:
256,192,22936,1,8,0:0:0:0:
256,192,23405,1,0,0:0:0:0:
256,192,24343,1,0,0:0:0:0:
256,192,24811,1,8,0:0:0:0:
256,192,25280,1,0,0:0:0:0:
256,192,25749,1,8,0:0:0:0:
256,192,26218,1,0,0:0:0:0:
256,192,26686,1,0,0:0:0:0:
256,192,27155,1,8,0:0:0:0:
256,192,27389,1,8,0:0:0:0:
256,192,27624,1,0,0:0:0:0:
256,192,27858,1,0,0:0:0:0:
256,192,28093,8,0,29030,0:0:0:0:
256,192,29968,5,8,0:0:0:0:
256,192,30436,1,8,0:0:0:0:
256,192,30905,8,0,32546,0:0:0:0:
256,160,32780,5,0,0:0:0:0:
256,160,33530,1,8,0:0:0:0:
256,160,34280,1,0,0:0:0:0:
256,160,35030,1,0,0:0:0:0:
256,160,35405,1,8,0:0:0:0:
256,160,35780,1,0,0:0:0:0:
256,160,36530,1,8,0:0:0:0:
256,160,37280,1,0,0:0:0:0:
256,160,38030,1,0,0:0:0:0:
256,160,38405,1,8,0:0:0:0:
256,160,38780,1,0,0:0:0:0:
256,160,39530,1,8,0:0:0:0:
256,160,40280,1,0,0:0:0:0:
256,160,41030,1,0,0:0:0:0:
256,160,41405,1,8,0:0:0:0:
256,160,41780,1,0,0:0:0:0:
256,160,42530,1,8,0:0:0:0:
256,160,43280,1,0,0:0:0:0:
256,160,44030,1,0,0:0:0:0:
256,160,44405,1,8,0:0:0:0:
256,160,44780,1,0,0:0:0:0:
256,160,45530,1,8,0:0:0:0:
256,160,46280,1,0,0:0:0:0:
256,160,47030,1,8,0:0:0:0:
256,160,47405,1,8,0:0:0:0:
256,160,47780,1,0,0:0:0:0:
256,160,48530,1,8,0:0:0:0:
256,160,49280,1,0,0:0:0:0:
256,160,50030,1,8,0:0:0:0:
256,160,50405,1,8,0:0:0:0:
256,160,50780,1,0,0:0:0:0:
256,160,51530,5,8,0:0:0:0:
256,160,52280,1,0,0:0:0:0:
256,160,53030,1,8,0:0:0:0:
256,160,53405,1,8,0:0:0:0:
256,160,53780,1,0,0:0:0:0:
256,160,54530,1,8,0:0:0:0:
256,160,55280,1,0,0:0:0:0:
256,160,56030,1,8,0:0:0:0:
256,160,56405,1,8,0:0:0:0:
256,160,56780,1,0,0:0:0:0:
256,160,58328,1,4,0:0:0:0:
256,160,58562,1,4,0:0:0:0:
256,160,58796,1,12,0:0:0:0:
256,160,59031,1,12,0:0:0:0:
256,192,59265,1,4,0:0:0:0:
256,160,60202,5,0,0:0:0:0:
256,160,60554,1,0,0:0:0:0:
256,160,60905,1,0,0:0:0:0:
256,192,61140,1,4,0:0:0:0:
256,160,62077,5,0,0:0:0:0:
256,160,62429,1,0,0:0:0:0:
256,160,62780,1,0,0:0:0:0:
256,192,63015,1,4,0:0:0:0:
256,160,63952,5,0,0:0:0:0:
256,160,64186,1,0,0:0:0:0:
256,160,64421,1,0,0:0:0:0:
256,160,64655,1,0,0:0:0:0:
256,192,64890,8,0,65710,0:0:0:0:
256,192,66530,5,12,0:0:0:0:
256,192,66765,1,0,0:0:0:0:
256,192,66999,1,0,0:0:0:0:
256,192,67233,1,0,0:0:0:0:
256,192,67702,1,0,0:0:0:0:
256,192,67936,1,0,0:0:0:0:
256,192,68171,1,0,0:0:0:0:
256,192,68640,1,0,0:0:0:0:
256,192,68874,1,0,0:0:0:0:
256,192,69108,1,0,0:0:0:0:
256,192,69343,1,0,0:0:0:0:
256,192,69577,1,0,0:0:0:0:
256,192,70046,1,4,0:0:0:0:
256,192,70280,1,12,0:0:0:0:
256,192,70515,1,0,0:0:0:0:
256,192,70749,1,0,0:0:0:0:
256,192,70983,1,0,0:0:0:0:
256,192,71335,1,4,0:0:0:0:
256,192,72155,1,0,0:0:0:0:
256,192,72390,1,0,0:0:0:0:
256,192,72858,1,0,0:0:0:0:
256,192,73210,1,12,0:0:0:0:
256,192,74265,1,0,0:0:0:0:
256,192,74499,1,0,0:0:0:0:
256,192,74733,1,0,0:0:0:0:
256,192,75202,1,0,0:0:0:0:
256,192,75436,1,0,0:0:0:0:
256,192,75671,1,0,0:0:0:0:
256,192,76140,1,0,0:0:0:0:
256,192,76374,1,0,0:0:0:0:
256,192,76608,1,0,0:0:0:0:
256,192,76843,1,0,0:0:0:0:
256,192,77077,1,0,0:0:0:0:
256,192,77546,1,4,0:0:0:0:
256,192,77780,1,12,0:0:0:0:
256,192,78015,1,0,0:0:0:0:
256,192,78249,1,0,0:0:0:0:
256,192,78483,1,0,0:0:0:0:
256,192,78835,1,4,0:0:0:0:
256,192,79890,1,0,0:0:0:0:
256,192,80124,1,0,0:0:0:0:
256,192,80358,1,0,0:0:0:0:
256,192,80593,1,0,0:0:0:0:
256,192,80827,1,8,0:0:0:0:
256,192,81061,1,8,0:0:0:0:
256,192,81296,1,8,0:0:0:0:
256,192,81530,1,8,0:0:0:0:
256,192,81765,8,0,82585,0:0:0:0:
256,192,82702,5,4,0:0:0:0:
256,192,83639,1,8,0:0:0:0:
256,192,84108,1,8,0:0:0:0:
256,192,84577,1,0,0:0:0:0:
256,192,85514,1,8,0:0:0:0:
256,192,85983,8,0,86334,0:0:0:0:
256,192,86452,5,0,0:0:0:0:
256,192,86686,1,8,0:0:0:0:
256,192,87155,1,8,0:0:0:0:
256,192,87623,1,8,0:0:0:0:
256,192,87858,1,8,0:0:0:0:
256,192,88092,1,8,0:0:0:0:
256,192,88327,1,0,0:0:0:0:
256,192,88561,1,8,0:0:0:0:
256,192,89030,1,8,0:0:0:0:
256,192,89264,12,0,89733,0:0:0:0:
256,192,89967,5,12,0:0:0:0:
256,192,90202,1,0,0:0:0:0:
256,192,90436,1,0,0:0:0:0:
256,192,90670,1,0,0:0:0:0:
256,192,91139,1,8,0:0:0:0:
256,192,91373,1,8,0:0:0:0:
256,192,91608,1,8,0:0:0:0:
256,192,92077,1,0,0:0:0:0:
256,192,92311,1,0,0:0:0:0:
256,192,92545,1,0,0:0:0:0:
256,192,92897,1,0,0:0:0:0:
256,192,93952,5,0,0:0:0:0:
256,192,94186,1,0,0:0:0:0:
256,192,94420,1,0,0:0:0:0:
256,192,94889,1,8,0:0:0:0:
256,192,95123,1,8,0:0:0:0:
256,192,95358,1,8,0:0:0:0:
256,192,95827,1,0,0:0:0:0:
256,192,96295,1,0,0:0:0:0:
256,192,96647,1,0,0:0:0:0:
256,192,97233,5,12,0:0:0:0:
256,192,97459,1,12,0:0:0:0:
256,192,97685,1,0,0:0:0:0:
256,192,97911,1,0,0:0:0:0:
256,192,98137,1,0,0:0:0:0:
256,192,98590,1,8,0:0:0:0:
256,192,98817,1,8,0:0:0:0:
256,192,99043,1,8,0:0:0:0:
256,192,99496,1,0,0:0:0:0:
256,192,99949,1,0,0:0:0:0:
256,192,100288,1,0,0:0:0:0:
256,192,101307,5,0,0:0:0:0:
256,192,101760,1,0,0:0:0:0:
256,192,102213,1,8,0:0:0:0:
256,192,102439,1,8,0:0:0:0:
256,192,102666,1,8,0:0:0:0:
256,192,103118,1,0,0:0:0:0:
256,192,103571,1,0,0:0:0:0:
256,192,103911,1,0,0:0:0:0:
256,192,104477,5,12,0:0:0:0:
256,192,104697,1,12,0:0:0:0:
256,192,104918,1,0,0:0:0:0:
256,192,105138,1,0,0:0:0:0:
256,192,105359,1,0,0:0:0:0:
256,192,105800,1,8,0:0:0:0:
256,192,106020,1,8,0:0:0:0:
256,192,106241,1,8,0:0:0:0:
256,192,106682,1,0,0:0:0:0:
256,192,107123,1,8,0:0:0:0:
256,192,107565,1,0,0:0:0:0:
256,192,107785,1,0,0:0:0:0:
256,192,108006,1,0,0:0:0:0:
256,192,108226,1,0,0:0:0:0:
256,192,108447,1,0,0:0:0:0:
256,192,108888,1,8,0:0:0:0:
256,192,109329,1,0,0:0:0:0:
256,192,109770,1,8,0:0:0:0:
256,192,109991,1,8,0:0:0:0:
256,192,110212,1,0,0:0:0:0:
256,192,110640,1,8,0:0:0:0:
256,192,111069,1,0,0:0:0:0:
256,192,111279,1,0,0:0:0:0:
256,192,111490,1,0,0:0:0:0:
256,192,111911,1,8,0:0:0:0:
256,192,112117,1,8,0:0:0:0:
256,192,112324,1,8,0:0:0:0:
256,192,112738,1,4,0:0:0:0:
256,192,112945,1,4,0:0:0:0:
256,192,113152,1,12,0:0:0:0:
256,192,113359,1,12,0:0:0:0:
256,192,113566,8,0,114911,0:0:0:0:
256,192,116048,6,0,B|512:192|512:192|512:0|512:0|0:0|0:0|0:160,1,1120
