osu file format v14

[General]
AudioFilename: Chaos time.mp3
AudioLeadIn: 0
PreviewTime: 67546
Countdown: 0
SampleSet: Soft
StackLeniency: 0.7
Mode: 1
LetterboxInBreaks: 0
WidescreenStoryboard: 0

[Editor]
DistanceSpacing: 1
BeatDivisor: 3
GridSize: 32
TimelineZoom: 2.150001

[Metadata]
Title:!!!Chaos Time!!!
TitleUnicode:!!!カオスタイム!!!
Artist:t+pazolite
ArtistUnicode:t+pazolite
Creator:Firce777
Version:Oni
Source:
Tags:
BeatmapID:826430
BeatmapSetID:377605

[Difficulty]
HPDrainRate:5
CircleSize:2
OverallDifficulty:5
ApproachRate:5
SliderMultiplier:1.4
SliderTickRate:1

[Events]
//Background and Video events
0,0,"BG.jpg",0,0
//Break Periods
//Storyboard Layer 0 (Background)
//Storyboard Layer 1 (Fail)
//Storyboard Layer 2 (Pass)
//Storyboard Layer 3 (Foreground)
//Storyboard Sound Samples

[TimingPoints]
6383,234.375,4,2,0,100,1,0
6383,-40,4,2,0,100,0,0
6851,-100,4,2,0,100,0,0
8258,-40,4,2,0,100,0,0
8726,-100,4,2,0,100,0,0
10133,-40,4,2,0,100,0,0
10601,-100,4,2,0,100,0,0
10953,-40,4,2,0,100,0,0
11422,-100,4,2,0,100,0,0
11773,-40,4,2,0,100,0,0
12008,-33.3333333333333,4,2,0,100,0,0
12945,-100,4,2,0,100,0,0
24898,-50,4,2,0,100,0,0
25133,-100,4,2,0,100,0,0
31695,-100,4,2,0,100,0,0
32633,-105.263157894737,4,2,0,100,0,0
33023,-111.111111111111,4,2,0,100,0,0
33218,-117.647058823529,4,2,0,100,0,0
33414,-125,4,2,0,100,0,0
33570,375,8,2,0,100,1,0
33570,-100,8,2,0,100,0,1
33945,-133.333333333333,8,2,0,100,0,1
34039,-100,8,2,0,100,0,1
34695,-133.333333333333,8,2,0,100,0,1
34789,-100,8,2,0,100,0,1
35070,-133.333333333333,8,2,0,100,0,1
35164,-100,8,2,0,100,0,1
35820,-133.333333333333,8,2,0,100,0,1
35914,-100,8,2,0,100,0,1
36945,-133.333333333333,8,2,0,100,0,1
37039,-100,8,2,0,100,0,1
37695,-133.333333333333,8,2,0,100,0,1
37789,-100,8,2,0,100,0,1
38070,-133.333333333333,8,2,0,100,0,1
38164,-100,8,2,0,100,0,1
38820,-133.333333333333,8,2,0,100,0,1
38914,-100,8,2,0,100,0,1
39945,-133.333333333333,8,2,0,100,0,1
40039,-100,8,2,0,100,0,1
40414,-133.333333333333,8,2,0,100,0,1
40508,-100,8,2,0,100,0,1
40602,-133.333333333333,8,2,0,100,0,1
40695,-100,8,2,0,100,0,1
40883,-133.333333333333,8,2,0,100,0,1
40977,-100,8,2,0,100,0,1
41445,-133.333333333333,8,2,0,100,0,1
41633,-100,8,2,0,100,0,1
42008,-133.333333333333,8,2,0,100,0,1
42102,-100,8,2,0,100,0,1
42383,-133.333333333333,8,2,0,100,0,1
42570,-100,8,2,0,100,0,1
42945,-133.333333333333,8,2,0,100,0,1
43039,-100,8,2,0,100,0,1
43414,-133.333333333333,8,2,0,100,0,1
43508,-100,8,2,0,100,0,1
43602,-133.333333333333,8,2,0,100,0,1
43695,-100,8,2,0,100,0,1
43883,-133.333333333333,8,2,0,100,0,1
43977,-100,8,2,0,100,0,1
44445,-133.333333333333,8,2,0,100,0,1
44633,-100,8,2,0,100,0,1
45008,-133.333333333333,8,2,0,100,0,1
45102,-100,8,2,0,100,0,1
45383,-133.333333333333,8,2,0,100,0,1
45570,-100,8,2,0,100,0,1
45945,-133.333333333333,8,2,0,100,0,1
46133,-100,8,2,0,100,0,1
46695,-133.333333333333,8,2,0,100,0,1
46705,-100,8,2,0,100,0,1
47257,-133.333333333333,8,2,0,100,0,1
47267,-100,8,2,0,100,0,1
47632,-133.333333333333,8,2,0,100,0,1
47642,-100,8,2,0,100,0,1
48007,-133.333333333333,8,2,0,100,0,1
48017,-100,8,2,0,100,0,1
48382,-133.333333333333,8,2,0,100,0,1
48392,-100,8,2,0,100,0,1
48945,-133.333333333333,8,2,0,100,0,1
48955,-100,8,2,0,100,0,1
49695,-133.333333333333,8,2,0,100,0,1
49705,-100,8,2,0,100,0,1
50257,-133.333333333333,8,2,0,100,0,1
50267,-100,8,2,0,100,0,1
50632,-133.333333333333,8,2,0,100,0,1
50642,-100,8,2,0,100,0,1
51007,-133.333333333333,8,2,0,100,0,1
51017,-100,8,2,0,100,0,1
51382,-133.333333333333,8,2,0,100,0,1
51392,-100,8,2,0,100,0,1
52507,-133.333333333333,8,2,0,100,0,1
52517,-100,8,2,0,100,0,1
52695,-133.333333333333,8,2,0,100,0,1
52705,-100,8,2,0,100,0,1
52882,-133.333333333333,8,2,0,100,0,1
52892,-100,8,2,0,100,0,1
53257,-133.333333333333,8,2,0,100,0,1
53267,-100,8,2,0,100,0,1
53632,-133.333333333333,8,2,0,100,0,1
53642,-100,8,2,0,100,0,1
54007,-133.333333333333,8,2,0,100,0,1
54017,-100,8,2,0,100,0,1
54382,-133.333333333333,8,2,0,100,0,1
54392,-100,8,2,0,100,0,1
54945,-133.333333333333,8,2,0,100,0,1
54955,-100,8,2,0,100,0,1
55695,-133.333333333333,8,2,0,100,0,1
55705,-100,8,2,0,100,0,1
56257,-133.333333333333,8,2,0,100,0,1
56267,-100,8,2,0,100,0,1
56632,-133.333333333333,8,2,0,100,0,1
56642,-100,8,2,0,100,0,1
57007,-133.333333333333,8,2,0,100,0,1
57017,-100,8,2,0,100,0,1
57382,-133.333333333333,8,2,0,100,0,1
57392,-100,8,2,0,100,0,1
57570,377.358490566038,8,2,0,100,1,1
57570,-98.0392156862745,8,2,0,100,0,0
58702,408.163265306122,4,2,0,100,1,8
59109,234.375,4,2,0,100,1,0
59109,-40,4,2,0,100,0,0
60046,-100,4,2,0,100,0,0
67195,-33.3333333333333,4,2,0,100,0,0
67546,-95.2380952380952,4,2,0,100,0,1
67663,-100,4,2,0,100,0,1
67781,-90.9090909090909,4,2,0,100,0,1
67898,-100,4,2,0,100,0,1
68015,-86.9565217391304,4,2,0,100,0,1
68132,-100,4,2,0,100,0,1
68249,-83.3333333333333,4,2,0,100,0,1
68367,-100,4,2,0,100,0,1
68484,-80,4,2,0,100,0,1
68601,-100,4,2,0,100,0,1
68718,-76.9230769230769,4,2,0,100,0,1
68835,-100,4,2,0,100,0,1
68953,-74.0740740740741,4,2,0,100,0,1
69070,-100,4,2,0,100,0,1
69187,-71.4285714285714,4,2,0,100,0,1
69421,-100,4,2,0,100,0,1
69538,-68.9655172413793,4,2,0,100,0,1
69773,-100,4,2,0,100,0,1
69890,-66.6666666666667,4,2,0,100,0,1
70124,-100,4,2,0,100,0,1
70242,-64.5161290322581,4,2,0,100,0,1
70476,-100,4,2,0,100,0,1
70593,-62.5,4,2,0,100,0,1
70828,-100,4,2,0,100,0,1
71062,-33.3333333333333,4,2,0,100,0,1
71296,-60.6060606060606,4,2,0,100,0,1
71413,-100,4,2,0,100,0,1
71531,-58.8235294117647,4,2,0,100,0,1
71648,-100,4,2,0,100,0,1
71765,-57.1428571428571,4,2,0,100,0,1
71882,-100,4,2,0,100,0,1
71999,-55.5555555555556,4,2,0,100,0,1
72117,-100,4,2,0,100,0,1
73054,-54.054054054054,4,2,0,100,0,1
73288,-100,4,2,0,100,0,1
73405,-52.6315789473684,4,2,0,100,0,1
73640,-100,4,2,0,100,0,1
73757,-50,4,2,0,100,0,1
73992,-100,4,2,0,100,0,1
74694,-33.3333333333333,4,2,0,100,0,1
75046,-95.2380952380952,4,2,0,100,0,1
75163,-100,4,2,0,100,0,1
75281,-90.9090909090909,4,2,0,100,0,1
75398,-100,4,2,0,100,0,1
75515,-86.9565217391304,4,2,0,100,0,1
75632,-100,4,2,0,100,0,1
75749,-83.3333333333333,4,2,0,100,0,1
75867,-100,4,2,0,100,0,1
75984,-80,4,2,0,100,0,1
76101,-100,4,2,0,100,0,1
76218,-76.9230769230769,4,2,0,100,0,1
76335,-100,4,2,0,100,0,1
76453,-74.0740740740741,4,2,0,100,0,1
76570,-100,4,2,0,100,0,1
76687,-71.4285714285714,4,2,0,100,0,1
76921,-100,4,2,0,100,0,1
77038,-68.9655172413793,4,2,0,100,0,1
77273,-100,4,2,0,100,0,1
77390,-66.6666666666667,4,2,0,100,0,1
77624,-100,4,2,0,100,0,1
77742,-64.5161290322581,4,2,0,100,0,1
77976,-100,4,2,0,100,0,1
78093,-62.5,4,2,0,100,0,1
78328,-100,4,2,0,100,0,1
78562,-33.3333333333333,4,2,0,100,0,1
78796,-100,4,2,0,100,0,1
78913,-100,4,2,0,100,0,1
79031,-58.8235294117647,4,2,0,100,0,1
79148,-100,4,2,0,100,0,1
79265,-55.5555555555556,4,2,0,100,0,1
79382,-100,4,2,0,100,0,1
79499,-52.6315789473684,4,2,0,100,0,1
79617,-100,4,2,0,100,0,1
80671,-66.6666666666667,4,2,0,100,0,1
80847,-100,4,2,0,100,0,1
80905,-62.5,4,2,0,100,0,1
81198,-100,4,2,0,100,0,1
81257,-55.5555555555556,4,2,0,100,0,1
81609,-50,4,2,0,100,0,1
83484,-100,4,2,0,100,0,0
86765,-33.3333333333333,4,2,0,100,0,0
87234,-100,4,2,0,100,0,0
90749,-25,4,2,0,100,0,0
90984,-100,4,2,0,100,0,1
98015,-25,4,2,0,100,0,1
98484,226.415094339623,4,2,0,100,1,1
98484,-100,4,2,0,100,0,1
105276,222.222222222222,4,2,0,100,1,8
105276,-25,4,2,0,100,0,1
105720,220.588235294118,4,2,0,100,1,1
111014,214.285714285714,4,2,0,100,1,1
111871,210.526315789474,4,2,0,100,1,1
112713,206.896551724138,4,2,0,100,1,1
118506,-100,4,2,0,100,0,0

[HitObjects]
256,192,6383,5,4,0:0:0:0:
256,192,6617,1,4,0:0:0:0:
256,192,6851,1,2,0:0:0:0:
256,192,6968,1,2,0:0:0:0:
256,192,7203,1,0,0:0:0:0:
256,192,7437,1,2,0:0:0:0:
256,192,7496,1,2,0:0:0:0:
256,192,7554,1,2,0:0:0:0:
256,192,7672,1,2,0:0:0:0:
256,192,7789,1,0,0:0:0:0:
256,192,8023,1,0,0:0:0:0:
256,192,8258,1,4,0:0:0:0:
256,192,8492,1,4,0:0:0:0:
256,192,8726,1,2,0:0:0:0:
256,192,8843,1,2,0:0:0:0:
256,192,9078,1,0,0:0:0:0:
256,192,9312,1,2,0:0:0:0:
256,192,9371,1,2,0:0:0:0:
256,192,9429,1,2,0:0:0:0:
256,192,9547,1,2,0:0:0:0:
256,192,9664,1,0,0:0:0:0:
256,192,9781,1,2,0:0:0:0:
256,192,9898,1,0,0:0:0:0:
256,192,10015,1,2,0:0:0:0:
256,192,10133,1,4,0:0:0:0:
256,192,10367,1,4,0:0:0:0:
256,192,10601,1,2,0:0:0:0:
256,192,10718,1,2,0:0:0:0:
256,192,10953,1,4,0:0:0:0:
256,192,11187,1,4,0:0:0:0:
256,192,11422,1,2,0:0:0:0:
256,192,11539,1,2,0:0:0:0:
256,192,11773,1,4,0:0:0:0:
256,192,12008,2,0,B|512:192|512:192|288:192,3,420.000016021729
257,192,12945,1,0,0:0:0:0:
257,192,13062,1,2,0:0:0:0:
257,192,13179,1,2,0:0:0:0:
257,192,13297,1,2,0:0:0:0:
257,192,13414,1,0,0:0:0:0:
257,192,13531,1,2,0:0:0:0:
257,192,13648,1,2,0:0:0:0:
257,192,13765,1,2,0:0:0:0:
257,192,13883,1,0,0:0:0:0:
257,192,13941,1,0,0:0:0:0:
257,192,14000,1,0,0:0:0:0:
257,192,14117,1,0,0:0:0:0:
257,192,14234,1,0,0:0:0:0:
257,192,14351,1,0,0:0:0:0:
257,192,14468,1,2,0:0:0:0:
257,192,14586,1,2,0:0:0:0:
257,192,14703,1,2,0:0:0:0:
257,192,14820,1,0,0:0:0:0:
257,192,14879,1,0,0:0:0:0:
257,192,14937,1,0,0:0:0:0:
257,192,15054,1,0,0:0:0:0:
257,192,15172,1,0,0:0:0:0:
257,192,15289,1,0,0:0:0:0:
257,192,15406,1,2,0:0:0:0:
257,192,15523,1,2,0:0:0:0:
257,192,15640,1,2,0:0:0:0:
257,192,15758,1,0,0:0:0:0:
257,192,15875,1,2,0:0:0:0:
257,192,15992,1,0,0:0:0:0:
257,192,16109,1,2,0:0:0:0:
257,192,16226,1,0,0:0:0:0:
257,192,16343,1,2,0:0:0:0:
257,192,16402,1,0,0:0:0:0:
257,192,16519,1,0,0:0:0:0:
257,192,16578,1,2,0:0:0:0:
257,192,16695,1,0,0:0:0:0:
257,192,16812,1,2,0:0:0:0:
257,192,16929,1,0,0:0:0:0:
257,192,16988,1,0,0:0:0:0:
257,192,17047,1,0,0:0:0:0:
257,192,17105,1,0,0:0:0:0:
257,192,17164,1,0,0:0:0:0:
257,192,17398,1,2,0:0:0:0:
257,192,17633,1,0,0:0:0:0:
257,192,17691,1,0,0:0:0:0:
257,192,17750,1,0,0:0:0:0:
257,192,17867,1,0,0:0:0:0:
257,192,17984,1,0,0:0:0:0:
257,192,18101,1,0,0:0:0:0:
257,192,18218,1,2,0:0:0:0:
257,192,18336,1,2,0:0:0:0:
257,192,18453,1,2,0:0:0:0:
257,192,18570,1,0,0:0:0:0:
257,192,18629,1,0,0:0:0:0:
257,192,18687,1,0,0:0:0:0:
257,192,18804,1,0,0:0:0:0:
257,192,18922,1,0,0:0:0:0:
257,192,19039,1,0,0:0:0:0:
257,192,19156,1,2,0:0:0:0:
257,192,19273,1,2,0:0:0:0:
257,192,19390,1,2,0:0:0:0:
257,192,19508,1,0,0:0:0:0:
257,192,19625,1,2,0:0:0:0:
257,192,19742,1,0,0:0:0:0:
257,192,19859,1,2,0:0:0:0:
257,192,19976,1,0,0:0:0:0:
257,192,20093,1,2,0:0:0:0:
257,192,20152,1,0,0:0:0:0:
257,192,20269,1,0,0:0:0:0:
257,192,20328,1,2,0:0:0:0:
257,192,20445,1,0,0:0:0:0:
257,192,20562,1,2,0:0:0:0:
257,192,20679,1,0,0:0:0:0:
257,192,20718,1,0,0:0:0:0:
257,192,20758,1,0,0:0:0:0:
257,192,20797,1,0,0:0:0:0:
257,192,20836,1,0,0:0:0:0:
257,192,20875,1,0,0:0:0:0:
257,192,20914,1,0,0:0:0:0:
257,192,21031,1,2,0:0:0:0:
257,192,21148,1,0,0:0:0:0:
257,192,21265,1,2,0:0:0:0:
257,192,21383,1,0,0:0:0:0:
257,192,21617,1,2,0:0:0:0:
257,192,21773,1,2,0:0:0:0:
257,192,21851,1,0,0:0:0:0:
257,192,22008,1,2,0:0:0:0:
257,192,22242,1,0,0:0:0:0:
257,192,22476,1,2,0:0:0:0:
257,192,22554,1,0,0:0:0:0:
257,192,22711,1,0,0:0:0:0:
257,192,22789,1,2,0:0:0:0:
257,192,23023,1,0,0:0:0:0:
257,192,23258,1,0,0:0:0:0:
257,192,23492,1,2,0:0:0:0:
257,192,23648,1,2,0:0:0:0:
257,192,23726,1,0,0:0:0:0:
257,192,23883,1,2,0:0:0:0:
257,192,24117,1,0,0:0:0:0:
257,192,24351,1,0,0:0:0:0:
257,192,24429,1,2,0:0:0:0:
257,192,24586,1,2,0:0:0:0:
257,192,24664,1,0,0:0:0:0:
257,192,24898,1,6,0:0:0:0:
257,192,25133,1,0,0:0:0:0:
257,192,25367,1,0,0:0:0:0:
257,192,25601,1,0,0:0:0:0:
257,192,25758,1,2,0:0:0:0:
257,192,25836,1,0,0:0:0:0:
257,192,25992,1,2,0:0:0:0:
257,192,26070,1,0,0:0:0:0:
257,192,26187,1,0,0:0:0:0:
257,192,26304,1,0,0:0:0:0:
257,192,26422,1,0,0:0:0:0:
257,192,26539,1,0,0:0:0:0:
257,192,26695,1,2,0:0:0:0:
257,192,26773,1,0,0:0:0:0:
257,192,26929,1,2,0:0:0:0:
257,192,27008,1,0,0:0:0:0:
257,192,27125,1,0,0:0:0:0:
257,192,27242,1,0,0:0:0:0:
257,192,27300,1,2,0:0:0:0:
257,192,27359,1,0,0:0:0:0:
257,192,27476,1,0,0:0:0:0:
257,192,27593,1,0,0:0:0:0:
257,192,27711,1,0,0:0:0:0:
257,192,27769,1,2,0:0:0:0:
257,192,27828,1,0,0:0:0:0:
257,192,27945,1,0,0:0:0:0:
257,192,28004,1,0,0:0:0:0:
257,192,28062,1,2,0:0:0:0:
257,192,28121,1,2,0:0:0:0:
257,192,28179,1,0,0:0:0:0:
257,192,28238,1,0,0:0:0:0:
257,192,28297,1,2,0:0:0:0:
257,192,28355,1,2,0:0:0:0:
257,192,28414,1,0,0:0:0:0:
257,192,28472,1,2,0:0:0:0:
257,192,28531,1,0,0:0:0:0:
257,192,28590,1,2,0:0:0:0:
257,192,28648,1,0,0:0:0:0:
257,192,28707,1,2,0:0:0:0:
257,192,28765,1,0,0:0:0:0:
257,192,28824,1,2,0:0:0:0:
257,192,28883,2,0,B|513:192|513:192|192:192,1,560
256,192,30758,1,2,0:0:0:0:
256,192,30992,1,2,0:0:0:0:
256,192,31226,1,2,0:0:0:0:
256,192,31343,1,2,0:0:0:0:
256,192,31461,1,2,0:0:0:0:
256,192,31578,1,2,0:0:0:0:
256,192,31812,1,2,0:0:0:0:
256,192,31929,1,0,0:0:0:0:
256,192,31988,1,0,0:0:0:0:
256,192,32047,1,0,0:0:0:0:
256,192,32105,1,0,0:0:0:0:
256,192,32164,1,0,0:0:0:0:
256,192,32222,1,0,0:0:0:0:
256,192,32281,1,0,0:0:0:0:
256,192,32340,1,0,0:0:0:0:
256,192,32398,1,0,0:0:0:0:
256,192,32457,1,0,0:0:0:0:
256,192,32633,1,0,0:0:0:0:
256,192,32691,1,0,0:0:0:0:
256,192,32750,1,0,0:0:0:0:
256,192,32808,1,0,0:0:0:0:
256,192,32867,1,0,0:0:0:0:
256,192,33023,1,0,0:0:0:0:
256,192,33218,1,0,0:0:0:0:
256,192,33414,1,0,0:0:0:0:
256,192,33570,1,0,0:0:0:0:
256,192,33663,1,0,0:0:0:0:
256,192,33852,1,0,0:0:0:0:
256,192,33945,1,2,0:0:0:0:
256,192,34039,1,0,0:0:0:0:
256,192,34133,1,0,0:0:0:0:
256,192,34320,1,0,0:0:0:0:
256,192,34508,1,0,0:0:0:0:
256,192,34695,1,2,0:0:0:0:
256,192,34789,1,0,0:0:0:0:
256,192,34977,1,0,0:0:0:0:
256,192,35070,1,2,0:0:0:0:
256,192,35164,1,0,0:0:0:0:
256,192,35258,1,0,0:0:0:0:
256,192,35352,1,0,0:0:0:0:
256,192,35445,1,0,0:0:0:0:
256,192,35633,1,0,0:0:0:0:
256,192,35727,1,0,0:0:0:0:
256,192,35820,1,2,0:0:0:0:
256,192,35914,1,0,0:0:0:0:
256,192,36102,1,0,0:0:0:0:
256,192,36195,2,0,L|352:192,1,70
256,192,36570,1,0,0:0:0:0:
256,192,36664,1,0,0:0:0:0:
256,192,36852,1,0,0:0:0:0:
256,192,36945,1,2,0:0:0:0:
256,192,37039,1,0,0:0:0:0:
256,192,37133,1,0,0:0:0:0:
256,192,37320,1,0,0:0:0:0:
256,192,37508,1,0,0:0:0:0:
256,192,37695,1,2,0:0:0:0:
256,192,37789,1,0,0:0:0:0:
256,192,37977,1,0,0:0:0:0:
256,192,38070,1,2,0:0:0:0:
256,192,38164,1,0,0:0:0:0:
256,192,38258,1,0,0:0:0:0:
256,192,38352,1,0,0:0:0:0:
256,192,38445,1,0,0:0:0:0:
256,192,38633,1,0,0:0:0:0:
256,192,38727,1,0,0:0:0:0:
256,192,38820,1,2,0:0:0:0:
256,192,38914,1,0,0:0:0:0:
256,192,39102,1,0,0:0:0:0:
256,192,39195,2,0,L|352:192,1,70
256,192,39570,1,0,0:0:0:0:
256,192,39664,1,0,0:0:0:0:
256,192,39852,1,0,0:0:0:0:
256,192,39945,1,2,0:0:0:0:
256,192,40039,1,0,0:0:0:0:
256,192,40133,1,0,0:0:0:0:
256,192,40320,1,0,0:0:0:0:
256,192,40414,1,2,0:0:0:0:
256,192,40508,1,0,0:0:0:0:
256,192,40602,1,2,0:0:0:0:
256,192,40695,1,0,0:0:0:0:
256,192,40789,1,0,0:0:0:0:
256,192,40883,1,2,0:0:0:0:
256,192,40977,1,0,0:0:0:0:
256,192,41164,1,0,0:0:0:0:
256,192,41258,1,0,0:0:0:0:
256,192,41352,1,0,0:0:0:0:
256,192,41445,1,2,0:0:0:0:
256,192,41633,1,0,0:0:0:0:
256,192,41727,1,0,0:0:0:0:
256,192,41820,1,0,0:0:0:0:
256,192,41914,1,0,0:0:0:0:
256,192,42008,1,2,0:0:0:0:
256,192,42102,1,0,0:0:0:0:
256,192,42195,1,0,0:0:0:0:
256,192,42383,1,2,0:0:0:0:
256,192,42570,1,0,0:0:0:0:
256,192,42664,1,0,0:0:0:0:
256,192,42852,1,0,0:0:0:0:
256,192,42945,1,2,0:0:0:0:
256,192,43039,1,0,0:0:0:0:
256,192,43133,1,0,0:0:0:0:
256,192,43320,1,0,0:0:0:0:
256,192,43414,1,2,0:0:0:0:
256,192,43508,1,0,0:0:0:0:
256,192,43602,1,2,0:0:0:0:
256,192,43695,1,0,0:0:0:0:
256,192,43789,1,0,0:0:0:0:
256,192,43883,1,2,0:0:0:0:
256,192,43977,1,0,0:0:0:0:
256,192,44164,1,0,0:0:0:0:
256,192,44258,1,0,0:0:0:0:
256,192,44352,1,0,0:0:0:0:
256,192,44445,1,2,0:0:0:0:
256,192,44633,1,0,0:0:0:0:
256,192,44727,1,0,0:0:0:0:
256,192,44820,1,0,0:0:0:0:
256,192,44914,1,0,0:0:0:0:
256,192,45008,1,2,0:0:0:0:
256,192,45102,1,0,0:0:0:0:
256,192,45195,1,0,0:0:0:0:
256,192,45383,1,2,0:0:0:0:
256,192,45570,1,0,0:0:0:0:
256,192,45945,1,2,0:0:0:0:
256,192,46133,1,0,0:0:0:0:
256,192,46320,1,0,0:0:0:0:
256,192,46383,1,0,0:0:0:0:
256,192,46445,1,0,0:0:0:0:
256,192,46508,1,2,0:0:0:0:
256,192,46570,1,2,0:0:0:0:
256,192,46633,1,2,0:0:0:0:
256,192,46695,1,2,0:0:0:0:
256,192,46758,1,0,0:0:0:0:
256,192,46820,1,0,0:0:0:0:
256,192,46883,1,2,0:0:0:0:
256,192,46945,1,0,0:0:0:0:
256,192,47008,1,2,0:0:0:0:
256,192,47070,1,0,0:0:0:0:
256,192,47257,1,2,0:0:0:0:
256,192,47351,1,0,0:0:0:0:
256,192,47445,1,0,0:0:0:0:
256,192,47632,1,2,0:0:0:0:
256,192,47820,1,0,0:0:0:0:
256,192,47883,1,0,0:0:0:0:
256,192,47945,1,0,0:0:0:0:
256,192,48008,1,2,0:0:0:0:
256,192,48070,1,2,0:0:0:0:
256,192,48133,1,0,0:0:0:0:
256,192,48195,1,0,0:0:0:0:
256,192,48382,1,2,0:0:0:0:
256,192,48570,1,0,0:0:0:0:
256,192,48632,1,0,0:0:0:0:
256,192,48695,1,2,0:0:0:0:
256,192,48757,1,2,0:0:0:0:
256,192,48851,1,0,0:0:0:0:
256,192,48945,1,2,0:0:0:0:
256,192,49132,1,0,0:0:0:0:
256,192,49226,1,0,0:0:0:0:
256,192,49320,1,0,0:0:0:0:
256,192,49382,1,0,0:0:0:0:
256,192,49445,1,2,0:0:0:0:
256,192,49507,1,2,0:0:0:0:
256,192,49601,1,0,0:0:0:0:
256,192,49695,1,2,0:0:0:0:
256,192,49757,1,2,0:0:0:0:
256,192,49820,1,0,0:0:0:0:
256,192,49882,1,0,0:0:0:0:
256,192,50070,1,0,0:0:0:0:
256,192,50163,1,0,0:0:0:0:
256,192,50257,1,2,0:0:0:0:
256,192,50351,1,2,0:0:0:0:
256,192,50445,1,0,0:0:0:0:
256,192,50507,1,0,0:0:0:0:
256,192,50570,1,2,0:0:0:0:
256,192,50632,1,2,0:0:0:0:
256,192,50695,1,0,0:0:0:0:
256,192,50820,1,2,0:0:0:0:
256,192,51007,1,2,0:0:0:0:
256,192,51070,1,2,0:0:0:0:
256,192,51132,1,0,0:0:0:0:
256,192,51195,1,0,0:0:0:0:
256,192,51382,1,2,0:0:0:0:
256,192,51445,1,2,0:0:0:0:
256,192,51507,1,0,0:0:0:0:
256,192,51570,2,0,L|480:192,1,210
256,192,52320,1,0,0:0:0:0:
256,192,52382,1,0,0:0:0:0:
256,192,52445,1,0,0:0:0:0:
256,192,52508,1,2,0:0:0:0:
256,192,52570,1,2,0:0:0:0:
256,192,52633,1,2,0:0:0:0:
256,192,52695,1,2,0:0:0:0:
256,192,52758,1,0,0:0:0:0:
256,192,52820,1,0,0:0:0:0:
256,192,52883,1,2,0:0:0:0:
256,192,52976,1,0,0:0:0:0:
256,192,53163,1,0,0:0:0:0:
256,192,53257,1,2,0:0:0:0:
256,192,53445,1,0,0:0:0:0:
256,192,53507,1,0,0:0:0:0:
256,192,53570,1,2,0:0:0:0:
256,192,53632,1,2,0:0:0:0:
256,192,53820,1,0,0:0:0:0:
256,192,53883,1,0,0:0:0:0:
256,192,53945,1,0,0:0:0:0:
256,192,54008,1,2,0:0:0:0:
256,192,54070,1,2,0:0:0:0:
256,192,54133,1,2,0:0:0:0:
256,192,54195,1,0,0:0:0:0:
256,192,54258,1,2,0:0:0:0:
256,192,54383,1,2,0:0:0:0:
256,192,54570,1,0,0:0:0:0:
256,192,54633,1,0,0:0:0:0:
256,192,54695,1,0,0:0:0:0:
256,192,54758,1,2,0:0:0:0:
256,192,54852,1,0,0:0:0:0:
256,192,54945,1,2,0:0:0:0:
256,192,55133,1,0,0:0:0:0:
256,192,55226,1,0,0:0:0:0:
256,192,55320,1,0,0:0:0:0:
256,192,55383,1,0,0:0:0:0:
256,192,55445,1,0,0:0:0:0:
256,192,55508,1,2,0:0:0:0:
256,192,55602,1,2,0:0:0:0:
256,192,55695,1,2,0:0:0:0:
256,192,55758,1,0,0:0:0:0:
256,192,55820,1,0,0:0:0:0:
256,192,55883,1,0,0:0:0:0:
256,192,56070,1,0,0:0:0:0:
256,192,56164,1,0,0:0:0:0:
256,192,56258,1,2,0:0:0:0:
256,192,56352,1,2,0:0:0:0:
256,192,56445,1,0,0:0:0:0:
256,192,56508,1,0,0:0:0:0:
256,192,56570,1,2,0:0:0:0:
256,192,56633,1,2,0:0:0:0:
256,192,56727,1,0,0:0:0:0:
256,192,56820,1,0,0:0:0:0:
256,192,57007,1,2,0:0:0:0:
256,192,57070,1,2,0:0:0:0:
256,192,57133,1,0,0:0:0:0:
256,192,57195,1,0,0:0:0:0:
256,192,57382,1,2,0:0:0:0:
256,192,57445,1,2,0:0:0:0:
256,192,57508,1,0,0:0:0:0:
256,192,57570,1,0,0:0:0:0:
256,192,59109,1,4,0:0:0:0:
256,192,59343,1,4,0:0:0:0:
256,192,59578,1,6,0:0:0:0:
256,192,59812,1,6,0:0:0:0:
256,192,60046,1,0,0:0:0:0:
256,192,60105,1,0,0:0:0:0:
256,192,60163,1,0,0:0:0:0:
256,192,60281,1,2,0:0:0:0:
256,192,60398,1,2,0:0:0:0:
256,192,60515,1,0,0:0:0:0:
256,192,60574,1,0,0:0:0:0:
256,192,60632,1,0,0:0:0:0:
256,192,60749,1,2,0:0:0:0:
256,192,60867,1,2,0:0:0:0:
256,192,60984,1,0,0:0:0:0:
256,192,61101,1,2,0:0:0:0:
256,192,61160,1,2,0:0:0:0:
256,192,61218,1,0,0:0:0:0:
256,192,61335,1,0,0:0:0:0:
256,192,61453,1,2,0:0:0:0:
256,192,61511,1,2,0:0:0:0:
256,192,61570,1,0,0:0:0:0:
256,192,61687,1,2,0:0:0:0:
256,192,61804,1,0,0:0:0:0:
256,192,61921,1,0,0:0:0:0:
256,192,61980,1,0,0:0:0:0:
256,192,62038,1,0,0:0:0:0:
256,192,62156,1,2,0:0:0:0:
256,192,62273,1,2,0:0:0:0:
256,192,62390,1,0,0:0:0:0:
256,192,62449,1,0,0:0:0:0:
256,192,62507,1,0,0:0:0:0:
256,192,62624,1,2,0:0:0:0:
256,192,62742,1,2,0:0:0:0:
256,192,62859,1,0,0:0:0:0:
256,192,62976,1,2,0:0:0:0:
256,192,63035,1,2,0:0:0:0:
256,192,63093,1,0,0:0:0:0:
256,192,63210,1,0,0:0:0:0:
256,192,63328,1,2,0:0:0:0:
256,192,63386,1,2,0:0:0:0:
256,192,63445,1,0,0:0:0:0:
256,192,63562,1,2,0:0:0:0:
256,192,63679,1,0,0:0:0:0:
256,192,63796,1,0,0:0:0:0:
256,192,63855,1,0,0:0:0:0:
256,192,63913,1,0,0:0:0:0:
256,192,64031,1,2,0:0:0:0:
256,192,64148,1,2,0:0:0:0:
256,192,64265,1,0,0:0:0:0:
256,192,64324,1,0,0:0:0:0:
256,192,64382,1,0,0:0:0:0:
256,192,64499,1,2,0:0:0:0:
256,192,64617,1,2,0:0:0:0:
256,192,64734,1,0,0:0:0:0:
256,192,64792,1,0,0:0:0:0:
256,192,64851,1,2,0:0:0:0:
256,192,64968,1,0,0:0:0:0:
256,192,65085,1,2,0:0:0:0:
256,192,65203,1,0,0:0:0:0:
256,192,65261,1,0,0:0:0:0:
256,192,65320,1,2,0:0:0:0:
256,192,65437,1,0,0:0:0:0:
256,192,65554,1,2,0:0:0:0:
256,192,65671,1,0,0:0:0:0:
256,192,65730,1,0,0:0:0:0:
256,192,65788,1,0,0:0:0:0:
256,192,65906,1,2,0:0:0:0:
256,192,65964,1,2,0:0:0:0:
256,192,66023,1,2,0:0:0:0:
256,192,66140,1,0,0:0:0:0:
256,192,66199,1,0,0:0:0:0:
256,192,66257,1,0,0:0:0:0:
256,192,66374,1,2,0:0:0:0:
256,192,66433,1,2,0:0:0:0:
256,192,66492,1,2,0:0:0:0:
256,192,66609,1,0,0:0:0:0:
256,192,66726,1,2,0:0:0:0:
256,192,66843,1,2,0:0:0:0:
256,192,66960,1,2,0:0:0:0:
256,192,67078,1,0,0:0:0:0:
256,192,67312,1,6,0:0:0:0:
256,192,67546,1,0,0:0:0:0:
256,192,67663,1,2,0:0:0:0:
256,192,67722,1,2,0:0:0:0:
256,192,67781,1,0,0:0:0:0:
256,192,67898,1,2,0:0:0:0:
256,192,67956,1,2,0:0:0:0:
256,192,68015,1,0,0:0:0:0:
256,192,68132,1,2,0:0:0:0:
256,192,68191,1,2,0:0:0:0:
256,192,68249,1,0,0:0:0:0:
256,192,68367,1,2,0:0:0:0:
256,192,68425,1,2,0:0:0:0:
256,192,68484,1,0,0:0:0:0:
256,192,68601,1,2,0:0:0:0:
256,192,68660,1,2,0:0:0:0:
256,192,68718,1,0,0:0:0:0:
256,192,68835,1,2,0:0:0:0:
256,192,68894,1,2,0:0:0:0:
256,192,68953,1,0,0:0:0:0:
256,192,69070,1,2,0:0:0:0:
256,192,69128,1,2,0:0:0:0:
256,192,69187,1,0,0:0:0:0:
256,192,69304,1,0,0:0:0:0:
256,192,69421,1,0,0:0:0:0:
256,192,69480,1,0,0:0:0:0:
256,192,69538,1,2,0:0:0:0:
256,192,69656,1,2,0:0:0:0:
256,192,69773,1,0,0:0:0:0:
256,192,69831,1,0,0:0:0:0:
256,192,69890,1,2,0:0:0:0:
256,192,70007,1,2,0:0:0:0:
256,192,70124,1,0,0:0:0:0:
256,192,70183,1,0,0:0:0:0:
256,192,70242,1,2,0:0:0:0:
256,192,70359,1,2,0:0:0:0:
256,192,70476,1,0,0:0:0:0:
256,192,70535,1,0,0:0:0:0:
256,192,70593,1,2,0:0:0:0:
256,192,70710,1,2,0:0:0:0:
256,192,70828,1,4,0:0:0:0:
256,192,71062,1,6,0:0:0:0:
256,192,71296,1,0,0:0:0:0:
256,192,71413,1,2,0:0:0:0:
256,192,71472,1,2,0:0:0:0:
256,192,71531,1,0,0:0:0:0:
256,192,71648,1,2,0:0:0:0:
256,192,71706,1,2,0:0:0:0:
256,192,71765,1,0,0:0:0:0:
256,192,71882,1,2,0:0:0:0:
256,192,71941,1,2,0:0:0:0:
256,192,71999,1,0,0:0:0:0:
256,192,72117,1,4,0:0:0:0:
256,192,72351,1,4,0:0:0:0:
256,192,72585,1,4,0:0:0:0:
256,192,72820,1,0,0:0:0:0:
256,192,72878,1,0,0:0:0:0:
256,192,72937,1,2,0:0:0:0:
256,192,73054,1,0,0:0:0:0:
256,192,73171,1,0,0:0:0:0:
256,192,73288,1,2,0:0:0:0:
256,192,73347,1,2,0:0:0:0:
256,192,73405,1,0,0:0:0:0:
256,192,73523,1,0,0:0:0:0:
256,192,73640,1,2,0:0:0:0:
256,192,73698,1,2,0:0:0:0:
256,192,73757,1,0,0:0:0:0:
256,192,73874,1,0,0:0:0:0:
256,192,73992,1,6,0:0:0:0:
256,192,74226,1,6,0:0:0:0:
256,192,74460,1,6,0:0:0:0:
256,192,74694,1,6,0:0:0:0:
256,192,75046,1,0,0:0:0:0:
256,192,75163,1,2,0:0:0:0:
256,192,75222,1,2,0:0:0:0:
256,192,75281,1,0,0:0:0:0:
256,192,75398,1,2,0:0:0:0:
256,192,75456,1,2,0:0:0:0:
256,192,75515,1,0,0:0:0:0:
256,192,75632,1,2,0:0:0:0:
256,192,75691,1,2,0:0:0:0:
256,192,75749,1,0,0:0:0:0:
256,192,75867,1,2,0:0:0:0:
256,192,75925,1,2,0:0:0:0:
256,192,75984,1,0,0:0:0:0:
256,192,76101,1,2,0:0:0:0:
256,192,76160,1,2,0:0:0:0:
256,192,76218,1,0,0:0:0:0:
256,192,76335,1,2,0:0:0:0:
256,192,76394,1,2,0:0:0:0:
256,192,76453,1,0,0:0:0:0:
256,192,76570,1,2,0:0:0:0:
256,192,76628,1,2,0:0:0:0:
256,192,76687,1,0,0:0:0:0:
256,192,76804,1,0,0:0:0:0:
256,192,76921,1,0,0:0:0:0:
256,192,76980,1,0,0:0:0:0:
256,192,77038,1,2,0:0:0:0:
256,192,77156,1,2,0:0:0:0:
256,192,77273,1,0,0:0:0:0:
256,192,77331,1,0,0:0:0:0:
256,192,77390,1,2,0:0:0:0:
256,192,77507,1,2,0:0:0:0:
256,192,77624,1,0,0:0:0:0:
256,192,77683,1,0,0:0:0:0:
256,192,77742,1,2,0:0:0:0:
256,192,77859,1,2,0:0:0:0:
256,192,77976,1,0,0:0:0:0:
256,192,78035,1,0,0:0:0:0:
256,192,78093,1,2,0:0:0:0:
256,192,78210,1,2,0:0:0:0:
256,192,78328,1,4,0:0:0:0:
256,192,78562,1,6,0:0:0:0:
256,192,78796,1,0,0:0:0:0:
256,192,78913,1,2,0:0:0:0:
256,192,78972,1,2,0:0:0:0:
256,192,79031,1,0,0:0:0:0:
256,192,79148,1,2,0:0:0:0:
256,192,79206,1,2,0:0:0:0:
256,192,79265,1,0,0:0:0:0:
256,192,79382,1,2,0:0:0:0:
256,192,79441,1,2,0:0:0:0:
256,192,79499,1,0,0:0:0:0:
256,192,79617,1,4,0:0:0:0:
256,192,79851,1,4,0:0:0:0:
256,192,80085,1,4,0:0:0:0:
256,192,80320,1,0,0:0:0:0:
256,192,80378,1,0,0:0:0:0:
256,192,80437,1,2,0:0:0:0:
256,192,80554,1,0,0:0:0:0:
256,192,80671,1,0,0:0:0:0:
256,192,80789,1,0,0:0:0:0:
256,192,80847,1,2,0:0:0:0:
256,192,80906,1,0,0:0:0:0:
256,192,81023,1,0,0:0:0:0:
256,192,81140,1,0,0:0:0:0:
256,192,81199,1,2,0:0:0:0:
256,192,81258,1,0,0:0:0:0:
256,192,81374,1,0,0:0:0:0:
256,192,81491,1,0,0:0:0:0:
256,192,81609,1,0,0:0:0:0:
256,192,81666,1,0,0:0:0:0:
256,192,81725,1,0,0:0:0:0:
256,192,81783,1,0,0:0:0:0:
256,192,81842,1,0,0:0:0:0:
256,192,81901,1,0,0:0:0:0:
256,192,81960,1,0,0:0:0:0:
256,192,82019,1,0,0:0:0:0:
256,192,82077,1,0,0:0:0:0:
256,192,82136,1,2,0:0:0:0:
256,192,82194,1,0,0:0:0:0:
256,192,82253,1,2,0:0:0:0:
256,192,82312,1,0,0:0:0:0:
256,192,82370,1,2,0:0:0:0:
256,192,82429,1,0,0:0:0:0:
256,192,82487,1,2,0:0:0:0:
256,192,82546,8,0,83367,0:0:0:0:
256,192,83484,5,0,0:0:0:0:
256,192,83718,1,2,0:0:0:0:
256,192,83953,1,2,0:0:0:0:
256,192,84070,1,2,0:0:0:0:
256,192,84187,1,2,0:0:0:0:
256,192,84304,1,2,0:0:0:0:
256,192,84538,1,2,0:0:0:0:
256,192,84656,1,2,0:0:0:0:
256,192,84773,1,2,0:0:0:0:
256,192,84890,1,2,0:0:0:0:
256,192,85124,1,0,0:0:0:0:
256,192,85359,1,0,0:0:0:0:
256,192,85593,1,2,0:0:0:0:
256,192,85828,1,2,0:0:0:0:
256,192,85945,1,2,0:0:0:0:
256,192,86062,1,2,0:0:0:0:
256,192,86179,1,2,0:0:0:0:
256,192,86531,1,2,0:0:0:0:
192,192,86765,2,0,B|512:192|512:192|128:192,1,630.000024032594
256,192,87234,1,0,0:0:0:0:
256,192,87468,1,2,0:0:0:0:
256,192,87585,1,0,0:0:0:0:
256,192,87820,1,0,0:0:0:0:
256,192,87937,1,2,0:0:0:0:
256,192,88054,1,0,0:0:0:0:
256,192,88171,1,0,0:0:0:0:
256,192,88230,1,0,0:0:0:0:
256,192,88347,1,0,0:0:0:0:
256,192,88406,1,2,0:0:0:0:
256,192,88523,1,0,0:0:0:0:
256,192,88640,1,0,0:0:0:0:
256,192,88699,1,0,0:0:0:0:
256,192,88757,1,0,0:0:0:0:
256,192,88816,1,0,0:0:0:0:
256,192,88874,1,2,0:0:0:0:
256,192,89109,1,0,0:0:0:0:
256,192,89187,1,0,0:0:0:0:
256,192,89265,1,0,0:0:0:0:
256,192,89343,1,2,0:0:0:0:
256,192,89460,1,0,0:0:0:0:
256,192,89578,1,0,0:0:0:0:
256,192,89636,1,0,0:0:0:0:
256,192,89695,1,0,0:0:0:0:
256,192,89812,1,2,0:0:0:0:
256,192,89929,1,0,0:0:0:0:
256,192,90046,1,2,0:0:0:0:
256,192,90163,1,0,0:0:0:0:
256,192,90222,1,0,0:0:0:0:
256,192,90281,1,2,0:0:0:0:
256,192,90398,1,0,0:0:0:0:
256,192,90456,1,0,0:0:0:0:
256,192,90515,1,2,0:0:0:0:
256,192,90574,1,2,0:0:0:0:
256,192,90632,1,0,0:0:0:0:
256,192,90749,1,6,0:0:0:0:
256,192,90984,1,0,0:0:0:0:
256,192,91101,1,2,0:0:0:0:
256,192,91160,1,2,0:0:0:0:
256,192,91218,1,0,0:0:0:0:
256,192,91335,1,2,0:0:0:0:
256,192,91453,1,0,0:0:0:0:
256,192,91511,1,0,0:0:0:0:
256,192,91570,1,2,0:0:0:0:
256,192,91687,1,0,0:0:0:0:
256,192,91804,1,2,0:0:0:0:
256,192,91863,1,2,0:0:0:0:
256,192,91921,1,0,0:0:0:0:
256,192,92038,1,2,0:0:0:0:
256,192,92156,1,0,0:0:0:0:
256,192,92214,1,0,0:0:0:0:
256,192,92273,1,2,0:0:0:0:
256,192,92390,1,0,0:0:0:0:
256,192,92507,1,2,0:0:0:0:
256,192,92566,1,2,0:0:0:0:
256,192,92624,1,0,0:0:0:0:
256,192,92742,1,2,0:0:0:0:
256,192,92859,1,0,0:0:0:0:
256,192,92976,1,2,0:0:0:0:
256,192,93035,1,2,0:0:0:0:
256,192,93093,1,0,0:0:0:0:
256,192,93210,1,2,0:0:0:0:
256,192,93328,1,0,0:0:0:0:
256,192,93445,1,2,0:0:0:0:
256,192,93503,1,2,0:0:0:0:
256,192,93562,1,2,0:0:0:0:
256,192,93679,2,0,B|512:192|512:192|256:160,1,490
256,192,94734,1,0,0:0:0:0:
256,192,94851,1,2,0:0:0:0:
256,192,94910,1,2,0:0:0:0:
256,192,94968,1,0,0:0:0:0:
256,192,95085,1,2,0:0:0:0:
256,192,95203,1,0,0:0:0:0:
256,192,95261,1,2,0:0:0:0:
256,192,95320,1,2,0:0:0:0:
256,192,95437,1,0,0:0:0:0:
256,192,95554,1,2,0:0:0:0:
256,192,95613,1,2,0:0:0:0:
256,192,95671,1,0,0:0:0:0:
256,192,95788,1,2,0:0:0:0:
256,192,95906,1,0,0:0:0:0:
256,192,95964,1,2,0:0:0:0:
256,192,96023,1,2,0:0:0:0:
256,192,96140,1,0,0:0:0:0:
256,192,96257,1,2,0:0:0:0:
256,192,96316,1,2,0:0:0:0:
256,192,96374,1,0,0:0:0:0:
256,192,96492,1,2,0:0:0:0:
256,192,96609,1,0,0:0:0:0:
256,192,96726,1,0,0:0:0:0:
256,192,96785,1,2,0:0:0:0:
256,192,96843,1,2,0:0:0:0:
256,192,96960,1,2,0:0:0:0:
256,192,97078,1,0,0:0:0:0:
256,192,97195,1,2,0:0:0:0:
256,192,97253,1,2,0:0:0:0:
256,192,97312,1,2,0:0:0:0:
256,192,97429,2,0,L|480:192,1,210
256,192,98015,1,6,0:0:0:0:
256,192,98241,1,6,0:0:0:0:
256,192,98484,1,0,0:0:0:0:
256,192,98597,1,2,0:0:0:0:
256,192,98653,1,2,0:0:0:0:
256,192,98710,1,0,0:0:0:0:
256,192,98823,1,2,0:0:0:0:
256,192,98880,1,2,0:0:0:0:
256,192,98936,1,0,0:0:0:0:
256,192,99050,1,2,0:0:0:0:
256,192,99106,1,0,0:0:0:0:
256,192,99163,1,0,0:0:0:0:
256,192,99276,1,0,0:0:0:0:
256,192,99389,1,0,0:0:0:0:
256,192,99446,1,0,0:0:0:0:
256,192,99502,1,0,0:0:0:0:
256,192,99559,1,0,0:0:0:0:
256,192,99616,1,2,0:0:0:0:
256,192,99672,1,2,0:0:0:0:
256,192,99729,1,2,0:0:0:0:
256,192,99785,1,2,0:0:0:0:
256,192,99842,1,0,0:0:0:0:
256,192,100068,1,0,0:0:0:0:
256,192,100295,1,0,0:0:0:0:
256,192,100408,1,2,0:0:0:0:
256,192,100465,1,2,0:0:0:0:
256,192,100521,1,0,0:0:0:0:
256,192,100634,1,2,0:0:0:0:
256,192,100691,1,2,0:0:0:0:
256,192,100748,1,0,0:0:0:0:
256,192,100861,1,2,0:0:0:0:
256,192,100917,1,0,0:0:0:0:
256,192,100974,1,0,0:0:0:0:
256,192,101087,1,0,0:0:0:0:
256,192,101314,1,0,0:0:0:0:
256,192,101370,1,2,0:0:0:0:
256,192,101427,1,2,0:0:0:0:
256,192,101540,1,0,0:0:0:0:
256,192,101597,1,2,0:0:0:0:
256,192,101653,1,2,0:0:0:0:
256,192,101710,1,2,0:0:0:0:
256,192,101767,1,2,0:0:0:0:
256,192,101823,1,2,0:0:0:0:
256,192,101880,1,0,0:0:0:0:
256,192,101993,1,2,0:0:0:0:
256,192,102050,1,2,0:0:0:0:
256,192,102106,1,0,0:0:0:0:
256,192,102333,1,2,0:0:0:0:
256,192,102389,1,2,0:0:0:0:
256,192,102446,1,2,0:0:0:0:
256,192,102559,1,0,0:0:0:0:
256,192,102672,1,2,0:0:0:0:
256,192,102729,1,2,0:0:0:0:
256,192,102785,1,0,0:0:0:0:
256,192,102899,1,0,0:0:0:0:
256,192,103012,1,0,0:0:0:0:
256,192,103068,1,0,0:0:0:0:
256,192,103125,1,0,0:0:0:0:
256,192,103182,1,0,0:0:0:0:
256,192,103238,1,2,0:0:0:0:
256,192,103295,1,2,0:0:0:0:
256,192,103351,1,2,0:0:0:0:
256,192,103408,1,2,0:0:0:0:
256,192,103465,1,0,0:0:0:0:
256,192,103691,1,0,0:0:0:0:
256,192,103804,1,2,0:0:0:0:
256,192,103861,1,2,0:0:0:0:
256,192,103917,1,0,0:0:0:0:
256,192,104031,1,2,0:0:0:0:
256,192,104087,1,2,0:0:0:0:
256,192,104144,1,0,0:0:0:0:
256,192,104200,1,0,0:0:0:0:
256,192,104257,1,2,0:0:0:0:
256,192,104314,1,0,0:0:0:0:
256,192,104370,1,0,0:0:0:0:
256,192,104427,1,0,0:0:0:0:
256,192,104484,1,2,0:0:0:0:
256,192,104540,1,0,0:0:0:0:
256,192,104597,1,0,0:0:0:0:
256,192,104710,2,0,L|480:192,1,210
256,192,105276,1,6,0:0:0:0:
256,192,105498,1,6,0:0:0:0:
256,192,105720,1,0,0:0:0:0:
256,192,105830,1,2,0:0:0:0:
256,192,105885,1,2,0:0:0:0:
256,192,105940,1,0,0:0:0:0:
256,192,106050,1,2,0:0:0:0:
256,192,106106,1,2,0:0:0:0:
256,192,106161,1,0,0:0:0:0:
256,192,106271,1,2,0:0:0:0:
256,192,106381,1,0,0:0:0:0:
256,192,106436,1,0,0:0:0:0:
256,192,106492,1,0,0:0:0:0:
256,192,106547,1,0,0:0:0:0:
256,192,106602,1,0,0:0:0:0:
256,192,106657,1,2,0:0:0:0:
256,192,106712,1,0,0:0:0:0:
256,192,106767,1,2,0:0:0:0:
256,192,106822,1,0,0:0:0:0:
256,192,106878,1,2,0:0:0:0:
256,192,106933,1,0,0:0:0:0:
256,192,106988,1,2,0:0:0:0:
256,192,107043,1,0,0:0:0:0:
256,192,107153,1,2,0:0:0:0:
256,192,107264,1,0,0:0:0:0:
256,192,107337,1,0,0:0:0:0:
256,192,107411,1,0,0:0:0:0:
256,192,107484,1,0,0:0:0:0:
256,192,107631,1,0,0:0:0:0:
256,192,107705,1,2,0:0:0:0:
256,192,107778,1,2,0:0:0:0:
256,192,107852,1,2,0:0:0:0:
256,192,107925,1,0,0:0:0:0:
256,192,108036,1,2,0:0:0:0:
256,192,108091,1,2,0:0:0:0:
256,192,108146,1,2,0:0:0:0:
256,192,108256,2,0,B|512:192|512:192|256:192,1,490
256,192,109249,1,2,0:0:0:0:
256,192,109304,1,2,0:0:0:0:
256,192,109359,1,0,0:0:0:0:
256,192,109414,1,0,0:0:0:0:
256,192,109470,1,2,0:0:0:0:
256,192,109525,1,2,0:0:0:0:
256,192,109580,1,0,0:0:0:0:
256,192,109635,1,0,0:0:0:0:
256,192,109690,1,0,0:0:0:0:
256,192,109800,1,2,0:0:0:0:
256,192,109856,1,2,0:0:0:0:
256,192,109911,1,0,0:0:0:0:
256,192,109966,1,0,0:0:0:0:
256,192,110021,1,2,0:0:0:0:
256,192,110131,1,0,0:0:0:0:
256,192,110186,1,2,0:0:0:0:
256,192,110242,1,0,0:0:0:0:
256,192,110297,1,2,0:0:0:0:
256,192,110352,1,0,0:0:0:0:
256,192,110407,1,2,0:0:0:0:
256,192,110462,1,0,0:0:0:0:
256,192,110517,1,2,0:0:0:0:
256,192,110572,1,0,0:0:0:0:
256,192,110683,1,2,0:0:0:0:
256,192,110738,1,0,0:0:0:0:
256,192,110793,1,2,0:0:0:0:
256,192,110848,1,0,0:0:0:0:
256,192,110903,1,2,0:0:0:0:
256,192,111014,1,0,0:0:0:0:
256,192,111067,1,0,0:0:0:0:
256,192,111121,1,2,0:0:0:0:
256,192,111174,1,2,0:0:0:0:
256,192,111228,1,0,0:0:0:0:
256,192,111335,1,2,0:0:0:0:
256,192,111442,1,0,0:0:0:0:
256,192,111496,1,0,0:0:0:0:
256,192,111549,1,2,0:0:0:0:
256,192,111603,1,2,0:0:0:0:
256,192,111656,1,0,0:0:0:0:
256,192,111710,1,0,0:0:0:0:
256,192,111764,1,2,0:0:0:0:
256,192,111871,1,0,0:0:0:0:
256,192,111976,1,2,0:0:0:0:
256,192,112081,1,2,0:0:0:0:
256,192,112186,1,2,0:0:0:0:
256,192,112292,1,0,0:0:0:0:
256,192,112397,1,2,0:0:0:0:
256,192,112502,1,2,0:0:0:0:
256,192,112607,1,2,0:0:0:0:
256,192,112713,1,0,0:0:0:0:
256,192,112764,1,0,0:0:0:0:
256,192,112816,1,0,0:0:0:0:
256,192,112868,1,0,0:0:0:0:
256,192,112919,1,2,0:0:0:0:
256,192,112971,1,0,0:0:0:0:
256,192,113023,1,2,0:0:0:0:
256,192,113075,1,0,0:0:0:0:
256,192,113126,1,0,0:0:0:0:
256,192,113178,1,0,0:0:0:0:
256,192,113230,1,2,0:0:0:0:
256,192,113281,1,0,0:0:0:0:
256,192,113333,1,2,0:0:0:0:
256,192,113385,1,0,0:0:0:0:
256,192,113437,1,0,0:0:0:0:
256,192,113488,1,0,0:0:0:0:
256,192,113540,1,0,0:0:0:0:
256,192,113747,1,0,0:0:0:0:
256,192,113954,1,2,0:0:0:0:
256,192,114161,1,2,0:0:0:0:
256,192,114368,8,0,116731,0:0:0:0:
256,192,116850,5,0,0:0:0:0:
256,192,116902,1,0,0:0:0:0:
256,192,116954,1,0,0:0:0:0:
256,192,117006,1,0,0:0:0:0:
256,192,117057,1,0,0:0:0:0:
256,192,117109,1,0,0:0:0:0:
256,192,117161,1,0,0:0:0:0:
256,192,117213,1,0,0:0:0:0:
256,192,117264,1,0,0:0:0:0:
256,192,117316,1,0,0:0:0:0:
256,192,117368,1,0,0:0:0:0:
256,192,117419,1,0,0:0:0:0:
256,192,117471,1,0,0:0:0:0:
256,192,117523,1,0,0:0:0:0:
256,192,117575,1,0,0:0:0:0:
256,192,117626,1,0,0:0:0:0:
256,192,117678,1,0,0:0:0:0:
256,192,117730,1,0,0:0:0:0:
256,192,117781,1,0,0:0:0:0:
256,192,117833,1,0,0:0:0:0:
256,192,117885,1,0,0:0:0:0:
256,192,117937,1,0,0:0:0:0:
256,192,117988,1,0,0:0:0:0:
256,192,118040,1,0,0:0:0:0:
256,192,118092,1,0,0:0:0:0:
256,192,118144,1,0,0:0:0:0:
256,192,118195,1,0,0:0:0:0:
256,192,118247,1,0,0:0:0:0:
256,192,118299,1,0,0:0:0:0:
256,192,118350,1,0,0:0:0:0:
256,192,118402,1,0,0:0:0:0:
256,192,118454,1,0,0:0:0:0:
256,192,118506,1,0,0:0:0:0:
