osu file format v14

[General]
AudioFilename: audio.mp3
AudioLeadIn: 0
PreviewTime: 45379
Countdown: 0
SampleSet: Normal
StackLeniency: 0.7
Mode: 3
LetterboxInBreaks: 0
SpecialStyle: 0
WidescreenStoryboard: 0

[Editor]
DistanceSpacing: 0.5
BeatDivisor: 8
GridSize: 32
TimelineZoom: 3

[Metadata]
Title:!!!Chaos Time!!!
TitleUnicode:!!!カオスタイム!!!
Artist:t+pazolite
ArtistUnicode:t+pazolite
Creator:- SUBAK -
Version:Chaos
Source:太鼓の達人
Tags:ムラサキ namco original chaostime
BeatmapID:1746565
BeatmapSetID:833796

[Difficulty]
HPDrainRate:8.5
CircleSize:4
OverallDifficulty:8.8
ApproachRate:5
SliderMultiplier:1.4
SliderTickRate:1

[Events]
//Background and Video events
0,0,"chaostime wallpaper.jpg",0,-130
//Break Periods
//Storyboard Layer 0 (Background)
//Storyboard Layer 1 (Fail)
//Storyboard Layer 2 (Pass)
//Storyboard Layer 3 (Foreground)
//Storyboard Layer 4 (Overlay)
//Storyboard Sound Samples

[TimingPoints]
6192,234.375,4,1,0,30,1,0
33379,375,4,1,0,30,1,0
33379,-76.9230769230769,4,1,0,30,0,0
58879,375,4,1,0,30,1,8
58935,234.375,4,1,0,30,1,0
58935,-100,4,1,0,30,0,0
67372,-100,4,1,0,30,0,1
73817,-100,4,1,0,30,0,0
74872,-100,4,1,0,30,0,1
83310,-100,4,1,0,30,0,0
97841,226.415094339623,4,1,0,30,1,8
98293,226.415094339623,4,1,0,30,1,1
104519,-100,4,1,0,30,0,0
105538,219.78021978022,4,1,0,30,1,1
111691,206.896551724138,4,1,0,30,1,1
114173,-100,4,1,0,30,0,0

[HitObjects]
64,192,6192,5,0,0:0:0:0:
320,192,6192,1,0,0:0:0:0:
448,192,6192,1,0,0:0:0:0:
192,192,6192,128,0,6426:0:0:0:0:
64,192,6426,1,0,0:0:0:0:
448,192,6426,1,0,0:0:0:0:
192,192,6660,1,0,0:0:0:0:
448,192,6660,1,0,0:0:0:0:
320,192,6660,1,0,0:0:0:0:
64,192,6777,1,0,0:0:0:0:
192,192,6777,1,0,0:0:0:0:
448,192,6777,1,0,0:0:0:0:
192,192,7012,1,0,0:0:0:0:
320,192,7012,128,0,7246:0:0:0:0:
448,192,7012,1,0,0:0:0:0:
64,192,7246,1,0,0:0:0:0:
448,192,7246,1,0,0:0:0:0:
320,192,7363,1,0,0:0:0:0:
64,192,7363,1,0,0:0:0:0:
448,192,7481,1,0,0:0:0:0:
192,192,7481,1,0,0:0:0:0:
64,192,7598,128,0,7832:0:0:0:0:
320,192,7598,1,0,0:0:0:0:
448,192,7598,1,0,0:0:0:0:
192,192,7832,1,0,0:0:0:0:
448,192,7832,128,0,8067:0:0:0:0:
192,192,8067,128,0,8301:0:0:0:0:
64,192,8067,1,0,0:0:0:0:
320,192,8067,1,0,0:0:0:0:
448,192,8301,1,0,0:0:0:0:
64,192,8535,1,0,0:0:0:0:
320,192,8535,1,0,0:0:0:0:
448,192,8535,1,0,0:0:0:0:
448,192,8652,1,0,0:0:0:0:
192,192,8652,1,0,0:0:0:0:
320,192,8887,128,0,9121:0:0:0:0:
64,192,8887,1,0,0:0:0:0:
448,192,8887,1,0,0:0:0:0:
192,192,9121,1,0,0:0:0:0:
64,192,9238,1,0,0:0:0:0:
448,192,9238,1,0,0:0:0:0:
192,192,9238,1,0,0:0:0:0:
448,192,9356,1,0,0:0:0:0:
64,192,9356,1,0,0:0:0:0:
192,192,9473,1,0,0:0:0:0:
320,192,9473,1,0,0:0:0:0:
448,192,9590,1,0,0:0:0:0:
64,192,9590,1,0,0:0:0:0:
192,192,9707,1,0,0:0:0:0:
320,192,9707,1,0,0:0:0:0:
192,192,9824,1,0,0:0:0:0:
64,192,9824,1,0,0:0:0:0:
448,192,9824,1,0,0:0:0:0:
64,192,9942,1,0,0:0:0:0:
192,192,10000,1,0,0:0:0:0:
320,192,10059,1,0,0:0:0:0:
448,192,10117,1,0,0:0:0:0:
64,192,10176,1,0,0:0:0:0:
192,192,10234,1,0,0:0:0:0:
320,192,10293,1,0,0:0:0:0:
448,192,10352,1,0,0:0:0:0:
192,192,10410,1,0,0:0:0:0:
64,192,10527,1,0,0:0:0:0:
448,192,10527,1,0,0:0:0:0:
192,192,10645,1,0,0:0:0:0:
320,192,10645,1,0,0:0:0:0:
448,192,10762,1,0,0:0:0:0:
320,192,10820,1,0,0:0:0:0:
192,192,10879,1,0,0:0:0:0:
64,192,10938,1,0,0:0:0:0:
448,192,10996,1,0,0:0:0:0:
320,192,11055,1,0,0:0:0:0:
192,192,11113,1,0,0:0:0:0:
64,192,11172,1,0,0:0:0:0:
320,192,11231,1,0,0:0:0:0:
192,192,11348,1,0,0:0:0:0:
448,192,11348,1,0,0:0:0:0:
64,192,11465,1,0,0:0:0:0:
320,192,11465,1,0,0:0:0:0:
448,192,11582,128,0,11817:0:0:0:0:
64,192,11582,1,0,0:0:0:0:
192,192,11582,1,0,0:0:0:0:
320,192,11699,1,0,0:0:0:0:
64,192,11817,1,0,0:0:0:0:
192,192,11875,1,0,0:0:0:0:
320,192,11934,1,0,0:0:0:0:
448,192,11992,1,0,0:0:0:0:
64,192,12051,1,0,0:0:0:0:
320,192,12051,1,0,0:0:0:0:
192,192,12109,1,0,0:0:0:0:
320,192,12168,1,0,0:0:0:0:
448,192,12227,1,0,0:0:0:0:
64,192,12285,1,0,0:0:0:0:
320,192,12285,1,0,0:0:0:0:
192,192,12344,1,0,0:0:0:0:
320,192,12402,1,0,0:0:0:0:
192,192,12461,1,0,0:0:0:0:
64,192,12520,1,0,0:0:0:0:
448,192,12520,1,0,0:0:0:0:
320,192,12578,1,0,0:0:0:0:
192,192,12637,1,0,0:0:0:0:
64,192,12695,1,0,0:0:0:0:
192,192,12754,1,0,0:0:0:0:
320,192,12754,128,0,12871:0:0:0:0:
448,192,12871,128,0,12988:0:0:0:0:
64,192,12988,128,0,13106:0:0:0:0:
192,192,13106,128,0,13223:0:0:0:0:
448,192,13223,1,0,0:0:0:0:
320,192,13281,1,0,0:0:0:0:
192,192,13340,1,0,0:0:0:0:
64,192,13457,128,0,13516:0:0:0:0:
320,192,13574,128,0,13633:0:0:0:0:
192,192,13692,1,0,0:0:0:0:
448,192,13692,1,0,0:0:0:0:
64,192,13692,1,0,0:0:0:0:
320,192,13750,1,0,0:0:0:0:
192,192,13809,1,0,0:0:0:0:
64,192,13867,1,0,0:0:0:0:
192,192,13926,1,0,0:0:0:0:
320,192,13926,1,0,0:0:0:0:
64,192,13984,1,0,0:0:0:0:
192,192,14043,1,0,0:0:0:0:
320,192,14102,1,0,0:0:0:0:
192,192,14160,1,0,0:0:0:0:
448,192,14160,1,0,0:0:0:0:
320,192,14219,1,0,0:0:0:0:
192,192,14277,1,0,0:0:0:0:
64,192,14336,1,0,0:0:0:0:
192,192,14395,1,0,0:0:0:0:
320,192,14395,1,0,0:0:0:0:
64,192,14453,1,0,0:0:0:0:
192,192,14512,1,0,0:0:0:0:
320,192,14570,1,0,0:0:0:0:
192,192,14629,1,0,0:0:0:0:
448,192,14629,1,0,0:0:0:0:
64,192,14629,1,0,0:0:0:0:
320,192,14746,1,0,0:0:0:0:
192,192,14746,1,0,0:0:0:0:
64,192,14863,1,0,0:0:0:0:
448,192,14863,1,0,0:0:0:0:
192,192,14981,1,0,0:0:0:0:
448,192,14981,1,0,0:0:0:0:
64,192,15098,1,0,0:0:0:0:
448,192,15098,128,0,15332:0:0:0:0:
192,192,15098,1,0,0:0:0:0:
320,192,15156,1,0,0:0:0:0:
192,192,15215,1,0,0:0:0:0:
320,192,15332,128,0,15449:0:0:0:0:
64,192,15332,1,0,0:0:0:0:
192,192,15449,1,0,0:0:0:0:
192,192,15567,128,0,15801:0:0:0:0:
64,192,15567,1,0,0:0:0:0:
448,192,15567,1,0,0:0:0:0:
320,192,15801,128,0,16035:0:0:0:0:
64,192,15801,1,0,0:0:0:0:
64,192,16035,128,0,16152:0:0:0:0:
448,192,16035,1,0,0:0:0:0:
192,192,16152,128,0,16387:0:0:0:0:
320,192,16152,1,0,0:0:0:0:
448,192,16387,128,0,16621:0:0:0:0:
64,192,16387,1,0,0:0:0:0:
192,192,16621,128,0,16738:0:0:0:0:
320,192,16621,1,0,0:0:0:0:
64,192,16738,1,0,0:0:0:0:
320,192,16738,128,0,16856:0:0:0:0:
192,192,16856,128,0,16973:0:0:0:0:
448,192,16856,1,0,0:0:0:0:
64,192,16973,128,0,17207:0:0:0:0:
320,192,16973,1,0,0:0:0:0:
192,192,17207,1,0,0:0:0:0:
448,192,17207,128,0,17442:0:0:0:0:
64,192,17442,1,0,0:0:0:0:
192,192,17442,1,0,0:0:0:0:
320,192,17500,1,0,0:0:0:0:
192,192,17559,1,0,0:0:0:0:
64,192,17617,1,0,0:0:0:0:
192,192,17676,1,0,0:0:0:0:
320,192,17676,1,0,0:0:0:0:
64,192,17734,1,0,0:0:0:0:
192,192,17793,1,0,0:0:0:0:
320,192,17852,1,0,0:0:0:0:
448,192,17910,1,0,0:0:0:0:
192,192,17910,1,0,0:0:0:0:
320,192,17969,1,0,0:0:0:0:
192,192,18027,1,0,0:0:0:0:
64,192,18086,1,0,0:0:0:0:
192,192,18145,1,0,0:0:0:0:
320,192,18145,1,0,0:0:0:0:
448,192,18203,1,0,0:0:0:0:
320,192,18262,1,0,0:0:0:0:
192,192,18320,1,0,0:0:0:0:
320,192,18379,1,0,0:0:0:0:
64,192,18379,1,0,0:0:0:0:
448,192,18496,1,0,0:0:0:0:
192,192,18496,1,0,0:0:0:0:
64,192,18613,1,0,0:0:0:0:
448,192,18613,1,0,0:0:0:0:
192,192,18731,1,0,0:0:0:0:
320,192,18731,1,0,0:0:0:0:
64,192,18848,1,0,0:0:0:0:
192,192,18848,128,0,19082:0:0:0:0:
448,192,18848,1,0,0:0:0:0:
320,192,18906,1,0,0:0:0:0:
448,192,18965,1,0,0:0:0:0:
320,192,19082,128,0,19199:0:0:0:0:
64,192,19082,1,0,0:0:0:0:
448,192,19199,1,0,0:0:0:0:
64,192,19317,128,0,19551:0:0:0:0:
192,192,19317,1,0,0:0:0:0:
448,192,19317,1,0,0:0:0:0:
320,192,19551,128,0,19785:0:0:0:0:
448,192,19551,1,0,0:0:0:0:
192,192,19785,128,0,19902:0:0:0:0:
64,192,19785,1,0,0:0:0:0:
64,192,19902,128,0,20137:0:0:0:0:
448,192,19902,1,0,0:0:0:0:
448,192,20137,128,0,20371:0:0:0:0:
320,192,20137,1,0,0:0:0:0:
192,192,20371,128,0,20488:0:0:0:0:
64,192,20371,1,0,0:0:0:0:
320,192,20488,128,0,20606:0:0:0:0:
448,192,20488,1,0,0:0:0:0:
64,192,20606,1,0,0:0:0:0:
192,192,20635,1,0,0:0:0:0:
320,192,20664,1,0,0:0:0:0:
448,192,20693,1,0,0:0:0:0:
64,192,20723,1,0,0:0:0:0:
320,192,20723,1,0,0:0:0:0:
448,192,20840,1,0,0:0:0:0:
192,192,20840,1,0,0:0:0:0:
64,192,20957,1,0,0:0:0:0:
320,192,20957,1,0,0:0:0:0:
448,192,21074,1,0,0:0:0:0:
192,192,21074,1,0,0:0:0:0:
320,192,21192,128,0,21309:0:0:0:0:
64,192,21192,1,0,0:0:0:0:
448,192,21192,1,0,0:0:0:0:
448,192,21426,1,0,0:0:0:0:
192,192,21426,128,0,21455:0:0:0:0:
64,192,21426,1,0,0:0:0:0:
64,192,21660,128,0,21777:0:0:0:0:
192,192,21660,1,0,0:0:0:0:
320,192,21660,1,0,0:0:0:0:
320,192,21777,128,0,21895:0:0:0:0:
448,192,21777,1,0,0:0:0:0:
192,192,21895,128,0,21953:0:0:0:0:
64,192,21895,1,0,0:0:0:0:
448,192,22012,128,0,22246:0:0:0:0:
64,192,22129,1,0,0:0:0:0:
320,192,22129,1,0,0:0:0:0:
192,192,22246,128,0,22275:0:0:0:0:
64,192,22363,1,0,0:0:0:0:
448,192,22363,1,0,0:0:0:0:
320,192,22481,128,0,22510:0:0:0:0:
448,192,22598,1,0,0:0:0:0:
192,192,22598,1,0,0:0:0:0:
64,192,22598,128,0,22832:0:0:0:0:
320,192,22832,1,0,0:0:0:0:
192,192,22832,1,0,0:0:0:0:
64,192,23067,1,0,0:0:0:0:
448,192,23067,1,0,0:0:0:0:
192,192,23067,128,0,23184:0:0:0:0:
448,192,23301,128,0,23330:0:0:0:0:
64,192,23301,1,0,0:0:0:0:
320,192,23301,1,0,0:0:0:0:
64,192,23535,128,0,23652:0:0:0:0:
192,192,23535,1,0,0:0:0:0:
320,192,23535,1,0,0:0:0:0:
320,192,23652,128,0,23770:0:0:0:0:
448,192,23652,1,0,0:0:0:0:
192,192,23770,128,0,23828:0:0:0:0:
64,192,23770,1,0,0:0:0:0:
448,192,23887,128,0,24121:0:0:0:0:
64,192,24004,1,0,0:0:0:0:
320,192,24004,1,0,0:0:0:0:
192,192,24121,128,0,24150:0:0:0:0:
64,192,24238,1,0,0:0:0:0:
448,192,24238,1,0,0:0:0:0:
320,192,24356,128,0,24385:0:0:0:0:
448,192,24473,1,0,0:0:0:0:
192,192,24473,1,0,0:0:0:0:
64,192,24473,128,0,24707:0:0:0:0:
192,192,24707,1,0,0:0:0:0:
320,192,24707,128,0,24736:0:0:0:0:
192,192,24942,1,0,0:0:0:0:
448,192,24942,1,0,0:0:0:0:
64,192,24942,128,0,25000:0:0:0:0:
192,192,25059,1,0,0:0:0:0:
448,192,25059,1,0,0:0:0:0:
64,192,25176,1,0,0:0:0:0:
320,192,25176,1,0,0:0:0:0:
448,192,25293,1,0,0:0:0:0:
64,192,25293,1,0,0:0:0:0:
192,192,25410,1,0,0:0:0:0:
448,192,25410,1,0,0:0:0:0:
192,192,25527,1,0,0:0:0:0:
320,192,25527,1,0,0:0:0:0:
64,192,25645,1,0,0:0:0:0:
320,192,25645,1,0,0:0:0:0:
64,192,25762,1,0,0:0:0:0:
192,192,25762,1,0,0:0:0:0:
64,192,25879,1,0,0:0:0:0:
448,192,25879,1,0,0:0:0:0:
320,192,25879,128,0,25938:0:0:0:0:
192,192,25996,1,0,0:0:0:0:
448,192,25996,1,0,0:0:0:0:
448,192,26113,1,0,0:0:0:0:
64,192,26113,1,0,0:0:0:0:
64,192,26231,1,0,0:0:0:0:
320,192,26231,1,0,0:0:0:0:
192,192,26348,1,0,0:0:0:0:
320,192,26348,1,0,0:0:0:0:
64,192,26465,1,0,0:0:0:0:
448,192,26465,1,0,0:0:0:0:
192,192,26582,1,0,0:0:0:0:
320,192,26582,1,0,0:0:0:0:
448,192,26699,1,0,0:0:0:0:
64,192,26699,1,0,0:0:0:0:
320,192,26817,1,0,0:0:0:0:
448,192,26817,1,0,0:0:0:0:
64,192,26817,1,0,0:0:0:0:
192,192,26934,1,0,0:0:0:0:
320,192,26934,1,0,0:0:0:0:
64,192,27051,1,0,0:0:0:0:
320,192,27051,1,0,0:0:0:0:
448,192,27168,1,0,0:0:0:0:
192,192,27168,1,0,0:0:0:0:
320,192,27285,1,0,0:0:0:0:
64,192,27285,1,0,0:0:0:0:
192,192,27402,1,0,0:0:0:0:
448,192,27402,1,0,0:0:0:0:
320,192,27520,5,0,0:0:0:0:
192,192,27520,1,0,0:0:0:0:
64,192,27637,1,0,0:0:0:0:
320,192,27637,1,0,0:0:0:0:
448,192,27754,1,0,0:0:0:0:
192,192,27754,1,0,0:0:0:0:
320,192,27813,1,0,0:0:0:0:
192,192,27871,1,0,0:0:0:0:
64,192,27930,1,0,0:0:0:0:
320,192,27988,1,0,0:0:0:0:
192,192,27988,1,0,0:0:0:0:
448,192,28047,1,0,0:0:0:0:
320,192,28106,1,0,0:0:0:0:
192,192,28164,1,0,0:0:0:0:
64,192,28223,1,0,0:0:0:0:
320,192,28223,1,0,0:0:0:0:
192,192,28281,1,0,0:0:0:0:
320,192,28340,1,0,0:0:0:0:
448,192,28399,1,0,0:0:0:0:
320,192,28457,1,0,0:0:0:0:
64,192,28457,1,0,0:0:0:0:
192,192,28516,1,0,0:0:0:0:
64,192,28574,1,0,0:0:0:0:
192,192,28633,1,0,0:0:0:0:
320,192,28692,128,0,29629:0:0:0:0:
448,192,28692,1,0,0:0:0:0:
64,192,28692,1,0,0:0:0:0:
192,192,29160,1,0,0:0:0:0:
448,192,29277,1,0,0:0:0:0:
64,192,29395,1,0,0:0:0:0:
192,192,29512,1,0,0:0:0:0:
448,192,29629,1,0,0:0:0:0:
192,192,29746,1,0,0:0:0:0:
64,192,29863,1,0,0:0:0:0:
320,192,29981,1,0,0:0:0:0:
448,192,30098,1,0,0:0:0:0:
192,192,30215,1,0,0:0:0:0:
320,192,30332,1,0,0:0:0:0:
64,192,30449,1,0,0:0:0:0:
192,192,30567,1,0,0:0:0:0:
448,192,30567,1,0,0:0:0:0:
320,192,30567,128,0,30801:0:0:0:0:
64,192,30801,1,0,0:0:0:0:
192,192,30801,1,0,0:0:0:0:
448,192,30918,1,0,0:0:0:0:
64,192,31035,1,0,0:0:0:0:
320,192,31152,1,0,0:0:0:0:
448,192,31270,1,0,0:0:0:0:
192,192,31387,1,0,0:0:0:0:
320,192,31504,1,0,0:0:0:0:
192,192,31563,1,0,0:0:0:0:
64,192,31621,1,0,0:0:0:0:
192,192,31680,1,0,0:0:0:0:
320,192,31738,1,0,0:0:0:0:
448,192,31797,1,0,0:0:0:0:
320,192,31856,1,0,0:0:0:0:
192,192,31914,1,0,0:0:0:0:
64,192,31973,1,0,0:0:0:0:
192,192,32031,1,0,0:0:0:0:
320,192,32090,1,0,0:0:0:0:
448,192,32149,1,0,0:0:0:0:
320,192,32207,1,0,0:0:0:0:
192,192,32324,1,0,0:0:0:0:
448,192,32324,1,0,0:0:0:0:
64,192,32442,1,0,0:0:0:0:
448,192,32442,1,0,0:0:0:0:
320,192,32500,1,0,0:0:0:0:
192,192,32559,1,0,0:0:0:0:
64,192,32676,1,0,0:0:0:0:
448,192,32676,1,0,0:0:0:0:
192,192,32676,128,0,32705:0:0:0:0:
64,192,32852,1,0,0:0:0:0:
192,192,32852,1,0,0:0:0:0:
448,192,32852,128,0,32881:0:0:0:0:
320,192,33027,128,0,33057:0:0:0:0:
192,192,33027,1,0,0:0:0:0:
448,192,33027,1,0,0:0:0:0:
64,192,33203,128,0,33233:0:0:0:0:
192,192,33203,1,0,0:0:0:0:
448,192,33203,1,0,0:0:0:0:
448,192,33379,1,0,0:0:0:0:
320,192,33379,1,0,0:0:0:0:
192,192,33379,128,0,33566:0:0:0:0:
64,192,33566,1,0,0:0:0:0:
448,192,33754,1,0,0:0:0:0:
192,192,33754,1,0,0:0:0:0:
64,192,33754,1,0,0:0:0:0:
320,192,33941,1,0,0:0:0:0:
64,192,33941,1,0,0:0:0:0:
448,192,34129,1,0,0:0:0:0:
320,192,34222,1,0,0:0:0:0:
192,192,34316,1,0,0:0:0:0:
64,192,34410,1,0,0:0:0:0:
192,192,34504,1,0,0:0:0:0:
320,192,34504,128,0,34691:0:0:0:0:
64,192,34691,1,0,0:0:0:0:
320,192,34879,1,0,0:0:0:0:
192,192,34879,1,0,0:0:0:0:
448,192,35066,1,0,0:0:0:0:
192,192,35066,1,0,0:0:0:0:
64,192,35254,1,0,0:0:0:0:
320,192,35254,1,0,0:0:0:0:
192,192,35441,1,0,0:0:0:0:
320,192,35441,1,0,0:0:0:0:
64,192,35629,128,0,35816:0:0:0:0:
192,192,35629,1,0,0:0:0:0:
448,192,35629,1,0,0:0:0:0:
320,192,35816,1,0,0:0:0:0:
448,192,36004,128,0,36379:0:0:0:0:
64,192,36004,1,0,0:0:0:0:
320,192,36191,1,0,0:0:0:0:
192,192,36379,1,0,0:0:0:0:
320,192,36566,1,0,0:0:0:0:
64,192,36566,1,0,0:0:0:0:
448,192,36754,1,0,0:0:0:0:
64,192,36754,128,0,36941:0:0:0:0:
192,192,36754,1,0,0:0:0:0:
192,192,36941,1,0,0:0:0:0:
320,192,37129,128,0,37316:0:0:0:0:
192,192,37129,1,0,0:0:0:0:
448,192,37129,1,0,0:0:0:0:
64,192,37316,1,0,0:0:0:0:
448,192,37504,1,0,0:0:0:0:
192,192,37504,128,0,37691:0:0:0:0:
64,192,37504,1,0,0:0:0:0:
320,192,37691,1,0,0:0:0:0:
448,192,37879,128,0,38254:0:0:0:0:
192,192,37879,1,0,0:0:0:0:
64,192,38066,1,0,0:0:0:0:
320,192,38254,1,0,0:0:0:0:
192,192,38441,1,0,0:0:0:0:
192,192,38629,128,0,39379:0:0:0:0:
448,192,38629,1,0,0:0:0:0:
64,192,38816,1,0,0:0:0:0:
320,192,39004,1,0,0:0:0:0:
448,192,39191,1,0,0:0:0:0:
320,192,39379,1,0,0:0:0:0:
448,192,39566,1,0,0:0:0:0:
192,192,39566,1,0,0:0:0:0:
64,192,39754,1,0,0:0:0:0:
320,192,39754,128,0,40785:0:0:0:0:
192,192,39941,1,0,0:0:0:0:
64,192,40035,1,0,0:0:0:0:
192,192,40222,1,0,0:0:0:0:
64,192,40316,1,0,0:0:0:0:
192,192,40410,1,0,0:0:0:0:
64,192,40504,1,0,0:0:0:0:
192,192,40691,1,0,0:0:0:0:
320,192,40879,128,0,42004:0:0:0:0:
64,192,41254,1,0,0:0:0:0:
192,192,41441,1,0,0:0:0:0:
64,192,41535,1,0,0:0:0:0:
192,192,41722,1,0,0:0:0:0:
64,192,41816,1,0,0:0:0:0:
192,192,41910,1,0,0:0:0:0:
64,192,42004,128,0,42379:0:0:0:0:
448,192,42004,1,0,0:0:0:0:
192,192,42379,128,0,43785:0:0:0:0:
448,192,42754,1,0,0:0:0:0:
320,192,42941,1,0,0:0:0:0:
448,192,43035,1,0,0:0:0:0:
320,192,43222,1,0,0:0:0:0:
448,192,43316,1,0,0:0:0:0:
320,192,43410,1,0,0:0:0:0:
448,192,43504,1,0,0:0:0:0:
320,192,43691,1,0,0:0:0:0:
192,192,43879,128,0,45004:0:0:0:0:
448,192,44254,5,0,0:0:0:0:
320,192,44441,1,0,0:0:0:0:
448,192,44535,1,0,0:0:0:0:
320,192,44722,1,0,0:0:0:0:
448,192,44816,1,0,0:0:0:0:
320,192,44910,1,0,0:0:0:0:
448,192,45004,128,0,45379:0:0:0:0:
192,192,45379,128,0,45754:0:0:0:0:
64,192,45379,1,0,0:0:0:0:
320,192,45379,1,0,0:0:0:0:
320,192,45754,128,0,45941:0:0:0:0:
448,192,45941,1,0,0:0:0:0:
448,192,46129,1,0,0:0:0:0:
320,192,46191,1,0,0:0:0:0:
192,192,46254,1,0,0:0:0:0:
64,192,46316,1,0,0:0:0:0:
192,192,46379,1,0,0:0:0:0:
320,192,46441,1,0,0:0:0:0:
448,192,46504,1,0,0:0:0:0:
320,192,46566,1,0,0:0:0:0:
192,192,46629,1,0,0:0:0:0:
64,192,46691,1,0,0:0:0:0:
192,192,46754,1,0,0:0:0:0:
320,192,46816,1,0,0:0:0:0:
64,192,46879,128,0,47066:0:0:0:0:
448,192,46879,1,0,0:0:0:0:
320,192,47066,128,0,47191:0:0:0:0:
448,192,47191,128,0,47254:0:0:0:0:
192,192,47254,128,0,47441:0:0:0:0:
64,192,47441,128,0,47566:0:0:0:0:
320,192,47629,1,0,0:0:0:0:
448,192,47629,128,0,47816:0:0:0:0:
192,192,47691,1,0,0:0:0:0:
64,192,47754,1,0,0:0:0:0:
192,192,47816,1,0,0:0:0:0:
320,192,47879,1,0,0:0:0:0:
192,192,47941,1,0,0:0:0:0:
64,192,48004,1,0,0:0:0:0:
320,192,48004,128,0,48191:0:0:0:0:
448,192,48191,1,0,0:0:0:0:
64,192,48379,128,0,48566:0:0:0:0:
192,192,48379,1,0,0:0:0:0:
320,192,48441,1,0,0:0:0:0:
448,192,48504,1,0,0:0:0:0:
320,192,48566,1,0,0:0:0:0:
64,192,48691,1,0,0:0:0:0:
320,192,48754,128,0,48941:0:0:0:0:
192,192,48754,1,0,0:0:0:0:
192,192,48941,128,0,49066:0:0:0:0:
64,192,49066,1,0,0:0:0:0:
320,192,49129,1,0,0:0:0:0:
448,192,49129,128,0,49316:0:0:0:0:
192,192,49191,1,0,0:0:0:0:
64,192,49254,1,0,0:0:0:0:
192,192,49316,1,0,0:0:0:0:
64,192,49410,128,0,49504:0:0:0:0:
448,192,49504,1,0,0:0:0:0:
320,192,49566,1,0,0:0:0:0:
192,192,49629,1,0,0:0:0:0:
64,192,49691,128,0,49879:0:0:0:0:
320,192,49879,128,0,49972:0:0:0:0:
448,192,49972,128,0,50066:0:0:0:0:
192,192,50066,128,0,50160:0:0:0:0:
64,192,50160,128,0,50254:0:0:0:0:
448,192,50254,128,0,50379:0:0:0:0:
320,192,50316,1,0,0:0:0:0:
192,192,50379,1,0,0:0:0:0:
64,192,50441,1,0,0:0:0:0:
192,192,50535,128,0,50629:0:0:0:0:
448,192,50629,1,0,0:0:0:0:
320,192,50816,1,0,0:0:0:0:
192,192,50879,1,0,0:0:0:0:
64,192,50941,1,0,0:0:0:0:
320,192,51004,128,0,51191:0:0:0:0:
192,192,51004,1,0,0:0:0:0:
64,192,51191,1,0,0:0:0:0:
192,192,51254,1,0,0:0:0:0:
320,192,51316,1,0,0:0:0:0:
448,192,51379,1,0,0:0:0:0:
192,192,51379,128,0,51754:0:0:0:0:
320,192,51566,1,0,0:0:0:0:
448,192,51754,1,0,0:0:0:0:
320,192,51941,1,0,0:0:0:0:
448,192,52129,128,0,52504:0:0:0:0:
320,192,52129,1,0,0:0:0:0:
192,192,52191,1,0,0:0:0:0:
64,192,52254,1,0,0:0:0:0:
192,192,52316,1,0,0:0:0:0:
320,192,52379,1,0,0:0:0:0:
192,192,52441,1,0,0:0:0:0:
64,192,52504,1,0,0:0:0:0:
192,192,52566,1,0,0:0:0:0:
320,192,52629,1,0,0:0:0:0:
448,192,52691,128,0,52816:0:0:0:0:
64,192,52816,128,0,53004:0:0:0:0:
320,192,53004,128,0,53066:0:0:0:0:
192,192,53066,128,0,53113:0:0:0:0:
64,192,53254,1,0,0:0:0:0:
192,192,53316,1,0,0:0:0:0:
320,192,53379,1,0,0:0:0:0:
448,192,53441,128,0,53629:0:0:0:0:
320,192,53629,1,0,0:0:0:0:
192,192,53691,1,0,0:0:0:0:
64,192,53754,1,0,0:0:0:0:
192,192,53816,1,0,0:0:0:0:
320,192,53879,1,0,0:0:0:0:
448,192,53941,1,0,0:0:0:0:
320,192,54004,1,0,0:0:0:0:
192,192,54066,128,0,54191:0:0:0:0:
448,192,54191,128,0,54379:0:0:0:0:
192,192,54379,1,0,0:0:0:0:
64,192,54441,1,0,0:0:0:0:
192,192,54504,1,0,0:0:0:0:
320,192,54566,1,0,0:0:0:0:
448,192,54691,1,0,0:0:0:0:
64,192,54754,128,0,54941:0:0:0:0:
192,192,54754,1,0,0:0:0:0:
192,192,54941,1,0,0:0:0:0:
448,192,55066,1,0,0:0:0:0:
320,192,55129,1,0,0:0:0:0:
192,192,55191,1,0,0:0:0:0:
64,192,55254,1,0,0:0:0:0:
192,192,55316,128,0,55441:0:0:0:0:
320,192,55441,1,0,0:0:0:0:
448,192,55504,1,0,0:0:0:0:
320,192,55566,1,0,0:0:0:0:
192,192,55629,1,0,0:0:0:0:
64,192,55691,128,0,55879:0:0:0:0:
192,192,55879,1,0,0:0:0:0:
320,192,55941,1,0,0:0:0:0:
448,192,56004,1,0,0:0:0:0:
320,192,56066,1,0,0:0:0:0:
192,192,56129,1,0,0:0:0:0:
64,192,56191,1,0,0:0:0:0:
192,192,56254,1,0,0:0:0:0:
320,192,56316,1,0,0:0:0:0:
448,192,56379,1,0,0:0:0:0:
320,192,56441,1,0,0:0:0:0:
192,192,56504,1,0,0:0:0:0:
320,192,56566,1,0,0:0:0:0:
448,192,56629,128,0,56816:0:0:0:0:
320,192,56816,1,0,0:0:0:0:
192,192,56879,1,0,0:0:0:0:
64,192,56941,1,0,0:0:0:0:
192,192,57004,1,0,0:0:0:0:
320,192,57066,1,0,0:0:0:0:
448,192,57129,1,0,0:0:0:0:
320,192,57191,1,0,0:0:0:0:
192,192,57254,1,0,0:0:0:0:
64,192,57316,1,0,0:0:0:0:
192,192,57379,128,0,57754:0:0:0:0:
320,192,57754,128,0,58129:0:0:0:0:
448,192,58129,128,0,58504:0:0:0:0:
64,192,58504,128,0,58935:0:0:0:0:
448,192,58935,1,0,0:0:0:0:
320,192,58935,1,0,0:0:0:0:
64,192,59169,1,0,0:0:0:0:
192,192,59169,1,0,0:0:0:0:
320,192,59169,1,0,0:0:0:0:
320,192,59403,1,0,0:0:0:0:
448,192,59403,1,0,0:0:0:0:
64,192,59403,1,0,0:0:0:0:
64,192,59638,1,0,0:0:0:0:
192,192,59638,1,0,0:0:0:0:
448,192,59638,1,0,0:0:0:0:
192,192,59755,1,0,0:0:0:0:
320,192,59755,1,0,0:0:0:0:
320,192,59872,1,0,0:0:0:0:
64,192,59872,1,0,0:0:0:0:
448,192,59931,1,0,0:0:0:0:
320,192,59989,1,0,0:0:0:0:
192,192,60048,1,0,0:0:0:0:
64,192,60106,1,0,0:0:0:0:
320,192,60106,1,0,0:0:0:0:
192,192,60165,1,0,0:0:0:0:
320,192,60224,1,0,0:0:0:0:
448,192,60282,1,0,0:0:0:0:
192,192,60341,1,0,0:0:0:0:
320,192,60341,1,0,0:0:0:0:
64,192,60399,1,0,0:0:0:0:
192,192,60458,1,0,0:0:0:0:
320,192,60517,1,0,0:0:0:0:
448,192,60575,1,0,0:0:0:0:
192,192,60575,1,0,0:0:0:0:
320,192,60634,1,0,0:0:0:0:
192,192,60692,1,0,0:0:0:0:
64,192,60751,1,0,0:0:0:0:
448,192,60810,1,0,0:0:0:0:
192,192,60810,1,0,0:0:0:0:
320,192,60927,1,0,0:0:0:0:
64,192,60927,1,0,0:0:0:0:
192,192,61044,1,0,0:0:0:0:
320,192,61044,1,0,0:0:0:0:
448,192,61161,1,0,0:0:0:0:
192,192,61161,1,0,0:0:0:0:
64,192,61278,1,0,0:0:0:0:
320,192,61278,1,0,0:0:0:0:
192,192,61395,1,0,0:0:0:0:
320,192,61395,1,0,0:0:0:0:
448,192,61513,1,0,0:0:0:0:
64,192,61513,1,0,0:0:0:0:
192,192,61630,1,0,0:0:0:0:
448,192,61630,1,0,0:0:0:0:
64,192,61747,1,0,0:0:0:0:
320,192,61747,1,0,0:0:0:0:
192,192,61806,1,0,0:0:0:0:
320,192,61864,1,0,0:0:0:0:
448,192,61923,1,0,0:0:0:0:
320,192,61981,1,0,0:0:0:0:
192,192,61981,1,0,0:0:0:0:
64,192,62040,1,0,0:0:0:0:
192,192,62099,1,0,0:0:0:0:
320,192,62157,1,0,0:0:0:0:
448,192,62216,1,0,0:0:0:0:
192,192,62216,1,0,0:0:0:0:
320,192,62274,1,0,0:0:0:0:
192,192,62333,1,0,0:0:0:0:
64,192,62392,1,0,0:0:0:0:
448,192,62450,1,0,0:0:0:0:
192,192,62450,1,0,0:0:0:0:
320,192,62509,1,0,0:0:0:0:
192,192,62567,1,0,0:0:0:0:
64,192,62626,1,0,0:0:0:0:
192,192,62685,1,0,0:0:0:0:
320,192,62685,1,0,0:0:0:0:
320,192,62802,1,0,0:0:0:0:
320,192,62919,128,0,63036:0:0:0:0:
64,192,63036,1,0,0:0:0:0:
64,192,63153,1,0,0:0:0:0:
64,192,63270,128,0,63388:0:0:0:0:
192,192,63388,1,0,0:0:0:0:
320,192,63505,1,0,0:0:0:0:
192,192,63505,1,0,0:0:0:0:
64,192,63622,1,0,0:0:0:0:
448,192,63622,1,0,0:0:0:0:
320,192,63681,1,0,0:0:0:0:
192,192,63739,1,0,0:0:0:0:
64,192,63798,1,0,0:0:0:0:
192,192,63856,1,0,0:0:0:0:
448,192,63856,1,0,0:0:0:0:
64,192,63974,1,0,0:0:0:0:
320,192,63974,1,0,0:0:0:0:
192,192,64091,1,0,0:0:0:0:
448,192,64091,1,0,0:0:0:0:
64,192,64149,1,0,0:0:0:0:
192,192,64208,1,0,0:0:0:0:
320,192,64267,1,0,0:0:0:0:
448,192,64325,1,0,0:0:0:0:
64,192,64325,1,0,0:0:0:0:
192,192,64442,1,0,0:0:0:0:
320,192,64442,1,0,0:0:0:0:
320,192,64560,128,0,64618:0:0:0:0:
64,192,64560,1,0,0:0:0:0:
192,192,64677,128,0,64735:0:0:0:0:
448,192,64677,1,0,0:0:0:0:
448,192,64794,128,0,64852:0:0:0:0:
320,192,64794,1,0,0:0:0:0:
64,192,64911,1,0,0:0:0:0:
320,192,64911,128,0,64970:0:0:0:0:
448,192,65028,1,0,0:0:0:0:
64,192,65028,128,0,65087:0:0:0:0:
192,192,65145,128,0,65204:0:0:0:0:
320,192,65145,1,0,0:0:0:0:
448,192,65263,128,0,65321:0:0:0:0:
64,192,65263,1,0,0:0:0:0:
320,192,65380,128,0,65438:0:0:0:0:
192,192,65380,1,0,0:0:0:0:
64,192,65497,1,0,0:0:0:0:
192,192,65497,1,0,0:0:0:0:
448,192,65497,1,0,0:0:0:0:
320,192,65614,1,0,0:0:0:0:
192,192,65614,1,0,0:0:0:0:
64,192,65731,1,0,0:0:0:0:
320,192,65731,1,0,0:0:0:0:
448,192,65731,1,0,0:0:0:0:
64,192,65849,1,0,0:0:0:0:
320,192,65849,1,0,0:0:0:0:
320,192,65966,1,0,0:0:0:0:
64,192,65966,1,0,0:0:0:0:
448,192,65966,1,0,0:0:0:0:
192,192,66083,1,0,0:0:0:0:
448,192,66083,1,0,0:0:0:0:
192,192,66200,1,0,0:0:0:0:
320,192,66200,1,0,0:0:0:0:
448,192,66200,1,0,0:0:0:0:
64,192,66317,1,0,0:0:0:0:
320,192,66317,1,0,0:0:0:0:
192,192,66435,128,0,66552:0:0:0:0:
320,192,66435,1,0,0:0:0:0:
64,192,66552,1,0,0:0:0:0:
448,192,66669,1,0,0:0:0:0:
192,192,66786,1,0,0:0:0:0:
64,192,66903,1,0,0:0:0:0:
320,192,67020,1,0,0:0:0:0:
192,192,67020,128,0,67255:0:0:0:0:
448,192,67020,128,0,67138:0:0:0:0:
64,192,67138,1,0,0:0:0:0:
320,192,67372,128,0,67489:0:0:0:0:
64,192,67372,1,0,0:0:0:0:
192,192,67489,128,0,67606:0:0:0:0:
448,192,67489,1,0,0:0:0:0:
448,192,67606,128,0,67724:0:0:0:0:
64,192,67606,1,0,0:0:0:0:
64,192,67724,128,0,67841:0:0:0:0:
320,192,67724,1,0,0:0:0:0:
320,192,67841,128,0,67958:0:0:0:0:
192,192,67841,1,0,0:0:0:0:
448,192,67958,128,0,68075:0:0:0:0:
64,192,67958,1,0,0:0:0:0:
192,192,68075,128,0,68192:0:0:0:0:
320,192,68075,1,0,0:0:0:0:
64,192,68192,128,0,68310:0:0:0:0:
448,192,68192,1,0,0:0:0:0:
320,192,68310,128,0,68427:0:0:0:0:
192,192,68310,1,0,0:0:0:0:
192,192,68427,128,0,68544:0:0:0:0:
448,192,68427,1,0,0:0:0:0:
448,192,68544,128,0,68661:0:0:0:0:
64,192,68544,1,0,0:0:0:0:
64,192,68661,128,0,68778:0:0:0:0:
320,192,68661,1,0,0:0:0:0:
192,192,68778,128,0,68895:0:0:0:0:
448,192,68778,1,0,0:0:0:0:
320,192,68895,128,0,69013:0:0:0:0:
64,192,68895,1,0,0:0:0:0:
448,192,69013,1,0,0:0:0:0:
192,192,69013,128,0,69130:0:0:0:0:
448,192,69130,128,0,69247:0:0:0:0:
64,192,69130,1,0,0:0:0:0:
320,192,69247,1,0,0:0:0:0:
64,192,69247,128,0,69364:0:0:0:0:
192,192,69364,128,0,69481:0:0:0:0:
448,192,69364,1,0,0:0:0:0:
448,192,69481,128,0,69599:0:0:0:0:
64,192,69481,1,0,0:0:0:0:
320,192,69599,128,0,69716:0:0:0:0:
192,192,69599,1,0,0:0:0:0:
64,192,69716,128,0,69833:0:0:0:0:
448,192,69716,1,0,0:0:0:0:
320,192,69833,128,0,69950:0:0:0:0:
192,192,69833,1,0,0:0:0:0:
448,192,69950,128,0,70067:0:0:0:0:
64,192,69950,1,0,0:0:0:0:
192,192,70067,128,0,70185:0:0:0:0:
320,192,70067,1,0,0:0:0:0:
64,192,70185,128,0,70302:0:0:0:0:
448,192,70185,1,0,0:0:0:0:
320,192,70302,128,0,70419:0:0:0:0:
192,192,70302,1,0,0:0:0:0:
192,192,70419,128,0,70536:0:0:0:0:
448,192,70419,1,0,0:0:0:0:
64,192,70536,1,0,0:0:0:0:
320,192,70653,128,0,70888:0:0:0:0:
448,192,70653,1,0,0:0:0:0:
64,192,70653,128,0,70770:0:0:0:0:
192,192,70888,1,0,0:0:0:0:
64,192,71122,1,0,0:0:0:0:
448,192,71122,128,0,71356:0:0:0:0:
192,192,71181,1,0,0:0:0:0:
320,192,71239,1,0,0:0:0:0:
64,192,71356,128,0,71474:0:0:0:0:
192,192,71356,1,0,0:0:0:0:
192,192,71474,128,0,71591:0:0:0:0:
320,192,71474,1,0,0:0:0:0:
448,192,71591,1,0,0:0:0:0:
320,192,71649,1,0,0:0:0:0:
192,192,71708,1,0,0:0:0:0:
64,192,71767,1,0,0:0:0:0:
192,192,71825,1,0,0:0:0:0:
320,192,71825,1,0,0:0:0:0:
448,192,71942,128,0,71972:0:0:0:0:
320,192,71942,1,0,0:0:0:0:
64,192,71942,1,0,0:0:0:0:
448,192,72177,1,0,0:0:0:0:
192,192,72177,128,0,72206:0:0:0:0:
64,192,72177,1,0,0:0:0:0:
448,192,72411,1,0,0:0:0:0:
320,192,72411,128,0,72440:0:0:0:0:
64,192,72411,1,0,0:0:0:0:
192,192,72528,1,0,0:0:0:0:
320,192,72587,1,0,0:0:0:0:
448,192,72645,1,0,0:0:0:0:
320,192,72704,1,0,0:0:0:0:
192,192,72763,1,0,0:0:0:0:
64,192,72821,1,0,0:0:0:0:
192,192,72880,128,0,72997:0:0:0:0:
448,192,72997,128,0,73231:0:0:0:0:
64,192,72997,1,0,0:0:0:0:
192,192,73056,1,0,0:0:0:0:
320,192,73114,1,0,0:0:0:0:
192,192,73173,1,0,0:0:0:0:
64,192,73231,128,0,73349:0:0:0:0:
320,192,73349,128,0,73466:0:0:0:0:
192,192,73349,1,0,0:0:0:0:
448,192,73466,1,0,0:0:0:0:
64,192,73583,1,0,0:0:0:0:
320,192,73583,1,0,0:0:0:0:
192,192,73700,1,0,0:0:0:0:
448,192,73700,1,0,0:0:0:0:
64,192,73817,1,0,0:0:0:0:
320,192,73817,128,0,74052:0:0:0:0:
192,192,74052,128,0,74286:0:0:0:0:
448,192,74052,1,0,0:0:0:0:
448,192,74286,128,0,74520:0:0:0:0:
64,192,74286,1,0,0:0:0:0:
64,192,74520,128,0,74755:0:0:0:0:
320,192,74520,1,0,0:0:0:0:
320,192,74872,128,0,74989:0:0:0:0:
192,192,74872,1,0,0:0:0:0:
64,192,74989,128,0,75106:0:0:0:0:
448,192,74989,1,0,0:0:0:0:
448,192,75106,128,0,75224:0:0:0:0:
320,192,75106,1,0,0:0:0:0:
192,192,75224,128,0,75341:0:0:0:0:
64,192,75224,1,0,0:0:0:0:
64,192,75341,128,0,75458:0:0:0:0:
448,192,75341,1,0,0:0:0:0:
320,192,75458,128,0,75575:0:0:0:0:
192,192,75458,1,0,0:0:0:0:
192,192,75575,128,0,75692:0:0:0:0:
448,192,75575,1,0,0:0:0:0:
448,192,75692,128,0,75810:0:0:0:0:
64,192,75692,1,0,0:0:0:0:
320,192,75810,128,0,75927:0:0:0:0:
192,192,75810,1,0,0:0:0:0:
64,192,75927,128,0,76044:0:0:0:0:
448,192,75927,1,0,0:0:0:0:
192,192,76044,128,0,76161:0:0:0:0:
320,192,76044,1,0,0:0:0:0:
64,192,76161,1,0,0:0:0:0:
448,192,76161,128,0,76278:0:0:0:0:
320,192,76278,1,0,0:0:0:0:
192,192,76308,1,0,0:0:0:0:
64,192,76337,1,0,0:0:0:0:
320,192,76395,128,0,76513:0:0:0:0:
448,192,76395,1,0,0:0:0:0:
64,192,76513,128,0,76630:0:0:0:0:
192,192,76513,1,0,0:0:0:0:
192,192,76630,128,0,76747:0:0:0:0:
448,192,76630,1,0,0:0:0:0:
320,192,76747,128,0,76864:0:0:0:0:
64,192,76747,1,0,0:0:0:0:
64,192,76864,128,0,76981:0:0:0:0:
448,192,76864,1,0,0:0:0:0:
448,192,76981,128,0,77099:0:0:0:0:
192,192,76981,1,0,0:0:0:0:
320,192,77099,128,0,77216:0:0:0:0:
64,192,77099,1,0,0:0:0:0:
192,192,77216,128,0,77333:0:0:0:0:
448,192,77216,1,0,0:0:0:0:
320,192,77333,128,0,77450:0:0:0:0:
64,192,77333,1,0,0:0:0:0:
64,192,77450,128,0,77567:0:0:0:0:
448,192,77450,1,0,0:0:0:0:
448,192,77567,128,0,77685:0:0:0:0:
192,192,77567,1,0,0:0:0:0:
320,192,77685,128,0,77802:0:0:0:0:
64,192,77685,1,0,0:0:0:0:
64,192,77802,128,0,77919:0:0:0:0:
448,192,77802,1,0,0:0:0:0:
192,192,77919,128,0,78036:0:0:0:0:
320,192,77919,1,0,0:0:0:0:
320,192,78153,128,0,78388:0:0:0:0:
64,192,78153,128,0,78270:0:0:0:0:
448,192,78153,1,0,0:0:0:0:
192,192,78388,1,0,0:0:0:0:
64,192,78622,1,0,0:0:0:0:
192,192,78651,1,0,0:0:0:0:
320,192,78681,1,0,0:0:0:0:
448,192,78710,1,0,0:0:0:0:
320,192,78739,1,0,0:0:0:0:
192,192,78768,1,0,0:0:0:0:
64,192,78798,1,0,0:0:0:0:
192,192,78827,1,0,0:0:0:0:
320,192,78856,128,0,78974:0:0:0:0:
448,192,78856,1,0,0:0:0:0:
64,192,78974,128,0,79091:0:0:0:0:
192,192,78974,1,0,0:0:0:0:
448,192,79091,128,0,79208:0:0:0:0:
320,192,79091,1,0,0:0:0:0:
192,192,79149,1,0,0:0:0:0:
64,192,79208,1,0,0:0:0:0:
320,192,79325,1,0,0:0:0:0:
192,192,79325,1,0,0:0:0:0:
448,192,79442,1,0,0:0:0:0:
192,192,79442,1,0,0:0:0:0:
320,192,79442,128,0,79472:0:0:0:0:
192,192,79677,128,0,79706:0:0:0:0:
64,192,79677,1,0,0:0:0:0:
448,192,79677,1,0,0:0:0:0:
64,192,79911,128,0,79940:0:0:0:0:
448,192,79911,1,0,0:0:0:0:
320,192,79911,1,0,0:0:0:0:
64,192,80145,128,0,80263:0:0:0:0:
320,192,80145,1,0,0:0:0:0:
192,192,80321,1,0,0:0:0:0:
320,192,80380,1,0,0:0:0:0:
448,192,80438,1,0,0:0:0:0:
320,192,80497,1,0,0:0:0:0:
192,192,80497,1,0,0:0:0:0:
64,192,80614,1,0,0:0:0:0:
448,192,80614,1,0,0:0:0:0:
192,192,80731,1,0,0:0:0:0:
320,192,80731,1,0,0:0:0:0:
64,192,80849,1,0,0:0:0:0:
192,192,80907,1,0,0:0:0:0:
320,192,80966,1,0,0:0:0:0:
448,192,81024,1,0,0:0:0:0:
64,192,81083,1,0,0:0:0:0:
192,192,81142,1,0,0:0:0:0:
320,192,81200,1,0,0:0:0:0:
448,192,81259,1,0,0:0:0:0:
320,192,81317,1,0,0:0:0:0:
192,192,81376,1,0,0:0:0:0:
64,192,81435,1,0,0:0:0:0:
192,192,81464,1,0,0:0:0:0:
448,192,81493,1,0,0:0:0:0:
320,192,81522,1,0,0:0:0:0:
64,192,81552,1,0,0:0:0:0:
192,192,81581,1,0,0:0:0:0:
448,192,81610,1,0,0:0:0:0:
320,192,81640,1,0,0:0:0:0:
64,192,81669,1,0,0:0:0:0:
192,192,81698,1,0,0:0:0:0:
448,192,81727,1,0,0:0:0:0:
320,192,81757,1,0,0:0:0:0:
64,192,81786,1,0,0:0:0:0:
192,192,81815,1,0,0:0:0:0:
448,192,81845,1,0,0:0:0:0:
320,192,81874,1,0,0:0:0:0:
64,192,81903,1,0,0:0:0:0:
192,192,81933,1,0,0:0:0:0:
448,192,81962,1,0,0:0:0:0:
320,192,81991,1,0,0:0:0:0:
64,192,82020,1,0,0:0:0:0:
192,192,82020,1,0,0:0:0:0:
448,192,82079,1,0,0:0:0:0:
320,192,82079,1,0,0:0:0:0:
64,192,82138,1,0,0:0:0:0:
192,192,82138,1,0,0:0:0:0:
320,192,82196,1,0,0:0:0:0:
448,192,82196,1,0,0:0:0:0:
192,192,82255,1,0,0:0:0:0:
64,192,82255,1,0,0:0:0:0:
320,192,82313,1,0,0:0:0:0:
448,192,82313,1,0,0:0:0:0:
192,192,82372,1,0,0:0:0:0:
64,192,82372,1,0,0:0:0:0:
320,192,82431,1,0,0:0:0:0:
448,192,82489,1,0,0:0:0:0:
320,192,82548,1,0,0:0:0:0:
192,192,82606,1,0,0:0:0:0:
64,192,82606,1,0,0:0:0:0:
320,192,82665,1,0,0:0:0:0:
448,192,82724,1,0,0:0:0:0:
320,192,82782,1,0,0:0:0:0:
448,192,82841,1,0,0:0:0:0:
192,192,82841,1,0,0:0:0:0:
64,192,82899,1,0,0:0:0:0:
192,192,82958,1,0,0:0:0:0:
320,192,83017,1,0,0:0:0:0:
192,192,83075,1,0,0:0:0:0:
448,192,83075,1,0,0:0:0:0:
320,192,83134,1,0,0:0:0:0:
448,192,83192,1,0,0:0:0:0:
320,192,83251,1,0,0:0:0:0:
192,192,83310,128,0,84247:0:0:0:0:
64,192,83310,128,0,83544:0:0:0:0:
448,192,83544,1,0,0:0:0:0:
320,192,83778,1,0,0:0:0:0:
64,192,83895,1,0,0:0:0:0:
448,192,84013,1,0,0:0:0:0:
320,192,84130,1,0,0:0:0:0:
64,192,84247,1,0,0:0:0:0:
320,192,84364,1,0,0:0:0:0:
448,192,84481,1,0,0:0:0:0:
192,192,84599,1,0,0:0:0:0:
64,192,84716,1,0,0:0:0:0:
320,192,84833,1,0,0:0:0:0:
192,192,84950,1,0,0:0:0:0:
448,192,85067,1,0,0:0:0:0:
320,192,85185,1,0,0:0:0:0:
64,192,85185,1,0,0:0:0:0:
192,192,85185,128,0,85419:0:0:0:0:
448,192,85419,1,0,0:0:0:0:
320,192,85419,1,0,0:0:0:0:
64,192,85536,1,0,0:0:0:0:
448,192,85653,1,0,0:0:0:0:
192,192,85770,1,0,0:0:0:0:
64,192,85888,1,0,0:0:0:0:
320,192,86005,1,0,0:0:0:0:
192,192,86122,1,0,0:0:0:0:
448,192,86239,1,0,0:0:0:0:
64,192,86356,1,0,0:0:0:0:
320,192,86474,1,0,0:0:0:0:
448,192,86591,1,0,0:0:0:0:
320,192,86620,1,0,0:0:0:0:
192,192,86649,1,0,0:0:0:0:
64,192,86679,1,0,0:0:0:0:
448,192,86708,1,0,0:0:0:0:
320,192,86737,1,0,0:0:0:0:
192,192,86767,1,0,0:0:0:0:
64,192,86796,1,0,0:0:0:0:
448,192,86825,1,0,0:0:0:0:
320,192,86854,1,0,0:0:0:0:
192,192,86884,1,0,0:0:0:0:
64,192,86913,1,0,0:0:0:0:
448,192,86942,1,0,0:0:0:0:
320,192,86972,1,0,0:0:0:0:
192,192,87001,1,0,0:0:0:0:
64,192,87030,1,0,0:0:0:0:
448,192,87060,1,0,0:0:0:0:
320,192,87060,1,0,0:0:0:0:
192,192,87177,1,0,0:0:0:0:
64,192,87294,1,0,0:0:0:0:
320,192,87294,1,0,0:0:0:0:
448,192,87411,1,0,0:0:0:0:
320,192,87528,1,0,0:0:0:0:
192,192,87528,1,0,0:0:0:0:
64,192,87645,1,0,0:0:0:0:
64,192,87763,1,0,0:0:0:0:
320,192,87763,1,0,0:0:0:0:
192,192,87880,1,0,0:0:0:0:
448,192,87997,1,0,0:0:0:0:
64,192,87997,1,0,0:0:0:0:
320,192,88056,1,0,0:0:0:0:
192,192,88114,1,0,0:0:0:0:
64,192,88231,1,0,0:0:0:0:
320,192,88231,1,0,0:0:0:0:
448,192,88349,1,0,0:0:0:0:
64,192,88466,1,0,0:0:0:0:
192,192,88524,1,0,0:0:0:0:
320,192,88583,1,0,0:0:0:0:
448,192,88642,1,0,0:0:0:0:
320,192,88700,1,0,0:0:0:0:
64,192,88700,1,0,0:0:0:0:
192,192,88817,1,0,0:0:0:0:
64,192,88935,1,0,0:0:0:0:
448,192,88935,1,0,0:0:0:0:
192,192,88993,1,0,0:0:0:0:
320,192,89052,1,0,0:0:0:0:
448,192,89169,1,0,0:0:0:0:
192,192,89169,1,0,0:0:0:0:
320,192,89286,1,0,0:0:0:0:
448,192,89403,128,0,89520:0:0:0:0:
192,192,89403,128,0,89520:0:0:0:0:
320,192,89520,128,0,89638:0:0:0:0:
64,192,89520,128,0,89638:0:0:0:0:
192,192,89638,128,0,89755:0:0:0:0:
448,192,89638,128,0,89755:0:0:0:0:
320,192,89755,128,0,89872:0:0:0:0:
64,192,89755,128,0,89872:0:0:0:0:
448,192,89872,1,0,0:0:0:0:
320,192,89931,1,0,0:0:0:0:
192,192,89989,1,0,0:0:0:0:
64,192,90048,1,0,0:0:0:0:
192,192,90106,1,0,0:0:0:0:
448,192,90106,1,0,0:0:0:0:
320,192,90165,1,0,0:0:0:0:
448,192,90224,1,0,0:0:0:0:
320,192,90282,1,0,0:0:0:0:
192,192,90341,1,0,0:0:0:0:
64,192,90341,1,0,0:0:0:0:
320,192,90399,1,0,0:0:0:0:
448,192,90458,1,0,0:0:0:0:
320,192,90517,1,0,0:0:0:0:
192,192,90575,128,0,90810:0:0:0:0:
64,192,90810,1,0,0:0:0:0:
448,192,90810,128,0,90927:0:0:0:0:
64,192,90927,128,0,91044:0:0:0:0:
320,192,90927,1,0,0:0:0:0:
448,192,91044,1,0,0:0:0:0:
192,192,91044,128,0,91161:0:0:0:0:
448,192,91161,128,0,91278:0:0:0:0:
320,192,91161,1,0,0:0:0:0:
320,192,91278,128,0,91395:0:0:0:0:
64,192,91278,1,0,0:0:0:0:
64,192,91395,128,0,91513:0:0:0:0:
192,192,91395,1,0,0:0:0:0:
320,192,91513,128,0,91630:0:0:0:0:
448,192,91513,1,0,0:0:0:0:
448,192,91630,128,0,91747:0:0:0:0:
192,192,91630,1,0,0:0:0:0:
64,192,91747,1,0,0:0:0:0:
192,192,91806,1,0,0:0:0:0:
320,192,91864,1,0,0:0:0:0:
448,192,91864,128,0,91981:0:0:0:0:
192,192,91981,128,0,92099:0:0:0:0:
320,192,91981,1,0,0:0:0:0:
448,192,92099,128,0,92216:0:0:0:0:
64,192,92099,1,0,0:0:0:0:
320,192,92216,128,0,92333:0:0:0:0:
192,192,92216,1,0,0:0:0:0:
64,192,92333,128,0,92450:0:0:0:0:
448,192,92333,1,0,0:0:0:0:
192,192,92450,128,0,92567:0:0:0:0:
320,192,92450,1,0,0:0:0:0:
448,192,92567,128,0,92685:0:0:0:0:
64,192,92567,1,0,0:0:0:0:
64,192,92685,128,0,92802:0:0:0:0:
320,192,92685,1,0,0:0:0:0:
192,192,92802,1,0,0:0:0:0:
448,192,92802,128,0,92919:0:0:0:0:
320,192,92919,1,0,0:0:0:0:
192,192,92977,1,0,0:0:0:0:
64,192,93036,1,0,0:0:0:0:
320,192,93036,128,0,93153:0:0:0:0:
192,192,93153,128,0,93270:0:0:0:0:
64,192,93153,1,0,0:0:0:0:
64,192,93270,128,0,93388:0:0:0:0:
448,192,93270,1,0,0:0:0:0:
448,192,93388,128,0,93505:0:0:0:0:
320,192,93388,1,0,0:0:0:0:
320,192,93505,128,0,93856:0:0:0:0:
64,192,93505,1,0,0:0:0:0:
192,192,93856,128,0,93974:0:0:0:0:
320,192,93974,1,0,0:0:0:0:
448,192,94032,1,0,0:0:0:0:
192,192,94091,1,0,0:0:0:0:
64,192,94149,1,0,0:0:0:0:
320,192,94208,1,0,0:0:0:0:
448,192,94267,1,0,0:0:0:0:
192,192,94325,1,0,0:0:0:0:
64,192,94384,1,0,0:0:0:0:
320,192,94442,1,0,0:0:0:0:
448,192,94501,1,0,0:0:0:0:
192,192,94560,128,0,94677:0:0:0:0:
64,192,94560,1,0,0:0:0:0:
320,192,94677,128,0,94794:0:0:0:0:
448,192,94677,1,0,0:0:0:0:
64,192,94794,128,0,94911:0:0:0:0:
192,192,94794,1,0,0:0:0:0:
448,192,94911,128,0,95028:0:0:0:0:
320,192,94911,1,0,0:0:0:0:
320,192,95028,128,0,95145:0:0:0:0:
64,192,95028,1,0,0:0:0:0:
192,192,95145,128,0,95263:0:0:0:0:
448,192,95145,1,0,0:0:0:0:
448,192,95263,128,0,95380:0:0:0:0:
64,192,95263,1,0,0:0:0:0:
64,192,95380,128,0,95497:0:0:0:0:
320,192,95380,1,0,0:0:0:0:
448,192,95497,1,0,0:0:0:0:
320,192,95556,1,0,0:0:0:0:
448,192,95614,128,0,95731:0:0:0:0:
192,192,95614,1,0,0:0:0:0:
64,192,95731,128,0,95849:0:0:0:0:
320,192,95731,1,0,0:0:0:0:
320,192,95849,128,0,95966:0:0:0:0:
448,192,95849,1,0,0:0:0:0:
192,192,95966,128,0,96083:0:0:0:0:
64,192,95966,1,0,0:0:0:0:
448,192,96083,128,0,96200:0:0:0:0:
320,192,96083,1,0,0:0:0:0:
64,192,96200,128,0,96317:0:0:0:0:
192,192,96200,1,0,0:0:0:0:
192,192,96317,128,0,96435:0:0:0:0:
448,192,96317,1,0,0:0:0:0:
320,192,96435,128,0,96669:0:0:0:0:
64,192,96552,1,0,0:0:0:0:
192,192,96610,1,0,0:0:0:0:
64,192,96669,1,0,0:0:0:0:
448,192,96786,1,0,0:0:0:0:
320,192,96845,1,0,0:0:0:0:
192,192,96903,1,0,0:0:0:0:
64,192,96903,1,0,0:0:0:0:
192,192,97020,1,0,0:0:0:0:
320,192,97079,1,0,0:0:0:0:
192,192,97138,1,0,0:0:0:0:
64,192,97138,1,0,0:0:0:0:
448,192,97138,1,0,0:0:0:0:
192,192,97255,1,0,0:0:0:0:
320,192,97255,1,0,0:0:0:0:
192,192,97372,128,0,97606:0:0:0:0:
448,192,97372,1,0,0:0:0:0:
448,192,97606,128,0,97841:0:0:0:0:
64,192,97606,1,0,0:0:0:0:
64,192,97841,128,0,98067:0:0:0:0:
320,192,97841,1,0,0:0:0:0:
320,192,98067,128,0,98293:0:0:0:0:
448,192,98067,1,0,0:0:0:0:
64,192,98293,128,0,98406:0:0:0:0:
448,192,98293,1,0,0:0:0:0:
448,192,98406,128,0,98519:0:0:0:0:
192,192,98406,1,0,0:0:0:0:
192,192,98519,128,0,98632:0:0:0:0:
320,192,98519,1,0,0:0:0:0:
320,192,98632,128,0,98745:0:0:0:0:
64,192,98632,1,0,0:0:0:0:
64,192,98745,128,0,98859:0:0:0:0:
448,192,98745,1,0,0:0:0:0:
448,192,98859,128,0,98972:0:0:0:0:
192,192,98859,1,0,0:0:0:0:
192,192,98972,128,0,99085:0:0:0:0:
320,192,98972,1,0,0:0:0:0:
448,192,99085,128,0,99198:0:0:0:0:
320,192,99085,1,0,0:0:0:0:
64,192,99198,1,0,0:0:0:0:
192,192,99226,1,0,0:0:0:0:
320,192,99255,1,0,0:0:0:0:
448,192,99283,1,0,0:0:0:0:
64,192,99311,1,0,0:0:0:0:
192,192,99368,1,0,0:0:0:0:
320,192,99425,1,0,0:0:0:0:
64,192,99425,1,0,0:0:0:0:
448,192,99481,1,0,0:0:0:0:
320,192,99538,1,0,0:0:0:0:
192,192,99594,1,0,0:0:0:0:
320,192,99651,1,0,0:0:0:0:
448,192,99651,1,0,0:0:0:0:
192,192,99708,1,0,0:0:0:0:
64,192,99764,1,0,0:0:0:0:
192,192,99821,1,0,0:0:0:0:
320,192,99877,1,0,0:0:0:0:
64,192,99877,1,0,0:0:0:0:
448,192,99934,1,0,0:0:0:0:
320,192,99991,1,0,0:0:0:0:
192,192,100047,1,0,0:0:0:0:
64,192,100104,1,0,0:0:0:0:
192,192,100132,1,0,0:0:0:0:
320,192,100160,1,0,0:0:0:0:
448,192,100189,1,0,0:0:0:0:
64,192,100217,128,0,100330:0:0:0:0:
192,192,100330,128,0,100443:0:0:0:0:
320,192,100330,1,0,0:0:0:0:
320,192,100443,128,0,100557:0:0:0:0:
448,192,100443,1,0,0:0:0:0:
64,192,100557,128,0,100670:0:0:0:0:
192,192,100557,1,0,0:0:0:0:
192,192,100670,128,0,100783:0:0:0:0:
320,192,100670,1,0,0:0:0:0:
320,192,100783,128,0,100896:0:0:0:0:
448,192,100783,1,0,0:0:0:0:
448,192,100896,128,0,101009:0:0:0:0:
64,192,100896,1,0,0:0:0:0:
64,192,101009,1,0,0:0:0:0:
320,192,101009,1,0,0:0:0:0:
192,192,101066,1,0,0:0:0:0:
64,192,101123,1,0,0:0:0:0:
192,192,101179,1,0,0:0:0:0:
320,192,101236,1,0,0:0:0:0:
448,192,101236,1,0,0:0:0:0:
192,192,101293,1,0,0:0:0:0:
320,192,101349,1,0,0:0:0:0:
448,192,101406,1,0,0:0:0:0:
320,192,101462,1,0,0:0:0:0:
64,192,101462,1,0,0:0:0:0:
192,192,101519,1,0,0:0:0:0:
64,192,101576,1,0,0:0:0:0:
192,192,101632,1,0,0:0:0:0:
320,192,101689,1,0,0:0:0:0:
64,192,101689,1,0,0:0:0:0:
448,192,101745,1,0,0:0:0:0:
192,192,101745,1,0,0:0:0:0:
320,192,101802,1,0,0:0:0:0:
64,192,101802,1,0,0:0:0:0:
192,192,101859,1,0,0:0:0:0:
448,192,101859,1,0,0:0:0:0:
64,192,101915,1,0,0:0:0:0:
320,192,101915,128,0,102142:0:0:0:0:
64,192,102142,1,0,0:0:0:0:
192,192,102198,1,0,0:0:0:0:
320,192,102255,1,0,0:0:0:0:
448,192,102255,128,0,102368:0:0:0:0:
192,192,102368,128,0,102481:0:0:0:0:
64,192,102368,1,0,0:0:0:0:
320,192,102481,128,0,102594:0:0:0:0:
448,192,102481,1,0,0:0:0:0:
64,192,102594,128,0,102708:0:0:0:0:
192,192,102594,1,0,0:0:0:0:
448,192,102708,128,0,102821:0:0:0:0:
320,192,102708,1,0,0:0:0:0:
320,192,102821,1,0,0:0:0:0:
192,192,102877,1,0,0:0:0:0:
64,192,102934,1,0,0:0:0:0:
192,192,102991,1,0,0:0:0:0:
320,192,103047,1,0,0:0:0:0:
448,192,103047,1,0,0:0:0:0:
192,192,103104,1,0,0:0:0:0:
320,192,103160,1,0,0:0:0:0:
448,192,103217,1,0,0:0:0:0:
320,192,103274,1,0,0:0:0:0:
192,192,103274,128,0,103500:0:0:0:0:
64,192,103500,1,0,0:0:0:0:
448,192,103500,1,0,0:0:0:0:
320,192,103726,128,0,103840:0:0:0:0:
192,192,103726,1,0,0:0:0:0:
448,192,103726,1,0,0:0:0:0:
64,192,103840,1,0,0:0:0:0:
448,192,103840,1,0,0:0:0:0:
192,192,103953,128,0,104066:0:0:0:0:
64,192,103953,1,0,0:0:0:0:
448,192,103953,1,0,0:0:0:0:
320,192,104066,1,0,0:0:0:0:
64,192,104066,1,0,0:0:0:0:
448,192,104179,1,0,0:0:0:0:
320,192,104236,1,0,0:0:0:0:
192,192,104293,1,0,0:0:0:0:
64,192,104349,1,0,0:0:0:0:
320,192,104349,1,0,0:0:0:0:
192,192,104406,1,0,0:0:0:0:
448,192,104406,1,0,0:0:0:0:
320,192,104462,1,0,0:0:0:0:
64,192,104462,1,0,0:0:0:0:
192,192,104519,1,0,0:0:0:0:
448,192,104519,1,0,0:0:0:0:
320,192,104576,1,0,0:0:0:0:
192,192,104632,128,0,104859:0:0:0:0:
64,192,104632,1,0,0:0:0:0:
448,192,104859,128,0,105085:0:0:0:0:
320,192,104859,1,0,0:0:0:0:
320,192,105085,128,0,105311:0:0:0:0:
64,192,105085,1,0,0:0:0:0:
64,192,105311,128,0,105538:0:0:0:0:
448,192,105311,1,0,0:0:0:0:
448,192,105538,128,0,105647:0:0:0:0:
320,192,105538,1,0,0:0:0:0:
192,192,105647,128,0,105757:0:0:0:0:
64,192,105647,1,0,0:0:0:0:
320,192,105757,1,0,0:0:0:0:
448,192,105812,1,0,0:0:0:0:
320,192,105867,1,0,0:0:0:0:
192,192,105977,1,0,0:0:0:0:
64,192,105977,1,0,0:0:0:0:
320,192,106032,1,0,0:0:0:0:
448,192,106087,1,0,0:0:0:0:
320,192,106142,1,0,0:0:0:0:
192,192,106197,1,0,0:0:0:0:
448,192,106197,1,0,0:0:0:0:
320,192,106252,1,0,0:0:0:0:
448,192,106307,1,0,0:0:0:0:
320,192,106362,1,0,0:0:0:0:
448,192,106417,1,0,0:0:0:0:
192,192,106417,1,0,0:0:0:0:
64,192,106472,1,0,0:0:0:0:
320,192,106472,1,0,0:0:0:0:
192,192,106527,1,0,0:0:0:0:
448,192,106527,1,0,0:0:0:0:
320,192,106581,1,0,0:0:0:0:
64,192,106581,1,0,0:0:0:0:
448,192,106636,1,0,0:0:0:0:
192,192,106636,1,0,0:0:0:0:
320,192,106691,1,0,0:0:0:0:
192,192,106746,1,0,0:0:0:0:
64,192,106801,1,0,0:0:0:0:
448,192,106856,1,0,0:0:0:0:
320,192,106884,1,0,0:0:0:0:
192,192,106911,1,0,0:0:0:0:
64,192,106939,1,0,0:0:0:0:
64,192,107076,1,0,0:0:0:0:
192,192,107103,1,0,0:0:0:0:
320,192,107131,1,0,0:0:0:0:
448,192,107158,1,0,0:0:0:0:
64,192,107186,1,0,0:0:0:0:
192,192,107241,1,0,0:0:0:0:
64,192,107296,128,0,107516:0:0:0:0:
448,192,107296,1,0,0:0:0:0:
320,192,107351,1,0,0:0:0:0:
192,192,107406,1,0,0:0:0:0:
320,192,107461,1,0,0:0:0:0:
192,192,107516,128,0,107625:0:0:0:0:
448,192,107516,1,0,0:0:0:0:
320,192,107570,1,0,0:0:0:0:
448,192,107625,1,0,0:0:0:0:
64,192,107735,1,0,0:0:0:0:
320,192,107735,1,0,0:0:0:0:
192,192,107845,1,0,0:0:0:0:
448,192,107845,1,0,0:0:0:0:
320,192,107955,1,0,0:0:0:0:
64,192,107955,1,0,0:0:0:0:
192,192,108065,1,0,0:0:0:0:
448,192,108065,1,0,0:0:0:0:
192,192,108175,128,0,108202:0:0:0:0:
64,192,108175,1,0,0:0:0:0:
448,192,108175,1,0,0:0:0:0:
448,192,108395,128,0,108422:0:0:0:0:
64,192,108395,1,0,0:0:0:0:
320,192,108395,1,0,0:0:0:0:
192,192,108614,1,0,0:0:0:0:
64,192,108614,128,0,108642:0:0:0:0:
448,192,108614,1,0,0:0:0:0:
320,192,108834,128,0,108862:0:0:0:0:
64,192,108834,1,0,0:0:0:0:
448,192,108834,1,0,0:0:0:0:
64,192,109054,1,0,0:0:0:0:
192,192,109081,1,0,0:0:0:0:
448,192,109109,1,0,0:0:0:0:
320,192,109136,1,0,0:0:0:0:
192,192,109164,1,0,0:0:0:0:
448,192,109219,1,0,0:0:0:0:
320,192,109246,1,0,0:0:0:0:
64,192,109274,1,0,0:0:0:0:
192,192,109301,1,0,0:0:0:0:
320,192,109329,1,0,0:0:0:0:
448,192,109384,1,0,0:0:0:0:
320,192,109439,1,0,0:0:0:0:
448,192,109494,1,0,0:0:0:0:
320,192,109548,1,0,0:0:0:0:
192,192,109603,1,0,0:0:0:0:
64,192,109658,1,0,0:0:0:0:
192,192,109713,1,0,0:0:0:0:
448,192,109713,1,0,0:0:0:0:
320,192,109768,1,0,0:0:0:0:
192,192,109823,1,0,0:0:0:0:
64,192,109878,1,0,0:0:0:0:
448,192,109933,1,0,0:0:0:0:
192,192,109933,1,0,0:0:0:0:
320,192,109988,1,0,0:0:0:0:
64,192,109988,1,0,0:0:0:0:
192,192,110043,1,0,0:0:0:0:
448,192,110043,1,0,0:0:0:0:
320,192,110098,1,0,0:0:0:0:
64,192,110098,1,0,0:0:0:0:
192,192,110153,1,0,0:0:0:0:
448,192,110153,1,0,0:0:0:0:
64,192,110208,1,0,0:0:0:0:
192,192,110263,1,0,0:0:0:0:
320,192,110318,1,0,0:0:0:0:
448,192,110373,1,0,0:0:0:0:
192,192,110373,1,0,0:0:0:0:
320,192,110428,1,0,0:0:0:0:
448,192,110483,1,0,0:0:0:0:
320,192,110538,1,0,0:0:0:0:
192,192,110592,1,0,0:0:0:0:
448,192,110592,1,0,0:0:0:0:
64,192,110647,1,0,0:0:0:0:
320,192,110647,1,0,0:0:0:0:
192,192,110702,1,0,0:0:0:0:
448,192,110702,1,0,0:0:0:0:
320,192,110757,1,0,0:0:0:0:
64,192,110757,1,0,0:0:0:0:
192,192,110812,1,0,0:0:0:0:
448,192,110812,1,0,0:0:0:0:
192,192,110922,128,0,110950:0:0:0:0:
320,192,111032,1,0,0:0:0:0:
64,192,111032,128,0,111142:0:0:0:0:
192,192,111142,128,0,111252:0:0:0:0:
448,192,111142,1,0,0:0:0:0:
448,192,111252,128,0,111362:0:0:0:0:
64,192,111252,1,0,0:0:0:0:
320,192,111362,128,0,111472:0:0:0:0:
192,192,111362,1,0,0:0:0:0:
192,192,111472,128,0,111581:0:0:0:0:
448,192,111472,1,0,0:0:0:0:
448,192,111581,128,0,111691:0:0:0:0:
64,192,111581,1,0,0:0:0:0:
320,192,111691,128,0,111716:0:0:0:0:
192,192,111794,128,0,111820:0:0:0:0:
448,192,111897,128,0,111923:0:0:0:0:
64,192,112001,128,0,112027:0:0:0:0:
192,192,112104,128,0,112130:0:0:0:0:
448,192,112208,128,0,112234:0:0:0:0:
320,192,112259,1,0,0:0:0:0:
192,192,112285,1,0,0:0:0:0:
64,192,112311,128,0,112518:0:0:0:0:
192,192,112518,1,0,0:0:0:0:
320,192,112570,1,0,0:0:0:0:
448,192,112622,1,0,0:0:0:0:
320,192,112673,1,0,0:0:0:0:
192,192,112725,1,0,0:0:0:0:
64,192,112725,1,0,0:0:0:0:
448,192,112828,1,0,0:0:0:0:
192,192,112828,1,0,0:0:0:0:
320,192,112932,1,0,0:0:0:0:
64,192,112932,1,0,0:0:0:0:
448,192,113035,1,0,0:0:0:0:
320,192,113087,1,0,0:0:0:0:
192,192,113139,1,0,0:0:0:0:
64,192,113139,1,0,0:0:0:0:
320,192,113191,1,0,0:0:0:0:
192,192,113242,1,0,0:0:0:0:
64,192,113294,1,0,0:0:0:0:
192,192,113346,1,0,0:0:0:0:
320,192,113346,1,0,0:0:0:0:
448,192,113346,128,0,113372:0:0:0:0:
192,192,113553,128,0,113578:0:0:0:0:
64,192,113553,1,0,0:0:0:0:
448,192,113553,1,0,0:0:0:0:
64,192,113759,1,0,0:0:0:0:
320,192,113759,128,0,113785:0:0:0:0:
448,192,113759,1,0,0:0:0:0:
64,192,113966,128,0,113992:0:0:0:0:
192,192,113966,1,0,0:0:0:0:
448,192,113966,1,0,0:0:0:0:
192,192,114173,1,0,0:0:0:0:
64,192,114225,1,0,0:0:0:0:
192,192,114277,1,0,0:0:0:0:
320,192,114328,1,0,0:0:0:0:
448,192,114380,1,0,0:0:0:0:
320,192,114432,1,0,0:0:0:0:
192,192,114484,1,0,0:0:0:0:
64,192,114535,1,0,0:0:0:0:
192,192,114587,1,0,0:0:0:0:
320,192,114639,1,0,0:0:0:0:
448,192,114691,1,0,0:0:0:0:
320,192,114742,1,0,0:0:0:0:
192,192,114794,1,0,0:0:0:0:
64,192,114846,1,0,0:0:0:0:
192,192,114897,1,0,0:0:0:0:
320,192,114949,1,0,0:0:0:0:
448,192,115001,1,0,0:0:0:0:
320,192,115053,1,0,0:0:0:0:
192,192,115104,1,0,0:0:0:0:
64,192,115156,1,0,0:0:0:0:
192,192,115208,1,0,0:0:0:0:
320,192,115259,1,0,0:0:0:0:
448,192,115311,1,0,0:0:0:0:
320,192,115363,1,0,0:0:0:0:
192,192,115415,1,0,0:0:0:0:
64,192,115466,5,0,0:0:0:0:
192,192,115518,5,0,0:0:0:0:
320,192,115570,1,0,0:0:0:0:
448,192,115622,1,0,0:0:0:0:
320,192,115673,1,0,0:0:0:0:
192,192,115725,1,0,0:0:0:0:
64,192,115777,1,0,0:0:0:0:
192,192,115828,1,0,0:0:0:0:
320,192,115880,1,0,0:0:0:0:
192,192,115932,1,0,0:0:0:0:
320,192,115984,1,0,0:0:0:0:
192,192,116035,1,0,0:0:0:0:
320,192,116087,1,0,0:0:0:0:
192,192,116139,1,0,0:0:0:0:
320,192,116191,1,0,0:0:0:0:
192,192,116242,1,0,0:0:0:0:
320,192,116294,1,0,0:0:0:0:
192,192,116346,1,0,0:0:0:0:
320,192,116397,1,0,0:0:0:0:
192,192,116449,1,0,0:0:0:0:
320,192,116501,1,0,0:0:0:0:
192,192,116553,1,0,0:0:0:0:
320,192,116604,1,0,0:0:0:0:
64,192,116656,5,0,0:0:0:0:
192,192,116682,1,0,0:0:0:0:
448,192,116708,1,0,0:0:0:0:
320,192,116734,1,0,0:0:0:0:
64,192,116759,1,0,0:0:0:0:
192,192,116785,1,0,0:0:0:0:
448,192,116811,1,0,0:0:0:0:
320,192,116837,1,0,0:0:0:0:
64,192,116863,1,0,0:0:0:0:
192,192,116889,1,0,0:0:0:0:
448,192,116915,1,0,0:0:0:0:
320,192,116941,1,0,0:0:0:0:
64,192,116966,1,0,0:0:0:0:
192,192,116992,1,0,0:0:0:0:
448,192,117018,1,0,0:0:0:0:
320,192,117044,1,0,0:0:0:0:
64,192,117070,1,0,0:0:0:0:
192,192,117096,1,0,0:0:0:0:
448,192,117122,1,0,0:0:0:0:
320,192,117147,1,0,0:0:0:0:
64,192,117173,1,0,0:0:0:0:
192,192,117199,1,0,0:0:0:0:
448,192,117225,1,0,0:0:0:0:
320,192,117251,1,0,0:0:0:0:
64,192,117277,1,0,0:0:0:0:
192,192,117303,1,0,0:0:0:0:
448,192,117328,1,0,0:0:0:0:
320,192,117354,1,0,0:0:0:0:
64,192,117380,1,0,0:0:0:0:
192,192,117406,1,0,0:0:0:0:
448,192,117432,1,0,0:0:0:0:
320,192,117458,1,0,0:0:0:0:
192,192,117509,1,0,0:0:0:0:
64,192,117509,1,0,0:0:0:0:
320,192,117561,1,0,0:0:0:0:
448,192,117561,1,0,0:0:0:0:
192,192,117613,1,0,0:0:0:0:
64,192,117613,1,0,0:0:0:0:
320,192,117665,1,0,0:0:0:0:
448,192,117665,1,0,0:0:0:0:
192,192,117716,1,0,0:0:0:0:
64,192,117716,1,0,0:0:0:0:
320,192,117768,1,0,0:0:0:0:
448,192,117768,1,0,0:0:0:0:
192,192,117820,1,0,0:0:0:0:
64,192,117820,1,0,0:0:0:0:
320,192,117872,1,0,0:0:0:0:
448,192,117872,1,0,0:0:0:0:
192,192,117923,1,0,0:0:0:0:
64,192,117923,1,0,0:0:0:0:
320,192,117975,1,0,0:0:0:0:
448,192,117975,1,0,0:0:0:0:
192,192,118027,1,0,0:0:0:0:
64,192,118027,1,0,0:0:0:0:
320,192,118078,1,0,0:0:0:0:
448,192,118078,1,0,0:0:0:0:
192,192,118130,1,0,0:0:0:0:
64,192,118130,1,0,0:0:0:0:
320,192,118182,1,0,0:0:0:0:
448,192,118182,1,0,0:0:0:0:
192,192,118234,1,0,0:0:0:0:
64,192,118234,1,0,0:0:0:0:
320,192,118285,5,0,0:0:0:0:
448,192,118285,1,0,0:0:0:0:
64,192,118311,128,0,118984:0:0:0:0:
192,192,119035,1,0,0:0:0:0:
320,192,119087,1,0,0:0:0:0:
448,192,119139,1,0,0:0:0:0:
