osu file format v14

[General]
AudioFilename: audio.mp3
AudioLeadIn: 0
PreviewTime: 74694
Countdown: 0
SampleSet: Soft
StackLeniency: 0.7
Mode: 0
LetterboxInBreaks: 0
WidescreenStoryboard: 1

[Editor]
Bookmarks: 21444,32110,42777,53444,64110,74777,85444,96110,106777,117444,128110,138777,149444,160110,170777,181444,192110,202777,213444
DistanceSpacing: 1.1
BeatDivisor: 4
GridSize: 8
TimelineZoom: 1

[Metadata]
Title:Elustametat
TitleUnicode:Elustametat
Artist:t+pazolite & Komiya Mao
ArtistUnicode:t+pazolite & 小宮真央
Creator:Hinsvar
Version:Normal
Source:
Tags:tpazolite topazolite tpz 浜田知幸 Tomoyuki Hamada Electronic Japanese Harmonoize hardcore techno J-Core JCore HARDCORE TANO*C Featured Artist FA Mappers' Guild MG MPG
BeatmapID:4450653
BeatmapSetID:2117392

[Difficulty]
HPDrainRate:3
CircleSize:2.7
OverallDifficulty:4.5
ApproachRate:5.4
SliderMultiplier:1.12
SliderTickRate:1

[Events]
//Background and Video events
0,0,"BG.jpg",0,0
//Break Periods
2,122977,126971
//Storyboard Layer 0 (Background)
//Storyboard Layer 1 (Fail)
//Storyboard Layer 2 (Pass)
//Storyboard Layer 3 (Foreground)
//Storyboard Layer 4 (Overlay)
//Storyboard Sound Samples

[TimingPoints]
111,333.333333333333,4,2,1,60,1,0
20277,-125,4,2,1,60,0,0
42777,-111.111111111111,4,2,1,70,0,0
48110,-100,4,2,1,75,0,0
73444,-125,4,2,1,70,0,0
74777,-90.9090909090909,4,2,1,80,0,1
84110,-111.111111111111,4,2,1,80,0,0
85444,-90.9090909090909,4,2,1,80,0,1
96110,-111.111111111111,4,2,1,70,0,0
122777,-111.111111111111,4,2,1,50,0,0
128110,-125,4,2,1,60,0,0
138777,-111.111111111111,4,2,1,70,0,0
144110,-100,4,2,1,75,0,0
169444,-125,4,2,1,70,0,0
170777,-90.9090909090909,4,2,1,80,0,1
181110,-90.9090909090909,4,2,1,80,0,0
181444,-90.9090909090909,4,2,1,80,0,1
192110,-111.111111111111,4,2,1,70,0,0

[Colours]
Combo1 : 240,196,60
Combo2 : 242,79,83
Combo3 : 238,141,53
Combo4 : 228,109,80

[HitObjects]
223,332,20277,5,2,0:0:0:0:
223,332,20444,2,0,P|268:337|297:295,2,89.6,0|2|2,0:0|0:0|0:0,0:0:0:0:
115,301,21444,6,0,P|117:263|104:206,1,89.6,2|0,0:0|0:0,0:0:0:0:
99,101,22110,2,0,P|156:104|241:84,1,134.4,2|2,0:0|0:0,0:0:0:0:
287,83,22777,2,0,P|285:121|298:178,1,89.6,2|0,0:0|0:0,0:0:0:0:
303,283,23443,2,0,P|246:280|160:299,1,134.4,2|0,0:0|0:0,0:0:0:0:
115,301,24110,5,2,0:0:0:0:
115,301,24277,2,0,P|80:336|36:338,1,89.6,2|0,0:0|0:0,0:0:0:0:
15,290,24777,1,2,0:0:0:0:
21,178,25110,1,2,0:0:0:0:
133,184,25444,2,0,P|164:157|163:102,1,89.6,2|0,0:0|0:0,0:0:0:0:
243,29,26110,2,0,P|270:60|325:59,1,89.6,2|0,0:0|0:0,0:0:0:0:
398,139,26777,6,0,L|489:122,1,89.6,2|0,0:0|0:0,0:0:0:0:
482,234,27444,2,0,L|507:370,1,134.4,2|2,0:0|0:0,0:0:0:0:
451,362,28110,2,0,L|360:379,1,89.6,2|0,0:0|0:0,0:0:0:0:
367,267,28777,2,0,L|350:176,1,89.6,2|0,0:0|0:0,0:0:0:0:
240,202,29444,2,0,L|257:293,1,89.6,2|0,0:0|0:0,0:0:0:0:
164,353,30110,5,2,0:0:0:0:
76,285,30444,1,0,0:0:0:0:
76,285,30610,1,2,0:0:0:0:
113,180,30944,1,2,0:0:0:0:
113,180,31110,2,0,P|65:169|28:142,2,89.6,2|2|2,0:0|0:0|0:0,0:0:0:0:
204,115,32110,6,0,P|189:84|203:22,1,89.6,2|0,3:2|0:0,0:0:0:0:
309,30,32777,2,0,P|355:7|448:28,1,134.4,10|2,0:0|0:0,0:0:0:0:
449,74,33444,2,0,P|464:105|450:167,1,89.6,10|0,0:0|0:0,0:0:0:0:
344,159,34111,2,0,P|297:181|204:160,1,134.4,10|0,0:0|0:0,0:0:0:0:
204,115,34777,5,10,0:0:0:0:
204,115,34944,2,0,L|110:104,1,89.6,2|0,0:0|0:0,0:0:0:0:
59,96,35444,1,10,0:0:0:0:
2,192,35777,1,2,0:0:0:0:
75,275,36110,2,0,P|121:262|141:218,1,89.6,10|0,0:0|0:0,0:0:0:0:
239,280,36777,2,0,P|251:326|296:346,1,89.6,10|0,0:0|0:0,0:0:0:0:
398,343,37444,6,0,P|441:331|501:327,1,89.6,10|0,0:0|0:0,0:0:0:0:
504,216,38110,2,0,P|488:160|483:82,1,134.4,10|2,0:0|0:0,0:0:0:0:
447,40,38777,2,0,P|404:52|344:56,1,89.6,10|0,0:0|0:0,0:0:0:0:
341,167,39443,2,0,P|351:204|354:256,1,89.6,10|0,0:0|0:0,0:0:0:0:
243,271,40110,2,0,P|232:233|229:181,1,89.6,10|0,0:0|0:0,0:0:0:0:
272,79,40777,5,10,0:0:0:0:
169,36,41110,1,10,0:0:0:0:
126,139,41444,2,0,L|22:136,1,89.6,10|0,0:0|0:0,0:0:0:0:
34,248,42110,2,0,L|138:251,1,89.6,10|8,0:0|0:0,0:0:0:0:
222,200,42777,5,0,1:0:0:0:
280,293,43110,1,0,1:0:0:0:
386,317,43444,1,0,1:0:0:0:
479,259,43777,2,0,P|491:233|494:211,1,50.3999984619141,0|0,1:0|3:0,0:0:0:0:
498,156,44110,5,0,1:0:0:0:
440,63,44443,1,0,1:0:0:0:
334,39,44777,1,0,1:0:0:0:
241,97,45110,2,0,P|229:123|226:145,1,50.3999984619141,0|0,1:0|3:0,0:0:0:0:
222,200,45444,5,0,1:0:0:0:
119,157,45777,1,0,1:0:0:0:
30,224,46110,1,0,1:0:0:0:
44,334,46444,2,0,L|99:330,1,50.3999984619141,0|0,1:0|3:0,0:0:0:0:
149,325,46777,5,0,1:0:0:0:
252,368,47110,1,0,1:0:0:0:
341,301,47443,1,0,1:0:0:0:
327,191,47777,2,0,L|272:195,1,50.3999984619141,0|0,1:0|3:0,0:0:0:0:
222,200,48110,6,0,P|168:192|131:138,1,112,0|0,1:0|1:0,0:0:0:0:
164,41,48777,2,0,P|218:49|255:103,1,112,0|0,1:0|1:0,0:0:0:0:
312,92,49277,1,0,1:0:0:0:
312,93,49444,2,0,P|346:50|400:42,1,112,0|0,1:0|1:0,0:0:0:0:
431,151,50111,2,0,P|396:193|342:201,1,112,0|0,1:0|1:0,0:0:0:0:
284,297,50777,6,0,L|289:355,1,56,0|0,1:0|1:0,0:0:0:0:
235,369,51110,2,0,L|177:374,1,56,0|0,1:0|1:0,0:0:0:0:
163,320,51444,2,0,L|158:262,1,56,0|0,1:0|1:0,0:0:0:0:
212,248,51777,1,0,1:0:0:0:
295,173,52110,6,0,B|328:178|345:152|340:149|356:124|402:125,2,112,10|10|10,0:0|0:0|0:0,0:0:0:0:
189,139,53111,5,2,0:0:0:0:
106,214,53444,6,0,P|54:205|29:142,1,112,6|0,3:2|3:0,0:0:0:0:
100,71,54110,2,0,P|107:29|152:13,2,84,0|2|2,3:0|0:0|0:0,0:0:0:0:
146,102,54777,2,0,P|198:102|269:86,1,112,2|0,3:2|3:0,0:0:0:0:
368,61,55444,1,0,3:0:0:0:
368,61,55610,2,0,P|422:49|478:49,1,112,2|0,0:0|0:0,0:0:0:0:
501,100,56110,6,0,B|510:141|495:155|493:152|477:165|480:213,1,112,2|0,3:2|3:0,0:0:0:0:
397,283,56777,2,0,B|390:313|401:324|402:322|415:331|412:367,2,84,0|2|2,3:0|0:0|0:0,0:0:0:0:
356,243,57444,2,0,P|328:273|253:271,1,112,2|0,3:2|3:0,0:0:0:0:
192,186,58110,2,0,P|164:184|144:202,1,56,0|0,3:0|3:0,0:0:0:0:
122,254,58444,1,0,3:0:0:0:
11,269,58777,6,0,B|18:245|2:212|-1:216|-17:190|-1:155,1,112,2|0,3:2|3:0,0:0:0:0:
95,99,59444,2,0,L|103:15,2,84,0|2|2,3:0|0:0|0:0,0:0:0:0:
150,103,60110,2,0,P|206:122|234:183,1,112,2|0,3:2|3:0,0:0:0:0:
253,280,60777,1,0,3:0:0:0:
253,280,60944,2,0,P|309:261|337:200,1,112,2|0,0:0|0:0,0:0:0:0:
347,162,61444,6,0,L|457:179,1,112,2|0,3:2|3:0,0:0:0:0:
502,281,62110,2,0,L|489:363,2,84,0|2|2,3:0|0:0|0:0,0:0:0:0:
445,285,62777,2,0,P|404:317|352:296,1,112,2|0,3:2|3:0,0:0:0:0:
245,328,63444,2,0,P|228:306|238:281,1,56,0|0,3:0|3:0,0:0:0:0:
266,233,63777,1,0,3:0:0:0:
364,180,64110,6,0,L|368:62,1,112,6|0,3:2|3:0,0:0:0:0:
260,102,64777,2,0,L|257:13,2,84,0|2|2,3:0|0:0|0:0,0:0:0:0:
205,114,65444,2,0,P|161:87|102:98,1,112,2|0,3:2|3:0,0:0:0:0:
36,186,66110,1,0,3:0:0:0:
36,186,66277,2,0,P|80:213|139:202,1,112,2|0,0:0|0:0,0:0:0:0:
161,253,66777,6,0,B|191:274|181:302|178:303|172:334|200:367,1,112,2|0,3:2|3:0,0:0:0:0:
293,308,67444,2,0,B|288:286|303:268|306:268|323:254|311:229,2,84,0|2|2,3:0|0:0|0:0,0:0:0:0:
330,349,68110,2,0,P|384:355|437:337,1,112,2|0,3:2|3:0,0:0:0:0:
494,239,68777,2,0,P|497:212|488:185,1,56,0|0,3:0|3:0,0:0:0:0:
475,130,69110,1,0,3:0:0:0:
380,190,69444,6,0,L|266:165,1,112,2|0,3:2|3:0,0:0:0:0:
185,238,70110,2,0,L|102:255,2,84,0|2|2,3:0|0:0|0:0,0:0:0:0:
172,183,70777,2,0,P|160:130|162:63,1,112,2|0,3:2|3:0,0:0:0:0:
54,57,71444,1,0,3:0:0:0:
54,57,71610,2,0,P|66:110|64:177,1,112,2|0,0:0|0:0,0:0:0:0:
64,223,72110,6,0,P|11:274|20:322,1,112,2|0,3:2|3:0,0:0:0:0:
125,309,72777,1,0,3:0:0:0:
212,378,73110,2,0,P|238:352|234:328,1,56,0|2,3:0|0:0,0:0:0:0:
236,285,73444,5,8,0:0:0:0:
173,209,73777,1,0,3:0:0:0:
207,116,74110,2,0,P|251:109|287:70,1,89.6,10|0,0:0|0:0,0:0:0:0:
391,20,74777,5,4,3:2:0:0:
496,86,75110,2,0,L|501:148,1,61.6000018798829,2|0,3:2|0:0,0:0:0:0:
483,206,75444,2,0,L|359:216,1,123.200003759766,2|2,3:2|3:2,0:0:0:0:
269,298,76110,1,0,3:0:0:0:
269,298,76277,2,0,P|236:298|210:262,2,61.6000018798829,2|0|0,3:2|3:0|0:0,0:0:0:0:
325,322,76777,2,0,P|376:321|418:378,1,123.200003759766,2|2,3:2|3:2,0:0:0:0:
508,291,77444,5,2,3:2:0:0:
482,171,77777,2,0,P|480:137|492:106,1,61.6000018798829,2|0,3:2|0:0,0:0:0:0:
430,90,78110,2,0,P|369:59|327:7,1,123.200003759766,2|2,3:2|3:2,0:0:0:0:
213,47,78777,1,0,3:0:0:0:
213,47,78944,2,0,L|144:34,2,61.6000018798829,2|0|0,3:2|3:0|0:0,0:0:0:0:
229,106,79444,2,0,L|107:128,1,123.200003759766,2|2,3:2|3:2,0:0:0:0:
22,217,80110,5,2,3:2:0:0:
138,257,80444,2,0,P|156:288|160:321,1,61.6000018798829,2|0,3:2|0:0,0:0:0:0:
200,360,80777,2,0,P|235:297|288:257,1,123.200003759766,2|2,3:2|3:2,0:0:0:0:
219,155,81444,1,0,3:0:0:0:
219,155,81610,2,0,L|209:82,2,61.6000018798829,2|0|0,3:2|3:0|0:0,0:0:0:0:
280,148,82110,2,0,L|402:131,1,123.200003759766,2|2,3:2|3:2,0:0:0:0:
507,195,82777,5,2,3:2:0:0:
400,254,83110,2,0,P|423:285|450:295,1,61.6000018798829,2|0,3:2|0:0,0:0:0:0:
408,345,83444,2,0,P|331:353|286:390,1,123.200003759766,2|2,3:2|3:2,0:0:0:0:
216,301,84110,5,2,3:2:0:0:
120,248,84444,1,0,0:0:0:0:
13,221,84777,2,0,B|27:186|16:172|14:172|2:155|12:115,1,100.799996923828,2|2,3:2|3:2,0:0:0:0:
78,20,85444,5,4,3:2:0:0:
130,131,85777,2,0,L|178:94,1,61.6000018798829,2|0,3:2|0:0,0:0:0:0:
231,61,86110,2,0,L|312:166,1,123.200003759766,2|2,3:2|3:2,0:0:0:0:
433,148,86777,1,0,3:0:0:0:
433,148,86944,2,0,P|439:109|460:89,2,61.6000018798829,2|0|0,3:2|3:0|0:0,0:0:0:0:
485,191,87444,2,0,P|473:269|431:309,1,123.200003759766,2|2,3:2|3:2,0:0:0:0:
321,292,88110,5,2,3:2:0:0:
229,374,88444,2,0,P|217:342|200:314,1,61.6000018798829,2|0,3:2|0:0,0:0:0:0:
167,267,88777,2,0,P|103:289|47:325,1,123.200003759766,2|2,3:2|3:2,0:0:0:0:
44,200,89444,1,0,3:0:0:0:
44,200,89610,2,0,P|35:167|13:138,2,61.6000018798829,2|0|0,3:2|3:0|0:0,0:0:0:0:
101,177,90110,2,0,P|119:111|163:53,1,123.200003759766,2|2,3:2|3:2,0:0:0:0:
264,112,90777,5,2,3:2:0:0:
348,22,91110,2,0,L|411:17,1,61.6000018798829,2|0,3:2|0:0,0:0:0:0:
467,39,91444,2,0,L|477:165,1,123.200003759766,2|2,3:2|3:2,0:0:0:0:
435,280,92110,1,0,3:0:0:0:
435,280,92277,2,0,P|436:314|459:329,2,61.6000018798829,2|0|0,3:2|3:0|0:0,0:0:0:0:
374,268,92777,2,0,P|372:200|326:170,1,123.200003759766,2|2,3:2|3:2,0:0:0:0:
218,223,93444,5,2,3:2:0:0:
117,153,93777,2,0,P|84:151|58:168,1,61.6000018798829,2|0,3:2|0:0,0:0:0:0:
22,213,94110,2,0,P|18:279|52:331,1,123.200003759766,2|2,3:2|3:2,0:0:0:0:
172,310,94777,1,8,0:0:0:0:
172,310,94944,2,0,L|174:372,2,61.6000018798829,0|10|0,0:0|0:0|0:0,0:0:0:0:
168,248,95444,1,10,0:0:0:0:
256,161,95777,1,0,3:0:0:0:
344,248,96110,6,0,P|410:277|472:224,1,151.199995385742,6|0,3:2|3:0,0:0:0:0:
465,178,96777,2,0,P|494:112|441:50,1,151.199995385742,0|0,1:0|0:0,0:0:0:0:
394,57,97444,2,0,P|351:37|309:72,1,100.799996923828,0|0,3:0|3:0,0:0:0:0:
265,166,98110,1,0,1:0:0:0:
165,119,98444,1,0,3:0:0:0:
65,72,98777,6,0,L|18:220,1,151.199995385742,0|0,3:0|3:0,0:0:0:0:
27,271,99444,2,0,L|128:248,1,100.799996923828,0|0,1:0|3:0,0:0:0:0:
210,177,100110,2,0,B|236:170|255:194|254:200|274:222|315:207,1,100.799996923828,0|0,3:0|3:0,0:0:0:0:
355,114,100777,1,0,1:0:0:0:
464,137,101110,1,0,3:0:0:0:
494,244,101444,6,0,P|475:326|405:331,1,151.199995385742,0|0,3:0|3:0,0:0:0:0:
366,314,102110,2,0,P|313:265|248:294,1,151.199995385742,0|0,1:0|0:0,0:0:0:0:
222,344,102777,2,0,L|119:352,1,100.799996923828,0|0,3:0|3:0,0:0:0:0:
22,301,103444,1,0,1:0:0:0:
14,190,103777,1,0,3:0:0:0:
113,140,104110,6,0,B|166:127|168:93|165:92|166:51|228:38,1,151.199995385742,0|0,3:0|3:0,0:0:0:0:
267,64,104777,2,0,B|300:70|301:98|299:98|300:121|336:130,1,100.799996923828,0|0,1:0|3:0,0:0:0:0:
421,75,105444,2,0,L|425:17,2,50.3999984619141,0|2|2,3:0|0:3|0:3,0:0:0:0:
498,140,106110,1,2,0:3:0:0:
460,234,106444,1,2,0:3:0:0:
357,226,106777,6,0,P|290:237|206:281,1,151.199995385742,6|0,3:2|3:0,0:0:0:0:
180,309,107444,2,0,P|169:242|125:158,1,151.199995385742,0|0,1:0|3:0,0:0:0:0:
96,131,108110,2,0,P|141:124|197:95,1,100.799996923828,0|0,3:0|3:0,0:0:0:0:
275,27,108777,1,0,1:0:0:0:
381,64,109110,1,0,3:0:0:0:
401,174,109444,6,0,P|460:186|496:269,1,151.199995385742,0|0,3:0|3:0,0:0:0:0:
497,318,110110,2,0,P|489:357|433:381,1,100.799996923828,0|0,1:0|3:0,0:0:0:0:
331,346,110777,2,0,P|309:312|333:256,1,100.799996923828,0|0,3:0|3:0,0:0:0:0:
401,174,111444,1,0,1:0:0:0:
365,70,111777,1,0,3:0:0:0:
250,45,112110,6,0,P|202:39|153:54,1,100.799996923828,0|2,3:0|0:3,0:0:0:0:
91,147,112777,2,0,P|55:158|17:153,2,75.5999976928712,0|0|2,1:0|0:0|0:3,0:0:0:0:
135,181,113444,2,0,L|163:293,1,100.799996923828,0|2,3:0|3:0,0:0:0:0:
266,306,114110,2,0,L|247:379,2,75.5999976928712,0|0|2,1:0|0:0|0:3,0:0:0:0:
314,278,114777,6,0,B|347:276|359:294|357:299|370:319|409:306,1,100.799996923828,0|0,3:0|0:0,0:0:0:0:
492,240,115444,1,0,1:0:0:0:
478,130,115777,1,2,0:3:0:0:
376,88,116110,6,0,P|337:63|325:9,1,100.799996923828,0|0,3:0|0:0,0:0:0:0:
213,23,116777,1,2,0:0:0:0:
190,132,117110,1,2,0:0:0:0:
79,143,117444,1,4,3:2:0:0:
256,192,117610,12,0,122777,0:0:0:0:
266,256,128110,6,0,P|253:213|254:168,1,89.6,2|0,3:2|0:0,0:0:0:0:
281,59,128777,2,0,P|345:40|412:41,1,134.4,10|2,0:0|0:0,0:0:0:0:
468,39,129444,2,0,P|480:81|479:126,1,89.6,10|0,0:0|0:0,0:0:0:0:
453,236,130111,2,0,P|388:254|321:253,1,134.4,10|0,0:0|0:0,0:0:0:0:
266,256,130777,5,10,0:0:0:0:
266,256,130944,2,0,P|235:224|183:206,1,89.6,2|0,0:0|0:0,0:0:0:0:
137,210,131444,1,10,0:0:0:0:
27,231,131777,1,2,0:0:0:0:
48,341,132110,2,0,L|144:356,1,89.6,10|0,0:0|0:0,0:0:0:0:
246,334,132777,2,0,L|261:238,1,89.6,10|0,0:0|0:0,0:0:0:0:
281,135,133444,6,0,P|278:95|254:39,1,89.6,10|0,0:0|0:0,0:0:0:0:
148,42,134110,2,0,P|88:46|3:82,1,134.4,10|2,0:0|0:0,0:0:0:0:
18,129,134777,2,0,P|21:169|45:225,1,89.6,10|2,0:0|0:0,0:0:0:0:
150,222,135443,2,0,P|190:219|246:195,1,89.6,10|0,0:0|0:0,0:0:0:0:
308,114,136110,2,0,P|347:116|403:140,1,89.6,10|0,0:0|0:0,0:0:0:0:
493,186,136777,5,10,0:0:0:0:
498,299,137110,1,10,0:0:0:0:
402,359,137444,2,0,P|383:322|373:272,1,89.6,10|0,0:0|0:0,0:0:0:0:
261,275,138110,2,0,P|252:318|232:358,1,89.6,10|8,0:0|0:0,0:0:0:0:
122,374,138777,5,0,1:0:0:0:
36,303,139110,1,0,1:0:0:0:
25,191,139444,1,0,1:0:0:0:
96,104,139777,2,0,P|114:82|138:67,1,50.3999984619141,0|0,1:0|3:0,0:0:0:0:
187,73,140110,5,0,1:0:0:0:
273,144,140443,1,0,1:0:0:0:
284,256,140777,1,0,1:0:0:0:
213,343,141110,2,0,P|195:365|171:380,1,50.3999984619141,0|0,1:0|3:0,0:0:0:0:
122,374,141444,5,0,1:0:0:0:
127,263,141777,1,0,1:0:0:0:
209,188,142110,1,0,1:0:0:0:
214,77,142444,2,0,L|265:57,1,50.3999984619141,0|0,1:0|3:0,0:0:0:0:
314,44,142777,5,0,1:0:0:0:
319,155,143110,1,0,1:0:0:0:
401,230,143443,1,0,1:0:0:0:
406,341,143777,2,0,L|457:361,1,50.3999984619141,0|0,1:0|3:0,0:0:0:0:
509,334,144110,6,0,P|511:283|506:218,1,112,0|0,1:0|1:0,0:0:0:0:
480,113,144777,2,0,P|445:75|395:33,1,112,0|0,1:0|1:0,0:0:0:0:
343,39,145277,1,0,1:0:0:0:
343,39,145444,2,0,P|300:75|262:116,1,112,0|0,1:0|1:0,0:0:0:0:
235,225,146111,2,0,P|230:280|232:336,1,112,0|0,1:0|1:0,0:0:0:0:
124,367,146777,6,0,L|65:349,1,56,0|0,1:0|1:0,0:0:0:0:
60,295,147110,2,0,L|119:277,1,56,0|0,1:0|1:0,0:0:0:0:
124,223,147444,2,0,L|65:205,1,56,0|0,1:0|1:0,0:0:0:0:
60,151,147777,1,0,1:0:0:0:
167,121,148110,6,0,B|184:88|167:65|164:67|147:37|160:6,2,112,10|10|10,0:0|0:0|0:0,0:0:0:0:
256,192,149110,5,2,0:0:0:0:
345,121,149444,6,0,P|369:114|401:116,1,56,6|0,3:2|0:0,0:0:0:0:
455,119,149777,1,2,3:2:0:0:
496,223,150110,2,0,B|500:272|467:295|463:293|430:317|432:381,1,168,2|2,3:2|0:0,0:0:0:0:
386,338,150777,2,0,B|387:301|365:285|362:286|340:271|343:238,1,112,2|2,3:2|3:2,0:0:0:0:
232,258,151444,2,0,B|234:290|212:305|210:304|188:320|189:357,1,112,0|0,3:0|3:0,0:0:0:0:
133,350,151944,2,0,L|72:341,1,56,2|2,0:0|3:2,0:0:0:0:
21,334,152277,5,2,3:2:0:0:
33,226,152610,1,0,0:0:0:0:
33,226,152777,2,0,P|76:231|124:182,1,112,2|0,3:2|3:0,0:0:0:0:
126,131,153277,1,2,0:0:0:0:
130,135,153444,2,0,L|115:15,1,112,2|0,3:2|3:0,0:0:0:0:
227,35,154110,2,0,L|287:27,2,56,2|2|2,3:2|0:0|3:2,0:0:0:0:
249,145,154777,6,0,P|275:160|291:188,1,56,2|0,3:2|0:0,0:0:0:0:
311,232,155110,1,2,3:2:0:0:
422,248,155444,2,0,P|421:163|467:86,1,168,2|2,3:2|0:0,0:0:0:0:
443,38,156110,2,0,P|394:65|334:65,1,112,2|2,3:2|3:2,0:0:0:0:
227,67,156777,2,0,P|171:65|123:37,1,112,2|2,3:2|3:2,0:0:0:0:
72,49,157277,5,2,0:0:0:0:
72,49,157444,1,2,3:2:0:0:
2,136,157777,1,2,3:2:0:0:
42,240,158110,2,0,L|33:299,2,56,2|0|2,3:2|3:0|3:2,0:0:0:0:
96,226,158610,1,2,0:0:0:0:
206,243,158944,2,0,L|189:132,1,112,2|0,3:2|0:0,0:0:0:0:
223,87,159444,2,0,L|214:31,2,56,2|0|2,3:2|3:0|3:2,0:0:0:0:
300,168,160110,6,0,P|343:152|349:126,1,56,6|0,3:2|0:0,0:0:0:0:
358,90,160444,1,2,3:2:0:0:
434,8,160777,2,0,P|493:64|500:146,1,168,2|2,3:2|0:0,0:0:0:0:
507,202,161444,2,0,P|469:241|414:246,1,112,2|2,3:2|3:2,0:0:0:0:
348,336,162110,2,0,P|308:298|303:243,1,112,0|0,3:0|3:0,0:0:0:0:
321,190,162610,2,0,L|310:127,1,56,2|2,0:0|3:2,0:0:0:0:
302,79,162944,5,2,3:2:0:0:
199,34,163277,1,0,0:0:0:0:
199,34,163444,2,0,P|143:40|85:24,1,112,2|2,3:2|3:2,0:0:0:0:
62,76,163944,1,2,0:0:0:0:
62,76,164110,2,0,P|95:121|110:179,1,112,2|0,3:2|3:0,0:0:0:0:
179,262,164777,2,0,P|167:287|146:308,2,56,2|2|2,3:2|0:0|3:2,0:0:0:0:
275,319,165444,6,0,P|286:293|307:272,1,56,2|0,3:2|0:0,0:0:0:0:
346,235,165777,1,2,3:2:0:0:
456,249,166110,2,0,B|477:203|450:168|446:170|413:133|433:88,1,168,2|2,3:2|0:0,0:0:0:0:
402,42,166777,2,0,B|371:28|348:45|349:48|324:70|294:57,1,112,2|2,3:2|3:2,0:0:0:0:
233,150,167444,2,0,B|263:136|286:153|285:156|310:178|340:165,1,112,2|2,3:2|3:2,0:0:0:0:
361,223,167944,5,2,0:0:0:0:
361,223,168110,1,2,3:2:0:0:
366,335,168444,1,2,3:2:0:0:
254,340,168777,2,0,L|215:283,1,56,2|0,3:2|3:0,0:0:0:0:
166,294,169110,2,0,L|134:340,1,56,2|2,3:2|0:0,0:0:0:0:
85,368,169444,6,0,P|68:332|32:287,1,89.6,10|0,0:0|3:0,0:0:0:0:
102,201,170110,2,0,P|138:184|183:148,1,89.6,10|0,0:0|0:0,0:0:0:0:
192,31,170777,6,0,L|323:57,1,123.200003759766,6|0,3:2|3:0,0:0:0:0:
372,85,171277,1,0,3:0:0:0:
372,85,171444,2,0,L|417:-4,2,92.4000028198243,2|2|2,3:2|0:0|0:0,0:0:0:0:
387,143,172110,2,0,P|450:143|494:202,1,123.200003759766,2|0,3:2|3:0,0:0:0:0:
499,311,172777,1,2,3:2:0:0:
499,311,172944,2,0,P|467:365|394:374,1,123.200003759766,2|0,0:0|0:0,0:0:0:0:
352,360,173444,6,0,P|346:303|330:236,1,123.200003759766,2|0,3:2|3:0,0:0:0:0:
313,117,174110,2,0,P|302:72|297:26,2,92.4000028198243,2|2|2,3:2|0:0|0:0,0:0:0:0:
251,111,174777,2,0,L|128:87,1,123.200003759766,2|0,3:2|3:0,0:0:0:0:
92,136,175277,1,0,3:0:0:0:
92,136,175444,2,0,L|80:197,1,61.6000018798829,2|0,3:2|3:0,0:0:0:0:
97,255,175777,1,2,3:2:0:0:
200,320,176110,6,0,B|233:336|261:314|258:311|285:286|319:296,1,123.200003759766,2|0,3:2|3:0,0:0:0:0:
353,247,176610,1,0,3:0:0:0:
353,247,176777,2,0,B|365:222|348:201|346:203|327:183|335:157,2,92.4000028198243,2|2|2,3:2|0:0|0:0,0:0:0:0:
413,236,177444,2,0,P|460:255|468:322,1,123.200003759766,2|0,3:2|3:0,0:0:0:0:
358,371,178110,1,2,3:2:0:0:
358,371,178277,2,0,P|311:352|303:285,1,123.200003759766,2|0,0:0|0:0,0:0:0:0:
320,226,178777,6,0,L|205:166,1,123.200003759766,2|0,3:2|3:0,0:0:0:0:
87,164,179444,2,0,L|9:213,2,92.4000028198243,2|2|2,3:2|0:0|0:0,0:0:0:0:
70,105,180110,2,0,P|63:55|124:24,1,123.200003759766,2|0,3:2|3:0,0:0:0:0:
185,20,180610,1,0,3:0:0:0:
185,20,180777,2,0,P|220:35|218:74,1,61.6000018798829,2|0,3:2|3:0,0:0:0:0:
232,116,181110,1,0,3:0:0:0:
339,54,181444,5,4,3:2:0:0:
433,133,181777,2,0,L|440:194,1,61.6000018798829,2|0,3:2|0:0,0:0:0:0:
420,252,182110,2,0,L|434:374,1,123.200003759766,2|2,3:2|3:2,0:0:0:0:
312,354,182777,1,0,3:0:0:0:
312,354,182944,2,0,P|279:352|253:366,2,61.6000018798829,0|2|0,3:0|3:2|0:0,0:0:0:0:
315,292,183444,2,0,P|264:257|238:202,1,123.200003759766,2|2,3:2|3:2,0:0:0:0:
250,80,184110,5,2,3:2:0:0:
151,9,184444,2,0,P|119:13|91:25,1,61.6000018798829,2|0,3:2|0:0,0:0:0:0:
45,65,184777,2,0,P|19:124|12:184,1,123.200003759766,2|2,3:2|3:2,0:0:0:0:
115,250,185444,1,0,3:0:0:0:
115,250,185610,2,0,L|124:315,2,61.6000018798829,2|0|0,3:2|3:0|0:0,0:0:0:0:
156,204,186110,2,0,L|286:186,1,123.200003759766,2|2,3:2|3:2,0:0:0:0:
232,72,186777,5,2,3:2:0:0:
354,86,187110,2,0,P|372:60|374:26,1,61.6000018798829,2|0,3:2|0:0,0:0:0:0:
435,17,187444,2,0,P|462:74|518:111,1,123.200003759766,2|2,3:2|3:2,0:0:0:0:
423,195,188110,1,0,3:0:0:0:
423,195,188277,2,0,L|426:257,2,61.6000018798829,2|0|0,3:2|3:0|0:0,0:0:0:0:
361,195,188777,2,0,L|237:201,1,123.200003759766,2|2,3:2|3:2,0:0:0:0:
151,113,189444,5,2,3:2:0:0:
42,168,189777,2,0,P|33:198|48:230,1,61.6000018798829,2|0,3:2|0:0,0:0:0:0:
97,254,190110,2,0,P|79:314|109:378,1,123.200003759766,2|2,3:2|3:2,0:0:0:0:
221,334,190777,1,0,3:0:0:0:
221,334,190944,2,0,L|283:353,2,61.6000018798829,2|0|2,3:2|3:0|0:0,0:0:0:0:
211,272,191444,2,0,L|305:183,1,123.200003759766,2|2,3:2|3:2,0:0:0:0:
216,116,192110,6,0,P|200:67|220:18,1,100.799996923828,6|0,3:2|0:0,0:0:0:0:
327,22,192777,2,0,P|363:10|400:25,2,75.5999976928712,2|2|2,1:2|0:0|0:0,0:0:0:0:
324,77,193444,2,0,B|314:104|326:127|327:128|339:150|328:176,1,100.799996923828,2|0,3:2|3:2,0:0:0:0:
437,145,194110,1,2,1:2:0:0:
437,145,194277,2,0,B|447:172|435:195|434:196|422:218|433:244,1,100.799996923828,2|0,0:0|0:0,0:0:0:0:
443,297,194777,6,0,P|397:311|355:369,1,100.799996923828,2|0,3:2|0:0,0:0:0:0:
278,276,195444,2,0,P|253:248|217:236,2,75.5999976928712,2|2|2,1:2|0:0|0:0,0:0:0:0:
262,329,196110,2,0,L|159:353,1,100.799996923828,2|0,3:2|3:0,0:0:0:0:
55,376,196777,2,0,L|43:324,1,50.3999984619141,2|0,1:2|3:0,0:0:0:0:
58,273,197110,1,2,3:2:0:0:
167,251,197444,6,0,P|221:207|221:160,1,100.799996923828,2|0,3:2|0:0,0:0:0:0:
205,70,198110,2,0,P|216:34|248:16,2,75.5999976928712,2|2|2,1:2|0:0|0:0,0:0:0:0:
149,79,198777,2,0,L|42:94,1,100.799996923828,2|0,3:2|3:0,0:0:0:0:
15,201,199444,1,2,1:2:0:0:
15,201,199610,2,0,L|30:308,1,100.799996923828,2|0,0:0|0:0,0:0:0:0:
60,346,200110,6,0,B|88:356|110:336|106:336|127:313|160:324,1,100.799996923828,2|0,3:2|0:0,0:0:0:0:
234,245,200777,2,0,B|254:237|269:255|266:255|283:270|304:262,2,75.5999976928712,2|2|2,1:2|0:0|0:0,0:0:0:0:
190,209,201444,2,0,L|177:157,2,50.3999984619141,2|2|2,3:2|0:3|0:3,0:0:0:0:
283,150,202110,1,2,0:3:0:0:
384,196,202444,1,2,0:3:0:0:
486,153,202777,6,0,P|494:104|484:49,1,100.799996923828,6|0,3:2|3:0,0:0:0:0:
378,82,203444,2,0,P|371:44|377:7,2,75.5999976928712,2|2|2,1:2|0:0|0:0,0:0:0:0:
323,72,204110,2,0,P|284:40|237:22,1,100.799996923828,2|0,3:2|3:0,0:0:0:0:
130,39,204777,1,2,1:2:0:0:
130,39,204944,2,0,P|98:77|80:124,1,100.799996923828,2|0,0:0|0:0,0:0:0:0:
83,180,205444,6,0,B|94:211|77:230|77:229|64:242|76:281,1,100.799996923828,2|0,3:2|0:0,0:0:0:0:
182,303,206110,2,0,B|173:326|186:340|186:339|196:349|187:378,2,75.5999976928712,2|2|2,1:2|0:0|0:0,0:0:0:0:
205,252,206777,2,0,P|260:252|293:209,1,100.799996923828,2|0,3:2|3:0,0:0:0:0:
385,165,207444,2,0,P|412:165|429:186,1,50.3999984619141,2|0,1:2|3:0,0:0:0:0:
469,217,207777,1,2,3:2:0:0:
468,327,208110,6,0,L|366:357,1,100.799996923828,2|2,3:2|0:3,0:0:0:0:
262,332,208777,2,0,L|189:310,2,75.5999976928712,2|2|2,1:2|0:3|0:3,0:0:0:0:
285,281,209444,2,0,B|305:259|284:232|279:234|262:214|283:170,1,100.799996923828,2|0,3:2|3:0,0:0:0:0:
200,106,210110,2,0,B|215:89|199:69|195:70|182:55|198:22,2,75.5999976928712,2|2|2,1:2|0:3|0:3,0:0:0:0:
148,127,210777,6,0,P|100:126|43:151,1,100.799996923828,2|0,3:2|0:0,0:0:0:0:
65,255,211444,2,0,P|113:256|170:231,1,100.799996923828,2|2,1:2|3:0,0:0:0:0:
218,222,211944,1,2,0:3:0:0:
218,222,212110,2,0,B|282:256|277:297|273:301|277:352|348:367,1,201.599993847656,0|2,3:0|0:0,0:0:0:0:
452,345,213110,2,0,P|467:320|474:291,1,50.3999984619141,2|2,0:0|0:0,0:0:0:0:
476,243,213444,1,2,0:0:0:0:
