osu file format v14

[General]
AudioFilename: audio.mp3
AudioLeadIn: 0
PreviewTime: 48659
Countdown: 0
SampleSet: Soft
StackLeniency: 0.7
Mode: 3
LetterboxInBreaks: 0
SpecialStyle: 0
WidescreenStoryboard: 0

[Editor]
DistanceSpacing: 0.6
BeatDivisor: 4
GridSize: 8
TimelineZoom: 1.4

[Metadata]
Title:Boku no Yume, Mecha Kuso Mugen Waki
TitleUnicode:ぼくの夢、メチャクソ無限湧き
Artist:t+pazolite & Camellia feat. Nanahira
ArtistUnicode:t+pazolite & かめりあ feat. ななひら
Creator:Rhezie
Version:Normal
Source:WACCA
Tags:Electronic Marvelous HARDCORE TANO*C ARuFa はちぷよ Hachipuyo Japanese video game rhythm arcade jpop j-pop pop Syadow- MEGAtive Dubstek FAMoss Yukari_Sama atian540
BeatmapID:2751873
BeatmapSetID:1328442

[Difficulty]
HPDrainRate:7.5
CircleSize:4
OverallDifficulty:7
ApproachRate:5
SliderMultiplier:1.4
SliderTickRate:1

[Events]
//Background and Video events
0,0,"BG.jpg",0,0
//Break Periods
//Storyboard Layer 0 (Background)
//Storyboard Layer 1 (Fail)
//Storyboard Layer 2 (Pass)
//Storyboard Layer 3 (Foreground)
//Storyboard Layer 4 (Overlay)
//Storyboard Sound Samples
Sample,19683,0,"LR_Clap Loud Long.wav",70
Sample,37830,0,"tom01.wav",70
Sample,38415,0,"tom04.wav",70
Sample,38561,0,"tom04.wav",70
Sample,47049,0,"electronic32.wav",30
Sample,47634,0,"electronic32.wav",30
Sample,52903,0,"wou_Ds.wav",50
Sample,53195,0,"wou_Ds.wav",50
Sample,53488,0,"wou_Ds.wav",50
Sample,53634,0,"wou_D.wav",50
Sample,62269,0,"wou_Ds.wav",50
Sample,62561,0,"wou_Ds.wav",50
Sample,62854,0,"wou_Ds.wav",50
Sample,63000,0,"wou_D.wav",50
Sample,101061,0,"electronic32.wav",30
Sample,101646,0,"electronic32.wav",30
Sample,106915,0,"wou_Ds.wav",50
Sample,107207,0,"wou_Ds.wav",50
Sample,107500,0,"wou_Ds.wav",50
Sample,107646,0,"wou_D.wav",50
Sample,116280,0,"wou_Ds.wav",50
Sample,116573,0,"wou_Ds.wav",50
Sample,116866,0,"wou_Ds.wav",50
Sample,117012,0,"wou_D.wav",50

[TimingPoints]
74,292.682926829268,4,2,1,75,1,0
49244,-100,4,2,1,75,0,1
67976,-100,4,2,1,75,0,0
68415,338.983050847457,4,2,1,75,1,0
68415,-86.9565217391306,4,2,1,75,0,0
69261,428.571428571429,4,2,1,75,1,0
69261,-68.4931506849315,4,2,1,75,0,0
96690,480,4,2,1,75,1,0
96690,-60.9756097560976,4,2,1,75,0,0
97650,600.000000000001,4,2,1,75,1,0
97650,-48.780487804878,4,2,1,75,0,0
98250,750.000000000002,4,2,1,75,1,0
98250,-39.0625,4,2,1,75,0,0
99415,300,5,2,1,75,1,0
99415,-98.0392156862745,5,2,1,75,0,0
100915,292.682926829268,4,2,1,75,1,0
112622,-100,4,2,1,75,0,1
124329,-100,4,2,1,75,0,0

[HitObjects]
320,192,1244,5,0,0:0:0:50:LR_Kick Beat Drop.wav
192,192,1391,1,0,0:0:0:0:
64,192,1537,1,0,0:0:0:0:
448,192,1830,1,0,0:0:0:0:
64,192,2122,1,0,0:0:0:0:
320,192,2269,1,0,0:0:0:0:
192,192,2561,1,0,0:0:0:0:
448,192,2708,1,0,0:0:0:0:
64,192,2854,1,0,0:0:0:0:
448,192,3147,1,0,0:0:0:0:
192,192,3293,1,0,0:0:0:0:
320,192,3439,1,0,0:0:0:0:
64,192,3586,1,0,0:0:0:0:
448,192,3878,1,0,0:0:0:0:
192,192,4025,1,0,0:0:0:0:
320,192,4317,1,0,0:0:0:0:
64,192,4464,1,0,0:0:0:0:
448,192,4610,1,0,0:0:0:0:
192,192,4756,1,0,0:0:0:0:
64,192,5049,1,0,0:0:0:0:
320,192,5195,1,0,0:0:0:0:
192,192,5488,128,0,5927:0:0:0:0:
320,192,5927,1,2,0:0:0:0:
448,192,5927,1,0,0:0:0:0:
448,192,6220,1,2,0:0:0:0:
320,192,6366,1,0,0:0:0:0:
192,192,6513,1,2,0:0:0:0:
192,192,6805,1,2,0:0:0:0:
64,192,6952,1,0,0:0:0:0:
320,192,7098,1,2,0:0:0:0:
320,192,7391,1,2,0:0:0:0:
448,192,7537,1,0,0:0:0:0:
64,192,7683,1,2,0:0:0:0:
64,192,7976,1,2,0:0:0:0:
192,192,8122,1,0,0:0:0:0:
320,192,8269,1,2,0:0:0:0:
448,192,8269,1,8,0:0:0:0:
64,192,8415,1,10,0:0:0:0:
448,192,8561,1,10,0:0:0:0:
64,192,8708,1,10,0:0:0:0:
320,192,8854,1,10,0:0:0:0:
192,192,9000,1,10,0:0:0:0:
320,192,9147,1,10,0:0:0:0:
192,192,9293,1,10,0:0:0:0:
320,192,9439,128,2,9732:0:0:0:0:
448,192,9439,1,0,0:0:0:0:
64,192,9732,128,0,10025:0:0:0:0:
192,192,10025,1,0,0:0:0:70:tom01.wav
320,192,10171,1,0,0:0:0:70:tom03.wav
192,192,10317,1,0,0:0:0:70:LR_Clap Loud Long.wav
448,192,10317,1,0,0:0:0:0:
64,192,10610,1,2,0:0:0:0:
448,192,10610,1,4,0:0:0:0:
192,192,10903,1,8,0:0:0:0:
320,192,10903,1,2,0:0:0:0:
64,192,11195,1,2,0:0:0:0:
448,192,11342,1,0,0:0:0:0:
192,192,11488,1,8,0:0:0:0:
320,192,11488,1,2,0:0:0:0:
64,192,11781,1,2,0:0:0:0:
320,192,11781,1,0,0:0:0:0:
192,192,12073,1,2,0:0:0:0:
448,192,12073,1,8,0:0:0:0:
320,192,12366,1,2,0:0:0:0:
64,192,12513,1,0,0:0:0:0:
448,192,12659,1,10,0:0:0:0:
192,192,12805,1,0,0:0:0:0:
320,192,12952,128,2,13244:0:0:0:0:
448,192,12952,1,0,0:0:0:0:
64,192,13244,1,8,0:0:0:0:
192,192,13244,1,2,0:0:0:0:
448,192,13537,1,2,0:0:0:0:
320,192,13683,1,0,0:0:0:0:
64,192,13830,1,8,0:0:0:0:
192,192,13830,1,2,0:0:0:0:
192,192,14122,1,2,0:0:0:0:
320,192,14269,1,0,0:0:0:0:
64,192,14415,1,2,0:0:0:0:
448,192,14415,1,8,0:0:0:0:
192,192,14561,1,0,0:0:0:0:
320,192,14708,128,2,15000:0:0:0:0:
64,192,15000,128,8,15293:0:0:0:0:
192,192,15000,128,0,15293:0:0:0:70:LR_Clap Loud Long.wav
320,192,15293,1,2,0:0:0:0:
448,192,15293,1,4,0:0:0:0:
64,192,15586,1,8,0:0:0:0:
192,192,15586,1,2,0:0:0:0:
320,192,15878,1,2,0:0:0:0:
448,192,16025,1,0,0:0:0:0:
64,192,16171,1,8,0:0:0:0:
192,192,16171,1,2,0:0:0:0:
192,192,16464,1,2,0:0:0:0:
320,192,16464,1,0,0:0:0:0:
64,192,16756,1,2,0:0:0:0:
448,192,16756,1,8,0:0:0:0:
192,192,17049,1,2,0:0:0:0:
320,192,17195,1,0,0:0:0:0:
64,192,17342,1,10,0:0:0:0:
448,192,17488,1,0,0:0:0:0:
64,192,17634,1,2,0:0:0:0:
192,192,17634,128,0,17927:0:0:0:0:
320,192,17927,1,8,0:0:0:0:
448,192,17927,1,2,0:0:0:0:
64,192,18073,1,0,0:0:0:0:
448,192,18220,1,2,0:0:0:0:
320,192,18366,1,0,0:0:0:0:
192,192,18513,1,10,0:0:0:0:
64,192,18659,1,2,0:0:0:0:
448,192,18659,1,0,0:0:0:0:
64,192,18952,1,2,0:0:0:0:
448,192,18952,1,0,0:0:0:0:
192,192,19098,128,10,19391:0:0:0:0:
320,192,19391,1,2,0:0:0:0:
448,192,19391,1,0,0:0:0:0:
448,192,19683,1,8,0:0:0:0:
64,192,19683,1,0,0:0:0:0:
64,192,19976,1,2,0:0:0:0:
192,192,19976,1,4,0:0:0:0:
320,192,20269,1,0,0:0:0:0:
64,192,20561,1,0,0:0:0:70:electronic30.wav
320,192,20561,1,0,0:0:0:0:
448,192,20854,1,2,0:0:0:0:
192,192,21147,1,0,0:0:0:0:
448,192,21439,1,2,0:0:0:0:
64,192,21732,1,0,0:0:0:70:electronic30.wav
320,192,21732,1,0,0:0:0:0:
192,192,22025,1,0,0:0:0:0:
320,192,22317,1,2,0:0:0:0:
64,192,22610,1,0,0:0:0:0:
64,192,22903,1,0,0:0:0:70:electronic30.wav
448,192,22903,1,0,0:0:0:0:
192,192,23195,1,2,0:0:0:0:
320,192,23488,1,0,0:0:0:0:
192,192,23781,1,2,0:0:0:0:
64,192,24073,1,0,0:0:0:70:electronic30.wav
448,192,24073,1,0,0:0:0:0:
320,192,24366,1,0,0:0:0:0:
64,192,24659,1,2,0:0:0:0:
192,192,24659,1,0,0:0:0:0:
448,192,24952,1,0,0:0:0:0:
192,192,25244,1,0,0:0:0:70:electronic30.wav
448,192,25244,1,0,0:0:0:0:
64,192,25537,1,2,0:0:0:0:
320,192,25537,1,4,0:0:0:0:
192,192,25830,1,0,0:0:0:0:
320,192,26122,1,2,0:0:0:0:
192,192,26415,1,0,0:0:0:70:electronic30.wav
448,192,26415,1,0,0:0:0:0:
64,192,26708,1,0,0:0:0:0:
448,192,27000,1,2,0:0:0:0:
192,192,27293,1,0,0:0:0:0:
192,192,27586,1,0,0:0:0:70:electronic30.wav
320,192,27586,1,0,0:0:0:0:
64,192,27878,1,2,0:0:0:0:
448,192,28171,1,0,0:0:0:0:
192,192,28464,1,0,0:0:0:0:
320,192,28756,1,0,0:0:0:70:tom02.wav
64,192,28903,1,0,0:0:0:70:tom04.wav
448,192,29049,128,0,29342:0:0:0:0:
64,192,29342,1,2,0:0:0:0:
192,192,29342,1,4,0:0:0:0:
320,192,29634,1,2,0:0:0:0:
448,192,29634,1,0,0:0:0:0:
192,192,29927,1,2,0:0:0:0:
64,192,30220,1,2,0:0:0:0:
320,192,30220,1,0,0:0:0:0:
192,192,30513,1,2,0:0:0:0:
192,192,30805,1,2,0:0:0:0:
448,192,30805,1,0,0:0:0:0:
320,192,31098,1,2,0:0:0:0:
64,192,31391,1,2,0:0:0:0:
320,192,31391,1,0,0:0:0:0:
192,192,31683,128,2,31976:0:0:0:0:
64,192,31683,1,0,0:0:0:0:
320,192,31976,128,2,32269:0:0:0:0:
192,192,32269,128,2,32561:0:0:0:0:
64,192,32269,1,0,0:0:0:0:
320,192,32561,128,2,32854:0:0:0:0:
192,192,32854,1,2,0:0:0:0:
64,192,32854,1,0,0:0:0:0:
192,192,33147,1,2,0:0:0:0:
64,192,33147,1,0,0:0:0:0:
64,192,33439,1,2,0:0:0:0:
192,192,33439,128,0,33732:0:0:0:0:
448,192,33732,128,2,34025:0:0:0:0:
320,192,34025,1,2,0:0:0:0:
192,192,34171,1,2,0:0:0:0:
64,192,34317,1,2,0:0:0:0:
320,192,34317,1,0,0:0:0:0:
448,192,34610,1,2,0:0:0:0:
64,192,34903,1,2,0:0:0:0:
192,192,34903,1,0,0:0:0:0:
320,192,35195,1,2,0:0:0:0:
64,192,35488,1,2,0:0:0:0:
320,192,35488,1,0,0:0:0:0:
192,192,35781,1,2,0:0:0:0:
448,192,36073,1,2,0:0:0:0:
192,192,36073,1,0,0:0:0:0:
320,192,36366,128,2,36659:0:0:0:0:
448,192,36366,1,0,0:0:0:0:
64,192,36659,128,2,36952:0:0:0:0:
320,192,36952,128,2,37244:0:0:0:0:
448,192,36952,1,0,0:0:0:0:
64,192,37244,128,2,37537:0:0:0:0:
320,192,37537,1,2,0:0:0:0:
448,192,37537,1,0,0:0:0:0:
320,192,37830,1,2,0:0:0:0:
448,192,37830,1,0,0:0:0:0:
320,192,38122,128,2,38415:0:0:0:0:
448,192,38122,1,0,0:0:0:70:tom02.wav
192,192,38415,1,2,0:0:0:0:
448,192,38561,1,2,0:0:0:0:
64,192,38708,1,6,0:0:0:0:
192,192,38708,1,0,0:0:0:70:TomTom1.wav
320,192,39000,1,0,0:0:0:0:
64,192,39293,1,0,0:0:0:0:
448,192,39586,1,0,0:0:0:0:
192,192,40171,1,0,0:0:0:0:
320,192,40610,1,0,0:0:0:0:
64,192,40756,1,0,0:0:0:0:
64,192,41049,1,0,0:0:0:0:
448,192,41342,1,0,0:0:0:0:
192,192,41781,1,0,0:0:0:0:
320,192,42220,1,0,0:0:0:0:
64,192,42513,1,0,0:0:0:0:
320,192,42805,1,0,0:0:0:0:
192,192,43098,1,0,0:0:0:0:
448,192,43391,1,0,0:0:0:50:electronic32.wav
448,192,43683,1,0,0:0:0:50:electronic32.wav
64,192,43976,1,0,0:0:0:50:electronic32.wav
64,192,44269,1,0,0:0:0:50:electronic32.wav
320,192,44561,1,0,0:0:0:50:electronic32.wav
320,192,44854,1,0,0:0:0:50:electronic32.wav
192,192,45147,1,0,0:0:0:50:electronic32.wav
192,192,45439,1,0,0:0:0:50:electronic32.wav
448,192,45732,1,0,0:0:0:50:electronic32.wav
448,192,46025,1,0,0:0:0:50:electronic32.wav
192,192,46317,1,0,0:0:0:50:electronic32.wav
320,192,46464,1,0,0:0:0:50:electronic32.wav
448,192,46610,1,0,0:0:0:50:electronic32.wav
192,192,46756,1,0,0:0:0:50:electronic32.wav
64,192,46903,1,6,0:0:0:0:
448,192,46903,1,0,0:0:0:30:electronic32.wav
320,192,47049,1,6,0:0:0:0:
192,192,47195,128,0,47488:0:0:0:30:electronic32.wav
64,192,47488,1,6,0:0:0:0:
448,192,47488,1,0,0:0:0:30:electronic32.wav
192,192,47634,1,6,0:0:0:0:
320,192,47781,128,0,48073:0:0:0:30:electronic32.wav
64,192,48073,1,2,0:0:0:0:
448,192,48073,1,4,0:0:0:0:
192,192,48366,1,2,0:0:0:0:
320,192,48366,1,4,0:0:0:0:
320,192,48659,1,0,0:0:0:0:
192,192,48805,1,0,0:0:0:0:
64,192,48952,1,0,0:0:0:70:LR_Clap Loud Long.wav
448,192,48952,1,0,0:0:0:0:
320,192,49098,1,0,0:0:0:0:
64,192,49244,1,2,0:0:0:0:
192,192,49244,128,4,49537:0:0:0:0:
320,192,49537,128,8,49830:0:0:0:0:
448,192,49537,1,2,0:0:0:0:
64,192,49830,1,2,0:0:0:0:
192,192,49830,128,0,50122:0:0:0:0:
320,192,50122,1,8,0:0:0:0:
448,192,50122,1,2,0:0:0:0:
64,192,50415,1,2,0:0:0:0:
192,192,50708,1,2,0:0:0:0:
448,192,50708,1,8,0:0:0:0:
320,192,51000,1,2,0:0:0:0:
192,192,51147,1,0,0:0:0:0:
64,192,51293,1,2,0:0:0:0:
448,192,51293,1,8,0:0:0:0:
320,192,51586,1,2,0:0:0:0:
192,192,51878,1,8,0:0:0:0:
448,192,51878,1,2,0:0:0:0:
64,192,52171,1,2,0:0:0:0:
448,192,52317,1,0,0:0:0:0:
64,192,52464,1,8,0:0:0:0:
320,192,52464,1,2,0:0:0:0:
192,192,52756,128,2,53049:0:0:0:0:
320,192,53049,128,2,53342:0:0:0:0:
448,192,53049,1,8,0:0:0:0:
192,192,53342,128,2,53634:0:0:0:0:
64,192,53634,128,2,53927:0:0:0:0:
448,192,53634,1,8,0:0:0:0:
320,192,53927,1,2,0:0:0:0:
448,192,53927,128,0,54220:0:0:0:0:
64,192,54220,1,8,0:0:0:0:
192,192,54220,128,2,54513:0:0:0:0:
320,192,54513,1,2,0:0:0:0:
448,192,54513,128,0,54805:0:0:0:0:
64,192,54805,1,8,0:0:0:0:
192,192,54805,1,2,0:0:0:0:
320,192,55098,1,2,0:0:0:0:
64,192,55391,1,2,0:0:0:0:
448,192,55391,1,8,0:0:0:0:
192,192,55683,1,2,0:0:0:0:
448,192,55830,1,0,0:0:0:0:
64,192,55976,1,2,0:0:0:0:
320,192,55976,1,8,0:0:0:0:
192,192,56269,1,2,0:0:0:0:
64,192,56561,1,8,0:0:0:0:
448,192,56561,1,2,0:0:0:0:
320,192,56854,1,2,0:0:0:0:
192,192,57000,1,0,0:0:0:0:
448,192,57147,1,8,0:0:0:0:
320,192,57147,1,2,0:0:0:0:
64,192,57439,128,2,57732:0:0:0:0:
448,192,57732,128,8,58025:0:0:0:0:
192,192,58025,1,2,0:0:0:0:
192,192,58317,1,2,0:0:0:0:
320,192,58317,1,8,0:0:0:0:
64,192,58610,128,2,58903:0:0:0:0:
448,192,58610,1,4,0:0:0:0:
192,192,58903,1,8,0:0:0:0:
320,192,58903,128,2,59195:0:0:0:0:
64,192,59195,128,2,59488:0:0:0:0:
448,192,59195,1,0,0:0:0:0:
192,192,59488,1,8,0:0:0:0:
320,192,59488,1,2,0:0:0:0:
448,192,59781,1,2,0:0:0:0:
64,192,60073,1,2,0:0:0:0:
192,192,60073,1,8,0:0:0:0:
320,192,60366,1,2,0:0:0:0:
192,192,60513,1,0,0:0:0:0:
64,192,60659,1,2,0:0:0:0:
448,192,60659,1,8,0:0:0:0:
320,192,60952,1,2,0:0:0:0:
64,192,61244,1,8,0:0:0:0:
192,192,61244,1,2,0:0:0:0:
448,192,61537,1,2,0:0:0:0:
64,192,61683,1,0,0:0:0:0:
320,192,61830,1,8,0:0:0:0:
448,192,61830,1,2,0:0:0:0:
64,192,62122,128,2,62415:0:0:0:0:
320,192,62415,1,2,0:0:0:0:
448,192,62415,128,8,62708:0:0:0:0:
64,192,62708,128,2,63000:0:0:0:0:
192,192,63000,1,2,0:0:0:0:
320,192,63000,128,8,63293:0:0:0:0:
64,192,63293,1,2,0:0:0:0:
448,192,63293,128,0,63586:0:0:0:0:
192,192,63586,128,8,63878:0:0:0:0:
320,192,63586,1,2,0:0:0:0:
64,192,63878,1,2,0:0:0:0:
448,192,63878,128,0,64171:0:0:0:0:
192,192,64171,1,8,0:0:0:0:
320,192,64171,1,2,0:0:0:0:
64,192,64464,1,2,0:0:0:0:
192,192,64756,1,2,0:0:0:0:
448,192,64756,1,8,0:0:0:0:
64,192,65049,1,2,0:0:0:0:
192,192,65147,1,2,0:0:0:0:
448,192,65244,1,2,0:0:0:0:
320,192,65342,1,10,0:0:0:0:
64,192,65439,1,2,0:0:0:0:
192,192,65537,1,2,0:0:0:0:
320,192,65634,1,2,0:0:0:0:
448,192,65634,128,4,65927:0:0:0:0:
192,192,66220,1,4,0:0:0:0:
64,192,66220,128,2,66513:0:0:0:0:
448,192,66805,1,2,0:0:0:0:
320,192,66805,1,4,0:0:0:0:
192,192,66952,1,4,0:0:0:0:
64,192,66952,1,2,0:0:0:0:
192,192,67244,1,2,0:0:0:0:
64,192,67244,1,4,0:0:0:0:
448,192,67391,1,4,0:0:0:0:
320,192,67391,128,2,67683:0:0:0:0:
192,192,67683,128,0,67976:0:0:0:0:
448,192,67976,128,2,68269:0:0:0:0:
64,192,67976,1,4,0:0:0:0:
64,192,68415,128,0,69261:0:0:0:0:
192,192,68415,1,2,0:0:0:0:
320,192,69261,1,0,0:0:0:0:
192,192,69689,1,0,0:0:0:0:
64,192,70118,1,0,0:0:0:0:
192,192,70546,1,0,0:0:0:70:LR_Clap Loud Long.wav
448,192,70546,1,0,0:0:0:0:
448,192,70975,128,0,71403:0:0:0:0:
64,192,71403,1,2,0:0:0:0:
192,192,71403,1,4,0:0:0:0:
320,192,71832,1,2,0:0:0:0:
448,192,71832,1,0,0:0:0:0:
64,192,72261,1,2,0:0:0:0:
320,192,72475,1,0,0:0:0:0:
192,192,72689,1,2,0:0:0:0:
448,192,72689,1,0,0:0:0:0:
320,192,73118,1,2,0:0:0:0:
448,192,73118,1,0,0:0:0:0:
64,192,73546,1,2,0:0:0:0:
192,192,73546,1,0,0:0:0:0:
320,192,73975,1,2,0:0:0:0:
192,192,74189,1,0,0:0:0:0:
64,192,74403,128,2,74832:0:0:0:0:
448,192,74403,1,0,0:0:0:0:
320,192,74832,128,2,75046:0:0:0:0:
192,192,75046,1,0,0:0:0:0:
64,192,75261,128,2,75689:0:0:0:0:
448,192,75261,1,0,0:0:0:0:
320,192,75689,128,2,75903:0:0:0:0:
192,192,75903,1,0,0:0:0:0:
64,192,76118,1,2,0:0:0:0:
448,192,76118,1,0,0:0:0:0:
320,192,76332,1,0,0:0:0:0:
64,192,76546,1,2,0:0:0:0:
448,192,76546,1,0,0:0:0:0:
192,192,76761,1,0,0:0:0:0:
64,192,76975,128,2,77403:0:0:0:0:
448,192,76975,1,0,0:0:0:0:
320,192,77189,1,0,0:0:0:0:
192,192,77403,1,2,0:0:0:0:
448,192,77403,128,0,77832:0:0:0:0:
64,192,77832,1,2,0:0:0:0:
320,192,77832,1,4,0:0:0:0:
192,192,78261,1,2,0:0:0:0:
448,192,78261,1,8,0:0:0:0:
64,192,78689,1,2,0:0:0:0:
448,192,78903,1,0,0:0:0:0:
192,192,79118,1,2,0:0:0:0:
320,192,79118,1,8,0:0:0:0:
192,192,79546,1,2,0:0:0:0:
448,192,79546,1,0,0:0:0:0:
64,192,79975,1,2,0:0:0:0:
320,192,79975,1,8,0:0:0:0:
448,192,80403,128,2,80832:0:0:0:0:
64,192,80832,1,0,0:0:0:0:
448,192,81046,1,0,0:0:0:0:
192,192,81261,128,2,81689:0:0:0:0:
320,192,81261,1,4,0:0:0:0:
448,192,81689,128,10,81903:0:0:0:0:
64,192,81903,1,0,0:0:0:0:
192,192,82118,128,2,82546:0:0:0:0:
320,192,82118,1,0,0:0:0:0:
448,192,82546,128,10,82761:0:0:0:0:
64,192,82761,1,0,0:0:0:0:
192,192,82975,1,2,0:0:0:0:
320,192,82975,1,0,0:0:0:0:
448,192,83189,1,0,0:0:0:0:
192,192,83403,1,2,0:0:0:0:
320,192,83403,1,8,0:0:0:0:
64,192,83618,1,0,0:0:0:0:
192,192,83832,128,2,84261:0:0:0:0:
320,192,83832,1,0,0:0:0:0:
448,192,84046,1,0,0:0:0:0:
64,192,84261,1,10,0:0:0:0:
448,192,84475,1,0,0:0:0:0:
64,192,84689,128,0,84903:0:0:0:70:TomTom1.wav
320,192,84689,1,0,0:0:0:0:
192,192,85118,1,0,0:0:0:0:
192,192,85546,1,0,0:0:0:0:
448,192,85546,128,0,85761:0:0:0:0:
320,192,85975,1,0,0:0:0:0:
64,192,86403,1,0,0:0:0:0:
448,192,86832,1,0,0:0:0:0:
192,192,87261,1,0,0:0:0:0:
320,192,87689,1,0,0:0:0:0:
64,192,88118,1,0,0:0:0:0:
448,192,88118,128,0,88332:0:0:0:0:
320,192,88546,1,0,0:0:0:0:
192,192,88975,128,0,89189:0:0:0:0:
320,192,88975,1,0,0:0:0:0:
64,192,89403,1,0,0:0:0:0:
64,192,89832,1,0,0:0:0:0:
448,192,89832,128,0,90046:0:0:0:0:
192,192,90261,1,0,0:0:0:0:
320,192,90689,128,0,91118:0:0:0:0:
192,192,91118,128,0,91546:0:0:0:0:
320,192,91546,1,0,0:0:0:0:
448,192,91546,128,0,92403:0:0:0:0:
64,192,91975,1,8,0:0:0:0:
192,192,92403,128,0,93261:0:0:0:0:
320,192,92832,1,8,0:0:0:0:
64,192,93261,128,0,94118:0:0:0:0:
448,192,93689,1,8,0:0:0:0:
320,192,94118,128,0,94546:0:0:0:0:
192,192,94546,128,8,94975:0:0:0:0:
448,192,94975,128,0,95832:0:0:0:0:
320,192,95403,1,8,0:0:0:0:
64,192,95832,128,0,96690:0:0:0:0:
192,192,96261,1,8,0:0:0:0:
448,192,96690,128,8,96930:0:0:0:0:
192,192,96930,1,0,0:0:0:0:
320,192,97170,1,8,0:0:0:0:
64,192,97410,1,0,0:0:0:0:
320,192,97650,128,8,97950:0:0:0:0:
192,192,97950,128,0,98250:0:0:0:0:
64,192,98250,128,8,98625:0:0:0:0:
448,192,98625,128,8,99415:0:0:0:0:
64,192,99415,1,0,0:0:0:0:
192,192,100315,1,0,0:0:0:0:
448,192,100465,1,0,0:0:0:0:
320,192,100615,1,0,0:0:0:70:tom01.wav
192,192,100765,1,0,0:0:0:70:tom03.wav
64,192,100915,1,6,0:0:0:0:
448,192,100915,1,0,0:0:0:30:electronic32.wav
320,192,101061,1,6,0:0:0:0:
192,192,101207,128,0,101500:0:0:0:30:electronic32.wav
64,192,101500,1,6,0:0:0:0:
448,192,101500,1,0,0:0:0:30:electronic32.wav
192,192,101646,1,6,0:0:0:0:
320,192,101793,128,0,102085:0:0:0:30:electronic32.wav
64,192,102085,1,2,0:0:0:0:
448,192,102085,1,4,0:0:0:0:
192,192,102378,1,2,0:0:0:0:
320,192,102378,1,4,0:0:0:0:
320,192,102671,1,8,0:0:0:0:
192,192,102817,1,0,0:0:0:0:
64,192,102963,1,0,0:0:0:70:LR_Clap Loud Long.wav
448,192,102963,1,0,0:0:0:0:
192,192,103256,128,2,103549:0:0:0:0:
448,192,103256,1,4,0:0:0:0:
320,192,103549,128,0,103841:0:0:0:0:
192,192,103841,128,0,104134:0:0:0:0:
448,192,104280,1,6,0:0:0:0:
64,192,104427,1,6,0:0:0:0:
320,192,104573,1,6,0:0:0:0:
192,192,104866,1,6,0:0:0:0:
448,192,105012,128,6,105305:0:0:0:0:
320,192,105305,1,6,0:0:0:0:
192,192,105451,1,2,0:0:0:0:
64,192,105597,128,4,105890:0:0:0:0:
448,192,105597,1,2,0:0:0:0:
320,192,105890,128,0,106183:0:0:0:0:
192,192,106183,1,0,0:0:0:0:
448,192,106329,1,0,0:0:0:0:
192,192,106475,1,0,0:0:0:0:
448,192,106622,1,2,0:0:0:0:
64,192,106768,1,2,0:0:0:0:
320,192,106768,1,4,0:0:0:0:
192,192,106988,1,2,0:0:0:0:
448,192,106988,1,4,0:0:0:0:
320,192,107207,1,6,0:0:0:0:
64,192,107354,1,2,0:0:0:0:
448,192,107354,1,4,0:0:0:0:
192,192,107573,1,2,0:0:0:0:
320,192,107573,1,4,0:0:0:0:
64,192,107793,1,6,0:0:0:0:
192,192,107939,128,6,108232:0:0:0:0:
448,192,107939,1,0,0:0:0:50:electronic32.wav
320,192,108232,128,0,108524:0:0:0:50:electronic32.wav
192,192,108524,128,0,108817:0:0:0:50:electronic32.wav
448,192,108817,1,0,0:0:0:50:electronic32.wav
64,192,108963,1,0,0:0:0:0:
320,192,109110,1,0,0:0:0:50:electronic32.wav
192,192,109402,1,0,0:0:0:50:electronic32.wav
64,192,109695,128,0,109988:0:0:0:50:electronic32.wav
320,192,109988,1,0,0:0:0:50:electronic32.wav
192,192,110280,1,0,0:0:0:50:electronic32.wav
448,192,110573,1,0,0:0:0:50:electronic32.wav
64,192,110866,1,0,0:0:0:50:electronic32.wav
192,192,111012,1,0,0:0:0:50:electronic32.wav
448,192,111158,1,0,0:0:0:50:electronic32.wav
320,192,111305,1,0,0:0:0:50:electronic32.wav
64,192,111451,128,6,111744:0:0:0:0:
448,192,111744,128,0,112036:0:0:0:0:
192,192,112036,1,6,0:0:0:0:
320,192,112183,1,0,0:0:0:70:tom01.wav
64,192,112329,1,0,0:0:0:70:LR_Clap Loud Long.wav
192,192,112329,1,0,0:0:0:70:tom01.wav
320,192,112475,1,0,0:0:0:70:tom03.wav
64,192,112622,128,0,112914:0:0:0:50:electronic32.wav
448,192,112622,1,0,0:0:0:0:
192,192,112914,1,12,0:0:0:0:
320,192,112914,128,2,113207:0:0:0:0:
64,192,113207,128,2,113500:0:0:0:0:
448,192,113207,1,0,0:0:0:0:
192,192,113500,1,8,0:0:0:0:
320,192,113500,1,2,0:0:0:0:
448,192,113793,1,2,0:0:0:0:
64,192,114085,1,2,0:0:0:0:
192,192,114085,1,8,0:0:0:0:
320,192,114378,1,2,0:0:0:0:
64,192,114524,1,0,0:0:0:0:
192,192,114671,1,2,0:0:0:0:
448,192,114671,1,8,0:0:0:0:
320,192,114963,1,2,0:0:0:0:
64,192,115256,1,8,0:0:0:0:
192,192,115256,1,2,0:0:0:0:
448,192,115549,1,2,0:0:0:0:
192,192,115695,1,0,0:0:0:0:
320,192,115841,1,8,0:0:0:0:
448,192,115841,1,2,0:0:0:0:
64,192,116134,128,2,116427:0:0:0:0:
320,192,116427,1,2,0:0:0:0:
448,192,116427,128,8,116719:0:0:0:0:
64,192,116719,128,2,117012:0:0:0:0:
192,192,117012,1,2,0:0:0:0:
320,192,117012,128,8,117305:0:0:0:0:
64,192,117305,1,2,0:0:0:0:
448,192,117305,128,4,117597:0:0:0:0:
192,192,117597,128,8,117890:0:0:0:0:
320,192,117597,1,2,0:0:0:0:
64,192,117890,1,2,0:0:0:0:
448,192,117890,128,0,118183:0:0:0:0:
192,192,118183,1,8,0:0:0:0:
320,192,118183,1,2,0:0:0:0:
64,192,118475,1,2,0:0:0:0:
192,192,118475,1,4,0:0:0:0:
320,192,118622,1,2,0:0:0:0:
64,192,118768,1,2,0:0:0:0:
448,192,118768,1,8,0:0:0:0:
192,192,118914,1,2,0:0:0:0:
320,192,119061,1,2,0:0:0:0:
448,192,119061,1,0,0:0:0:0:
64,192,119207,1,2,0:0:0:0:
320,192,119354,128,10,119646:0:0:0:0:
64,192,119646,128,2,119939:0:0:0:0:
192,192,119646,1,4,0:0:0:0:
320,192,120232,1,4,0:0:0:0:
448,192,120232,128,2,120524:0:0:0:0:
320,192,120817,1,2,0:0:0:0:
448,192,120817,1,4,0:0:0:0:
64,192,120963,1,4,0:0:0:0:
192,192,120963,1,2,0:0:0:0:
64,192,121256,1,2,0:0:0:0:
192,192,121256,1,4,0:0:0:0:
320,192,121402,128,4,121695:0:0:0:0:
448,192,121402,1,2,0:0:0:0:
192,192,121695,128,2,121988:0:0:0:0:
64,192,121988,1,4,0:0:0:0:
448,192,121988,128,2,122280:0:0:0:0:
192,192,122573,128,2,122866:0:0:0:0:
320,192,122573,1,4,0:0:0:0:
320,192,123158,1,4,0:0:0:0:
448,192,123158,1,2,0:0:0:0:
64,192,123305,1,2,0:0:0:0:
192,192,123305,1,4,0:0:0:0:
64,192,123597,1,4,0:0:0:0:
192,192,123597,1,2,0:0:0:0:
320,192,123744,1,2,0:0:0:0:
448,192,123744,128,4,124036:0:0:0:0:
64,192,124036,1,0,0:0:0:50:electronic32.wav
320,192,124183,1,0,0:0:0:50:electronic32.wav
192,192,124329,1,2,0:0:0:0:
448,192,124329,1,4,0:0:0:0:
64,192,124622,1,8,0:0:0:0:
320,192,124622,1,2,0:0:0:0:
448,192,124914,1,2,0:0:0:0:
192,192,125061,1,0,0:0:0:0:
64,192,125207,1,8,0:0:0:0:
320,192,125207,1,2,0:0:0:0:
64,192,125500,1,2,0:0:0:0:
448,192,125500,1,0,0:0:0:0:
192,192,125793,1,2,0:0:0:0:
320,192,125793,1,8,0:0:0:0:
64,192,126085,1,2,0:0:0:0:
448,192,126232,1,0,0:0:0:0:
192,192,126378,1,10,0:0:0:0:
320,192,126524,1,0,0:0:0:0:
64,192,126671,128,2,126963:0:0:0:0:
192,192,126671,1,0,0:0:0:0:
320,192,126963,1,8,0:0:0:0:
448,192,126963,1,2,0:0:0:0:
192,192,127256,1,2,0:0:0:0:
64,192,127402,1,0,0:0:0:0:
320,192,127549,1,8,0:0:0:0:
448,192,127549,1,2,0:0:0:0:
320,192,127841,1,2,0:0:0:0:
64,192,127988,1,0,0:0:0:0:
192,192,128134,1,2,0:0:0:0:
448,192,128134,1,8,0:0:0:0:
320,192,128280,1,0,0:0:0:0:
64,192,128427,128,2,128719:0:0:0:0:
320,192,128719,128,8,129012:0:0:0:0:
448,192,128719,128,0,129012:0:0:0:70:LR_Clap Loud Long.wav
64,192,129012,1,2,0:0:0:0:
192,192,129012,128,0,129305:0:0:0:0:
320,192,129305,1,12,0:0:0:0:
448,192,129305,1,2,0:0:0:0:
64,192,129451,1,0,0:0:0:0:
192,192,129597,1,2,0:0:0:0:
448,192,129744,1,0,0:0:0:0:
64,192,129890,1,10,0:0:0:0:
320,192,129890,1,4,0:0:0:0:
192,192,130036,1,2,0:0:0:0:
320,192,130329,1,2,0:0:0:0:
192,192,130475,1,10,0:0:0:0:
448,192,130475,1,4,0:0:0:0:
64,192,130622,1,2,0:0:0:0:
320,192,130768,1,6,0:0:0:0:
64,192,130914,1,2,0:0:0:0:
448,192,131061,1,14,0:0:0:0:
192,192,131207,1,2,0:0:0:0:
320,192,131354,128,2,131646:0:0:0:0:
448,192,131354,1,0,0:0:0:0:
64,192,131646,1,10,0:0:0:0:
192,192,131646,1,4,0:0:0:0:
448,192,131793,1,2,0:0:0:0:
64,192,131939,1,6,0:0:0:0:
192,192,132085,1,0,0:0:0:0:
320,192,132232,1,14,0:0:0:0:
64,192,132378,1,2,0:0:0:0:
448,192,132378,1,0,0:0:0:0:
64,192,132671,1,2,0:0:0:0:
448,192,132671,1,4,0:0:0:0:
320,192,132817,128,14,133110:0:0:0:0:
64,192,133110,1,2,0:0:0:0:
448,192,133110,128,4,133402:0:0:0:0:
64,192,133402,128,2,136036:0:0:0:0:
192,192,133402,1,0,0:0:0:70:LR_Clap Loud Long.wav
