osu file format v14

[General]
AudioFilename: audio.mp3
AudioLeadIn: 0
PreviewTime: 48659
Countdown: 0
SampleSet: Soft
StackLeniency: 0.7
Mode: 3
LetterboxInBreaks: 0
SpecialStyle: 0
WidescreenStoryboard: 1

[Editor]
DistanceSpacing: 0.6
BeatDivisor: 8
GridSize: 8
TimelineZoom: 1.6

[Metadata]
Title:Boku no Yume, Mecha Kuso Mugen Waki
TitleUnicode:ぼくの夢、メチャクソ無限湧き
Artist:t+pazolite & Camellia feat. Nanahira
ArtistUnicode:t+pazolite & かめりあ feat. ななひら
Creator:Rhezie
Version:Infinite Spring
Source:WACCA
Tags:Electronic Marvelous HARDCORE TANO*C ARuFa はちぷよ Hachipuyo Japanese video game rhythm arcade jpop j-pop pop Syadow- MEGAtive Dubstek FAMoss Yukari_Sama atian540
BeatmapID:2751872
BeatmapSetID:1328442

[Difficulty]
HPDrainRate:8.5
CircleSize:4
OverallDifficulty:8.2
ApproachRate:5
SliderMultiplier:1.4
SliderTickRate:1

[Events]
//Background and Video events
0,0,"BG.jpg",0,0
//Break Periods
//Storyboard Layer 0 (Background)
//Storyboard Layer 1 (Fail)
//Storyboard Layer 2 (Pass)
//Storyboard Layer 3 (Foreground)
//Storyboard Layer 4 (Overlay)
//Storyboard Sound Samples
Sample,106915,0,"wou_Ds.wav",50
Sample,107500,0,"wou_Ds.wav",50
Sample,107646,0,"wou_D.wav",50

[TimingPoints]
74,292.682926829268,4,2,1,75,1,0
5927,-62.5,4,2,1,75,0,0
5964,-125,4,2,1,75,0,0
6073,-100,4,2,1,75,0,0
6220,-62.5,4,2,1,75,0,0
6257,-125,4,2,1,75,0,0
6366,-100,4,2,1,75,0,0
6513,-62.5,4,2,1,75,0,0
6550,-125,4,2,1,75,0,0
6659,-100,4,2,1,75,0,0
6805,-62.5,4,2,1,75,0,0
6842,-125,4,2,1,75,0,0
6951,-100,4,2,1,75,0,0
7098,-62.5,4,2,1,75,0,0
7135,-125,4,2,1,75,0,0
7244,-100,4,2,1,75,0,0
7391,-62.5,4,2,1,75,0,0
7428,-125,4,2,1,75,0,0
7537,-100,4,2,1,75,0,0
7683,-62.5,4,2,1,75,0,0
7720,-125,4,2,1,75,0,0
7829,-100,4,2,1,75,0,0
7976,-62.5,4,2,1,75,0,0
8013,-125,4,2,1,75,0,0
8122,-100,4,2,1,75,0,0
8269,-45.4545454545455,4,2,1,75,0,0
8306,-166.666666666667,4,2,1,75,0,0
8415,-45.4545454545455,4,2,1,75,0,0
8452,-166.666666666667,4,2,1,75,0,0
8561,-45.4545454545455,4,2,1,75,0,0
8598,-166.666666666667,4,2,1,75,0,0
8708,-45.4545454545455,4,2,1,75,0,0
8745,-166.666666666667,4,2,1,75,0,0
8854,-45.4545454545455,4,2,1,75,0,0
8891,-166.666666666667,4,2,1,75,0,0
9000,-45.4545454545455,4,2,1,75,0,0
9037,-166.666666666667,4,2,1,75,0,0
9147,-45.4545454545455,4,2,1,75,0,0
9184,-166.666666666667,4,2,1,75,0,0
9293,-45.4545454545455,4,2,1,75,0,0
9330,-166.666666666667,4,2,1,75,0,0
9439,-29.4117647058824,4,2,1,75,0,0
9458,-500,4,2,1,75,0,0
9513,-166.666666666667,4,2,1,75,0,0
9531,-125,4,2,1,75,0,0
9549,-83.3333333333333,4,2,1,75,0,0
9567,-71.4285714285714,4,2,1,75,0,0
9586,-100,4,2,1,75,0,0
10025,-71.4285714285714,4,2,1,75,0,0
10061,-166.666666666667,4,2,1,75,0,0
10098,-71.4285714285714,4,2,1,75,0,0
10134,-166.666666666667,4,2,1,75,0,0
10171,-71.4285714285714,4,2,1,75,0,0
10207,-166.666666666667,4,2,1,75,0,0
10244,-71.4285714285714,4,2,1,75,0,0
10280,-166.666666666667,4,2,1,75,0,0
10317,-52.6315789473684,4,2,1,75,0,0
10354,-142.857142857143,4,2,1,75,0,0
10464,-100,4,2,1,75,0,0
10610,-50,4,2,1,75,0,0
10683,-250,4,2,1,75,0,0
10756,-100,4,2,1,75,0,0
12952,-55.5556,4,2,1,75,0,0
12988,-222.222,4,2,1,75,0,0
13025,-55.5556,4,2,1,75,0,0
13061,-222.222,4,2,1,75,0,0
13098,-55.5556,4,2,1,75,0,0
13134,-222.222,4,2,1,75,0,0
13171,-55.5556,4,2,1,75,0,0
13208,-222.222,4,2,1,75,0,0
13244,-100,4,2,1,75,0,0
15293,-50,4,2,1,75,0,0
15366,-250,4,2,1,75,0,0
15439,-100,4,2,1,75,0,0
17634,-55.5556,4,2,1,75,0,0
17670,-222.222,4,2,1,75,0,0
17707,-55.5556,4,2,1,75,0,0
17743,-222.222,4,2,1,75,0,0
17780,-55.5556,4,2,1,75,0,0
17816,-222.222,4,2,1,75,0,0
17853,-55.5556,4,2,1,75,0,0
17890,-222.222,4,2,1,75,0,0
17926,-100,4,2,1,75,0,0
18220,-52.6315789473684,4,2,1,75,0,0
18238,-142.857142857143,4,2,1,75,0,0
18293,-52.6315789473684,4,2,1,75,0,0
18311,-142.857142857143,4,2,1,75,0,0
18366,-100,4,2,1,75,0,0
18439,-52.6315789473684,4,2,1,75,0,0
18457,-142.857142857143,4,2,1,75,0,0
18513,-52.6315789473684,4,2,1,75,0,0
18549,-142.857142857143,4,2,1,75,0,0
18659,-52.6315789473684,4,2,1,75,0,0
18695,-142.857142857143,4,2,1,75,0,0
18805,-100,4,2,1,75,0,0
18952,-52.6315789473684,4,2,1,75,0,0
18970,-142.857142857143,4,2,1,75,0,0
19025,-52.6315789473684,4,2,1,75,0,0
19043,-142.857142857143,4,2,1,75,0,0
19098,-52.6315789473684,4,2,1,75,0,0
19134,-142.857142857143,4,2,1,75,0,0
19244,-166.666666666667,4,2,1,75,0,0
19281,-125,4,2,1,75,0,0
19317,-83.3333333333333,4,2,1,75,0,0
19354,-71.4285714285714,4,2,1,75,0,0
19391,-45.4545454545455,4,2,1,75,0,0
19427,-166.666666666667,4,2,1,75,0,0
19537,-100,4,2,1,75,0,0
19683,-40,4,2,1,75,0,0
19719,-200,4,2,1,75,0,0
19829,-100,4,2,1,75,0,0
31683,-45.4545454545455,4,2,1,75,0,0
31719,-166.666666666667,4,2,1,75,0,0
31829,-100,4,2,1,75,0,0
31976,-45.4545454545455,4,2,1,75,0,0
32012,-166.666666666667,4,2,1,75,0,0
32122,-100,4,2,1,75,0,0
32269,-45.4545454545455,4,2,1,75,0,0
32305,-166.666666666667,4,2,1,75,0,0
32415,-100,4,2,1,75,0,0
32561,-45.4545454545455,4,2,1,75,0,0
32597,-166.666666666667,4,2,1,75,0,0
32707,-100,4,2,1,75,0,0
32854,-40,4,2,1,75,0,0
32890,-200,4,2,1,75,0,0
33000,-100,4,2,1,75,0,0
33147,-35.7142857142857,4,2,1,75,0,0
33183,-250,4,2,1,75,0,0
33293,-100,4,2,1,75,0,0
33439,-32.2580645161291,4,2,1,75,0,0
33475,-333.333333333336,4,2,1,75,0,0
33585,-100,4,2,1,75,0,0
36366,-45.4545454545455,4,2,1,75,0,0
36402,-166.666666666667,4,2,1,75,0,0
36512,-100,4,2,1,75,0,0
36659,-45.4545454545455,4,2,1,75,0,0
36695,-166.666666666667,4,2,1,75,0,0
36805,-100,4,2,1,75,0,0
36952,-45.4545454545455,4,2,1,75,0,0
36988,-166.666666666667,4,2,1,75,0,0
37098,-100,4,2,1,75,0,0
37244,-45.4545454545455,4,2,1,75,0,0
37280,-166.666666666667,4,2,1,75,0,0
37390,-100,4,2,1,75,0,0
37537,-40,4,2,1,75,0,0
37573,-200,4,2,1,75,0,0
37683,-100,4,2,1,75,0,0
37830,-35.7142857142857,4,2,1,75,0,0
37866,-250,4,2,1,75,0,0
37976,-100,4,2,1,75,0,0
38122,-32.2580645161291,4,2,1,75,0,0
38158,-333.333333333336,4,2,1,75,0,0
38269,-100,4,2,1,75,0,0
38708,-108.695652173913,4,2,1,75,0,0
39878,-106.382978723404,4,2,1,75,0,0
41049,-104.166666666667,4,2,1,75,0,0
42220,-102.040816326531,4,2,1,75,0,0
43391,-100,4,2,1,75,0,0
46903,-52.6315789473684,4,2,1,75,0,0
46939,-142.857142857143,4,2,1,75,0,0
47049,-52.6315789473684,4,2,1,75,0,0
47085,-142.857142857143,4,2,1,75,0,0
47195,-100,4,2,1,75,0,0
47488,-52.6315789473684,4,2,1,75,0,0
47524,-142.857142857143,4,2,1,75,0,0
47634,-52.6315789473684,4,2,1,75,0,0
47670,-142.857142857143,4,2,1,75,0,0
47780,-100,4,2,1,75,0,0
48073,-35.7142857142857,4,2,1,75,0,0
48109,-250.000000000001,4,2,1,75,0,0
48220,-166.666666666667,4,2,1,75,0,0
48256,-125,4,2,1,75,0,0
48293,-83.3333333333334,4,2,1,75,0,0
48366,-35.7142857142857,4,2,1,75,0,0
48402,-250.000000000001,4,2,1,75,0,0
48513,-166.666666666667,4,2,1,75,0,0
48549,-125,4,2,1,75,0,0
48586,-83.3333333333334,4,2,1,75,0,0
48623,-71.4285714285714,4,2,1,75,0,0
48659,-100,4,2,1,75,0,0
49244,-52.6315789473684,4,2,1,75,0,1
49280,-142.857142857143,4,2,1,75,0,1
49391,-100,4,2,1,75,0,1
49537,-52.6315789473684,4,2,1,75,0,1
49573,-142.857142857143,4,2,1,75,0,1
49684,-100,4,2,1,75,0,1
49830,-52.6315789473684,4,2,1,75,0,1
49866,-142.857142857143,4,2,1,75,0,1
49977,-100,4,2,1,75,0,1
53927,-52.6315789473684,4,2,1,75,0,1
53963,-142.857142857143,4,2,1,75,0,1
54074,-100,4,2,1,75,0,1
54220,-52.6315789473684,4,2,1,75,0,1
54256,-142.857142857143,4,2,1,75,0,1
54367,-100,4,2,1,75,0,1
54513,-52.6315789473684,4,2,1,75,0,1
54549,-142.857142857143,4,2,1,75,0,1
54660,-100,4,2,1,75,0,1
58610,-52.6315789473684,4,2,1,75,0,1
58646,-142.857142857143,4,2,1,75,0,1
58757,-100,4,2,1,75,0,1
58903,-52.6315789473684,4,2,1,75,0,1
58939,-142.857142857143,4,2,1,75,0,1
59050,-100,4,2,1,75,0,1
59196,-52.6315789473684,4,2,1,75,0,1
59232,-142.857142857143,4,2,1,75,0,1
59343,-100,4,2,1,75,0,1
63293,-52.6315789473684,4,2,1,75,0,1
63329,-142.857142857143,4,2,1,75,0,1
63440,-100,4,2,1,75,0,1
63586,-52.6315789473684,4,2,1,75,0,1
63622,-142.857142857143,4,2,1,75,0,1
63733,-100,4,2,1,75,0,1
63879,-52.6315789473684,4,2,1,75,0,1
63915,-142.857142857143,4,2,1,75,0,1
64026,-100,4,2,1,75,0,1
65049,-62.5,4,2,1,75,0,1
65098,-250,4,2,1,75,0,1
65147,-62.5,4,2,1,75,0,1
65196,-250,4,2,1,75,0,1
65244,-62.5,4,2,1,75,0,1
65293,-250,4,2,1,75,0,1
65342,-62.5,4,2,1,75,0,1
65391,-250,4,2,1,75,0,1
65439,-62.5,4,2,1,75,0,1
65488,-250,4,2,1,75,0,1
65537,-62.5,4,2,1,75,0,1
65586,-250,4,2,1,75,0,1
65634,-35.7142857142857,4,2,1,75,0,1
65671,-250,4,2,1,75,0,1
65781,-32.258064516129,4,2,1,75,0,1
65790,-333.333333333333,4,2,1,75,0,1
65817,-32.258064516129,4,2,1,75,0,1
65826,-333.333333333333,4,2,1,75,0,1
65854,-32.258064516129,4,2,1,75,0,1
65863,-333.333333333333,4,2,1,75,0,1
65891,-32.258064516129,4,2,1,75,0,1
65900,-333.333333333333,4,2,1,75,0,1
65927,-100,4,2,1,75,0,1
66220,-35.7142857142857,4,2,1,75,0,1
66257,-250,4,2,1,75,0,1
66367,-32.258064516129,4,2,1,75,0,1
66376,-333.333333333333,4,2,1,75,0,1
66403,-32.258064516129,4,2,1,75,0,1
66412,-333.333333333333,4,2,1,75,0,1
66440,-32.258064516129,4,2,1,75,0,1
66449,-333.333333333333,4,2,1,75,0,1
66477,-32.258064516129,4,2,1,75,0,1
66486,-333.333333333333,4,2,1,75,0,1
66513,-100,4,2,1,75,0,1
66805,-40,4,2,1,75,0,1
66842,-200,4,2,1,75,0,1
66952,-40,4,2,1,75,0,1
66989,-200,4,2,1,75,0,1
67098,-100,4,2,1,75,0,1
67244,-40,4,2,1,75,0,1
67281,-200,4,2,1,75,0,1
67391,-40,4,2,1,75,0,1
67428,-200,4,2,1,75,0,1
67537,-100,4,2,1,75,0,1
67976,-62.5,4,2,1,75,0,0
68013,-166.666666666666,4,2,1,75,0,0
68122,-100,4,2,1,75,0,0
68415,338.983050847457,4,2,1,75,1,0
68415,-48.780487804878,4,2,1,75,0,0
68457,-117.647058823529,4,2,1,75,0,0
68584,-86.2068965517241,4,2,1,75,0,0
69261,428.571428571429,4,2,1,75,1,0
69261,-33.3333333333333,4,2,1,75,0,0
69314,-125,4,2,1,75,0,0
69475,-66.6666666666667,4,2,1,75,0,0
69583,-58.8235294117647,4,2,1,75,0,0
69689,-33.3333333333333,4,2,1,75,0,0
69742,-125,4,2,1,75,0,0
69903,-66.6666666666667,4,2,1,75,0,0
70011,-58.8235294117647,4,2,1,75,0,0
70118,-33.3333333333333,4,2,1,75,0,0
70171,-125,4,2,1,75,0,0
70332,-66.6666666666667,4,2,1,75,0,0
70440,-58.8235294117647,4,2,1,75,0,0
70546,-33.3333333333333,4,2,1,75,0,0
70599,-125,4,2,1,75,0,0
70760,-66.6666666666667,4,2,1,75,0,0
70868,-58.8235294117647,4,2,1,75,0,0
70975,-68.4931506849315,4,2,1,75,0,0
71404,-33.7837837837838,4,2,1,75,0,0
71430,-104.166666666667,4,2,1,75,0,0
71511,-68.4931506849315,4,2,1,75,0,0
71832,-33.7837837837838,4,2,1,75,0,0
71858,-104.166666666667,4,2,1,75,0,0
71939,-68.4931506849315,4,2,1,75,0,0
72261,-33.7837837837838,4,2,1,75,0,0
72287,-104.166666666667,4,2,1,75,0,0
72368,-68.4931506849315,4,2,1,75,0,0
72689,-33.7837837837838,4,2,1,75,0,0
72715,-104.166666666667,4,2,1,75,0,0
72796,-68.4931506849315,4,2,1,75,0,0
73118,-33.7837837837838,4,2,1,75,0,0
73144,-104.166666666667,4,2,1,75,0,0
73225,-68.4931506849315,4,2,1,75,0,0
73546,-33.7837837837838,4,2,1,75,0,0
73572,-104.166666666667,4,2,1,75,0,0
73653,-68.4931506849315,4,2,1,75,0,0
73975,-33.7837837837838,4,2,1,75,0,0
74001,-104.166666666667,4,2,1,75,0,0
74082,-68.4931506849315,4,2,1,75,0,0
74403,-33.7837837837838,4,2,1,75,0,0
74429,-104.166666666667,4,2,1,75,0,0
74510,-68.4931506849315,4,2,1,75,0,0
74832,-39.0625,4,2,1,75,0,0
74868,-277.777777777779,4,2,1,75,0,0
74903,-39.0625,4,2,1,75,0,0
74939,-277.777777777779,4,2,1,75,0,0
74975,-68.4931506849315,4,2,1,75,0,0
75261,-33.7837837837838,4,2,1,75,0,0
75287,-104.166666666667,4,2,1,75,0,0
75368,-68.4931506849315,4,2,1,75,0,0
75690,-39.0625,4,2,1,75,0,0
75726,-277.777777777779,4,2,1,75,0,0
75761,-39.0625,4,2,1,75,0,0
75797,-277.777777777779,4,2,1,75,0,0
75833,-68.4931506849315,4,2,1,75,0,0
76118,-33.7837837837838,4,2,1,75,0,0
76144,-104.166666666667,4,2,1,75,0,0
76225,-68.4931506849315,4,2,1,75,0,0
76546,-30.6748466257669,4,2,1,75,0,0
76572,-116.279069767442,4,2,1,75,0,0
76653,-68.4931506849315,4,2,1,75,0,0
76975,-28.0898876404494,4,2,1,75,0,0
77001,-131.578947368422,4,2,1,75,0,0
77082,-68.4931506849315,4,2,1,75,0,0
77404,-11.6279069767442,4,2,1,75,0,0
77430,-217.391304347826,4,2,1,75,0,0
77564,-131.578947368422,4,2,1,75,0,0
77618,-104.166666666667,4,2,1,75,0,0
77671,-79.3650793650794,4,2,1,75,0,0
77725,-68.4931506849316,4,2,1,75,0,0
77832,-33.7837837837838,4,2,1,75,0,0
77858,-104.166666666667,4,2,1,75,0,0
77939,-68.4931506849315,4,2,1,75,0,0
78260,-33.7837837837838,4,2,1,75,0,0
78286,-104.166666666667,4,2,1,75,0,0
78367,-68.4931506849315,4,2,1,75,0,0
78689,-33.7837837837838,4,2,1,75,0,0
78715,-104.166666666667,4,2,1,75,0,0
78796,-68.4931506849315,4,2,1,75,0,0
79117,-33.7837837837838,4,2,1,75,0,0
79143,-104.166666666667,4,2,1,75,0,0
79224,-68.4931506849315,4,2,1,75,0,0
79546,-33.7837837837838,4,2,1,75,0,0
79572,-104.166666666667,4,2,1,75,0,0
79653,-68.4931506849315,4,2,1,75,0,0
79974,-33.7837837837838,4,2,1,75,0,0
80000,-104.166666666667,4,2,1,75,0,0
80081,-68.4931506849315,4,2,1,75,0,0
80832,-33.7837837837838,4,2,1,75,0,0
80859,-104.166666666667,4,2,1,75,0,0
80939,-68.4931506849315,4,2,1,75,0,0
81261,-33.7837837837838,4,2,1,75,0,0
81287,-104.166666666667,4,2,1,75,0,0
81368,-68.4931506849315,4,2,1,75,0,0
81689,-39.0625,4,2,1,75,0,0
81725,-277.777777777779,4,2,1,75,0,0
81761,-39.0625,4,2,1,75,0,0
81797,-277.777777777779,4,2,1,75,0,0
81832,-39.0625,4,2,1,75,0,0
81868,-277.777777777779,4,2,1,75,0,0
81904,-68.4931506849315,4,2,1,75,0,0
82117,-33.7837837837838,4,2,1,75,0,0
82143,-104.166666666667,4,2,1,75,0,0
82224,-68.4931506849315,4,2,1,75,0,0
82545,-39.0625,4,2,1,75,0,0
82581,-277.777777777779,4,2,1,75,0,0
82617,-39.0625,4,2,1,75,0,0
82653,-277.777777777779,4,2,1,75,0,0
82688,-39.0625,4,2,1,75,0,0
82724,-277.777777777779,4,2,1,75,0,0
82760,-68.4931506849315,4,2,1,75,0,0
82975,-33.7837837837838,4,2,1,75,0,0
83001,-104.166666666667,4,2,1,75,0,0
83082,-68.4931506849315,4,2,1,75,0,0
83403,-30.6748466257669,4,2,1,75,0,0
83429,-116.279069767442,4,2,1,75,0,0
83510,-68.4931506849315,4,2,1,75,0,0
83832,-28.0898876404494,4,2,1,75,0,0
83858,-131.578947368422,4,2,1,75,0,0
83939,-68.4931506849315,4,2,1,75,0,0
84261,-34.965034965035,4,2,1,75,0,0
84287,-217.391304347827,4,2,1,75,0,0
84368,-79.3650793650794,4,2,1,75,0,0
84421,-60.2409638554217,4,2,1,75,0,0
84475,-68.4931506849315,4,2,1,75,0,0
84689,-76.3358778625954,4,2,1,75,0,0
90689,-73.5294117647059,4,2,1,75,0,0
91118,-70.9219858156028,4,2,1,75,0,0
91546,-68.4931506849315,4,2,1,75,0,0
94975,-70.9219858156028,4,2,1,75,0,0
95832,-73.5294117647059,4,2,1,75,0,0
96690,480,4,2,1,75,1,0
96690,-69.4444444444444,4,2,1,75,0,0
97650,600.000000000001,4,2,1,75,1,0
97650,-60.6060606060606,4,2,1,75,0,0
98250,750.000000000002,4,2,1,75,1,0
98250,-51.0204081632653,4,2,1,75,0,0
99415,300,5,2,1,75,1,0
99415,-98.0392156862745,5,2,1,75,0,0
100915,292.682926829268,4,2,1,75,1,0
100915,-52.6315789473684,4,2,1,75,0,0
100951,-142.857142857143,4,2,1,75,0,0
101061,-52.6315789473684,4,2,1,75,0,0
101097,-142.857142857143,4,2,1,75,0,0
101207,-100,4,2,1,75,0,0
101500,-52.6315789473684,4,2,1,75,0,0
101536,-142.857142857143,4,2,1,75,0,0
101646,-52.6315789473684,4,2,1,75,0,0
101682,-142.857142857143,4,2,1,75,0,0
101792,-100,4,2,1,75,0,0
102085,-35.7142857142857,4,2,1,75,0,0
102121,-250.000000000001,4,2,1,75,0,0
102232,-166.666666666667,4,2,1,75,0,0
102268,-125,4,2,1,75,0,0
102305,-83.3333333333334,4,2,1,75,0,0
102378,-35.7142857142857,4,2,1,75,0,0
102414,-250.000000000001,4,2,1,75,0,0
102525,-166.666666666667,4,2,1,75,0,0
102561,-125,4,2,1,75,0,0
102598,-83.3333333333334,4,2,1,75,0,0
102635,-71.4285714285714,4,2,1,75,0,0
102671,-100,4,2,1,75,0,0
103256,-62.5,4,2,1,75,0,0
103293,-125,4,2,1,75,0,0
103402,-100,4,2,1,75,0,0
104280,-45.4545454545455,4,2,1,75,0,0
104317,-166.666666666667,4,2,1,75,0,0
104427,-45.4545454545455,4,2,1,75,0,0
104464,-166.666666666667,4,2,1,75,0,0
104573,-45.4545454545455,4,2,1,75,0,0
104610,-166.666666666667,4,2,1,75,0,0
104719,-100,4,2,1,75,0,0
104866,-45.4545454545455,4,2,1,75,0,0
104903,-166.666666666667,4,2,1,75,0,0
105012,-45.4545454545455,4,2,1,75,0,0
105049,-166.666666666667,4,2,1,75,0,0
105158,-100,4,2,1,75,0,0
105305,-35.7142857142857,4,2,1,75,0,0
105323,-250.000000000001,4,2,1,75,0,0
105378,-35.7142857142857,4,2,1,75,0,0
105396,-250.000000000001,4,2,1,75,0,0
105451,-35.7142857142857,4,2,1,75,0,0
105469,-250.000000000001,4,2,1,75,0,0
105524,-35.7142857142857,4,2,1,75,0,0
105542,-250.000000000001,4,2,1,75,0,0
105597,-45.4545454545455,4,2,1,75,0,0
105634,-166.666666666667,4,2,1,75,0,0
105744,-100,4,2,1,75,0,0
106622,-35.7142857142857,4,2,1,75,0,0
106640,-250.000000000001,4,2,1,75,0,0
106695,-35.7142857142857,4,2,1,75,0,0
106713,-250.000000000001,4,2,1,75,0,0
106768,-40,4,2,1,75,0,0
106805,-200,4,2,1,75,0,0
106988,-40,4,2,1,75,0,0
107024,-200,4,2,1,75,0,0
107207,-40,4,2,1,75,0,0
107244,-200,4,2,1,75,0,0
107354,-40,4,2,1,75,0,0
107390,-200,4,2,1,75,0,0
107573,-40,4,2,1,75,0,0
107610,-200,4,2,1,75,0,0
107793,-40,4,2,1,75,0,0
107829,-200,4,2,1,75,0,0
107939,-40,4,2,1,75,0,0
107975,-200,4,2,1,75,0,0
108085,-100,4,2,1,75,0,0
112622,-52.6315789473684,4,2,1,75,0,1
112658,-142.857142857143,4,2,1,75,0,1
112769,-100,4,2,1,75,0,1
112914,-40,4,2,1,75,0,1
112950,-200,4,2,1,75,0,1
113061,-100,4,2,1,75,0,1
113207,-40,4,2,1,75,0,1
113243,-200,4,2,1,75,0,1
113354,-100,4,2,1,75,0,1
119646,-35.7142857142857,4,2,1,75,0,1
119683,-250,4,2,1,75,0,1
119793,-32.258064516129,4,2,1,75,0,1
119802,-333.333333333333,4,2,1,75,0,1
119829,-32.258064516129,4,2,1,75,0,1
119838,-333.333333333333,4,2,1,75,0,1
119866,-32.258064516129,4,2,1,75,0,1
119875,-333.333333333333,4,2,1,75,0,1
119903,-32.258064516129,4,2,1,75,0,1
119912,-333.333333333333,4,2,1,75,0,1
119939,-100,4,2,1,75,0,1
120232,-35.7142857142857,4,2,1,75,0,1
120269,-250,4,2,1,75,0,1
120379,-32.258064516129,4,2,1,75,0,1
120388,-333.333333333333,4,2,1,75,0,1
120415,-32.258064516129,4,2,1,75,0,1
120424,-333.333333333333,4,2,1,75,0,1
120452,-32.258064516129,4,2,1,75,0,1
120461,-333.333333333333,4,2,1,75,0,1
120489,-32.258064516129,4,2,1,75,0,1
120498,-333.333333333333,4,2,1,75,0,1
120525,-100,4,2,1,75,0,1
120817,-40,4,2,1,75,0,1
120854,-200,4,2,1,75,0,1
120964,-40,4,2,1,75,0,1
121001,-200,4,2,1,75,0,1
121110,-100,4,2,1,75,0,1
121256,-40,4,2,1,75,0,1
121293,-200,4,2,1,75,0,1
121403,-40,4,2,1,75,0,1
121440,-200,4,2,1,75,0,1
121549,-100,4,2,1,75,0,1
121988,-35.7142857142857,4,2,1,75,0,1
122025,-250,4,2,1,75,0,1
122135,-32.258064516129,4,2,1,75,0,1
122144,-333.333333333333,4,2,1,75,0,1
122171,-32.258064516129,4,2,1,75,0,1
122180,-333.333333333333,4,2,1,75,0,1
122208,-32.258064516129,4,2,1,75,0,1
122217,-333.333333333333,4,2,1,75,0,1
122245,-32.258064516129,4,2,1,75,0,1
122254,-333.333333333333,4,2,1,75,0,1
122281,-100,4,2,1,75,0,1
122574,-35.7142857142857,4,2,1,75,0,1
122611,-250,4,2,1,75,0,1
122721,-32.258064516129,4,2,1,75,0,1
122730,-333.333333333333,4,2,1,75,0,1
122757,-32.258064516129,4,2,1,75,0,1
122766,-333.333333333333,4,2,1,75,0,1
122794,-32.258064516129,4,2,1,75,0,1
122803,-333.333333333333,4,2,1,75,0,1
122831,-32.258064516129,4,2,1,75,0,1
122840,-333.333333333333,4,2,1,75,0,1
122867,-100,4,2,1,75,0,1
123159,-40,4,2,1,75,0,1
123196,-200,4,2,1,75,0,1
123306,-40,4,2,1,75,0,1
123343,-200,4,2,1,75,0,1
123452,-100,4,2,1,75,0,1
123598,-40,4,2,1,75,0,1
123635,-200,4,2,1,75,0,1
123745,-40,4,2,1,75,0,1
123782,-200,4,2,1,75,0,1
123891,-100,4,2,1,75,0,1
124329,-50,4,2,1,75,0,0
124402,-250,4,2,1,75,0,0
124475,-100,4,2,1,75,0,0
126671,-55.5556,4,2,1,75,0,0
126707,-222.222,4,2,1,75,0,0
126744,-55.5556,4,2,1,75,0,0
126780,-222.222,4,2,1,75,0,0
126817,-55.5556,4,2,1,75,0,0
126853,-222.222,4,2,1,75,0,0
126890,-55.5556,4,2,1,75,0,0
126927,-222.222,4,2,1,75,0,0
126963,-100,4,2,1,75,0,0
129012,-35.7142857142857,4,2,1,75,0,0
129030,-250.000000000001,4,2,1,75,0,0
129085,-35.7142857142857,4,2,1,75,0,0
129103,-250.000000000001,4,2,1,75,0,0
129158,-35.7142857142857,4,2,1,75,0,0
129176,-250.000000000001,4,2,1,75,0,0
129232,-35.7142857142857,4,2,1,75,0,0
129250,-250.000000000001,4,2,1,75,0,0
129305,-100,4,2,1,75,0,0
131354,-55.5556,4,2,1,75,0,0
131390,-222.222,4,2,1,75,0,0
131427,-55.5556,4,2,1,75,0,0
131463,-222.222,4,2,1,75,0,0
131500,-55.5556,4,2,1,75,0,0
131536,-222.222,4,2,1,75,0,0
131573,-55.5556,4,2,1,75,0,0
131610,-222.222,4,2,1,75,0,0
131646,-100,4,2,1,75,0,0

[HitObjects]
192,192,1098,5,0,0:0:0:0:
320,192,1147,1,0,0:0:0:0:
448,192,1195,1,0,0:0:0:0:
64,192,1244,1,0,0:0:0:50:LR_Kick Beat Drop.wav
192,192,1244,1,0,0:0:0:0:
320,192,1391,1,0,0:0:0:0:
192,192,1537,1,0,0:0:0:0:
448,192,1683,1,0,0:0:0:0:
64,192,1830,1,0,0:0:0:0:
320,192,1976,1,0,0:0:0:0:
192,192,2122,1,0,0:0:0:0:
64,192,2269,1,0,0:0:0:0:
448,192,2415,1,0,0:0:0:0:
192,192,2561,1,0,0:0:0:0:
448,192,2708,1,0,0:0:0:0:
448,192,2854,1,0,0:0:0:0:
192,192,3000,1,0,0:0:0:0:
64,192,3147,1,0,0:0:0:0:
320,192,3293,1,0,0:0:0:0:
192,192,3439,1,0,0:0:0:0:
320,192,3513,1,0,0:0:0:0:
448,192,3586,1,0,0:0:0:0:
64,192,3732,1,0,0:0:0:0:
448,192,3878,1,0,0:0:0:0:
448,192,4025,1,0,0:0:0:0:
192,192,4171,1,0,0:0:0:0:
320,192,4317,1,0,0:0:0:0:
64,192,4464,1,0,0:0:0:0:
448,192,4610,1,0,0:0:0:0:
192,192,4756,1,0,0:0:0:0:
64,192,4903,1,0,0:0:0:0:
320,192,5049,1,0,0:0:0:0:
320,192,5195,1,0,0:0:0:0:
448,192,5342,1,0,0:0:0:0:
192,192,5488,1,0,0:0:0:0:
320,192,5561,1,0,0:0:0:0:
64,192,5634,1,0,0:0:0:0:
192,192,5708,1,0,0:0:0:0:
448,192,5781,1,0,0:0:0:0:
320,192,5854,1,0,0:0:0:0:
64,192,5927,1,2,0:0:0:0:
192,192,5927,1,0,0:0:0:0:
448,192,6073,1,0,0:0:0:0:
64,192,6147,1,0,0:0:0:0:
192,192,6220,1,2,0:0:0:0:
448,192,6220,1,0,0:0:0:0:
64,192,6366,1,0,0:0:0:0:
448,192,6439,1,0,0:0:0:0:
64,192,6513,1,2,0:0:0:0:
320,192,6513,1,0,0:0:0:0:
192,192,6659,1,0,0:0:0:0:
64,192,6732,1,0,0:0:0:0:
320,192,6805,1,2,0:0:0:0:
448,192,6805,1,0,0:0:0:0:
192,192,6952,1,0,0:0:0:0:
64,192,7025,1,0,0:0:0:0:
320,192,7098,1,2,0:0:0:0:
448,192,7098,1,0,0:0:0:0:
192,192,7244,1,0,0:0:0:0:
320,192,7317,1,0,0:0:0:0:
192,192,7391,1,2,0:0:0:0:
448,192,7391,1,0,0:0:0:0:
320,192,7537,1,0,0:0:0:0:
192,192,7610,1,0,0:0:0:0:
64,192,7683,1,2,0:0:0:0:
320,192,7683,1,0,0:0:0:0:
448,192,7830,1,0,0:0:0:0:
320,192,7903,1,0,0:0:0:0:
64,192,7976,1,2,0:0:0:0:
192,192,7976,1,0,0:0:0:0:
448,192,8122,1,0,0:0:0:0:
320,192,8195,1,0,0:0:0:0:
64,192,8269,1,2,0:0:0:0:
192,192,8269,1,8,0:0:0:0:
448,192,8269,1,0,0:0:0:0:
64,192,8415,1,2,0:0:0:0:
192,192,8415,1,8,0:0:0:0:
320,192,8415,1,0,0:0:0:0:
192,192,8561,1,2,0:0:0:0:
320,192,8561,1,8,0:0:0:0:
448,192,8561,1,0,0:0:0:0:
64,192,8708,1,2,0:0:0:0:
320,192,8708,1,8,0:0:0:0:
448,192,8708,1,0,0:0:0:0:
64,192,8854,1,2,0:0:0:0:
192,192,8854,1,8,0:0:0:0:
448,192,8854,1,0,0:0:0:0:
64,192,9000,1,2,0:0:0:0:
192,192,9000,1,8,0:0:0:0:
320,192,9000,1,0,0:0:0:0:
192,192,9147,1,2,0:0:0:0:
320,192,9147,1,8,0:0:0:0:
448,192,9147,1,0,0:0:0:0:
64,192,9293,1,2,0:0:0:0:
320,192,9293,1,8,0:0:0:0:
448,192,9293,1,0,0:0:0:0:
64,192,9439,128,2,9586:0:0:0:0:
192,192,9439,1,0,0:0:0:0:
448,192,9439,1,0,0:0:0:0:
320,192,9586,128,0,9732:0:0:0:0:
192,192,9732,128,0,9878:0:0:0:0:
448,192,9878,128,0,10025:0:0:0:0:
64,192,10025,1,0,0:0:0:70:tom01.wav
192,192,10025,1,0,0:0:0:0:
320,192,10098,1,0,0:0:0:70:tom02.wav
64,192,10171,1,0,0:0:0:70:tom03.wav
448,192,10171,1,0,0:0:0:0:
192,192,10244,1,0,0:0:0:70:tom04.wav
64,192,10317,1,0,0:0:0:70:LR_Clap Loud Long.wav
320,192,10317,1,0,0:0:0:0:
448,192,10317,1,0,0:0:0:0:
192,192,10464,1,8,0:0:0:0:
64,192,10610,1,2,0:0:0:0:
320,192,10610,128,4,10903:0:0:0:0:
448,192,10610,1,0,0:0:0:0:
192,192,10756,1,0,0:0:0:0:
64,192,10903,128,8,11049:0:0:0:0:
192,192,10903,1,2,0:0:0:0:
448,192,10903,1,0,0:0:0:0:
320,192,11049,128,0,11195:0:0:0:0:
192,192,11195,128,2,11342:0:0:0:0:
448,192,11195,1,0,0:0:0:0:
448,192,11342,1,0,0:0:0:0:
64,192,11488,1,8,0:0:0:0:
192,192,11488,1,2,0:0:0:0:
320,192,11488,128,0,11634:0:0:0:0:
64,192,11634,1,0,0:0:0:0:
320,192,11781,1,2,0:0:0:0:
448,192,11781,1,0,0:0:0:0:
64,192,11927,1,0,0:0:0:0:
192,192,11927,1,0,0:0:0:0:
320,192,12000,1,0,0:0:0:0:
64,192,12073,1,2,0:0:0:0:
192,192,12073,1,8,0:0:0:0:
448,192,12073,1,0,0:0:0:0:
192,192,12220,1,0,0:0:0:0:
320,192,12220,1,0,0:0:0:0:
64,192,12366,1,2,0:0:0:0:
320,192,12366,1,0,0:0:0:0:
64,192,12513,1,0,0:0:0:0:
448,192,12513,1,0,0:0:0:0:
192,192,12659,1,2,0:0:0:0:
320,192,12659,1,8,0:0:0:0:
448,192,12659,1,0,0:0:0:0:
64,192,12805,1,0,0:0:0:0:
192,192,12805,1,0,0:0:0:0:
320,192,12952,1,2,0:0:0:0:
448,192,12952,128,0,13244:0:0:0:0:
64,192,13098,1,0,0:0:0:0:
64,192,13244,1,8,0:0:0:0:
192,192,13244,128,2,13391:0:0:0:0:
320,192,13244,1,0,0:0:0:0:
448,192,13391,128,0,13537:0:0:0:0:
64,192,13537,128,2,13683:0:0:0:0:
320,192,13537,1,0,0:0:0:0:
320,192,13683,1,0,0:0:0:0:
64,192,13830,1,8,0:0:0:0:
192,192,13830,1,2,0:0:0:0:
448,192,13830,128,0,13976:0:0:0:0:
192,192,13976,1,0,0:0:0:0:
320,192,14122,1,2,0:0:0:0:
448,192,14122,1,0,0:0:0:0:
64,192,14269,1,0,0:0:0:0:
192,192,14269,1,0,0:0:0:0:
64,192,14415,1,2,0:0:0:0:
320,192,14415,1,8,0:0:0:0:
448,192,14415,1,0,0:0:0:0:
320,192,14561,1,0,0:0:0:0:
192,192,14708,1,2,0:0:0:0:
64,192,14708,1,0,0:0:0:0:
448,192,14781,1,0,0:0:0:0:
320,192,14854,1,0,0:0:0:0:
192,192,14927,1,0,0:0:0:0:
64,192,15000,128,8,15147:0:0:0:0:
320,192,15000,128,0,15147:0:0:0:70:LR_Clap Loud Long.wav
448,192,15000,128,0,15147:0:0:0:0:
192,192,15147,1,0,0:0:0:0:
64,192,15293,128,2,15586:0:0:0:0:
192,192,15293,1,4,0:0:0:0:
448,192,15293,1,0,0:0:0:0:
320,192,15439,1,0,0:0:0:0:
192,192,15586,1,8,0:0:0:0:
320,192,15586,1,2,0:0:0:0:
448,192,15586,128,0,15732:0:0:0:0:
64,192,15732,128,0,15878:0:0:0:0:
192,192,15878,1,2,0:0:0:0:
320,192,15878,128,0,16025:0:0:0:0:
192,192,16025,1,0,0:0:0:0:
64,192,16171,128,8,16317:0:0:0:0:
320,192,16171,1,2,0:0:0:0:
448,192,16171,1,0,0:0:0:0:
448,192,16317,1,0,0:0:0:0:
64,192,16464,1,2,0:0:0:0:
192,192,16464,1,0,0:0:0:0:
320,192,16610,1,0,0:0:0:0:
448,192,16610,1,0,0:0:0:0:
64,192,16683,1,0,0:0:0:0:
192,192,16756,1,2,0:0:0:0:
320,192,16756,1,8,0:0:0:0:
448,192,16756,1,0,0:0:0:0:
64,192,16903,1,0,0:0:0:0:
320,192,16903,1,0,0:0:0:0:
64,192,17049,1,2,0:0:0:0:
448,192,17049,1,0,0:0:0:0:
192,192,17195,1,0,0:0:0:0:
448,192,17195,1,0,0:0:0:0:
64,192,17342,1,2,0:0:0:0:
192,192,17342,1,8,0:0:0:0:
320,192,17342,1,0,0:0:0:0:
320,192,17488,1,0,0:0:0:0:
448,192,17488,1,0,0:0:0:0:
64,192,17634,1,2,0:0:0:0:
192,192,17634,128,0,17927:0:0:0:0:
448,192,17781,1,0,0:0:0:0:
64,192,17927,1,8,0:0:0:0:
320,192,17927,128,2,18073:0:0:0:0:
448,192,17927,1,0,0:0:0:0:
192,192,18073,128,0,18220:0:0:0:0:
320,192,18220,1,2,0:0:0:0:
448,192,18220,1,0,0:0:0:0:
64,192,18293,1,2,0:0:0:0:
192,192,18293,1,0,0:0:0:0:
448,192,18366,1,0,0:0:0:0:
64,192,18439,1,2,0:0:0:0:
192,192,18439,1,0,0:0:0:0:
320,192,18513,1,8,0:0:0:0:
448,192,18513,128,2,18659:0:0:0:0:
64,192,18659,1,2,0:0:0:0:
192,192,18659,128,0,18805:0:0:0:0:
448,192,18805,1,0,0:0:0:0:
64,192,18952,1,2,0:0:0:0:
320,192,18952,1,0,0:0:0:0:
192,192,19025,1,2,0:0:0:0:
448,192,19025,1,0,0:0:0:0:
64,192,19098,1,2,0:0:0:0:
320,192,19098,128,8,19391:0:0:0:0:
64,192,19391,128,2,19537:0:0:0:0:
448,192,19391,128,0,19537:0:0:0:0:
64,192,19683,128,8,19830:0:0:0:0:
192,192,19683,128,0,19830:0:0:0:70:LR_Clap Loud Long.wav
448,192,19683,128,0,19830:0:0:0:0:
320,192,19830,1,0,0:0:0:0:
64,192,19976,1,2,0:0:0:0:
192,192,19976,1,4,0:0:0:0:
448,192,19976,1,0,0:0:0:0:
320,192,20122,1,0,0:0:0:0:
320,192,20269,1,0,0:0:0:0:
320,192,20415,1,0,0:0:0:0:
192,192,20561,1,0,0:0:0:70:electronic30.wav
320,192,20561,1,0,0:0:0:0:
448,192,20561,1,0,0:0:0:0:
64,192,20708,1,0,0:0:0:0:
192,192,20854,1,2,0:0:0:0:
448,192,20854,1,0,0:0:0:0:
192,192,21000,1,0,0:0:0:0:
64,192,21147,1,0,0:0:0:0:
320,192,21293,1,0,0:0:0:0:
192,192,21439,1,2,0:0:0:0:
448,192,21439,1,0,0:0:0:0:
192,192,21586,1,0,0:0:0:0:
64,192,21732,1,0,0:0:0:70:electronic30.wav
320,192,21732,1,0,0:0:0:0:
448,192,21732,1,0,0:0:0:0:
448,192,21878,1,0,0:0:0:0:
192,192,22025,1,0,0:0:0:0:
320,192,22171,1,0,0:0:0:0:
192,192,22317,1,2,0:0:0:0:
320,192,22317,1,0,0:0:0:0:
64,192,22464,1,0,0:0:0:0:
64,192,22610,1,0,0:0:0:0:
64,192,22756,1,0,0:0:0:0:
64,192,22903,1,0,0:0:0:70:electronic30.wav
192,192,22903,1,0,0:0:0:0:
448,192,22903,1,0,0:0:0:0:
320,192,23049,1,0,0:0:0:0:
192,192,23195,1,2,0:0:0:0:
448,192,23195,1,0,0:0:0:0:
448,192,23342,1,0,0:0:0:0:
320,192,23488,1,0,0:0:0:0:
64,192,23634,1,0,0:0:0:0:
192,192,23781,1,2,0:0:0:0:
448,192,23781,1,0,0:0:0:0:
448,192,23927,1,0,0:0:0:0:
64,192,24073,1,0,0:0:0:70:electronic30.wav
192,192,24073,1,0,0:0:0:0:
320,192,24073,1,0,0:0:0:0:
192,192,24220,1,0,0:0:0:0:
448,192,24366,1,0,0:0:0:0:
64,192,24513,1,0,0:0:0:0:
64,192,24659,1,2,0:0:0:0:
192,192,24659,1,0,0:0:0:0:
320,192,24659,1,0,0:0:0:0:
448,192,24805,1,0,0:0:0:0:
448,192,24952,1,0,0:0:0:0:
448,192,25098,1,0,0:0:0:0:
192,192,25244,1,0,0:0:0:70:electronic30.wav
320,192,25244,1,0,0:0:0:0:
448,192,25244,1,0,0:0:0:0:
64,192,25391,1,0,0:0:0:0:
64,192,25537,1,2,0:0:0:0:
192,192,25537,1,4,0:0:0:0:
320,192,25537,1,0,0:0:0:0:
192,192,25683,1,0,0:0:0:0:
64,192,25830,1,0,0:0:0:0:
448,192,25976,1,0,0:0:0:0:
192,192,26122,1,2,0:0:0:0:
320,192,26122,1,0,0:0:0:0:
192,192,26269,1,0,0:0:0:0:
64,192,26415,1,0,0:0:0:70:electronic30.wav
320,192,26415,1,0,0:0:0:0:
448,192,26415,1,0,0:0:0:0:
320,192,26561,1,0,0:0:0:0:
192,192,26708,1,0,0:0:0:0:
448,192,26854,1,0,0:0:0:0:
64,192,27000,1,2,0:0:0:0:
448,192,27000,1,0,0:0:0:0:
192,192,27147,1,0,0:0:0:0:
192,192,27293,1,0,0:0:0:0:
192,192,27439,1,0,0:0:0:0:
64,192,27586,1,0,0:0:0:70:electronic30.wav
192,192,27586,1,0,0:0:0:0:
448,192,27586,1,0,0:0:0:0:
320,192,27732,1,0,0:0:0:0:
64,192,27878,1,2,0:0:0:0:
448,192,27878,1,0,0:0:0:0:
448,192,28025,1,0,0:0:0:0:
192,192,28171,1,0,0:0:0:0:
320,192,28317,1,0,0:0:0:0:
192,192,28464,1,0,0:0:0:0:
320,192,28610,1,0,0:0:0:0:
64,192,28756,1,0,0:0:0:70:tom02.wav
448,192,28756,1,0,0:0:0:0:
192,192,28830,1,0,0:0:0:70:tom03.wav
320,192,28830,1,0,0:0:0:0:
448,192,28903,1,0,0:0:0:70:tom04.wav
64,192,28976,1,0,0:0:0:70:tom04.wav
320,192,29049,1,0,0:0:0:0:
192,192,29098,1,0,0:0:0:0:
64,192,29147,1,0,0:0:0:0:
448,192,29195,1,0,0:0:0:0:
320,192,29244,1,0,0:0:0:0:
192,192,29293,1,0,0:0:0:0:
64,192,29342,1,2,0:0:0:0:
320,192,29342,1,4,0:0:0:0:
448,192,29342,1,0,0:0:0:0:
192,192,29488,1,0,0:0:0:0:
64,192,29634,1,2,0:0:0:0:
448,192,29634,1,0,0:0:0:0:
192,192,29781,1,0,0:0:0:0:
64,192,29927,1,2,0:0:0:0:
320,192,29927,1,0,0:0:0:0:
192,192,30073,1,0,0:0:0:0:
64,192,30220,1,2,0:0:0:0:
448,192,30220,1,0,0:0:0:0:
192,192,30366,1,0,0:0:0:0:
64,192,30513,1,2,0:0:0:0:
448,192,30513,1,0,0:0:0:0:
448,192,30659,1,0,0:0:0:0:
192,192,30805,1,2,0:0:0:0:
320,192,30805,1,0,0:0:0:0:
192,192,30952,1,0,0:0:0:0:
64,192,31098,1,2,0:0:0:0:
320,192,31098,1,0,0:0:0:0:
320,192,31244,1,0,0:0:0:0:
64,192,31391,1,2,0:0:0:0:
448,192,31391,1,0,0:0:0:0:
64,192,31537,1,0,0:0:0:0:
192,192,31683,1,2,0:0:0:0:
448,192,31683,128,0,31976:0:0:0:0:
192,192,31830,1,0,0:0:0:0:
64,192,31976,128,2,32122:0:0:0:0:
320,192,31976,1,0,0:0:0:0:
320,192,32122,1,0,0:0:0:0:
192,192,32269,1,2,0:0:0:0:
448,192,32269,128,0,32561:0:0:0:0:
192,192,32415,1,0,0:0:0:0:
64,192,32561,128,2,32708:0:0:0:0:
320,192,32561,1,0,0:0:0:0:
320,192,32708,1,0,0:0:0:0:
192,192,32854,1,2,0:0:0:0:
448,192,32854,128,0,33000:0:0:0:0:
192,192,33000,1,0,0:0:0:0:
64,192,33147,1,2,0:0:0:0:
448,192,33147,128,0,33293:0:0:0:0:
64,192,33293,1,0,0:0:0:0:
192,192,33439,1,2,0:0:0:0:
448,192,33439,128,0,33586:0:0:0:0:
192,192,33586,1,0,0:0:0:0:
320,192,33659,1,0,0:0:0:0:
64,192,33732,1,2,0:0:0:0:
192,192,33732,1,0,0:0:0:0:
448,192,33732,1,0,0:0:0:0:
448,192,33878,1,0,0:0:0:0:
64,192,34025,1,2,0:0:0:0:
192,192,34025,1,0,0:0:0:0:
64,192,34171,1,2,0:0:0:0:
320,192,34171,1,0,0:0:0:0:
192,192,34317,1,2,0:0:0:0:
448,192,34317,1,0,0:0:0:0:
320,192,34464,1,0,0:0:0:0:
64,192,34610,1,2,0:0:0:0:
448,192,34610,1,0,0:0:0:0:
320,192,34756,1,0,0:0:0:0:
192,192,34903,1,2,0:0:0:0:
448,192,34903,1,0,0:0:0:0:
320,192,35049,1,0,0:0:0:0:
192,192,35195,1,2,0:0:0:0:
448,192,35195,1,0,0:0:0:0:
192,192,35342,1,0,0:0:0:0:
64,192,35488,1,2,0:0:0:0:
320,192,35488,1,0,0:0:0:0:
320,192,35634,1,0,0:0:0:0:
64,192,35781,1,2,0:0:0:0:
448,192,35781,1,0,0:0:0:0:
64,192,35927,1,0,0:0:0:0:
192,192,36073,1,2,0:0:0:0:
448,192,36073,1,0,0:0:0:0:
448,192,36220,1,0,0:0:0:0:
192,192,36366,128,2,36659:0:0:0:0:
320,192,36366,1,0,0:0:0:0:
320,192,36513,1,0,0:0:0:0:
64,192,36659,1,2,0:0:0:0:
448,192,36659,128,0,36805:0:0:0:0:
64,192,36805,1,0,0:0:0:0:
192,192,36952,128,2,37244:0:0:0:0:
320,192,36952,1,0,0:0:0:0:
320,192,37098,1,0,0:0:0:0:
64,192,37244,1,2,0:0:0:0:
448,192,37244,128,0,37391:0:0:0:0:
64,192,37391,1,0,0:0:0:0:
192,192,37537,128,2,37683:0:0:0:0:
320,192,37537,1,0,0:0:0:0:
320,192,37683,1,0,0:0:0:0:
192,192,37830,128,2,37976:0:0:0:0:
448,192,37830,1,0,0:0:0:70:tom01.wav
448,192,37976,1,0,0:0:0:70:tom03.wav
192,192,38122,128,2,38269:0:0:0:0:
320,192,38122,1,0,0:0:0:70:tom02.wav
320,192,38269,1,2,0:0:0:0:
64,192,38342,1,2,0:0:0:0:
448,192,38342,1,0,0:0:0:0:
192,192,38415,1,2,0:0:0:0:
320,192,38415,1,0,0:0:0:70:tom04.wav
192,192,38561,1,2,0:0:0:0:
448,192,38561,1,0,0:0:0:70:tom04.wav
64,192,38708,1,2,0:0:0:0:
320,192,38708,128,4,41049:0:0:0:0:
448,192,38708,1,0,0:0:0:70:TomTom1.wav
192,192,41342,128,0,41488:0:0:0:0:
320,192,41488,1,0,0:0:0:0:
448,192,41561,1,0,0:0:0:0:
192,192,41634,1,0,0:0:0:0:
320,192,41708,1,0,0:0:0:0:
64,192,41781,128,0,42073:0:0:0:0:
192,192,41854,1,0,0:0:0:0:
448,192,41927,128,0,42220:0:0:0:0:
320,192,42000,1,0,0:0:0:0:
192,192,42073,128,0,42220:0:0:0:0:
320,192,42220,128,0,42513:0:0:0:0:
64,192,42513,1,0,0:0:0:0:
448,192,42586,1,0,0:0:0:0:
192,192,42659,1,0,0:0:0:0:
64,192,42732,1,0,0:0:0:0:
320,192,42805,1,0,0:0:0:0:
448,192,42878,128,0,43244:0:0:0:0:
192,192,43025,128,0,43391:0:0:0:0:
320,192,43244,128,0,43391:0:0:0:0:
64,192,43391,128,0,44561:0:0:0:50:electronic32.wav
448,192,43391,1,0,0:0:0:0:
320,192,43683,1,0,0:0:0:50:electronic32.wav
448,192,43683,1,0,0:0:0:0:
192,192,43976,1,0,0:0:0:50:electronic32.wav
448,192,43976,1,0,0:0:0:0:
320,192,44269,1,0,0:0:0:50:electronic32.wav
448,192,44269,1,0,0:0:0:0:
192,192,44561,1,0,0:0:0:50:electronic32.wav
320,192,44561,128,0,45147:0:0:0:0:
64,192,44854,1,0,0:0:0:50:electronic32.wav
192,192,44854,1,0,0:0:0:0:
192,192,45147,128,0,45732:0:0:0:50:electronic32.wav
448,192,45147,1,0,0:0:0:0:
320,192,45439,1,0,0:0:0:50:electronic32.wav
448,192,45439,1,0,0:0:0:0:
64,192,45732,1,0,0:0:0:50:electronic32.wav
448,192,45732,128,0,46317:0:0:0:0:
64,192,46025,1,0,0:0:0:50:electronic32.wav
192,192,46025,1,0,0:0:0:0:
64,192,46317,1,0,0:0:0:50:electronic32.wav
320,192,46317,1,0,0:0:0:0:
64,192,46464,1,0,0:0:0:50:electronic32.wav
448,192,46464,1,0,0:0:0:0:
192,192,46610,1,0,0:0:0:50:electronic32.wav
448,192,46610,1,0,0:0:0:0:
192,192,46756,1,0,0:0:0:50:electronic32.wav
320,192,46756,1,0,0:0:0:0:
64,192,46903,1,4,0:0:0:0:
320,192,46903,1,2,0:0:0:0:
448,192,46903,1,0,0:0:0:30:electronic32.wav
192,192,47049,1,2,0:0:0:0:
448,192,47049,1,0,0:0:0:30:electronic32.wav
64,192,47049,1,4,0:0:0:0:
320,192,47195,1,0,0:0:0:30:electronic32.wav
448,192,47269,1,0,0:0:0:30:electronic32.wav
192,192,47342,1,0,0:0:0:30:electronic32.wav
64,192,47342,1,0,0:0:0:0:
320,192,47415,1,0,0:0:0:30:electronic32.wav
64,192,47488,1,2,0:0:0:0:
192,192,47488,1,4,0:0:0:0:
448,192,47488,1,0,0:0:0:30:electronic32.wav
64,192,47634,1,2,0:0:0:0:
448,192,47634,1,0,0:0:0:30:electronic32.wav
320,192,47634,1,4,0:0:0:0:
192,192,47781,1,0,0:0:0:30:electronic32.wav
64,192,47854,1,0,0:0:0:30:electronic32.wav
448,192,47927,1,0,0:0:0:30:electronic32.wav
320,192,47927,1,0,0:0:0:0:
192,192,48000,1,0,0:0:0:30:electronic32.wav
64,192,48073,1,2,0:0:0:0:
320,192,48073,1,4,0:0:0:0:
448,192,48073,1,0,0:0:0:0:
64,192,48366,1,2,0:0:0:0:
192,192,48366,1,4,0:0:0:0:
320,192,48366,1,0,0:0:0:0:
448,192,48659,128,0,48805:0:0:0:0:
320,192,48805,128,0,48952:0:0:0:0:
64,192,48952,128,0,49098:0:0:0:70:LR_Clap Loud Long.wav
192,192,48952,1,0,0:0:0:0:
448,192,48952,1,0,0:0:0:0:
192,192,49098,128,0,49244:0:0:0:0:
64,192,49244,1,2,0:0:0:0:
320,192,49244,1,4,0:0:0:0:
448,192,49244,1,0,0:0:0:0:
64,192,49391,1,0,0:0:0:0:
320,192,49391,1,0,0:0:0:0:
192,192,49537,1,8,0:0:0:0:
320,192,49537,1,2,0:0:0:0:
448,192,49537,1,0,0:0:0:0:
192,192,49683,1,0,0:0:0:0:
448,192,49683,1,0,0:0:0:0:
64,192,49830,1,2,0:0:0:0:
192,192,49830,1,0,0:0:0:0:
320,192,49830,1,0,0:0:0:0:
64,192,49976,1,0,0:0:0:0:
320,192,49976,1,0,0:0:0:0:
192,192,50122,1,8,0:0:0:0:
320,192,50122,1,2,0:0:0:0:
448,192,50122,1,0,0:0:0:0:
64,192,50269,1,0,0:0:0:0:
64,192,50415,128,2,50708:0:0:0:0:
320,192,50415,1,0,0:0:0:0:
448,192,50561,128,0,50708:0:0:0:0:
192,192,50708,1,2,0:0:0:0:
320,192,50708,1,8,0:0:0:0:
64,192,50854,1,0,0:0:0:0:
320,192,51000,128,2,51293:0:0:0:0:
448,192,51000,1,0,0:0:0:0:
192,192,51147,1,0,0:0:0:0:
64,192,51293,1,2,0:0:0:0:
192,192,51293,1,8,0:0:0:0:
448,192,51293,1,0,0:0:0:0:
320,192,51439,1,0,0:0:0:0:
192,192,51586,1,2,0:0:0:0:
448,192,51586,1,0,0:0:0:0:
64,192,51732,1,0,0:0:0:0:
448,192,51732,1,0,0:0:0:0:
64,192,51878,1,8,0:0:0:0:
192,192,51878,1,2,0:0:0:0:
320,192,51878,1,0,0:0:0:0:
192,192,52025,1,0,0:0:0:0:
448,192,52025,1,0,0:0:0:0:
64,192,52171,128,2,52317:0:0:0:0:
448,192,52171,1,0,0:0:0:0:
320,192,52317,1,0,0:0:0:0:
64,192,52464,1,8,0:0:0:0:
192,192,52464,128,2,52610:0:0:0:0:
448,192,52464,1,0,0:0:0:0:
320,192,52610,1,0,0:0:0:0:
448,192,52610,128,0,53634:0:0:0:0:
64,192,52756,1,2,0:0:0:0:
192,192,52756,1,0,0:0:0:0:
64,192,52903,1,0,0:0:0:50:wou_Ds.wav
192,192,53049,1,2,0:0:0:0:
320,192,53049,1,8,0:0:0:0:
320,192,53195,1,0,0:0:0:50:wou_Ds.wav
64,192,53342,1,2,0:0:0:0:
192,192,53342,1,0,0:0:0:0:
192,192,53488,1,0,0:0:0:50:wou_Ds.wav
64,192,53634,1,10,0:0:0:0:
320,192,53634,1,0,0:0:0:50:wou_D.wav
320,192,53781,1,0,0:0:0:0:
64,192,53927,1,2,0:0:0:0:
192,192,53927,1,0,0:0:0:0:
448,192,53927,1,0,0:0:0:0:
64,192,54073,1,0,0:0:0:0:
448,192,54073,1,0,0:0:0:0:
192,192,54220,1,8,0:0:0:0:
320,192,54220,1,2,0:0:0:0:
448,192,54220,1,0,0:0:0:0:
192,192,54366,1,0,0:0:0:0:
320,192,54366,1,0,0:0:0:0:
64,192,54513,1,2,0:0:0:0:
192,192,54513,1,0,0:0:0:0:
448,192,54513,1,0,0:0:0:0:
64,192,54659,1,0,0:0:0:0:
448,192,54659,1,0,0:0:0:0:
192,192,54805,1,8,0:0:0:0:
320,192,54805,1,2,0:0:0:0:
448,192,54805,1,0,0:0:0:0:
64,192,54952,128,0,55098:0:0:0:0:
192,192,55098,1,2,0:0:0:0:
448,192,55098,1,0,0:0:0:0:
320,192,55244,128,0,55537:0:0:0:0:
64,192,55391,1,2,0:0:0:0:
448,192,55391,1,8,0:0:0:0:
192,192,55537,1,0,0:0:0:0:
192,192,55683,128,2,55976:0:0:0:0:
320,192,55683,1,0,0:0:0:0:
448,192,55830,1,0,0:0:0:0:
64,192,55976,1,2,0:0:0:0:
320,192,55976,1,8,0:0:0:0:
448,192,55976,1,0,0:0:0:0:
192,192,56122,1,0,0:0:0:0:
64,192,56269,1,2,0:0:0:0:
320,192,56269,1,0,0:0:0:0:
448,192,56269,128,0,56415:0:0:0:0:
64,192,56415,128,0,56561:0:0:0:0:
192,192,56561,1,8,0:0:0:0:
320,192,56561,1,2,0:0:0:0:
448,192,56561,1,0,0:0:0:0:
64,192,56708,1,0,0:0:0:0:
320,192,56708,1,0,0:0:0:0:
64,192,56854,1,2,0:0:0:0:
448,192,56854,1,0,0:0:0:0:
192,192,57000,1,0,0:0:0:0:
448,192,57000,1,0,0:0:0:0:
64,192,57147,1,8,0:0:0:0:
192,192,57147,1,2,0:0:0:0:
320,192,57147,1,0,0:0:0:0:
320,192,57293,1,0,0:0:0:0:
448,192,57293,128,0,57586:0:0:0:0:
64,192,57439,1,2,0:0:0:0:
192,192,57439,128,0,57586:0:0:0:0:
320,192,57586,128,0,57732:0:0:0:0:
64,192,57732,128,8,58025:0:0:0:0:
448,192,57732,1,0,0:0:0:0:
320,192,57878,128,0,58025:0:0:0:0:
192,192,58025,1,2,0:0:0:0:
448,192,58025,128,0,58317:0:0:0:0:
192,192,58171,128,0,58317:0:0:0:0:
64,192,58317,1,2,0:0:0:0:
320,192,58317,128,8,58464:0:0:0:0:
192,192,58464,1,0,0:0:0:0:
448,192,58537,1,0,0:0:0:0:
64,192,58610,1,2,0:0:0:0:
192,192,58610,1,4,0:0:0:0:
320,192,58610,1,0,0:0:0:0:
64,192,58756,1,0,0:0:0:0:
320,192,58756,1,0,0:0:0:0:
64,192,58903,1,8,0:0:0:0:
192,192,58903,1,2,0:0:0:0:
448,192,58903,1,0,0:0:0:0:
192,192,59049,1,0,0:0:0:0:
448,192,59049,1,0,0:0:0:0:
64,192,59195,1,2,0:0:0:0:
320,192,59195,1,0,0:0:0:0:
448,192,59195,1,0,0:0:0:0:
64,192,59342,1,0,0:0:0:0:
320,192,59342,1,0,0:0:0:0:
64,192,59488,1,8,0:0:0:0:
192,192,59488,1,2,0:0:0:0:
448,192,59488,1,0,0:0:0:0:
320,192,59634,1,0,0:0:0:0:
64,192,59781,1,2,0:0:0:0:
320,192,59781,128,0,60073:0:0:0:0:
192,192,59927,128,0,60073:0:0:0:0:
64,192,60073,1,2,0:0:0:0:
448,192,60073,1,8,0:0:0:0:
320,192,60220,1,0,0:0:0:0:
64,192,60366,128,2,60659:0:0:0:0:
192,192,60366,1,0,0:0:0:0:
448,192,60513,1,0,0:0:0:0:
192,192,60659,1,2,0:0:0:0:
320,192,60659,1,8,0:0:0:0:
448,192,60659,1,0,0:0:0:0:
64,192,60805,1,0,0:0:0:0:
192,192,60952,128,2,61098:0:0:0:0:
448,192,60952,1,0,0:0:0:0:
448,192,61098,1,0,0:0:0:0:
64,192,61244,1,8,0:0:0:0:
192,192,61244,1,2,0:0:0:0:
320,192,61244,128,0,61391:0:0:0:0:
64,192,61391,1,0,0:0:0:0:
192,192,61537,1,2,0:0:0:0:
448,192,61537,128,0,61683:0:0:0:0:
64,192,61683,128,0,61830:0:0:0:0:
192,192,61830,1,8,0:0:0:0:
320,192,61830,128,2,61976:0:0:0:0:
448,192,61830,1,0,0:0:0:0:
64,192,61976,1,0,0:0:0:0:
192,192,61976,128,0,63000:0:0:0:0:
320,192,62122,1,2,0:0:0:0:
448,192,62122,1,0,0:0:0:0:
448,192,62269,1,0,0:0:0:50:wou_Ds.wav
64,192,62415,1,2,0:0:0:0:
320,192,62415,1,8,0:0:0:0:
64,192,62561,1,0,0:0:0:50:wou_Ds.wav
320,192,62708,1,2,0:0:0:0:
448,192,62708,1,0,0:0:0:0:
320,192,62854,1,0,0:0:0:50:wou_Ds.wav
64,192,63000,1,10,0:0:0:0:
448,192,63000,1,0,0:0:0:50:wou_D.wav
64,192,63147,1,0,0:0:0:0:
192,192,63293,1,2,0:0:0:0:
320,192,63293,1,0,0:0:0:0:
448,192,63293,1,0,0:0:0:0:
192,192,63439,1,0,0:0:0:0:
320,192,63439,1,0,0:0:0:0:
64,192,63586,1,8,0:0:0:0:
192,192,63586,1,2,0:0:0:0:
448,192,63586,1,0,0:0:0:0:
64,192,63732,1,0,0:0:0:0:
448,192,63732,1,0,0:0:0:0:
192,192,63878,1,2,0:0:0:0:
320,192,63878,1,0,0:0:0:0:
448,192,63878,1,0,0:0:0:0:
192,192,64025,1,0,0:0:0:0:
320,192,64025,1,0,0:0:0:0:
64,192,64171,1,8,0:0:0:0:
192,192,64171,1,2,0:0:0:0:
448,192,64171,1,0,0:0:0:0:
320,192,64317,1,0,0:0:0:0:
192,192,64464,1,2,0:0:0:0:
320,192,64464,128,0,64610:0:0:0:0:
64,192,64610,128,0,64756:0:0:0:0:
192,192,64756,1,2,0:0:0:0:
320,192,64756,1,8,0:0:0:0:
448,192,64756,1,0,0:0:0:0:
448,192,64903,128,0,65049:0:0:0:0:
64,192,65049,1,2,0:0:0:0:
192,192,65049,1,0,0:0:0:0:
320,192,65147,1,2,0:0:0:0:
448,192,65147,1,0,0:0:0:0:
64,192,65244,1,2,0:0:0:0:
192,192,65342,1,2,0:0:0:0:
448,192,65342,1,8,0:0:0:0:
64,192,65439,1,2,0:0:0:0:
320,192,65439,1,0,0:0:0:0:
448,192,65537,1,2,0:0:0:0:
64,192,65634,128,2,65927:0:0:0:0:
192,192,65634,128,4,65927:0:0:0:0:
320,192,65634,1,0,0:0:0:0:
448,192,65927,1,0,0:0:0:0:
192,192,66220,1,4,0:0:0:0:
320,192,66220,128,2,66513:0:0:0:0:
448,192,66220,128,0,66513:0:0:0:0:
64,192,66513,1,0,0:0:0:0:
64,192,66805,1,2,0:0:0:0:
192,192,66805,1,4,0:0:0:0:
320,192,66805,1,0,0:0:0:0:
64,192,66952,1,4,0:0:0:0:
192,192,66952,1,2,0:0:0:0:
448,192,66952,1,0,0:0:0:0:
320,192,67098,1,0,0:0:0:0:
192,192,67244,1,2,0:0:0:0:
320,192,67244,1,4,0:0:0:0:
448,192,67244,1,0,0:0:0:0:
64,192,67391,1,4,0:0:0:0:
320,192,67391,128,2,67683:0:0:0:0:
448,192,67391,1,0,0:0:0:0:
192,192,67683,128,0,67976:0:0:0:0:
64,192,67976,1,2,0:0:0:0:
320,192,67976,1,4,0:0:0:0:
448,192,67976,1,0,0:0:0:0:
192,192,68122,1,0,0:0:0:0:
320,192,68195,1,0,0:0:0:0:
448,192,68269,1,0,0:0:0:0:
64,192,68415,128,2,69261:0:0:0:0:
192,192,68415,1,0,0:0:0:0:
448,192,68584,1,0,0:0:0:0:
320,192,68753,128,0,68923:0:0:0:0:
320,192,69261,1,0,0:0:0:0:
448,192,69261,1,0,0:0:0:0:
192,192,69689,1,0,0:0:0:0:
448,192,69689,1,0,0:0:0:0:
64,192,70118,1,0,0:0:0:0:
448,192,70118,1,0,0:0:0:0:
64,192,70546,1,0,0:0:0:70:LR_Clap Loud Long.wav
320,192,70546,1,0,0:0:0:0:
448,192,70546,1,0,0:0:0:0:
192,192,70975,128,0,71403:0:0:0:0:
320,192,71189,1,0,0:0:0:0:
64,192,71403,1,2,0:0:0:0:
320,192,71403,1,4,0:0:0:0:
448,192,71403,1,0,0:0:0:0:
448,192,71511,1,0,0:0:0:0:
64,192,71618,1,0,0:0:0:0:
320,192,71725,1,0,0:0:0:0:
64,192,71832,1,2,0:0:0:0:
192,192,71832,1,0,0:0:0:0:
448,192,71832,1,0,0:0:0:0:
192,192,71939,1,0,0:0:0:0:
448,192,72046,1,0,0:0:0:0:
64,192,72153,1,0,0:0:0:0:
192,192,72261,1,2,0:0:0:0:
320,192,72261,1,0,0:0:0:0:
448,192,72261,1,0,0:0:0:0:
320,192,72368,1,0,0:0:0:0:
192,192,72475,1,0,0:0:0:0:
448,192,72582,1,0,0:0:0:0:
64,192,72689,1,2,0:0:0:0:
192,192,72689,1,0,0:0:0:0:
320,192,72689,1,0,0:0:0:0:
64,192,72796,1,0,0:0:0:0:
320,192,72903,1,0,0:0:0:0:
192,192,73011,1,0,0:0:0:0:
64,192,73118,1,2,0:0:0:0:
320,192,73118,1,0,0:0:0:0:
448,192,73118,1,0,0:0:0:0:
448,192,73225,1,0,0:0:0:0:
64,192,73332,1,0,0:0:0:0:
320,192,73439,1,0,0:0:0:0:
64,192,73546,1,2,0:0:0:0:
192,192,73546,1,0,0:0:0:0:
448,192,73546,1,0,0:0:0:0:
192,192,73653,1,0,0:0:0:0:
448,192,73761,1,0,0:0:0:0:
64,192,73868,1,0,0:0:0:0:
192,192,73975,1,2,0:0:0:0:
320,192,73975,1,0,0:0:0:0:
448,192,73975,1,0,0:0:0:0:
320,192,74082,1,0,0:0:0:0:
64,192,74189,1,0,0:0:0:0:
192,192,74189,128,0,74296:0:0:0:0:
320,192,74296,128,0,74403:0:0:0:0:
64,192,74403,1,2,0:0:0:0:
192,192,74403,1,0,0:0:0:0:
448,192,74403,128,0,74832:0:0:0:0:
320,192,74511,1,0,0:0:0:0:
192,192,74618,1,0,0:0:0:0:
320,192,74725,1,0,0:0:0:0:
64,192,74832,128,2,74975:0:0:0:0:
192,192,74832,128,0,74975:0:0:0:0:
320,192,74903,1,0,0:0:0:0:
448,192,74975,1,0,0:0:0:0:
64,192,75046,1,0,0:0:0:0:
192,192,75046,128,0,75153:0:0:0:0:
320,192,75153,128,0,75261:0:0:0:0:
64,192,75261,1,2,0:0:0:0:
192,192,75261,1,0,0:0:0:0:
448,192,75261,128,0,75689:0:0:0:0:
320,192,75368,1,0,0:0:0:0:
192,192,75475,1,0,0:0:0:0:
320,192,75582,1,0,0:0:0:0:
64,192,75689,128,2,75832:0:0:0:0:
192,192,75689,128,0,75832:0:0:0:0:
320,192,75761,1,0,0:0:0:0:
448,192,75832,1,0,0:0:0:0:
64,192,75903,1,0,0:0:0:0:
192,192,75903,128,0,76011:0:0:0:0:
320,192,76011,128,0,76118:0:0:0:0:
64,192,76118,1,2,0:0:0:0:
192,192,76118,1,0,0:0:0:0:
448,192,76118,128,0,76225:0:0:0:0:
64,192,76225,1,0,0:0:0:0:
320,192,76332,128,0,76439:0:0:0:0:
448,192,76332,1,0,0:0:0:0:
192,192,76439,128,0,76546:0:0:0:0:
64,192,76546,128,2,76653:0:0:0:0:
320,192,76546,1,0,0:0:0:0:
448,192,76546,1,0,0:0:0:0:
448,192,76653,1,0,0:0:0:0:
64,192,76761,1,0,0:0:0:0:
192,192,76761,128,0,76868:0:0:0:0:
320,192,76868,128,0,76975:0:0:0:0:
64,192,76975,1,2,0:0:0:0:
192,192,76975,1,0,0:0:0:0:
448,192,76975,128,0,77403:0:0:0:0:
64,192,77082,1,0,0:0:0:0:
320,192,77189,1,0,0:0:0:0:
192,192,77296,1,0,0:0:0:0:
64,192,77403,128,2,77725:0:0:0:0:
320,192,77403,1,0,0:0:0:0:
64,192,77832,1,2,0:0:0:0:
192,192,77832,1,4,0:0:0:0:
448,192,77832,1,0,0:0:0:0:
192,192,77939,1,0,0:0:0:0:
448,192,78046,1,0,0:0:0:0:
64,192,78153,1,0,0:0:0:0:
192,192,78261,1,2,0:0:0:0:
320,192,78261,1,8,0:0:0:0:
448,192,78261,1,0,0:0:0:0:
320,192,78368,1,0,0:0:0:0:
192,192,78475,1,0,0:0:0:0:
448,192,78582,1,0,0:0:0:0:
64,192,78689,1,2,0:0:0:0:
192,192,78689,1,0,0:0:0:0:
320,192,78689,1,0,0:0:0:0:
64,192,78796,1,0,0:0:0:0:
320,192,78903,1,0,0:0:0:0:
192,192,79011,1,0,0:0:0:0:
64,192,79118,1,2,0:0:0:0:
320,192,79118,1,8,0:0:0:0:
448,192,79118,1,0,0:0:0:0:
448,192,79225,1,0,0:0:0:0:
64,192,79332,1,0,0:0:0:0:
320,192,79439,1,0,0:0:0:0:
64,192,79546,1,2,0:0:0:0:
192,192,79546,1,0,0:0:0:0:
448,192,79546,1,0,0:0:0:0:
192,192,79653,1,0,0:0:0:0:
448,192,79761,1,0,0:0:0:0:
64,192,79868,1,0,0:0:0:0:
192,192,79975,1,2,0:0:0:0:
320,192,79975,1,8,0:0:0:0:
448,192,79975,1,0,0:0:0:0:
320,192,80082,1,0,0:0:0:0:
192,192,80189,1,0,0:0:0:0:
448,192,80296,1,0,0:0:0:0:
320,192,80403,1,2,0:0:0:0:
192,192,80403,1,0,0:0:0:0:
64,192,80403,128,0,80832:0:0:0:0:
448,192,80618,1,0,0:0:0:0:
320,192,80725,1,0,0:0:0:0:
192,192,80832,128,0,81046:0:0:0:0:
320,192,81046,1,0,0:0:0:0:
448,192,81046,128,0,81153:0:0:0:0:
64,192,81153,128,0,81261:0:0:0:0:
192,192,81261,128,2,81689:0:0:0:0:
320,192,81261,1,4,0:0:0:0:
448,192,81261,1,0,0:0:0:0:
64,192,81368,1,0,0:0:0:0:
448,192,81475,1,0,0:0:0:0:
64,192,81582,1,0,0:0:0:0:
320,192,81689,128,2,81832:0:0:0:0:
448,192,81689,128,8,81832:0:0:0:0:
64,192,81761,1,0,0:0:0:0:
192,192,81832,1,0,0:0:0:0:
320,192,81903,1,0,0:0:0:0:
448,192,81903,128,0,82011:0:0:0:0:
64,192,82011,128,0,82118:0:0:0:0:
192,192,82118,128,2,82546:0:0:0:0:
320,192,82118,1,0,0:0:0:0:
448,192,82118,1,0,0:0:0:0:
64,192,82225,1,0,0:0:0:0:
448,192,82332,1,0,0:0:0:0:
64,192,82439,1,0,0:0:0:0:
320,192,82546,128,2,82689:0:0:0:0:
448,192,82546,128,8,82689:0:0:0:0:
64,192,82618,1,0,0:0:0:0:
192,192,82689,1,0,0:0:0:0:
320,192,82761,1,0,0:0:0:0:
448,192,82761,128,0,82868:0:0:0:0:
64,192,82868,128,0,82975:0:0:0:0:
192,192,82975,128,2,83082:0:0:0:0:
320,192,82975,1,0,0:0:0:0:
448,192,82975,1,0,0:0:0:0:
320,192,83082,1,0,0:0:0:0:
64,192,83189,128,0,83296:0:0:0:0:
192,192,83189,1,0,0:0:0:0:
448,192,83296,128,0,83403:0:0:0:0:
64,192,83403,1,2,0:0:0:0:
192,192,83403,1,8,0:0:0:0:
320,192,83403,128,0,83511:0:0:0:0:
192,192,83511,1,0,0:0:0:0:
320,192,83618,1,0,0:0:0:0:
448,192,83618,128,0,83725:0:0:0:0:
64,192,83725,128,0,83832:0:0:0:0:
192,192,83832,128,2,84261:0:0:0:0:
320,192,83832,1,0,0:0:0:0:
448,192,83832,1,0,0:0:0:0:
320,192,83939,1,0,0:0:0:0:
64,192,84046,1,0,0:0:0:0:
448,192,84153,1,0,0:0:0:0:
64,192,84261,1,8,0:0:0:0:
320,192,84261,128,2,84582:0:0:0:0:
192,192,84475,1,0,0:0:0:0:
64,192,84689,128,0,84903:0:0:0:70:TomTom1.wav
320,192,84689,1,0,0:0:0:0:
448,192,84689,1,0,0:0:0:0:
192,192,84903,1,0,0:0:0:0:
320,192,85118,1,0,0:0:0:0:
320,192,85332,1,0,0:0:0:0:
64,192,85546,1,0,0:0:0:0:
448,192,85546,128,0,85761:0:0:0:0:
320,192,85761,1,0,0:0:0:0:
64,192,85975,1,0,0:0:0:0:
64,192,86189,1,0,0:0:0:0:
320,192,86403,1,0,0:0:0:0:
320,192,86618,1,0,0:0:0:0:
192,192,86832,1,0,0:0:0:0:
192,192,87046,1,0,0:0:0:0:
64,192,87261,1,0,0:0:0:0:
448,192,87261,1,0,0:0:0:0:
448,192,87475,1,0,0:0:0:0:
320,192,87689,1,0,0:0:0:0:
320,192,87903,1,0,0:0:0:0:
64,192,88118,1,0,0:0:0:0:
192,192,88118,128,0,88332:0:0:0:0:
448,192,88332,1,0,0:0:0:0:
64,192,88546,1,0,0:0:0:0:
64,192,88761,1,0,0:0:0:0:
320,192,88975,128,0,89189:0:0:0:0:
448,192,88975,1,0,0:0:0:0:
192,192,89189,1,0,0:0:0:0:
448,192,89403,1,0,0:0:0:0:
448,192,89618,1,0,0:0:0:0:
64,192,89832,128,0,90046:0:0:0:0:
192,192,89832,1,0,0:0:0:0:
320,192,90046,1,0,0:0:0:0:
192,192,90261,1,0,0:0:0:0:
192,192,90475,1,0,0:0:0:0:
320,192,90689,1,0,0:0:0:0:
448,192,90689,128,0,91118:0:0:0:0:
64,192,90903,1,0,0:0:0:0:
64,192,91118,1,0,0:0:0:0:
192,192,91118,128,0,91546:0:0:0:0:
320,192,91332,1,0,0:0:0:0:
320,192,91546,1,0,0:0:0:0:
448,192,91546,128,0,91761:0:0:0:0:
64,192,91653,1,0,0:0:0:0:
192,192,91761,1,0,0:0:0:0:
448,192,91868,1,0,0:0:0:0:
64,192,91975,1,8,0:0:0:0:
320,192,91975,1,0,0:0:0:0:
192,192,92189,1,0,0:0:0:0:
320,192,92189,1,0,0:0:0:0:
64,192,92403,128,0,92618:0:0:0:0:
192,192,92403,1,0,0:0:0:0:
320,192,92511,1,0,0:0:0:0:
448,192,92618,1,0,0:0:0:0:
64,192,92725,1,0,0:0:0:0:
192,192,92832,1,8,0:0:0:0:
320,192,92832,1,0,0:0:0:0:
448,192,93046,1,0,0:0:0:0:
320,192,93261,128,0,93475:0:0:0:0:
448,192,93261,1,0,0:0:0:0:
192,192,93368,1,0,0:0:0:0:
64,192,93475,1,0,0:0:0:0:
320,192,93582,1,0,0:0:0:0:
192,192,93689,1,8,0:0:0:0:
448,192,93689,1,0,0:0:0:0:
64,192,93903,1,0,0:0:0:0:
448,192,93903,1,0,0:0:0:0:
64,192,94118,1,0,0:0:0:0:
192,192,94118,128,0,94546:0:0:0:0:
320,192,94225,1,0,0:0:0:0:
448,192,94332,1,0,0:0:0:0:
64,192,94439,1,0,0:0:0:0:
320,192,94546,128,8,94975:0:0:0:0:
448,192,94546,1,0,0:0:0:0:
192,192,94761,1,0,0:0:0:0:
64,192,94975,128,0,95189:0:0:0:0:
192,192,94975,1,0,0:0:0:0:
448,192,95082,1,0,0:0:0:0:
320,192,95189,1,0,0:0:0:0:
64,192,95296,1,0,0:0:0:0:
192,192,95403,1,8,0:0:0:0:
448,192,95403,1,0,0:0:0:0:
192,192,95618,1,0,0:0:0:0:
320,192,95618,1,0,0:0:0:0:
320,192,95832,1,0,0:0:0:0:
448,192,95832,128,0,96046:0:0:0:0:
192,192,95939,1,0,0:0:0:0:
64,192,96046,1,0,0:0:0:0:
448,192,96153,1,0,0:0:0:0:
192,192,96261,1,8,0:0:0:0:
320,192,96261,1,0,0:0:0:0:
64,192,96475,1,0,0:0:0:0:
64,192,96690,1,8,0:0:0:0:
192,192,96690,128,0,96930:0:0:0:0:
448,192,96930,1,0,0:0:0:0:
192,192,97170,1,8,0:0:0:0:
320,192,97170,1,0,0:0:0:0:
448,192,97410,1,0,0:0:0:0:
64,192,97530,1,0,0:0:0:0:
320,192,97650,128,8,97950:0:0:0:0:
448,192,97650,1,0,0:0:0:0:
192,192,97950,128,0,98250:0:0:0:0:
64,192,98250,128,8,98625:0:0:0:0:
448,192,98250,1,0,0:0:0:0:
192,192,98625,1,8,0:0:0:0:
448,192,98625,128,0,99415:0:0:0:0:
64,192,99415,1,0,0:0:0:0:
320,192,100315,128,0,100465:0:0:0:0:
448,192,100465,128,0,100615:0:0:0:0:
192,192,100615,128,0,100765:0:0:0:70:tom01.wav
64,192,100765,128,0,100915:0:0:0:70:tom03.wav
192,192,100915,1,4,0:0:0:0:
320,192,100915,1,2,0:0:0:0:
448,192,100915,1,0,0:0:0:30:electronic32.wav
192,192,101061,1,2,0:0:0:0:
320,192,101061,1,0,0:0:0:30:electronic32.wav
64,192,101061,1,4,0:0:0:0:
448,192,101207,1,0,0:0:0:30:electronic32.wav
320,192,101280,1,0,0:0:0:30:electronic32.wav
192,192,101354,1,0,0:0:0:30:electronic32.wav
64,192,101354,1,0,0:0:0:0:
448,192,101427,1,0,0:0:0:30:electronic32.wav
64,192,101500,1,2,0:0:0:0:
192,192,101500,1,4,0:0:0:0:
320,192,101500,1,0,0:0:0:30:electronic32.wav
192,192,101646,1,2,0:0:0:0:
448,192,101646,1,0,0:0:0:30:electronic32.wav
320,192,101646,1,4,0:0:0:0:
64,192,101793,1,0,0:0:0:30:electronic32.wav
192,192,101866,1,0,0:0:0:30:electronic32.wav
448,192,101939,1,0,0:0:0:30:electronic32.wav
320,192,101939,1,0,0:0:0:0:
64,192,102012,1,0,0:0:0:30:electronic32.wav
192,192,102085,1,2,0:0:0:0:
320,192,102085,1,4,0:0:0:0:
448,192,102085,1,0,0:0:0:0:
64,192,102378,1,2,0:0:0:0:
192,192,102378,1,4,0:0:0:0:
320,192,102378,1,0,0:0:0:0:
448,192,102671,128,8,102817:0:0:0:0:
320,192,102817,128,0,102963:0:0:0:0:
64,192,102963,128,0,103110:0:0:0:70:LR_Clap Loud Long.wav
192,192,102963,1,0,0:0:0:0:
448,192,102963,1,0,0:0:0:0:
192,192,103110,128,0,103256:0:0:0:0:
64,192,103256,1,2,0:0:0:0:
320,192,103256,1,4,0:0:0:0:
448,192,103256,1,0,0:0:0:0:
320,192,103402,1,0,0:0:0:0:
64,192,103549,1,0,0:0:0:0:
64,192,103695,1,0,0:0:0:0:
320,192,103841,1,0,0:0:0:0:
320,192,103988,128,0,104134:0:0:0:0:
64,192,104280,1,4,0:0:0:0:
192,192,104280,1,2,0:0:0:0:
448,192,104280,1,0,0:0:0:0:
64,192,104427,1,2,0:0:0:0:
320,192,104427,1,4,0:0:0:0:
192,192,104573,128,4,104866:0:0:0:0:
320,192,104573,1,2,0:0:0:0:
448,192,104573,1,0,0:0:0:0:
64,192,104866,1,2,0:0:0:0:
320,192,104866,1,4,0:0:0:0:
448,192,104866,1,0,0:0:0:0:
64,192,105012,128,4,105158:0:0:0:0:
192,192,105012,1,2,0:0:0:0:
448,192,105012,1,0,0:0:0:0:
320,192,105158,1,0,0:0:0:0:
448,192,105232,1,0,0:0:0:0:
64,192,105305,1,2,0:0:0:0:
192,192,105305,1,4,0:0:0:0:
320,192,105378,1,2,0:0:0:0:
448,192,105378,1,0,0:0:0:0:
64,192,105451,1,2,0:0:0:0:
192,192,105451,1,0,0:0:0:0:
320,192,105524,1,2,0:0:0:0:
64,192,105597,1,4,0:0:0:0:
192,192,105597,1,2,0:0:0:0:
448,192,105597,1,0,0:0:0:0:
448,192,105744,1,0,0:0:0:0:
192,192,105890,1,0,0:0:0:0:
192,192,106036,1,0,0:0:0:0:
320,192,106183,1,0,0:0:0:0:
64,192,106329,1,0,0:0:0:0:
320,192,106475,1,0,0:0:0:0:
64,192,106622,1,2,0:0:0:0:
192,192,106622,1,0,0:0:0:0:
448,192,106695,1,2,0:0:0:0:
64,192,106768,1,2,0:0:0:0:
192,192,106768,1,4,0:0:0:0:
320,192,106768,1,0,0:0:0:0:
64,192,106988,1,2,0:0:0:0:
192,192,106988,1,4,0:0:0:0:
320,192,106988,1,0,0:0:0:0:
64,192,107207,1,4,0:0:0:0:
192,192,107207,1,2,0:0:0:0:
448,192,107207,1,0,0:0:0:50:wou_Ds.wav
192,192,107354,1,2,0:0:0:0:
320,192,107354,1,4,0:0:0:0:
448,192,107354,1,0,0:0:0:0:
192,192,107573,1,2,0:0:0:0:
320,192,107573,1,4,0:0:0:0:
448,192,107573,1,0,0:0:0:0:
64,192,107793,1,2,0:0:0:0:
320,192,107793,1,4,0:0:0:0:
448,192,107793,1,0,0:0:0:0:
64,192,107939,1,2,0:0:0:0:
192,192,107939,1,4,0:0:0:0:
448,192,107939,1,0,0:0:0:50:electronic32.wav
192,192,108085,1,0,0:0:0:0:
320,192,108232,1,0,0:0:0:50:electronic32.wav
448,192,108232,1,0,0:0:0:0:
320,192,108378,1,0,0:0:0:0:
64,192,108524,1,0,0:0:0:50:electronic32.wav
192,192,108524,1,0,0:0:0:0:
192,192,108671,128,0,108817:0:0:0:0:
64,192,108817,1,0,0:0:0:50:electronic32.wav
448,192,108817,1,0,0:0:0:0:
320,192,108963,1,0,0:0:0:0:
192,192,109110,1,0,0:0:0:50:electronic32.wav
320,192,109110,128,0,109402:0:0:0:0:
64,192,109256,128,0,109402:0:0:0:0:
192,192,109402,1,0,0:0:0:50:electronic32.wav
448,192,109402,1,0,0:0:0:0:
64,192,109549,1,0,0:0:0:0:
320,192,109695,1,0,0:0:0:50:electronic32.wav
448,192,109695,128,0,109988:0:0:0:0:
192,192,109841,1,0,0:0:0:0:
64,192,109988,1,0,0:0:0:50:electronic32.wav
320,192,109988,1,0,0:0:0:0:
192,192,110134,1,0,0:0:0:0:
192,192,110280,1,0,0:0:0:50:electronic32.wav
320,192,110280,1,0,0:0:0:0:
448,192,110427,1,0,0:0:0:0:
64,192,110573,1,0,0:0:0:50:electronic32.wav
192,192,110573,1,0,0:0:0:0:
320,192,110719,1,0,0:0:0:0:
64,192,110866,1,0,0:0:0:50:electronic32.wav
320,192,110866,1,0,0:0:0:0:
64,192,111012,1,0,0:0:0:50:electronic32.wav
448,192,111012,1,0,0:0:0:0:
192,192,111158,1,0,0:0:0:50:electronic32.wav
448,192,111158,1,0,0:0:0:0:
64,192,111305,1,0,0:0:0:50:electronic32.wav
192,192,111305,128,0,111597:0:0:0:0:
320,192,111451,128,2,111597:0:0:0:0:
448,192,111451,1,4,0:0:0:0:
64,192,111597,128,0,111744:0:0:0:0:
192,192,111744,1,0,0:0:0:0:
448,192,111744,128,0,112036:0:0:0:0:
320,192,111890,128,0,112036:0:0:0:0:
64,192,112036,1,2,0:0:0:0:
192,192,112036,1,4,0:0:0:0:
320,192,112110,1,0,0:0:0:70:tom01.wav
192,192,112183,1,0,0:0:0:70:tom01.wav
320,192,112256,1,0,0:0:0:70:tom01.wav
192,192,112329,1,0,0:0:0:70:LR_Clap Loud Long.wav
448,192,112329,1,0,0:0:0:70:tom01.wav
64,192,112402,1,0,0:0:0:70:tom02.wav
448,192,112475,1,0,0:0:0:70:tom03.wav
64,192,112549,1,0,0:0:0:70:tom04.wav
192,192,112622,1,0,0:0:0:50:electronic32.wav
320,192,112622,1,0,0:0:0:0:
192,192,112768,1,0,0:0:0:50:electronic32.wav
320,192,112768,1,0,0:0:0:0:
64,192,112914,1,4,0:0:0:0:
192,192,112914,1,8,0:0:0:0:
448,192,112914,1,2,0:0:0:0:
64,192,113061,1,0,0:0:0:0:
448,192,113061,1,0,0:0:0:0:
192,192,113207,1,2,0:0:0:0:
320,192,113207,1,0,0:0:0:0:
448,192,113207,1,0,0:0:0:0:
192,192,113354,1,0,0:0:0:0:
320,192,113354,1,0,0:0:0:0:
64,192,113500,1,8,0:0:0:0:
192,192,113500,1,2,0:0:0:0:
448,192,113500,1,0,0:0:0:0:
320,192,113646,1,0,0:0:0:0:
192,192,113793,1,2,0:0:0:0:
320,192,113793,128,0,114085:0:0:0:0:
64,192,113939,128,0,114085:0:0:0:0:
192,192,114085,1,2,0:0:0:0:
448,192,114085,1,8,0:0:0:0:
320,192,114232,1,0,0:0:0:0:
64,192,114378,1,2,0:0:0:0:
192,192,114378,128,0,114671:0:0:0:0:
448,192,114524,1,0,0:0:0:0:
64,192,114671,1,2,0:0:0:0:
320,192,114671,1,8,0:0:0:0:
448,192,114671,1,0,0:0:0:0:
192,192,114817,1,0,0:0:0:0:
64,192,114963,1,2,0:0:0:0:
448,192,114963,1,0,0:0:0:0:
64,192,115110,1,0,0:0:0:0:
320,192,115110,1,0,0:0:0:0:
192,192,115256,1,8,0:0:0:0:
320,192,115256,1,2,0:0:0:0:
448,192,115256,1,0,0:0:0:0:
64,192,115402,1,0,0:0:0:0:
448,192,115402,1,0,0:0:0:0:
64,192,115549,1,2,0:0:0:0:
320,192,115549,128,0,115695:0:0:0:0:
192,192,115695,128,0,115841:0:0:0:0:
64,192,115841,1,8,0:0:0:0:
320,192,115841,1,2,0:0:0:0:
448,192,115841,1,0,0:0:0:0:
64,192,115988,128,0,117012:0:0:0:0:
192,192,115988,1,0,0:0:0:0:
320,192,116134,1,2,0:0:0:0:
448,192,116134,1,0,0:0:0:0:
320,192,116280,1,0,0:0:0:50:wou_Ds.wav
192,192,116427,1,2,0:0:0:0:
448,192,116427,1,8,0:0:0:0:
192,192,116573,1,0,0:0:0:50:wou_Ds.wav
320,192,116719,1,2,0:0:0:0:
448,192,116719,1,0,0:0:0:0:
448,192,116866,1,0,0:0:0:50:wou_Ds.wav
192,192,117012,1,10,0:0:0:0:
320,192,117012,1,0,0:0:0:50:wou_D.wav
192,192,117158,1,0,0:0:0:0:
64,192,117305,1,2,0:0:0:0:
320,192,117305,1,4,0:0:0:0:
448,192,117305,1,0,0:0:0:0:
64,192,117451,1,2,0:0:0:0:
320,192,117451,1,0,0:0:0:0:
192,192,117597,1,8,0:0:0:0:
320,192,117597,1,2,0:0:0:0:
448,192,117597,1,0,0:0:0:0:
64,192,117744,1,2,0:0:0:0:
448,192,117744,1,0,0:0:0:0:
320,192,117817,1,2,0:0:0:0:
64,192,117890,1,2,0:0:0:0:
192,192,117890,1,0,0:0:0:0:
448,192,117963,1,2,0:0:0:0:
192,192,118036,1,2,0:0:0:0:
320,192,118036,1,0,0:0:0:0:
64,192,118183,1,8,0:0:0:0:
320,192,118183,1,2,0:0:0:0:
448,192,118183,1,0,0:0:0:0:
448,192,118329,1,2,0:0:0:0:
192,192,118329,1,0,0:0:0:0:
320,192,118402,1,2,0:0:0:0:
192,192,118475,1,2,0:0:0:0:
64,192,118475,1,4,0:0:0:0:
320,192,118549,1,2,0:0:0:0:
64,192,118622,1,2,0:0:0:0:
448,192,118622,1,0,0:0:0:0:
192,192,118695,1,2,0:0:0:0:
320,192,118768,1,2,0:0:0:0:
448,192,118768,1,8,0:0:0:0:
64,192,118841,1,2,0:0:0:0:
320,192,118914,1,2,0:0:0:0:
192,192,118914,1,0,0:0:0:0:
448,192,118988,1,2,0:0:0:0:
64,192,119061,1,2,0:0:0:0:
192,192,119061,1,0,0:0:0:0:
320,192,119097,1,2,0:0:0:0:
448,192,119134,1,2,0:0:0:0:
64,192,119207,1,2,0:0:0:0:
192,192,119207,1,0,0:0:0:0:
320,192,119244,1,2,0:0:0:0:
448,192,119280,1,2,0:0:0:0:
64,192,119354,128,8,119500:0:0:0:0:
192,192,119354,128,2,119500:0:0:0:0:
448,192,119500,128,0,119646:0:0:0:0:
320,192,119646,128,2,119939:0:0:0:0:
64,192,119646,128,4,119939:0:0:0:0:
192,192,119646,1,0,0:0:0:0:
448,192,119939,1,0,0:0:0:0:
192,192,120232,128,4,120524:0:0:0:0:
448,192,120232,128,2,120524:0:0:0:0:
320,192,120232,1,0,0:0:0:0:
64,192,120524,1,0,0:0:0:0:
64,192,120817,1,2,0:0:0:0:
192,192,120817,1,4,0:0:0:0:
320,192,120817,1,0,0:0:0:0:
64,192,120963,1,4,0:0:0:0:
192,192,120963,1,2,0:0:0:0:
448,192,120963,1,0,0:0:0:0:
320,192,121110,1,0,0:0:0:0:
192,192,121256,1,2,0:0:0:0:
320,192,121256,1,4,0:0:0:0:
448,192,121256,1,0,0:0:0:0:
64,192,121402,1,4,0:0:0:0:
320,192,121402,128,2,121695:0:0:0:0:
448,192,121402,1,0,0:0:0:0:
64,192,121695,1,2,0:0:0:0:
192,192,121695,1,0,0:0:0:0:
448,192,121744,1,2,0:0:0:0:
320,192,121793,1,2,0:0:0:0:
64,192,121841,1,2,0:0:0:0:
192,192,121890,1,2,0:0:0:0:
320,192,121939,1,2,0:0:0:0:
64,192,121988,128,4,122280:0:0:0:0:
448,192,121988,128,2,122280:0:0:0:0:
192,192,122280,1,0,0:0:0:0:
64,192,122573,1,2,0:0:0:0:
192,192,122573,128,4,122866:0:0:0:0:
320,192,122573,128,0,122866:0:0:0:0:
448,192,122866,1,0,0:0:0:0:
64,192,123158,1,4,0:0:0:0:
192,192,123158,1,2,0:0:0:0:
448,192,123158,1,0,0:0:0:0:
64,192,123305,1,2,0:0:0:0:
192,192,123305,1,4,0:0:0:0:
320,192,123305,1,0,0:0:0:0:
448,192,123451,1,0,0:0:0:0:
64,192,123597,1,4,0:0:0:0:
320,192,123597,1,2,0:0:0:0:
448,192,123597,1,0,0:0:0:0:
192,192,123744,1,2,0:0:0:0:
320,192,123744,1,4,0:0:0:0:
448,192,123744,128,0,124036:0:0:0:0:
64,192,124036,1,0,0:0:0:50:electronic32.wav
192,192,124036,1,0,0:0:0:0:
320,192,124183,1,0,0:0:0:50:electronic32.wav
448,192,124183,1,0,0:0:0:0:
64,192,124329,128,2,124622:0:0:0:0:
192,192,124329,1,4,0:0:0:0:
320,192,124329,1,0,0:0:0:0:
448,192,124475,1,0,0:0:0:0:
192,192,124622,1,8,0:0:0:0:
320,192,124622,128,2,124768:0:0:0:0:
448,192,124622,1,0,0:0:0:0:
64,192,124768,128,0,124914:0:0:0:0:
192,192,124914,1,2,0:0:0:0:
448,192,124914,128,0,125061:0:0:0:0:
192,192,125061,1,0,0:0:0:0:
64,192,125207,128,8,125354:0:0:0:0:
320,192,125207,1,2,0:0:0:0:
448,192,125207,1,0,0:0:0:0:
320,192,125354,1,0,0:0:0:0:
64,192,125500,1,2,0:0:0:0:
192,192,125500,1,0,0:0:0:0:
320,192,125646,1,0,0:0:0:0:
448,192,125646,1,0,0:0:0:0:
64,192,125719,1,0,0:0:0:0:
192,192,125793,1,2,0:0:0:0:
320,192,125793,1,8,0:0:0:0:
448,192,125793,1,0,0:0:0:0:
64,192,125939,1,0,0:0:0:0:
448,192,125939,1,0,0:0:0:0:
64,192,126085,1,2,0:0:0:0:
320,192,126085,1,0,0:0:0:0:
192,192,126232,1,0,0:0:0:0:
320,192,126232,1,0,0:0:0:0:
64,192,126378,1,2,0:0:0:0:
192,192,126378,1,8,0:0:0:0:
448,192,126378,1,0,0:0:0:0:
320,192,126524,1,0,0:0:0:0:
448,192,126524,1,0,0:0:0:0:
64,192,126671,1,2,0:0:0:0:
192,192,126671,128,0,126963:0:0:0:0:
320,192,126817,1,0,0:0:0:0:
64,192,126963,1,8,0:0:0:0:
320,192,126963,1,2,0:0:0:0:
448,192,126963,128,0,127110:0:0:0:0:
192,192,127110,128,0,127256:0:0:0:0:
64,192,127256,1,2,0:0:0:0:
320,192,127256,128,0,127402:0:0:0:0:
64,192,127402,1,0,0:0:0:0:
192,192,127549,128,8,127695:0:0:0:0:
320,192,127549,1,2,0:0:0:0:
448,192,127549,1,0,0:0:0:0:
448,192,127695,1,0,0:0:0:0:
64,192,127841,1,2,0:0:0:0:
192,192,127841,1,0,0:0:0:0:
320,192,127988,1,0,0:0:0:0:
448,192,127988,1,0,0:0:0:0:
64,192,128134,1,2,0:0:0:0:
192,192,128134,1,8,0:0:0:0:
320,192,128134,1,0,0:0:0:0:
192,192,128280,1,0,0:0:0:0:
320,192,128427,1,2,0:0:0:0:
448,192,128427,1,0,0:0:0:0:
64,192,128500,1,0,0:0:0:0:
192,192,128573,1,0,0:0:0:0:
448,192,128646,1,0,0:0:0:0:
64,192,128719,128,8,128866:0:0:0:0:
192,192,128719,128,0,128866:0:0:0:70:LR_Clap Loud Long.wav
320,192,128719,128,0,128866:0:0:0:0:
448,192,128866,1,0,0:0:0:0:
64,192,129012,1,2,0:0:0:0:
192,192,129012,1,0,0:0:0:0:
320,192,129085,1,2,0:0:0:0:
448,192,129085,1,0,0:0:0:0:
64,192,129158,1,2,0:0:0:0:
192,192,129158,1,0,0:0:0:0:
320,192,129232,1,2,0:0:0:0:
64,192,129305,128,4,129451:0:0:0:0:
192,192,129305,1,8,0:0:0:0:
448,192,129305,1,2,0:0:0:0:
320,192,129451,128,0,129597:0:0:0:0:
192,192,129597,128,2,129744:0:0:0:0:
448,192,129597,1,0,0:0:0:0:
64,192,129744,1,0,0:0:0:0:
320,192,129817,1,2,0:0:0:0:
448,192,129817,1,0,0:0:0:0:
64,192,129890,1,10,0:0:0:0:
192,192,129890,1,4,0:0:0:0:
320,192,130036,1,2,0:0:0:0:
448,192,130036,1,0,0:0:0:0:
64,192,130110,1,2,0:0:0:0:
192,192,130110,1,0,0:0:0:0:
448,192,130183,128,0,130329:0:0:0:0:
64,192,130329,1,2,0:0:0:0:
192,192,130329,1,0,0:0:0:0:
320,192,130402,1,2,0:0:0:0:
64,192,130475,1,2,0:0:0:0:
192,192,130475,1,8,0:0:0:0:
448,192,130475,1,4,0:0:0:0:
320,192,130622,1,2,0:0:0:0:
448,192,130622,1,0,0:0:0:0:
64,192,130695,1,2,0:0:0:0:
192,192,130695,1,0,0:0:0:0:
320,192,130768,1,2,0:0:0:0:
448,192,130768,1,4,0:0:0:0:
64,192,130914,1,2,0:0:0:0:
320,192,130914,1,0,0:0:0:0:
64,192,131061,1,2,0:0:0:0:
192,192,131061,1,8,0:0:0:0:
448,192,131061,1,4,0:0:0:0:
192,192,131207,1,2,0:0:0:0:
320,192,131207,1,0,0:0:0:0:
64,192,131354,1,2,0:0:0:0:
448,192,131354,1,0,0:0:0:0:
320,192,131427,1,2,0:0:0:0:
64,192,131500,1,2,0:0:0:0:
192,192,131500,1,0,0:0:0:0:
320,192,131573,1,2,0:0:0:0:
64,192,131646,128,8,131793:0:0:0:0:
192,192,131646,1,2,0:0:0:0:
448,192,131646,1,4,0:0:0:0:
320,192,131793,128,2,131939:0:0:0:0:
64,192,131939,1,2,0:0:0:0:
192,192,131939,1,4,0:0:0:0:
320,192,132012,1,2,0:0:0:0:
448,192,132012,1,0,0:0:0:0:
64,192,132085,1,0,0:0:0:0:
320,192,132158,1,2,0:0:0:0:
448,192,132158,1,0,0:0:0:0:
64,192,132232,1,10,0:0:0:0:
192,192,132232,128,4,132378:0:0:0:0:
320,192,132378,128,2,132524:0:0:0:0:
448,192,132378,1,0,0:0:0:0:
192,192,132524,1,0,0:0:0:0:
64,192,132671,1,2,0:0:0:0:
448,192,132671,1,4,0:0:0:0:
192,192,132744,1,2,0:0:0:0:
320,192,132744,1,0,0:0:0:0:
64,192,132817,1,10,0:0:0:0:
448,192,132817,128,4,133110:0:0:0:0:
64,192,133110,1,2,0:0:0:0:
192,192,133110,1,4,0:0:0:0:
320,192,133183,1,0,0:0:0:0:
448,192,133256,1,0,0:0:0:0:
64,192,133329,1,0,0:0:0:0:
192,192,133402,1,2,0:0:0:0:
320,192,133402,128,0,136036:0:0:0:70:LR_Clap Loud Long.wav
448,192,133402,128,0,136036:0:0:0:0:
