osu file format v14

[General]
AudioFilename: audio.mp3
AudioLeadIn: 0
PreviewTime: 49180
Countdown: 0
SampleSet: Soft
StackLeniency: 0.4
Mode: 0
LetterboxInBreaks: 0
WidescreenStoryboard: 1

[Editor]
Bookmarks: 1253,10619,19985,29351,38717,49253,67985,71409,84699,103256,112622,124329
DistanceSpacing: 0.6
BeatDivisor: 4
GridSize: 32
TimelineZoom: 1.9

[Metadata]
Title:Boku no Yume, Mecha Kuso Mugen Waki
TitleUnicode:ぼくの夢、メチャクソ無限湧き
Artist:t+pazolite & Camellia feat. Nanahira
ArtistUnicode:t+pazolite & かめりあ feat. ななひら
Creator:Len
Version:Special Extra
Source:WACCA
Tags:electronic ARuFa はちぷよ Hachipuyo japanese video game rhythm arcade jpop j-pop pop [Karcher] Karcher Fast
BeatmapID:2549105
BeatmapSetID:1224369

[Difficulty]
HPDrainRate:5.5
CircleSize:4
OverallDifficulty:9.2
ApproachRate:9.5
SliderMultiplier:2.05
SliderTickRate:1

[Events]
//Background and Video events
0,0,"seal2.png",0,0
//Break Periods
2,84899,96174
//Storyboard Layer 0 (Background)
//Storyboard Layer 1 (Fail)
//Storyboard Layer 2 (Pass)
//Storyboard Layer 3 (Foreground)
//Storyboard Layer 4 (Overlay)
//Storyboard Sound Samples

[TimingPoints]
83,292.682926829268,4,2,22,75,1,0
19107,-66.6666666666667,4,2,22,75,0,0
19400,-100,4,2,22,75,0,0
19692,-50,4,2,22,75,0,0
19912,-50,4,2,22,5,0,0
19985,-200,4,2,22,50,0,0
23351,-100,4,2,22,50,0,0
24668,-200,4,2,22,50,0,0
28034,-100,4,2,22,50,0,0
29351,-100,4,2,22,80,0,0
38717,-200,4,2,22,50,0,0
45741,-153.846153846153,4,2,22,70,0,0
48082,-37.037037037037,4,2,22,70,0,0
48375,-50,4,2,22,70,0,0
48961,-50,4,2,2,70,0,0
49253,-83.3333333333333,4,2,22,85,0,1
57741,-37.037037037037,4,2,22,85,0,1
58619,-83.3333333333333,4,2,22,85,0,1
65643,-100,4,2,22,85,0,1
67692,-90.9090909090909,4,2,22,70,0,1
67985,428.571428571429,4,2,22,70,1,0
68413,-83.3333333333333,4,2,22,60,0,0
70556,-111.111111111111,4,2,2,50,0,0
71413,-125,4,2,22,70,0,0
75270,-90.9090909090909,4,2,22,70,0,0
76127,-71.4285714285714,4,2,22,70,0,0
78270,-125,4,2,22,70,0,0
82127,-90.9090909090909,4,2,22,70,0,0
82985,-71.4285714285714,4,2,22,70,0,0
96699,-71.4285714285714,4,2,22,30,0,0
97144,500,4,2,22,30,1,0
97644,600,4,2,22,30,1,0
98244,750,4,2,22,30,1,0
98994,-100,4,2,22,50,0,0
99744,292.682926829268,4,2,22,70,1,0
102085,-33.3333333333333,4,2,22,70,0,0
102378,-29.4117647058824,4,2,22,70,0,0
102963,-1000,4,2,2,60,0,0
103256,-100,4,2,22,50,0,0
104280,-100,4,2,22,60,0,0
106768,-76.9230769230769,4,2,22,70,0,0
107939,-76.9230769230769,4,2,22,60,0,0
112914,-83.3333333333333,4,2,22,85,0,1
119061,-166.666666666667,4,2,22,85,0,1
121987,-100,4,2,22,85,0,1
122573,-83.3333333333334,4,2,22,85,0,1
124329,-100,4,2,22,70,0,0

[Colours]
Combo1 : 255,232,159
Combo2 : 172,255,172
Combo3 : 166,206,255
Combo4 : 250,154,169

[HitObjects]
379,93,10619,6,0,B|416:71|416:71|475:86|486:176|422:223,1,205,4|8,3:1|0:0,0:0:0:0:
235,280,11058,1,0,0:0:0:0:
505,247,11204,2,0,P|447:259|381:279,1,102.5,0|0,3:0|0:0,0:0:0:0:
147,243,11497,2,0,L|162:383,1,102.5,8|0,3:2|0:0,0:0:0:0:
351,202,11790,5,2,3:2:0:0:
273,365,11936,1,2,0:0:0:0:
273,365,12009,1,2,0:0:0:0:
273,365,12082,1,8,3:2:0:0:
189,164,12229,1,0,0:0:0:0:
357,338,12375,5,2,3:2:0:0:
37,250,12522,1,2,0:0:0:0:
351,202,12668,1,8,3:2:0:0:
88,378,12814,1,2,0:0:0:0:
28,162,12961,6,0,B|92:157|130:206|96:231|164:273|230:244,1,205,4|8,3:2|0:0,0:0:0:0:
268,35,13400,1,0,0:0:0:0:
189,164,13546,2,0,P|254:149|281:115,1,102.5,0|0,3:0|0:0,0:0:0:0:
86,24,13839,2,0,P|99:80|107:147,1,102.5,8|0,3:2|0:0,0:0:0:0:
216,337,14131,5,2,3:2:0:0:
37,250,14278,1,2,0:0:0:0:
298,228,14424,1,8,3:2:0:0:
132,367,14570,1,2,0:0:0:0:
213,189,14717,1,2,3:2:0:0:
207,163,14790,1,2,0:0:0:0:
203,138,14863,1,2,0:0:0:0:
200,113,14936,1,2,0:0:0:0:
197,87,15009,2,0,L|206:36,3,51.25,4|0|0|0,3:2|0:0|0:0|0:0,0:0:0:0:
197,22,15302,6,0,P|279:11|300:125,1,205,4|8,3:2|3:2,0:0:0:0:
216,337,15741,1,0,0:0:0:0:
377,156,15887,2,0,P|321:167|246:192,1,102.5,0|0,3:0|0:0,0:0:0:0:
332,383,16180,2,0,P|330:334|293:286,1,102.5,8|0,3:2|0:0,0:0:0:0:
60,212,16473,5,2,3:2:0:0:
224,256,16619,1,2,0:0:0:0:
224,256,16692,1,2,0:0:0:0:
224,256,16765,1,8,3:2:0:0:
97,378,16912,1,0,0:0:0:0:
132,150,17058,5,2,3:2:0:0:
300,291,17204,1,2,0:0:0:0:
60,212,17351,1,8,3:2:0:0:
239,24,17497,1,2,0:0:0:0:
17,94,17643,6,0,P|33:197|40:300,1,205,4|8,3:2|3:2,0:0:0:0:
241,159,18082,1,0,0:0:0:0:
327,367,18229,1,2,3:2:0:0:
314,364,18302,1,2,3:2:0:0:
301,362,18375,1,2,3:2:0:0:
289,359,18448,1,2,3:2:0:0:
276,357,18522,1,4,3:2:0:0:
190,312,18668,6,0,L|196:365,1,51.25,4|0,0:0|0:0,0:0:0:0:
441,20,18961,6,0,L|435:73,1,51.25,2|2,3:2|3:2,0:0:0:0:
454,184,19107,6,0,B|497:117|497:117|286:88,1,230.625008797646,4|0,3:2|0:0,0:0:0:0:
279,236,19400,6,0,L|206:248,3,51.25,2|0|0|0,3:2|0:0|0:0|0:0,0:0:0:0:
94,246,19692,6,2,B|202:264|202:264|210:351|210:351|319:366,1,307.5,6|0,0:1|0:0,0:1:0:0:
319,366,19985,6,0,P|309:270|299:144,1,205,12|2,3:1|0:3,0:0:0:0:
300,161,20863,1,0,3:0:0:0:
300,161,21156,5,2,0:1:0:0:
293,161,21229,1,2,0:1:0:0:
287,162,21302,1,2,0:1:0:0:
281,163,21375,1,2,0:1:0:0:
274,164,21448,1,10,0:1:0:0:
268,165,21521,1,2,0:1:0:0:
262,166,21595,1,2,0:1:0:0:
363,96,21741,6,0,L|384:25,1,51.25,2|2,3:1|0:1,0:0:0:0:
387,184,22034,2,0,L|418:238,1,51.25,2|2,0:1|0:0,0:0:0:0:
512,315,22326,6,0,P|459:325|300:363,1,205,4|8,3:1|0:0,0:0:0:0:
166,215,23204,1,4,3:0:0:0:
166,215,23351,2,0,L|172:164,1,51.25,2|2,0:1|0:1,0:0:0:0:
242,280,23497,6,0,L|235:330,7,51.25,2|2|2|2|10|2|2|2,0:1|0:1|0:1|0:1|0:1|0:1|0:1|0:1,0:0:0:0:
101,318,24082,6,0,L|179:300,1,51.25,2|0,3:2|0:0,0:0:0:0:
141,171,24229,2,0,L|167:217,1,51.25,2|0,0:1|0:0,0:0:0:0:
274,137,24375,2,0,L|258:188,1,51.25,2|0,0:1|0:0,0:0:0:0:
381,237,24522,2,0,L|331:250,1,51.25,2|0,3:1|0:0,0:0:0:0:
450,357,24668,6,0,L|473:137,1,205,12|2,3:1|0:3,0:0:0:0:
471,153,25546,1,0,3:0:0:0:
471,153,25839,5,2,0:1:0:0:
478,153,25912,1,2,0:1:0:0:
484,152,25985,1,2,0:1:0:0:
490,151,26058,1,2,0:1:0:0:
497,150,26131,1,10,0:1:0:0:
503,149,26204,1,2,0:1:0:0:
509,148,26278,1,2,0:1:0:0:
390,106,26424,2,0,L|371:58,1,51.25,2|2,3:1|0:1,0:0:0:0:
391,201,26717,2,0,L|358:241,1,51.25,2|2,0:1|0:0,0:0:0:0:
427,0,27009,6,0,P|384:10|217:39,1,205,4|8,3:1|0:0,0:0:0:0:
109,319,27887,1,4,3:0:0:0:
109,319,28034,2,0,L|95:243,1,51.25,2|2,0:1|0:1,0:0:0:0:
256,192,28180,12,2,29058,0:1:0:0:
194,256,29351,6,0,P|205:308|215:374,1,102.5,4|2,3:2|0:2,0:0:0:0:
123,196,29643,2,0,P|67:177|2:153,1,102.5,2|0,3:2|0:0,0:0:0:0:
228,9,29936,1,0,3:0:0:0:
211,161,30082,1,2,0:2:0:0:
211,161,30156,1,2,0:2:0:0:
211,161,30229,2,0,P|246:113|282:73,1,102.5,2|2,3:2|0:2,0:0:0:0:
289,226,30522,5,0,3:0:0:0:
157,80,30668,1,2,0:2:0:0:
345,16,30814,1,2,3:2:0:0:
345,16,30887,1,2,0:2:0:0:
345,16,30961,2,0,L|354:86,1,51.25,2|0,0:2|0:0,0:0:0:0:
457,119,31107,2,0,P|440:172|427:246,1,102.5,0|2,3:0|0:2,0:0:0:0:
474,371,31400,1,0,3:0:0:0:
344,171,31546,1,2,0:2:0:0:
508,278,31692,6,0,P|421:257|359:359,1,205,4|2,3:2|3:0,0:0:0:0:
98,263,32131,1,2,3:2:0:0:
229,15,32278,2,0,P|215:109|197:229,1,205,4|2,3:2|3:0,0:0:0:0:
319,61,32717,1,0,0:0:0:0:
120,140,32863,5,4,3:2:0:0:
364,229,33009,1,2,0:2:0:0:
141,298,33156,1,4,3:2:0:0:
379,140,33302,1,2,0:2:0:0:
74,56,33448,6,0,P|142:44|211:128,1,153.75,4|0,3:2|0:0,0:0:0:0:
257,233,33741,2,0,P|266:183|277:133,1,102.5,4|2,3:2|0:2,0:0:0:0:
60,365,34034,5,4,3:2:0:0:
137,152,34180,1,0,3:2:0:0:
326,291,34326,1,2,3:2:0:0:
170,239,34473,1,0,0:0:0:0:
132,318,34619,5,2,3:2:0:0:
257,233,34765,1,2,0:0:0:0:
260,384,34912,2,0,P|221:349|224:281,1,102.5,2|0,3:2|0:0,0:0:0:0:
291,42,35204,5,2,3:2:0:0:
316,39,35277,1,2,0:2:0:0:
342,36,35350,1,2,0:2:0:0:
367,33,35423,1,2,0:2:0:0:
393,29,35496,1,2,3:2:0:0:
479,4,35643,2,0,L|470:71,1,51.25,2|2,0:0|0:0,0:0:0:0:
361,190,35790,2,0,P|374:250|382:311,1,102.5,2|2,3:2|0:2,0:0:0:0:
370,342,36009,1,2,0:2:0:0:
361,364,36082,1,2,3:2:0:0:
491,217,36229,1,2,0:2:0:0:
286,15,36375,6,0,P|281:86|266:234,1,205,4|2,3:2|3:0,0:0:0:0:
175,249,36814,1,2,0:2:0:0:
24,106,36961,2,0,P|31:208|42:310,1,205,4|2,3:2|3:0,0:0:0:0:
152,23,37400,1,2,0:2:0:0:
372,157,37546,5,4,3:2:0:0:
121,116,37692,1,2,0:0:0:0:
437,36,37839,1,8,3:0:0:0:
377,369,37985,1,2,0:0:0:0:
258,129,38131,5,4,3:0:0:0:
316,301,38278,1,2,0:0:0:0:
316,301,38351,1,2,3:2:0:0:
316,301,38424,1,2,3:2:0:0:
372,157,38570,1,2,3:2:0:0:
303,217,38717,5,4,3:1:0:0:
303,217,39009,2,0,L|234:231,1,51.25
175,198,39302,1,2,0:0:0:0:
175,198,39448,2,0,P|166:253|158:312,1,102.5,2|0,0:0|0:0,0:0:0:0:
94,355,39887,2,0,P|59:353|35:282,1,102.5,2|8,0:0|0:0,0:0:0:0:
83,38,40473,1,2,0:0:0:0:
83,38,40619,1,2,0:0:0:0:
83,38,40765,1,2,0:0:0:0:
83,38,40912,2,0,P|92:91|100:161,1,102.5,2|0,0:0|0:0,0:0:0:0:
172,188,41351,6,0,P|212:169|221:111,1,102.5,2|2,0:0|0:0,0:0:0:0:
173,41,41790,1,2,0:0:0:0:
401,8,42082,2,0,P|394:58|390:122,1,102.5,2|0,0:0|0:0,0:0:0:0:
498,177,42522,2,0,P|488:127|480:77,1,102.5,8|2,0:0|0:0,0:0:0:0:
463,289,42961,1,2,0:0:0:0:
463,289,43107,1,2,0:0:0:0:
463,289,43253,1,2,0:0:0:0:
463,289,43400,6,0,P|393:280|347:273,1,102.5,8|8,0:0|0:0,0:0:0:0:
154,355,43985,2,0,P|84:364|38:371,1,102.5,8|4,0:0|0:3,0:0:0:0:
318,180,44570,2,0,P|302:119|290:68,1,102.5,8|8,0:0|0:0,0:0:0:0:
38,23,45156,1,8,0:0:0:0:
38,23,45302,1,0,3:0:0:0:
38,23,45448,1,8,3:2:0:0:
38,23,45595,1,0,3:0:0:0:
38,23,45741,6,0,B|36:248|252:101|256:341,1,399.749981700898,8|0,3:2|0:0,0:0:0:0:
255,320,46912,5,4,3:2:0:0:
499,266,47058,1,4,3:2:0:0:
499,259,47131,1,0,3:2:0:0:
499,253,47204,1,0,3:2:0:0:
499,246,47277,1,0,3:2:0:0:
500,240,47350,1,0,3:2:0:0:
166,145,47497,5,4,3:2:0:0:
415,213,47643,1,4,3:2:0:0:
414,219,47716,1,0,3:0:0:0:
414,225,47789,1,0,3:0:0:0:
414,232,47862,1,0,3:0:0:0:
413,238,47935,1,0,3:0:0:0:
413,245,48009,1,0,3:2:0:0:
417,265,48082,6,0,B|341:218|227:214|227:214|195:302|239:352|239:352|304:346|327:295,1,415.125001583576,4|0,0:0|0:0,0:0:0:0:
314,314,48375,2,0,P|311:344|309:369,4,51.25,4|0|0|0|0,0:0|0:0|0:0|0:0|0:0,0:0:0:0:
74,105,48961,5,12,0:0:0:0:
39,182,49253,5,4,3:2:0:0:
396,25,49400,1,10,0:0:0:0:
89,260,49546,5,4,3:2:0:0:
471,190,49692,1,10,0:0:0:0:
78,343,49839,5,4,3:2:0:0:
478,371,49985,1,10,0:0:0:0:
150,8,50131,2,0,B|93:38|93:38|130:134,1,122.999996246338,4|10,3:2|0:0,0:0:0:0:
269,233,50424,5,2,3:2:0:0:
436,39,50570,2,0,P|317:70|196:88,1,245.999992492676,10|10,0:2|0:2,0:0:0:0:
317,370,51009,2,0,B|365:334|365:334|335:279,1,122.999996246338,10|2,3:2|3:2,0:0:0:0:
48,27,51302,2,0,P|58:92|62:156,1,122.999996246338,8|2,3:2|0:2,0:0:0:0:
251,307,51595,5,2,3:2:0:0:
327,11,51741,1,2,3:2:0:0:
487,249,51887,2,0,B|456:195|456:195|396:214,1,122.999996246338,10|8,3:2|0:2,0:0:0:0:
166,282,52180,1,2,3:2:0:0:
356,131,52326,1,2,3:2:0:0:
94,379,52473,2,0,P|86:314|61:238,1,122.999996246338,10|0,3:2|0:0,0:0:0:0:
181,11,52765,5,2,3:2:0:0:
24,168,52912,2,0,L|98:181,1,61.499998123169,8|8,0:0|0:0,0:0:0:0:
245,295,53058,5,2,3:2:0:0:
100,161,53204,2,0,L|174:148,1,61.499998123169,8|0,0:0|0:0,0:0:0:0:
325,29,53351,5,2,3:2:0:0:
193,177,53497,2,0,L|267:190,1,61.499998123169,8|0,0:0|0:0,0:0:0:0:
441,360,53643,6,0,P|424:290|414:121,1,184.499994369507,12|0,3:2|0:0,0:0:0:0:
459,75,53936,5,4,3:2:0:0:
328,366,54082,1,10,0:0:0:0:
223,14,54229,5,4,3:2:0:0:
380,295,54375,1,10,0:0:0:0:
38,256,54522,5,4,3:2:0:0:
412,178,54668,1,10,0:0:0:0:
143,66,54814,1,8,3:2:0:0:
249,325,54961,6,0,P|245:227|302:57,1,245.999992492676,10|10,0:2|0:2,0:0:0:0:
70,119,55400,2,0,B|95:173|95:173|154:152,1,122.999996246338,8|10,3:2|0:2,0:0:0:0:
392,9,55692,1,2,3:2:0:0:
192,65,55839,1,2,3:2:0:0:
447,250,55985,2,0,P|457:184|486:102,1,122.999996246338,8|2,3:2|0:2,0:0:0:0:
274,8,56278,5,2,3:2:0:0:
70,119,56424,1,0,0:0:0:0:
298,186,56570,1,10,3:2:0:0:
91,312,56717,1,10,0:2:0:0:
15,49,56863,5,2,3:2:0:0:
298,186,57009,1,2,3:2:0:0:
0,273,57156,1,10,3:2:0:0:
304,361,57302,1,2,0:2:0:0:
78,191,57448,6,0,B|78:220|78:220|83:242|83:242|82:262|82:262|89:288|89:288|94:346,1,122.999996246338,0|2,3:1|0:0,0:1:0:0:
458,323,57741,6,0,B|471:319|471:319|471:324|471:324|479:315|479:315|488:313|488:313|487:321|487:321|498:313|498:313|494:305|494:305|509:305|509:305|503:300|503:300|515:295|515:295|511:286|511:286|519:285|519:285|517:277|517:277|524:280|524:280|520:269|520:269|527:270|527:270|524:263|524:263|528:257|528:257|523:256|523:256|528:247|528:247|524:242|524:242|527:237|527:237|521:230|521:230|524:225|524:225|518:218|518:218|518:210|518:210|511:208|511:208|512:199|512:199|504:197|504:197|505:189|505:189|497:187|497:187|495:180|495:180|488:185|488:185|485:173|485:173|477:179|477:179|471:170|471:170|465:176|465:176|458:167|458:167|448:174|448:174|447:166|447:166|437:175|437:175|428:170|428:170|424:179|424:179|414:175|414:175|412:186|412:186|403:181|403:181|401:194|401:194|392:191|392:191|393:202|393:202|384:201|384:201|385:214|385:214|379:213|379:213|383:222|383:222|374:225|374:225|380:231|380:231|372:237|372:237|379:241|379:241|376:247|376:247|380:268,2,553.500002111435,4|0|4,3:2|3:2|3:2,0:3:0:0:
74,30,58619,5,4,3:2:0:0:
155,346,58765,1,10,0:2:0:0:
235,3,58912,5,4,3:2:0:0:
234,313,59058,1,10,0:2:0:0:
385,40,59204,5,4,3:2:0:0:
318,337,59351,1,10,0:2:0:0:
22,82,59497,2,0,B|77:59|77:59|109:113,1,122.999996246338,4|10,3:2|0:0,0:0:0:0:
155,346,59790,5,2,3:2:0:0:
310,157,59936,2,0,P|189:179|68:201,1,245.999992492676,10|10,0:2|0:2,0:0:0:0:
318,337,60375,2,0,B|373:359|373:359|405:305,1,122.999996246338,10|0,3:2|3:0,0:0:0:0:
415,12,60668,2,0,P|403:73|394:134,1,122.999996246338,8|2,3:2|0:2,0:0:0:0:
217,73,60961,5,2,3:2:0:0:
459,202,61107,1,2,3:2:0:0:
229,380,61253,2,0,P|219:319|208:258,1,122.999996246338,10|8,3:2|0:0,0:0:0:0:
285,11,61546,1,2,3:2:0:0:
117,301,61692,1,2,3:2:0:0:
394,133,61839,2,0,B|362:79|362:79|307:101,1,122.999996246338,8|0,3:2|0:0,0:0:0:0:
66,35,62131,5,2,3:2:0:0:
219,163,62278,2,0,L|228:242,1,61.499998123169,8|8,0:0|0:0,0:0:0:0:
387,7,62424,5,2,3:2:0:0:
247,240,62570,2,0,L|237:319,1,61.499998123169,8|0,0:0|0:0,0:0:0:0:
8,158,62717,5,2,3:2:0:0:
222,319,62863,2,0,L|231:398,1,61.499998123169,8|0,0:0|0:0,0:0:0:0:
396,268,63009,6,0,P|407:176|433:59,1,184.499994369507,12|0,3:2|0:0,0:0:0:0:
387,7,63302,5,4,3:2:0:0:
499,237,63448,1,10,0:0:0:0:
125,32,63595,5,4,3:2:0:0:
396,268,63741,1,10,0:0:0:0:
6,311,63887,5,4,3:2:0:0:
364,368,64034,1,10,0:0:0:0:
53,119,64180,2,0,P|64:198|71:257,1,122.999996246338,8|10,3:2|0:2,0:0:0:0:
344,11,64473,5,2,3:2:0:0:
477,328,64619,2,0,B|428:237|428:237|288:290,1,245.999992492676,10|10,0:0|3:2,0:0:0:0:
294,287,65058,6,0,P|287:328|281:373,2,81.9999974975587,8|0|4,3:2|3:0|3:0,0:0:0:0:
274,124,65351,2,0,P|265:82|262:42,2,81.9999974975587,0|0|4,3:3|0:0|0:3,0:0:0:0:
219,215,65643,5,6,3:2:0:0:
219,215,66229,6,0,L|3:237,1,205,4|2,0:0|0:0,0:0:0:0:
3,217,66595,1,2,0:0:0:0:
5,242,66668,1,2,0:0:0:0:
7,268,66741,1,2,0:0:0:0:
10,293,66814,5,4,3:2:0:0:
47,35,66961,1,4,3:2:0:0:
92,349,67253,5,4,3:2:0:0:
146,98,67400,2,0,L|139:44,3,51.25,4|0|0|0,3:2|3:0|3:0|3:0,0:0:0:0:
138,24,67692,6,0,L|126:198,1,169.125005161286,4|0,0:0|0:0,0:0:0:0:
159,294,67985,1,4,0:1:0:0:
159,294,68413,6,2,B|164:296|164:296|168:292|168:292|172:296|172:296|176:292|176:292|180:296|180:296|184:292|184:292|188:296|188:296|192:292|192:292|196:296|196:296|200:292|200:292|204:296|204:296|208:292|208:292|212:296|212:296|216:292|216:292|220:296|220:296|224:292|224:292|228:296|228:296|232:292|232:292|236:296|236:296|240:292|240:292|244:296|244:296|248:292|248:292|252:296|252:296|256:292|256:292|260:296|260:296|264:292|264:292|268:296|268:296|272:292|272:292|276:296|276:296|280:292|280:292|284:296|284:296|288:292|288:292|288:300|288:300|292:296|292:296|292:304|292:304|296:300|296:300|296:308|296:308|300:304|300:304|300:312|300:312|304:308|304:308|304:316|304:316|308:312|308:312|308:320|308:320|312:316|312:316|312:324|312:324|316:320|316:320|316:328|316:328|320:324|320:324|320:332|320:332|324:328|324:328|328:332|328:332|332:328|332:328|336:332|336:332|340:328|340:328|344:332|344:332|348:328|348:328|352:332|352:332|356:328|356:328|360:332|360:332|364:328|364:328|368:332|368:332|372:328|372:328|376:332|376:332|380:328|380:328|384:332|384:332|388:328|388:328|392:332|392:332|396:328|396:328|400:332|400:332|404:328|404:328|408:332|408:332|412:328|412:328|416:332|416:332|420:328|420:328|424:332|424:332|428:328|428:328|432:332|432:332|436:328|436:328|440:332|440:332|444:328|444:328|448:332|448:332|452:328|452:328|456:332|456:332|460:328|460:328|464:332|464:332|468:328|468:328|430:330,1,491.999984985352,2|2,3:1|0:2,0:1:0:0:
457,330,69699,5,2,0:0:0:0:
457,330,70127,5,2,0:0:0:0:
457,330,70556,6,0,B|561:257|384:134|314:324,1,276.74999155426,12|0,0:0|0:0,0:0:0:0:
304,374,71413,6,0,L|205:365,1,82,6|0,3:2|0:0,0:0:0:0:
175,298,71842,1,2,1:2:0:0:
154,296,71949,1,0,0:0:0:0:
134,294,72056,1,0,0:0:0:0:
113,292,72163,1,0,0:0:0:0:
93,290,72270,1,2,3:2:0:0:
17,258,72485,2,0,L|9:339,2,82,0|2|0,0:0|1:2|0:0,0:0:0:0:
68,194,73127,6,0,L|64:129,3,41,2|0|0|0,3:2|0:0|0:0|0:0,0:0:0:0:
49,136,73556,2,0,L|45:71,3,41,2|0|0|0,1:2|0:0|0:0|0:0,0:0:0:0:
56,82,73985,2,0,L|52:17,3,41,2|0|0|0,3:2|0:0|0:0|0:0,0:0:0:0:
121,6,74413,6,0,B|190:26|190:26|169:139,1,164,2|2,3:2|1:1,0:0:0:0:
173,116,75056,6,0,L|184:177,1,41,2|2,0:0|0:0,0:0:0:0:
237,227,75270,2,0,B|323:193|323:193|270:37,1,225.500006881714,2|2,3:2|1:1,0:0:0:0:
280,67,75913,6,0,L|293:4,1,56.3750017204285,2|2,0:0|0:0,0:0:0:0:
393,4,76127,2,0,B|448:38|448:38|404:130,1,143.499995620728,2|2,3:2|1:1,0:0:0:0:
447,188,76449,1,2,0:0:0:0:
453,204,76556,2,0,B|419:259|419:259|318:212,1,143.499995620728,2|2,1:1|1:1,0:0:0:0:
292,163,76877,1,2,1:0:0:0:
298,144,76985,6,0,P|307:237|321:362,1,215.249993431091,2|0,1:1|0:0,0:0:0:0:
320,358,77413,1,4,1:2:0:0:
208,10,77842,5,6,3:2:0:0:
208,10,78270,2,0,L|307:19,1,82,2|0,1:2|0:0,0:0:0:0:
337,86,78699,1,2,3:2:0:0:
357,87,78806,1,0,0:0:0:0:
377,89,78913,1,0,0:0:0:0:
398,91,79020,1,0,0:0:0:0:
418,93,79127,1,2,1:2:0:0:
475,29,79342,1,0,0:0:0:0:
505,118,79556,6,0,L|509:183,3,41,2|0|0|0,3:2|0:0|0:0|0:0,0:0:0:0:
494,171,79985,2,0,L|498:236,3,41,2|0|0|0,1:2|0:0|0:0|0:0,0:0:0:0:
510,288,80413,2,0,B|429:273|429:273|449:329,1,123,2|0,3:2|0:0,0:0:0:0:
430,325,80842,2,0,L|426:390,3,41,2|0|0|0,1:2|0:0|0:0|0:0,0:0:0:0:
348,373,81270,6,0,B|279:353|279:353|300:240,1,164,4|2,3:2|1:0,0:0:0:0:
295,262,81913,6,0,L|285:202,1,41,2|2,0:0|0:0,0:0:0:0:
232,152,82127,2,0,B|146:186|146:186|199:342,1,225.500006881714,2|2,3:2|1:0,0:0:0:0:
189,312,82770,6,0,L|176:375,1,56.3750017204285,2|2,0:0|0:0,0:0:0:0:
76,375,82985,2,0,B|21:341|21:341|65:249,1,143.499995620728,2|2,3:2|1:0,0:0:0:0:
22,191,83306,1,2,0:0:0:0:
16,175,83413,2,0,B|50:120|50:120|150:166,1,143.499995620728,2|2,1:0|1:0,0:0:0:0:
177,216,83734,1,2,1:1:0:0:
171,235,83842,6,0,B|179:97|90:202|103:25,1,215.249993431091,2|0,1:0|0:0,0:0:0:0:
93,27,84270,2,0,P|170:-9|214:111,1,215.249993431091,4|0,1:2|0:0,0:0:0:0:
212,97,84699,5,4,0:1:0:0:
256,192,96699,12,4,98994,3:1:0:0:
301,76,100914,5,4,3:2:0:0:
13,118,101060,1,4,3:2:0:0:
13,125,101133,1,0,3:2:0:0:
13,131,101206,1,0,3:2:0:0:
13,138,101279,1,0,3:2:0:0:
12,144,101352,1,0,3:2:0:0:
384,224,101499,5,4,3:2:0:0:
97,171,101645,1,4,3:2:0:0:
98,165,101718,1,0,3:2:0:0:
98,159,101791,1,0,3:2:0:0:
98,152,101864,1,0,3:2:0:0:
99,146,101939,1,0,3:2:0:0:
99,139,102011,1,0,3:2:0:0:
94,114,102085,6,0,B|57:231|12:324|12:324|77:358|146:353|146:353|157:301|125:222,1,461.250017595292,4|0,0:0|0:0,0:0:0:0:
128,242,102378,2,0,B|142:218|169:211|169:211|153:228|152:250,4,87.1250016617775,4|0|0|0|0,0:0|0:0|0:0|0:0|0:0,0:0:0:0:
385,65,102963,5,12,0:0:0:0:
307,111,103256,5,4,3:1:0:0:
471,160,103402,1,2,0:0:0:0:
318,225,103548,5,2,0:0:0:0:
416,228,103694,1,2,0:0:0:0:
377,320,103841,5,2,0:0:0:0:
395,312,103987,1,2,0:0:0:0:
386,150,104280,5,4,3:2:0:0:
254,344,104427,1,4,3:2:0:0:
187,88,104573,1,4,3:2:0:0:
304,280,104865,5,4,3:2:0:0:
116,180,105012,1,4,3:2:0:0:
299,38,105158,1,0,3:0:0:0:
297,46,105231,1,0,3:0:0:0:
296,54,105304,1,0,3:0:0:0:
295,63,105377,1,0,3:0:0:0:
294,71,105450,1,0,3:0:0:0:
293,80,105523,1,0,3:0:0:0:
292,88,105597,1,4,1:0:0:0:
292,88,106622,5,0,3:2:0:0:
292,88,106695,1,0,3:2:0:0:
292,88,106768,2,0,P|243:35|151:68,1,133.249993900299,4|0,0:2|0:0,0:0:0:0:
24,120,106987,2,0,P|73:173|165:140,1,133.249993900299,2|0,0:0|0:0,0:0:0:0:
232,224,107207,2,0,L|217:136,1,66.6249969501497,2|0,0:2|0:0,0:0:0:0:
388,12,107353,6,0,L|371:163,1,133.249993900299,4|0,3:2|0:0,0:0:0:0:
503,295,107573,2,0,P|508:234|446:187,1,133.249993900299,2|0,0:2|0:0,0:0:0:0:
320,278,107792,2,0,L|308:343,1,66.6249969501497,2|0,0:2|0:0,0:0:0:0:
48,329,107939,5,4,3:1:0:0:
207,290,108085,1,2,0:0:0:0:
43,241,108231,5,2,0:0:0:0:
202,202,108377,1,2,0:0:0:0:
38,153,108523,5,2,0:0:0:0:
205,112,108670,1,2,0:0:0:0:
382,6,108963,5,0,0:0:0:0:
291,158,109109,1,2,0:0:0:0:
164,21,109256,1,0,0:0:0:0:
339,83,109402,1,2,0:0:0:0:
202,202,109548,1,2,0:0:0:0:
234,98,109695,1,2,0:0:0:0:
234,98,109987,1,2,0:0:0:0:
234,98,110280,5,6,0:0:0:0:
206,80,110353,1,0,0:0:0:0:
173,79,110426,1,2,0:0:0:0:
144,94,110499,1,0,0:0:0:0:
126,122,110572,1,2,0:0:0:0:
126,155,110645,1,0,0:0:0:0:
141,184,110719,1,2,0:0:0:0:
169,201,110792,1,0,0:0:0:0:
202,202,110865,5,4,0:2:0:0:
247,200,110939,1,0,0:0:0:0:
290,225,111012,1,2,0:0:0:0:
312,268,111086,1,0,0:0:0:0:
310,316,111159,1,2,0:0:0:0:
285,357,111232,1,0,0:0:0:0:
243,379,111305,1,2,0:0:0:0:
194,378,111378,1,0,0:0:0:0:
153,351,111451,6,0,L|167:284,7,66.6249969501497,6|0|2|0|2|0|2|0,0:1|0:0|0:0|0:0|0:0|0:0|0:0|0:0,0:0:0:0:
140,205,112036,6,0,L|224:186,3,66.6249969501497,0|0|0|0,3:3|0:0|0:0|0:0,0:0:0:0:
235,99,112329,2,0,L|295:149,1,66.6249969501497,2|0,3:2|0:0,0:0:0:0:
370,110,112475,2,0,L|383:195,1,66.6249969501497,0|0,3:0|0:0,0:0:0:0:
70,57,112622,5,4,3:2:0:0:
70,57,112914,5,6,3:2:0:0:
470,167,113061,1,10,0:2:0:0:
39,212,113207,5,4,3:2:0:0:
450,253,113353,1,10,0:2:0:0:
83,365,113500,2,0,B|58:309|58:309|116:274,1,122.999996246338,4|10,0:2|0:2,0:2:0:0:
168,4,113792,5,2,3:2:0:0:
283,187,113939,2,0,P|210:195|31:212,1,245.999992492676,10|10,0:2|0:2,0:2:0:0:
355,262,114378,1,10,3:2:0:0:
138,92,114524,1,2,3:2:0:0:
471,15,114670,2,0,P|459:99|457:147,1,122.999996246338,8|2,3:2|0:2,0:2:0:0:
286,367,114963,5,2,3:2:0:0:
376,98,115109,1,2,3:2:0:0:
503,282,115256,2,0,B|443:265|443:265|413:326,1,122.999996246338,10|8,3:2|0:2,0:2:0:0:
153,185,115548,1,0,3:2:0:0:
302,33,115695,2,0,P|289:161|286:195,1,122.999996246338,2|10,3:2|3:2,0:2:0:0:
55,45,115987,1,0,0:0:0:0:
31,345,116134,5,2,3:2:0:0:
179,102,116280,2,0,L|108:112,1,61.499998123169,8|8,0:2|0:2,0:2:0:0:
31,345,116426,5,2,3:2:0:0:
302,33,116573,2,0,L|231:23,1,61.499998123169,8|0,0:2|0:2,0:2:0:0:
31,345,116719,5,2,3:2:0:0:
443,37,116865,2,0,L|372:-10,1,61.499998123169,8|0,0:2|0:2,0:2:0:0:
31,345,117012,6,0,P|101:357|234:376,1,184.499994369507,12|0,3:2|0:2,0:2:0:0:
297,338,117304,5,4,3:2:0:0:
163,21,117451,1,10,0:0:0:0:
203,293,117597,5,4,3:2:0:0:
295,50,117743,1,10,0:2:0:0:
296,35,117816,1,0,3:2:0:0:
298,19,117889,1,4,3:2:0:0:
31,242,118035,5,10,0:2:0:0:
488,167,118183,1,4,3:2:0:0:
34,92,118329,1,10,0:2:0:0:
461,38,118475,5,4,3:2:0:0:
461,38,118548,1,2,3:2:0:0:
461,38,118622,2,0,P|431:30|387:19,1,61.499998123169,8|0,0:0|0:0,0:0:0:0:
241,332,118768,5,4,3:2:0:0:
241,332,118841,1,2,3:2:0:0:
241,332,118914,2,0,L|218:257,1,61.499998123169,8|0,0:0|0:0,0:0:0:0:
24,19,119061,6,0,L|50:24,6,15.3749995307922,8|0|0|0|0|0|0,3:2|3:2|3:2|3:2|3:2|3:2|3:2,0:0:0:0:
24,19,119353,6,2,B|23:35|23:35|28:45|28:45|24:52|24:52|30:64|30:64|27:82|27:82|35:96|35:96|34:115|34:115|43:150,1,122.999996246338,10|4,3:2|0:1,0:1:0:0:
39,248,120231,5,6,3:2:0:0:
39,248,120524,5,2,0:0:0:0:
37,232,120597,1,2,0:0:0:0:
36,217,120670,1,2,0:0:0:0:
35,202,120743,1,2,0:0:0:0:
34,186,120816,1,4,3:2:0:0:
458,80,120963,1,4,3:2:0:0:
24,94,121256,5,4,3:2:0:0:
465,168,121402,1,4,3:2:0:0:
466,183,121475,1,0,3:0:0:0:
467,198,121548,1,0,3:0:0:0:
468,213,121621,1,0,3:0:0:0:
469,227,121695,6,0,L|471:260,4,20.4999993743897,4|0|0|0|0,3:2|3:0|3:0|3:0|3:0,0:0:0:0:
413,314,121987,6,0,P|458:324|533:350,1,102.5,4|2,3:2|0:0,0:0:0:0:
246,178,122280,2,0,P|254:106|260:49,1,102.5,2|0,0:0|0:0,0:0:0:0:
25,10,122573,6,0,P|16:114|6:243,1,184.499994369507,6|0,3:2|0:0,0:0:0:0:
2,281,122865,1,2,0:0:0:0:
32,278,122938,1,2,0:0:0:0:
63,275,123011,1,2,0:0:0:0:
93,272,123084,1,2,0:0:0:0:
124,269,123157,5,6,3:2:0:0:
455,368,123304,2,0,P|446:278|436:138,1,184.499994369507,6|0,3:2|0:0,0:0:0:0:
460,48,123597,1,6,3:2:0:0:
93,365,123743,5,6,3:2:0:0:
85,365,123816,1,2,0:0:0:0:
77,366,123889,1,2,0:0:0:0:
70,367,123962,1,2,0:0:0:0:
62,368,124035,1,2,0:1:0:0:
54,369,124108,1,2,0:0:0:0:
47,370,124182,1,2,0:0:0:0:
39,371,124255,1,2,0:0:0:0:
31,372,124328,1,4,3:1:0:0:
462,276,124622,6,0,P|452:342|449:392,1,102.5,8|0,0:0|0:0,0:0:0:0:
261,162,124914,1,0,3:0:0:0:
369,319,125061,1,0,0:0:0:0:
167,131,125207,2,0,P|177:197|180:247,1,102.5,8|0,0:0|0:0,0:0:0:0:
447,116,125500,5,2,3:2:0:0:
295,263,125646,1,2,0:0:0:0:
295,263,125719,1,2,0:0:0:0:
295,263,125792,1,8,0:0:0:0:
249,53,125939,1,0,0:0:0:0:
482,215,126085,5,2,3:2:0:0:
261,162,126231,1,2,0:0:0:0:
472,114,126378,1,8,0:0:0:0:
249,53,126524,1,2,0:0:0:0:
393,257,126670,6,0,P|298:274|176:294,1,205,4|8,3:2|0:0,0:0:0:0:
39,97,127109,1,0,0:0:0:0:
93,356,127256,2,0,P|101:302|109:229,1,102.5,0|0,3:0|0:0,0:0:0:0:
207,25,127548,1,8,0:0:0:0:
30,196,127695,1,0,0:0:0:0:
262,256,127841,5,2,3:2:0:0:
121,39,127987,1,2,0:0:0:0:
93,357,128134,1,8,0:0:0:0:
165,164,128280,1,2,0:0:0:0:
311,326,128426,1,2,3:2:0:0:
336,330,128499,1,2,0:2:0:0:
361,334,128572,1,2,0:2:0:0:
386,339,128645,1,2,0:2:0:0:
411,343,128719,2,0,P|461:336|513:328,1,102.5,4|0,3:2|0:0,0:0:0:0:
445,26,129012,5,0,3:2:0:0:
410,63,129085,1,0,3:0:0:0:
361,47,129158,1,0,3:0:0:0:
322,81,129231,1,0,3:0:0:0:
271,73,129304,2,0,P|278:120|294:202,1,102.5,4|0,3:2|0:0,0:0:0:0:
29,43,129597,1,0,3:0:0:0:
198,144,129743,1,0,3:0:0:0:
198,144,129817,1,0,3:2:0:0:
198,144,129890,1,8,0:0:0:0:
34,254,130036,2,0,L|42:199,1,51.25,2|0,0:0|0:0,0:0:0:0:
108,99,130183,6,0,P|114:151|124:217,1,102.5,2|0,3:2|3:0,0:0:0:0:
148,289,130402,1,0,3:0:0:0:
142,307,130475,2,0,P|199:291|265:278,1,102.5,8|0,3:2|3:0,0:0:0:0:
349,292,130695,1,0,3:0:0:0:
371,300,130768,5,0,3:0:0:0:
437,60,130914,1,0,0:0:0:0:
268,164,131061,1,8,0:0:0:0:
499,255,131207,1,0,0:0:0:0:
266,366,131353,6,0,L|303:356,6,25.625,4|2|2|2|2|2|2,3:2|0:0|0:0|0:0|0:0|0:0|0:0,0:0:0:0:
266,366,131646,2,0,P|214:360|140:353,1,102.5,8|0,0:0|0:0,0:0:0:0:
33,178,131939,6,0,P|43:144|46:119,1,51.25,0|0,3:0|3:0,0:0:0:0:
211,8,132085,1,2,3:2:0:0:
211,8,132158,1,2,3:2:0:0:
211,8,132231,2,0,L|222:80,1,51.25,10|0,0:0|0:0,0:0:0:0:
145,257,132378,1,4,0:0:0:0:
482,33,132670,5,2,3:2:0:0:
470,36,132743,1,2,3:2:0:0:
458,39,132816,1,4,3:2:0:0:
304,156,132963,1,0,0:0:0:0:
465,268,133109,6,0,P|474:216|480:161,1,102.5,4|0,0:0|0:0,0:0:0:0:
96,36,133402,1,6,0:1:0:0:
