osu file format v14

[General]
AudioFilename: audio.mp3
AudioLeadIn: 0
PreviewTime: 49180
Countdown: 0
SampleSet: Soft
StackLeniency: 0.6
Mode: 0
LetterboxInBreaks: 0
WidescreenStoryboard: 1

[Editor]
Bookmarks: 1253,10619,19985,29351,38717,49253,67985,71409,84699,103256,112622,124329
DistanceSpacing: 1.1
BeatDivisor: 4
GridSize: 32
TimelineZoom: 1.9

[Metadata]
Title:Boku no Yume, Mecha Kuso Mugen Waki
TitleUnicode:ぼくの夢、メチャクソ無限湧き
Artist:t+pazolite & Camellia feat. Nanahira
ArtistUnicode:t+pazolite & かめりあ feat. ななひら
Creator:Len
Version:Hard
Source:WACCA
Tags:electronic ARuFa はちぷよ Hachipuyo japanese video game rhythm arcade jpop j-pop pop [Karcher] Karcher Fast
BeatmapID:2546546
BeatmapSetID:1224369

[Difficulty]
HPDrainRate:5
CircleSize:4
OverallDifficulty:6.3
ApproachRate:8
SliderMultiplier:1.4
SliderTickRate:1

[Events]
//Background and Video events
0,0,"me.jpg",0,0
//Break Periods
2,84899,95949
//Storyboard Layer 0 (Background)
//Storyboard Layer 1 (Fail)
//Storyboard Layer 2 (Pass)
//Storyboard Layer 3 (Foreground)
//Storyboard Layer 4 (Overlay)
//Storyboard Sound Samples

[TimingPoints]
83,292.682926829268,4,2,22,75,1,0
19912,-100,4,2,22,5,0,0
19985,-100,4,2,22,50,0,0
29351,-100,4,2,22,80,0,0
38717,-100,4,2,22,50,0,0
45741,-100,4,2,22,70,0,0
48961,-100,4,2,2,70,0,0
49253,-100,4,2,22,85,0,1
67692,-100,4,2,22,70,0,1
67985,428.571428571429,4,2,22,70,1,0
68413,-200,4,2,22,60,0,0
70556,-200,4,2,2,50,0,0
71413,-100,4,2,22,70,0,0
96699,-100,4,2,22,30,0,0
97144,500,4,2,22,30,1,0
97644,600,4,2,22,30,1,0
98244,750,4,2,22,30,1,0
98994,-100,4,2,22,50,0,0
99744,292.682926829268,4,2,22,70,1,0
102963,-100,4,2,2,60,0,0
103256,-100,4,2,22,50,0,0
104280,-100,4,2,22,60,0,0
106768,-100,4,2,22,70,0,0
107939,-100,4,2,22,60,0,0
112914,-100,4,2,22,85,0,1
124329,-100,4,2,22,70,0,0

[Colours]
Combo1 : 255,232,159
Combo2 : 172,255,172
Combo3 : 166,206,255
Combo4 : 250,154,169

[HitObjects]
256,192,9448,12,0,10326,0:0:0:0:
177,329,10619,6,0,P|108:341|41:358,2,140,4|8|0,3:1|0:0|3:0,0:0:0:0:
239,377,11351,1,0,0:0:0:0:
310,347,11497,2,0,P|317:295|323:267,1,70,8|0,3:2|0:0,0:0:0:0:
357,209,11790,6,0,P|424:225|493:237,2,140,2|8|2,3:2|3:2|3:2,0:0:0:0:
312,145,12522,1,2,0:0:0:0:
388,137,12668,2,0,P|395:96|404:62,1,70,8|2,3:2|0:0,0:0:0:0:
330,40,12961,6,0,P|399:28|466:11,2,140,4|8|0,3:2|0:0|3:0,0:0:0:0:
262,4,13692,1,0,0:0:0:0:
211,62,13839,2,0,P|210:116|206:143,1,70,8|0,3:2|0:0,0:0:0:0:
171,199,14131,6,0,P|121:191|91:189,1,70,2|2,3:2|0:0,0:0:0:0:
39,235,14424,2,0,P|44:277|43:316,1,70,8|2,3:2|0:0,0:0:0:0:
91,365,14717,1,2,3:2:0:0:
122,295,14863,1,2,0:0:0:0:
182,342,15009,2,0,P|229:349|254:355,1,70,4|0,3:2|0:0,0:0:0:0:
295,291,15302,6,0,P|360:282|435:271,2,140,4|8|0,3:2|3:2|3:0,0:0:0:0:
238,238,16034,1,0,0:0:0:0:
296,188,16180,2,0,P|304:141|311:106,1,70,8|0,3:2|0:0,0:0:0:0:
252,65,16473,6,0,P|187:56|112:45,2,140,2|8|2,3:2|3:2|3:2,0:0:0:0:
326,44,17204,1,2,0:0:0:0:
308,119,17351,2,0,P|301:153|296:188,1,70,8|2,3:2|0:0,0:0:0:0:
238,238,17643,6,0,P|190:247|98:269,1,140,4|8,3:2|3:2,0:0:0:0:
40,315,18082,1,0,0:0:0:0:
26,238,18229,2,0,L|9:197,2,35,2|2|2,3:2|3:2|3:2,0:0:0:0:
88,193,18522,2,0,P|94:138|97:112,1,70,4|4,3:2|0:0,0:0:0:0:
207,14,18961,5,2,3:2:0:0:
214,24,19034,1,2,3:2:0:0:
221,35,19107,2,0,P|290:45|323:49,1,70,4|0,3:2|0:0,0:0:0:0:
314,118,19400,2,0,P|383:128|416:132,1,70,2|0,3:2|0:0,0:0:0:0:
427,65,19692,1,6,0:1:0:0:
497,201,19985,5,12,3:1:0:0:
497,201,20570,2,0,L|486:271,1,70,2|0,0:3|0:0,0:0:0:0:
418,306,20863,2,0,L|407:376,1,70,0|0,3:0|0:0,0:0:0:0:
256,192,21156,12,8,22326,3:1:0:0:
107,274,22911,6,0,L|118:204,1,70,8|0,0:0|0:0,0:0:0:0:
84,136,23204,2,0,L|95:66,1,70,4|2,3:0|0:1,0:0:0:0:
256,192,23497,12,6,24668,3:1:0:0:
308,346,25253,6,0,P|250:352|211:357,1,70,2|0,0:3|0:0,0:0:0:0:
224,277,25546,2,0,P|258:272|293:269,1,70,0|0,3:0|0:0,0:0:0:0:
256,192,25839,12,4,27009,3:1:0:0:
204,38,27595,6,0,P|262:32|301:27,1,70,8|0,0:0|0:0,0:0:0:0:
288,107,27888,2,0,P|253:111|218:114,1,70,4|2,3:0|0:1,0:0:0:0:
256,192,28180,12,4,29351,3:2:0:0:
57,286,29936,6,0,P|110:296|131:301,1,70,0|2,3:0|0:2,0:0:0:0:
152,372,30229,2,0,P|205:362|226:357,1,70,2|2,3:2|0:2,0:0:0:0:
295,378,30522,6,0,L|313:296,1,70,0|2,3:0|0:2,0:0:0:0:
375,270,30814,1,2,3:2:0:0:
375,270,30961,1,2,0:2:0:0:
342,200,31107,2,0,P|338:157|337:120,1,70,0|2,3:0|0:2,0:0:0:0:
414,131,31400,2,0,P|415:165|418:200,1,70,0|2,3:0|0:2,0:0:0:0:
495,192,31692,6,0,L|484:46,1,140,4|2,3:2|3:0,0:0:0:0:
334,14,32278,2,0,P|261:16|163:23,1,140,4|2,3:2|3:0,0:0:0:0:
180,174,32863,2,0,L|191:247,1,70,4|2,3:2|0:2,0:0:0:0:
113,251,33156,2,0,L|102:181,1,70,4|2,3:2|0:2,0:0:0:0:
25,187,33448,2,0,L|48:344,1,140,4|4,3:2|3:2,0:0:0:0:
193,372,34034,6,0,P|234:358|274:354,1,70,4|0,3:2|3:2,0:0:0:0:
304,291,34326,2,0,P|345:308|391:313,1,70,2|0,3:2|0:0,0:0:0:0:
442,284,34619,2,0,L|448:326,2,35,2|0|2,3:2|0:0|0:0,0:0:0:0:
481,217,34912,2,0,P|487:172|494:139,1,70,2|0,3:2|0:0,0:0:0:0:
456,79,35204,6,0,P|400:88|367:92,1,70,2|2,3:2|0:2,0:0:0:0:
314,61,35497,2,0,L|312:18,2,35,2|0|2,3:2|0:0|0:0,0:0:0:0:
245,96,35790,2,0,P|238:150|239:182,1,70,2|2,3:2|0:2,0:0:0:0:
162,177,36082,2,0,P|160:142|155:107,1,70,2|2,3:2|0:2,0:0:0:0:
79,90,36375,6,0,P|66:172|57:239,1,140,4|2,3:2|3:0,0:0:0:0:
138,360,36961,2,0,P|182:368|240:285,1,140,4|2,3:2|3:0,0:0:0:0:
281,154,37546,6,0,P|322:168|351:177,1,70,4|2,3:2|0:0,0:0:0:0:
365,100,37839,2,0,P|406:114|435:123,1,70,8|2,3:0|0:0,0:0:0:0:
476,59,38131,2,0,P|480:122|486:209,1,140,4|2,3:0|3:2,0:0:0:0:
440,262,38570,1,2,3:2:0:0:
494,316,38717,1,4,3:1:0:0:
256,192,39302,12,8,42522,0:0:0:0:
64,69,43107,5,2,0:0:0:0:
64,69,43400,6,0,P|127:60|163:147,1,140,8|8,0:0|0:0,0:0:0:0:
209,264,43985,2,0,P|272:273|308:186,1,140,8|4,0:0|0:3,0:0:0:0:
275,67,44570,6,0,L|346:59,1,70,8|0,0:0|0:0,0:0:0:0:
403,8,44863,2,0,L|443:87,1,70,8|0,0:0|0:0,0:0:0:0:
509,90,45156,2,0,P|490:142|475:241,1,140,8|8,0:0|3:2,0:0:0:0:
509,294,45595,1,0,3:0:0:0:
256,192,45741,12,4,46912,3:2:0:0:
182,110,47497,6,0,P|203:84|222:42,1,70,4|4,3:2|3:2,0:0:0:0:
63,220,48082,6,0,P|55:276|49:374,1,140,4|4,0:0|0:0,0:0:0:0:
326,137,48961,5,12,0:0:0:0:
455,217,49253,5,4,3:2:0:0:
455,217,49400,1,10,0:0:0:0:
455,217,49546,2,0,P|447:170|441:137,1,70,4|10,3:2|0:0,0:0:0:0:
467,74,49839,1,4,3:2:0:0:
400,34,49985,2,0,P|358:48|239:62,1,140,10|10,0:0|0:0,0:0:0:0:
202,14,50424,5,2,3:2:0:0:
178,87,50570,2,0,P|139:73|71:144,1,140,10|10,0:2|0:2,0:0:0:0:
11,180,51009,2,0,P|20:219|23:265,1,70,10|2,3:2|3:2,0:0:0:0:
100,244,51302,2,0,P|91:283|88:329,1,70,8|2,3:2|0:2,0:0:0:0:
130,377,51595,6,0,P|181:364|222:361,1,70,2|2,3:2|3:2,0:0:0:0:
217,287,51887,2,0,P|268:300|309:303,1,70,10|8,3:2|0:2,0:0:0:0:
330,364,52180,1,2,3:2:0:0:
395,324,52326,2,0,P|391:281|391:241,1,70,2|10,3:2|3:2,0:0:0:0:
460,221,52619,6,0,P|477:181|400:103,2,140,0|8|8,0:0|0:0|0:0,0:0:0:0:
394,179,53351,1,2,3:2:0:0:
325,214,53497,1,8,0:0:0:0:
325,214,53644,2,0,P|290:206|256:200,1,70,12|0,3:2|0:0,0:0:0:0:
191,159,53936,5,4,3:2:0:0:
191,159,54082,1,10,0:0:0:0:
191,159,54229,2,0,L|115:174,1,70,4|10,3:2|0:0,0:0:0:0:
71,230,54522,1,4,3:2:0:0:
45,157,54668,2,0,L|58:83,1,70,10|8,0:0|3:2,0:0:0:0:
51,10,54961,1,10,0:2:0:0:
121,39,55107,6,0,P|170:32|212:27,1,70,0|10,0:0|0:2,0:0:0:0:
195,107,55400,2,0,P|244:100|286:95,1,70,8|10,3:2|0:2,0:0:0:0:
340,85,55692,2,0,P|332:154|324:235,1,140,2|8,3:2|3:2,0:0:0:0:
275,283,56131,1,2,0:2:0:0:
332,334,56278,6,0,P|373:343|406:353,1,70,2|0,3:2|0:0,0:0:0:0:
475,337,56570,2,0,P|461:289|456:242,1,70,10|10,3:2|0:2,0:0:0:0:
407,210,56863,1,2,3:2:0:0:
407,210,57009,2,0,P|426:165|433:131,1,70,2|10,3:2|3:2,0:0:0:0:
456,71,57302,6,0,P|404:61|311:32,1,140,2|2,0:2|0:0,0:0:0:0:
295,108,57741,2,0,P|244:113|152:130,1,140,4|0,3:2|3:2,0:0:0:0:
109,67,58180,1,0,0:0:0:0:
38,97,58326,2,0,P|32:145|26:184,1,70,4|0,3:2|0:0,0:0:0:0:
86,232,58619,5,4,3:2:0:0:
86,232,58765,1,10,0:2:0:0:
86,232,58912,2,0,P|93:282|94:315,1,70,4|10,3:2|0:2,0:0:0:0:
170,295,59204,1,4,3:2:0:0:
175,373,59351,2,0,P|228:361|323:350,1,140,10|10,0:2|0:0,0:0:0:0:
347,281,59790,5,2,3:2:0:0:
280,241,59936,2,0,P|275:199|267:161,1,70,10|0,0:2|0:0,0:0:0:0:
286,96,60229,1,10,0:2:0:0:
286,96,60375,2,0,P|220:110|129:130,1,140,10|8,3:2|3:2,0:0:0:0:
95,70,60814,1,2,0:2:0:0:
39,124,60961,6,0,P|47:157|53:192,1,70,2|2,3:2|3:2,0:0:0:0:
47,269,61253,2,0,P|85:257|118:249,1,70,10|8,3:2|0:0,0:0:0:0:
127,325,61546,2,0,P|160:333|194:344,1,70,2|2,3:2|3:2,0:0:0:0:
229,275,61839,1,8,3:2:0:0:
289,322,61985,6,0,P|336:314|442:305,2,140,0|8|8,0:0|0:0|0:0,0:0:0:0:
299,245,62717,1,2,3:2:0:0:
229,275,62863,1,8,0:0:0:0:
229,275,63010,2,0,P|220:240|210:207,1,70,12|0,3:2|0:0,0:0:0:0:
250,142,63302,5,4,3:2:0:0:
250,142,63448,1,10,0:0:0:0:
250,142,63595,2,0,P|285:147|340:152,1,70,4|10,3:2|0:0,0:0:0:0:
367,90,63887,1,4,3:2:0:0:
433,129,64034,2,0,P|436:201|444:273,1,140,10|10,0:0|0:0,0:0:0:0:
457,344,64473,5,2,3:2:0:0:
383,323,64619,2,0,P|332:336|216:347,1,140,10|10,0:0|3:2,0:0:0:0:
175,312,65058,2,0,L|165:373,2,46.6666666666667,8|0|4,3:2|3:0|3:0,0:0:0:0:
147,290,65351,2,0,L|139:243,2,46.6666666666667,0|0|4,3:3|0:0|0:3,0:0:0:0:
77,322,65643,5,6,3:2:0:0:
77,322,66229,6,0,B|30:303|30:303|62:203,1,140,4|2,0:0|0:0,0:0:0:0:
22,56,66814,6,0,L|95:67,1,70,4|4,3:2|3:2,0:0:0:0:
138,213,67253,6,0,L|211:225,1,70,4|4,3:2|3:2,0:0:0:0:
327,127,67692,6,0,L|476:150,1,140,4|4,0:0|0:1,0:0:0:0:
473,143,68413,6,2,B|463:166|463:166|470:188|470:188|459:208|459:208|462:227|462:227|455:252|455:252|456:282,1,140,2|2,3:1|0:2,0:1:0:0:
256,192,69377,12,12,70556,0:0:0:0:
48,82,71413,6,0,P|85:40|174:64,2,140,6|2|2,3:2|1:2|3:2,0:0:0:0:
96,142,72485,1,0,0:0:0:0:
36,191,72699,1,2,1:2:0:0:
80,253,72913,1,0,0:0:0:0:
54,325,73127,6,0,P|101:274|182:301,1,140,2|2,3:2|1:2,0:0:0:0:
237,255,73770,1,0,0:0:0:0:
274,322,73985,1,2,3:2:0:0:
340,283,74199,1,0,0:0:0:0:
410,313,74413,6,0,P|419:246|437:159,1,140,2|2,3:2|1:1,0:0:0:0:
374,124,75056,1,2,0:0:0:0:
408,55,75270,2,0,P|364:11|282:38,1,140,2|2,3:2|1:1,0:0:0:0:
216,18,75913,1,2,0:0:0:0:
170,80,76127,6,0,P|179:127|186:167,1,70,2|2,3:2|1:1,0:0:0:0:
105,145,76556,2,0,P|114:192|121:232,1,70,2|2,1:1|1:1,0:0:0:0:
41,223,76985,2,0,P|50:270|62:370,1,140,2|4,1:1|1:2,0:0:0:0:
215,354,77842,6,0,P|280:369|329:322,2,140,6|2|2,3:2|1:2|3:2,0:0:0:0:
154,305,78913,1,0,0:0:0:0:
203,246,79127,1,2,1:2:0:0:
142,197,79342,1,0,0:0:0:0:
175,127,79556,6,0,P|127:120|14:101,2,140,2|2|2,3:2|1:2|3:2,0:0:0:0:
284,18,80842,1,2,1:2:0:0:
428,69,81270,6,0,P|420:124|418:218,1,140,4|2,3:2|1:0,0:0:0:0:
479,254,81913,1,2,0:0:0:0:
442,321,82127,2,0,P|381:295|279:296,1,140,2|2,3:2|1:0,0:0:0:0:
268,224,82770,1,2,0:0:0:0:
201,263,82985,6,0,L|196:343,1,70,2|2,3:2|1:0,0:0:0:0:
120,344,83413,2,0,L|124:274,1,70,2|2,1:0|1:0,0:0:0:0:
56,237,83842,2,0,L|42:390,2,140,2|4|4,1:0|1:2|0:1,0:0:0:0:
256,192,96699,12,4,98994,3:1:0:0:
72,69,100329,6,0,L|151:61,1,70,0|0,0:0|0:0,0:0:0:0:
168,134,100622,2,0,L|98:141,1,70,0|0,0:0|0:0,0:0:0:0:
41,192,100914,6,0,L|53:279,1,70,4|4,3:2|3:2,0:0:0:0:
252,374,101500,6,0,L|242:304,1,70,4|0,3:2|0:0,0:0:0:0:
468,255,102085,6,0,B|482:209|482:209|362:239,1,140,4|4,0:0|0:0,0:0:0:0:
363,159,102524,1,0,0:0:0:0:
307,211,102670,2,0,L|316:280,1,70,0|0,0:0|0:0,0:0:0:0:
242,304,102963,2,0,L|252:374,1,70,12|0,0:0|0:0,0:0:0:0:
328,382,103256,5,4,3:1:0:0:
328,382,104280,5,4,3:2:0:0:
392,340,104426,2,0,L|382:270,1,70,4|4,3:2|3:2,0:0:0:0:
429,124,104865,5,4,3:2:0:0:
357,154,105012,1,4,3:2:0:0:
273,25,105304,2,0,L|224:17,4,35,0|0|0|0|4,3:0|3:0|3:0|3:0|1:0,0:0:0:0:
66,351,106622,5,0,3:2:0:0:
66,351,106695,1,0,3:2:0:0:
66,351,106768,2,0,P|52:298|23:253,2,105,4|2|2,0:2|0:0|0:2,0:0:0:0:
137,322,107353,2,0,P|151:277|148:205,2,105,4|2|2,3:2|0:2|0:2,0:0:0:0:
202,362,107939,6,0,P|246:350|274:348,1,70,4|2,3:1|0:0,0:0:0:0:
295,275,108231,2,0,P|339:287|367:289,1,70,2|2,0:0|0:0,0:0:0:0:
412,348,108524,1,2,0:0:0:0:
474,303,108670,2,0,P|468:263|463:156,1,140,2|0,0:0|0:0,0:0:0:0:
386,152,109109,6,0,P|396:103|398:63,1,70,2|0,0:0|0:0,0:0:0:0:
361,14,109402,2,0,P|313:8|278:5,1,70,2|2,0:0|0:0,0:0:0:0:
228,50,109695,2,0,P|240:99|254:202,1,140,2|2,0:0|0:0,0:0:0:0:
211,253,110134,1,0,0:0:0:0:
256,192,110280,12,6,111451,0:1:0:0:
53,73,112036,6,0,P|103:64|142:56,1,70,0|0,3:3|0:0,0:0:0:0:
143,134,112329,2,0,P|93:143|54:151,1,70,2|0,3:2|3:0,0:0:0:0:
31,211,112622,6,0,P|21:256|12:292,1,70,4|0,3:2|0:0,0:0:0:0:
62,339,112914,6,0,P|101:326|146:324,1,70,6|10,3:2|0:2,0:0:0:0:
161,252,113207,1,4,3:2:0:0:
231,282,113353,1,10,0:2:0:0:
231,282,113500,2,0,P|241:333|242:360,1,70,4|10,0:2|0:2,0:0:0:0:
312,382,113792,5,2,3:2:0:0:
376,339,113939,2,0,P|383:268|402:185,1,140,10|10,0:2|0:2,0:0:0:0:
470,175,114378,2,0,P|492:122|429:52,1,140,10|8,3:2|3:2,0:0:0:0:
393,4,114817,1,2,0:2:0:0:
352,69,114963,6,0,P|304:74|266:83,1,70,2|2,3:2|3:2,0:0:0:0:
249,148,115256,2,0,P|193:131|163:130,1,70,10|8,3:2|0:2,0:0:0:0:
114,93,115548,2,0,P|108:55|100:18,1,70,0|2,3:2|3:2,0:0:0:0:
25,38,115841,1,10,3:2:0:0:
25,38,115987,6,0,P|34:94|46:190,1,140,0|8,0:0|0:2,0:0:0:0:
108,220,116426,2,0,P|94:265|89:293,1,70,2|8,3:2|0:2,0:0:0:0:
128,354,116719,2,0,P|178:344|216:341,1,70,2|8,3:2|0:2,0:0:0:0:
241,278,117012,2,0,P|296:297|326:304,1,70,12|0,3:2|0:0,0:0:0:0:
373,338,117304,6,0,P|385:295|396:262,1,70,4|10,3:2|0:0,0:0:0:0:
450,218,117597,1,4,3:2:0:0:
398,160,117743,2,0,L|395:104,2,35,10|0|4,0:2|3:2|3:2,0:0:0:0:
341,213,118036,2,0,P|295:205|257:197,1,70,10|4,0:2|3:2,0:0:0:0:
195,207,118329,1,10,0:2:0:0:
195,207,118402,1,0,0:0:0:0:
195,207,118475,6,0,L|188:152,7,35,4|2|8|0|4|2|8|0,3:2|3:2|0:0|0:0|3:2|3:2|0:0|0:0,0:0:0:0:
170,159,119061,2,0,P|184:96|194:20,2,140,8|10|4,3:2|3:2|0:1,0:0:0:0:
12,309,120231,5,6,3:2:0:0:
148,237,120524,1,2,0:0:0:0:
225,370,120817,6,0,P|275:378|311:381,1,70,4|4,3:2|3:2,0:0:0:0:
430,308,121256,6,0,P|395:304|360:298,1,70,4|4,3:2|3:2,0:0:0:0:
232,212,121695,6,0,L|228:163,4,35,4|0|0|0|4,3:2|0:0|3:0|0:0|3:2,0:0:0:0:
225,370,122573,5,6,3:2:0:0:
360,298,122865,1,2,0:0:0:0:
232,212,123158,6,0,L|216:125,1,70,6|6,3:2|3:2,0:0:0:0:
328,33,123597,6,0,L|315:101,1,70,6|6,3:2|3:2,0:0:0:0:
343,253,124036,6,0,P|389:244|435:240,1,70,2|2,0:1|0:0,0:0:0:0:
467,294,124329,6,0,P|502:269|485:177,1,140,4|8,3:1|0:0,0:0:0:0:
436,127,124768,1,0,0:0:0:0:
367,162,124914,2,0,P|316:148|275:142,1,70,0|0,3:0|0:0,0:0:0:0:
278,70,125207,2,0,P|227:84|186:90,1,70,8|0,0:0|0:0,0:0:0:0:
169,152,125500,6,0,P|164:88|118:18,2,140,2|8|2,3:2|0:0|3:2,0:0:0:0:
99,183,126231,1,2,0:0:0:0:
144,245,126378,2,0,P|131:298|129:327,1,70,8|2,0:0|0:0,0:0:0:0:
166,380,126670,6,0,P|117:351|26:321,2,140,4|8|0,3:2|0:0|3:0,0:0:0:0:
211,317,127402,1,0,0:0:0:0:
275,357,127548,2,0,P|319:346|349:345,1,70,8|0,0:0|0:0,0:0:0:0:
412,378,127841,6,0,P|458:344|451:268,1,140,2|8,3:2|0:0,0:0:0:0:
390,219,128280,1,2,0:0:0:0:
390,219,128426,2,0,P|404:163|404:133,1,70,2|2,3:2|0:2,0:0:0:0:
470,107,128719,2,0,P|446:54|383:52,1,105,4|0,3:2|0:0,0:0:0:0:
395,35,129012,6,0,L|386:93,3,35,0|0|0|0,3:2|3:0|3:0|3:0,0:0:0:0:
325,117,129304,6,0,P|316:75|303:37,1,70,4|0,3:2|0:0,0:0:0:0:
237,80,129597,2,0,P|195:66|148:58,1,70,0|0,3:0|3:0,0:0:0:0:
103,20,129890,2,0,P|71:34|21:43,1,70,8|2,0:0|0:0,0:0:0:0:
9,113,130183,5,2,3:2:0:0:
61,182,130329,1,0,3:0:0:0:
61,182,130402,1,0,3:0:0:0:
61,182,130475,2,0,P|47:232|46:274,1,70,8|0,3:2|3:0,0:0:0:0:
44,327,130768,1,0,3:0:0:0:
111,289,130914,1,0,0:0:0:0:
158,350,131061,2,0,P|197:361|229:374,1,70,8|0,0:0|0:0,0:0:0:0:
236,297,131353,6,0,P|281:289|370:252,1,140,4|8,3:2|0:0,0:0:0:0:
431,297,131792,1,0,0:0:0:0:
487,243,131939,2,0,P|474:193|470:161,1,70,0|2,3:0|3:2,0:0:0:0:
485,99,132231,2,0,P|419:87|393:79,1,70,10|0,0:0|0:0,0:0:0:0:
285,24,132670,5,2,3:2:0:0:
285,24,132743,1,2,3:2:0:0:
285,24,132817,2,0,P|273:76|266:110,1,70,4|0,3:2|0:0,0:0:0:0:
213,145,133109,2,0,P|165:119|127:107,1,70,4|0,0:0|0:0,0:0:0:0:
143,36,133402,5,6,0:1:0:0:
