osu file format v14

[General]
AudioFilename: audio.mp3
AudioLeadIn: 0
PreviewTime: 49180
Countdown: 0
SampleSet: Soft
StackLeniency: 0
Mode: 0
LetterboxInBreaks: 0
WidescreenStoryboard: 1

[Editor]
Bookmarks: 1253,10619,19985,29351,38717,49253,67985,71409,84699,103256,112622,124329
DistanceSpacing: 0.9
BeatDivisor: 4
GridSize: 32
TimelineZoom: 1.9

[Metadata]
Title:Boku no Yume, Mecha Kuso Mugen Waki
TitleUnicode:ぼくの夢、メチャクソ無限湧き
Artist:t+pazolite & Camellia feat. Nanahira
ArtistUnicode:t+pazolite & かめりあ feat. ななひら
Creator:Len
Version:Classic Another
Source:WACCA
Tags:electronic ARuFa はちぷよ Hachipuyo japanese video game rhythm arcade jpop j-pop pop [Karcher] Karcher Fast
BeatmapID:2546844
BeatmapSetID:1224369

[Difficulty]
HPDrainRate:4
CircleSize:9
OverallDifficulty:9
ApproachRate:7.5
SliderMultiplier:1.05
SliderTickRate:1

[Events]
//Background and Video events
0,0,"seal2.png",0,0
//Break Periods
2,20184,28526
2,84899,95874
//Storyboard Layer 0 (Background)
//Storyboard Layer 1 (Fail)
//Storyboard Layer 2 (Pass)
//Storyboard Layer 3 (Foreground)
//Storyboard Layer 4 (Overlay)
//Storyboard Sound Samples

[TimingPoints]
83,292.682926829268,4,2,22,75,1,0
19985,-100,4,2,22,50,0,0
29351,-100,4,2,22,80,0,0
38717,-100,4,2,22,50,0,0
45741,-100,4,2,22,70,0,0
48961,-100,4,2,2,70,0,0
49253,-100,4,2,22,85,0,1
67692,-100,4,2,22,70,0,1
67985,428.571428571429,4,2,22,70,1,0
68413,-200,4,2,22,60,0,0
70556,-200,4,2,2,50,0,0
71413,-100,4,2,22,70,0,0
96699,-100,4,2,22,30,0,0
97144,500,4,2,22,30,1,0
97644,600,4,2,22,30,1,0
98244,750,4,2,22,30,1,0
98994,-100,4,2,22,50,0,0
99744,292.682926829268,4,2,22,70,1,0
102963,-100,4,2,2,60,0,0
103256,-100,4,2,22,50,0,0
104280,-100,4,2,22,60,0,0
106768,-100,4,2,22,70,0,0
107939,-100,4,2,22,60,0,0
112914,-100,4,2,22,85,0,1
119061,-166.666666666667,4,2,22,85,0,1
124329,-100,4,2,22,70,0,0

[Colours]
Combo1 : 255,232,159
Combo2 : 172,255,172
Combo3 : 166,206,255
Combo4 : 250,154,169

[HitObjects]
69,218,10619,6,0,P|109:207|144:258,1,105,4|8,3:1|0:0,0:0:0:0:
121,294,11058,1,0,0:0:0:0:
154,329,11204,2,0,P|148:357|145:395,1,52.5,0|0,3:0|0:0,0:0:0:0:
202,306,11497,2,0,P|192:282|188:251,1,52.5,8|0,3:2|0:0,0:0:0:0:
201,357,11790,5,2,3:2:0:0:
245,340,11936,1,2,0:0:0:0:
245,340,12009,1,2,0:0:0:0:
245,340,12082,2,0,P|250:304|257:275,1,52.5,8|0,3:2|0:0,0:0:0:0:
280,244,12375,2,0,P|243:246|205:251,1,52.5,2|2,3:2|0:0,0:0:0:0:
213,200,12668,2,0,P|239:197|265:196,1,52.5,8|2,3:2|0:0,0:0:0:0:
317,271,12961,6,0,P|328:236|395:238,1,105,4|8,3:2|0:0,0:0:0:0:
456,281,13400,1,0,0:0:0:0:
413,326,13546,2,0,P|410:300|408:274,1,52.5,0|0,3:0|0:0,0:0:0:0:
441,235,13839,2,0,B|446:208|450:176,1,52.5,8|0,3:2|0:0,0:0:0:0:
414,84,14131,5,2,3:2:0:0:
408,171,14278,1,2,0:0:0:0:
483,133,14424,1,8,3:2:0:0:
432,130,14570,1,2,0:0:0:0:
432,130,14717,6,0,L|442:247,1,105,2|4,3:2|3:2,0:0:0:0:
328,31,15302,6,0,P|311:19|274:85,1,105,4|8,3:2|3:2,0:0:0:0:
294,102,15741,1,0,0:0:0:0:
264,138,15887,2,0,P|229:143|196:153,1,52.5,0|0,3:0|0:0,0:0:0:0:
293,174,16180,2,0,P|297:206|302:233,1,52.5,8|0,3:2|0:0,0:0:0:0:
341,250,16473,5,2,3:2:0:0:
301,275,16619,1,2,0:0:0:0:
301,275,16692,1,2,0:0:0:0:
301,275,16765,1,8,3:2:0:0:
259,251,16912,1,0,0:0:0:0:
242,294,17058,2,0,P|245:320|249:345,1,52.5,2|2,3:2|0:0,0:0:0:0:
189,285,17351,2,0,P|192:311|196:336,1,52.5,8|2,3:2|0:0,0:0:0:0:
139,302,17643,6,0,B|117:315|117:315|130:230,1,105,4|8,3:2|3:2,0:0:0:0:
170,213,18082,1,0,0:0:0:0:
138,177,18229,1,2,3:2:0:0:
128,185,18302,1,2,3:2:0:0:
117,192,18375,1,2,3:2:0:0:
104,195,18448,1,2,3:2:0:0:
91,195,18521,1,4,3:2:0:0:
76,150,18668,1,4,0:0:0:0:
8,231,18961,5,2,3:2:0:0:
8,231,19034,1,2,3:2:0:0:
8,231,19107,2,0,P|10:257|14:283,1,52.5,4|0,3:2|0:0,0:0:0:0:
157,334,19400,2,0,P|131:337|111:353,1,52.5,2|0,3:2|0:0,0:0:0:0:
48,383,19692,2,0,P|58:336|76:268,1,105,6|12,0:1|3:1,0:0:0:0:
74,85,29351,6,0,L|142:77,1,52.5,4|2,3:2|0:2,0:0:0:0:
159,22,29643,1,2,3:2:0:0:
177,26,29716,1,0,0:0:0:0:
192,39,29789,1,0,0:0:0:0:
199,57,29862,1,0,0:0:0:0:
196,76,29936,1,0,3:0:0:0:
174,121,30082,1,2,0:2:0:0:
174,121,30156,1,2,0:2:0:0:
174,121,30229,2,0,L|235:114,1,52.5,2|2,3:2|0:2,0:0:0:0:
386,135,30522,6,0,L|318:127,1,52.5,0|2,3:0|0:2,0:0:0:0:
319,52,30814,1,2,3:2:0:0:
301,56,30887,1,2,0:2:0:0:
286,69,30960,1,2,0:2:0:0:
279,87,31033,1,0,0:0:0:0:
282,106,31107,2,0,P|285:132|283:170,1,52.5,0|2,3:0|0:2,0:0:0:0:
337,193,31400,1,0,3:0:0:0:
255,239,31546,1,2,0:2:0:0:
335,284,31692,6,0,P|377:279|439:276,1,105,4|2,3:2|3:0,0:0:0:0:
309,240,32131,1,2,3:2:0:0:
356,336,32278,2,0,P|333:290|283:285,1,105,4|2,3:2|3:0,0:0:0:0:
218,364,32717,1,0,0:0:0:0:
234,267,32863,6,0,P|240:310|242:332,1,52.5,4|2,3:2|0:2,0:0:0:0:
174,328,33156,2,0,P|168:371|166:393,1,52.5,4|2,3:2|0:2,0:0:0:0:
109,280,33448,2,0,P|88:253|137:196,1,105,4|4,3:2|3:2,0:0:0:0:
161,217,33887,1,2,0:2:0:0:
81,160,34034,5,4,3:2:0:0:
81,160,34107,2,0,P|76:128|68:93,1,52.5,0|0,0:0|0:0,0:0:0:0:
88,92,34326,2,0,L|92:63,2,26.25,2|0|0,3:2|0:0|0:0,0:0:0:0:
72,23,34619,1,2,3:2:0:0:
142,46,34765,1,2,0:0:0:0:
142,46,34839,1,0,0:0:0:0:
142,46,34912,2,0,P|167:42|195:40,1,52.5,2|0,3:2|0:0,0:0:0:0:
221,117,35204,5,2,3:2:0:0:
234,118,35277,1,2,0:2:0:0:
247,119,35350,1,2,0:2:0:0:
260,120,35423,1,2,0:2:0:0:
273,121,35496,1,2,3:2:0:0:
351,70,35643,1,2,0:0:0:0:
351,70,35717,1,2,0:0:0:0:
351,70,35790,2,0,L|360:37,2,26.25,2|0|2,3:2|0:0|0:2,0:0:0:0:
353,163,36082,1,2,3:2:0:0:
319,119,36229,1,2,0:2:0:0:
319,119,36375,6,0,P|312:79|297:6,1,105,4|2,3:2|3:0,0:0:0:0:
381,247,36961,2,0,P|402:207|462:217,1,105,4|2,3:2|3:0,0:0:0:0:
231,277,37546,5,4,3:2:0:0:
329,322,37692,1,2,0:0:0:0:
231,349,37839,5,8,3:0:0:0:
334,256,37985,1,2,0:0:0:0:
285,368,38131,6,0,P|279:340|272:307,1,52.5,4|2,3:0|0:0,0:0:0:0:
274,316,38351,1,2,3:2:0:0:
274,316,38424,1,2,3:2:0:0:
188,302,38570,1,2,3:2:0:0:
246,232,38717,5,4,3:1:0:0:
231,277,39302,5,2,0:0:0:0:
188,302,39887,5,2,0:0:0:0:
139,300,40473,5,2,0:0:0:0:
98,273,41058,5,0,0:0:0:0:
86,225,41643,5,2,0:0:0:0:
100,178,42229,5,0,0:0:0:0:
142,150,42814,5,2,0:0:0:0:
100,178,43400,5,8,0:0:0:0:
86,225,43692,1,8,0:0:0:0:
98,273,43985,1,8,0:0:0:0:
139,300,44278,1,4,0:3:0:0:
188,302,44570,1,8,0:0:0:0:
231,277,44862,1,8,0:0:0:0:
246,232,45156,1,8,0:0:0:0:
235,186,45447,1,8,3:2:0:0:
213,142,45741,5,8,3:2:0:0:
217,93,45887,1,0,0:0:0:0:
254,58,46034,1,0,3:0:0:0:
302,48,46180,1,0,0:0:0:0:
345,74,46326,1,8,3:2:0:0:
364,120,46473,1,0,3:0:0:0:
352,168,46619,1,8,3:2:0:0:
313,199,46765,1,8,3:2:0:0:
263,198,46912,6,0,L|257:138,1,52.5,4|4,3:2|3:2,0:0:0:0:
89,351,47497,6,0,L|95:291,1,52.5,4|4,3:2|3:2,0:0:0:0:
447,140,48083,6,0,L|453:80,1,52.5,4|0,0:0|0:0,0:0:0:0:
390,22,48375,2,0,B|351:13|351:13|368:90,1,105,4|0,0:0|0:0,0:0:0:0:
322,149,48814,1,0,0:0:0:0:
322,149,48961,2,0,P|302:146|264:140,1,52.5,12|0,0:0|0:0,0:0:0:0:
150,37,49253,5,4,3:2:0:0:
217,15,49400,1,10,0:0:0:0:
150,84,49546,5,4,3:2:0:0:
228,90,49692,1,10,0:0:0:0:
127,127,49839,5,4,3:2:0:0:
194,166,49985,1,10,0:0:0:0:
85,148,50131,2,0,P|83:173|81:209,1,52.5,4|10,3:2|0:0,0:0:0:0:
97,283,50424,5,2,3:2:0:0:
46,242,50570,2,0,B|115:242|72:278|152:269,1,105,10|10,0:2|0:2,0:0:0:0:
186,237,51009,2,0,P|190:204|172:178,1,52.5,10|2,3:2|3:2,0:0:0:0:
97,283,51302,2,0,L|89:342,1,52.5,8|2,3:2|0:2,0:0:0:0:
203,374,51595,5,2,3:2:0:0:
135,322,51741,1,2,3:2:0:0:
212,282,51887,1,10,3:2:0:0:
184,326,52034,1,8,0:2:0:0:
179,235,52180,2,0,P|172:208|169:174,1,52.5,2|2,3:2|3:2,0:0:0:0:
263,277,52473,2,0,P|289:282|323:303,1,52.5,10|0,3:2|0:0,0:0:0:0:
184,326,52765,5,2,3:2:0:0:
184,326,52912,2,0,L|175:368,1,26.25,8|8,0:0|0:0,0:0:0:0:
253,341,53058,5,2,3:2:0:0:
253,341,53204,2,0,L|264:378,1,26.25,8|0,0:0|0:0,0:0:0:0:
311,293,53351,5,2,3:2:0:0:
311,293,53497,2,0,L|346:322,1,26.25,8|0,0:0|0:0,0:0:0:0:
310,220,53643,6,0,P|337:216|393:205,1,78.75,12|0,3:2|0:0,0:0:0:0:
420,184,53936,5,4,3:2:0:0:
490,212,54082,1,10,0:0:0:0:
407,138,54229,5,4,3:2:0:0:
482,97,54375,1,10,0:0:0:0:
365,107,54522,5,4,3:2:0:0:
382,17,54668,1,10,0:0:0:0:
317,116,54814,2,0,P|306:91|288:58,1,52.5,8|10,3:2|0:2,0:0:0:0:
199,32,55107,5,0,0:0:0:0:
258,3,55253,2,0,P|247:43|232:109,1,105,10|10,0:2|0:2,0:0:0:0:
251,163,55692,2,0,P|229:145|195:144,1,52.5,2|2,3:2|3:2,0:0:0:0:
122,97,55985,2,0,P|162:93|194:86,1,52.5,8|2,3:2|0:2,0:0:0:0:
77,63,56278,5,2,3:2:0:0:
77,63,56424,2,0,P|67:38|52:15,1,52.5,0|10,0:0|3:2,0:0:0:0:
73,115,56717,1,10,0:2:0:0:
73,115,56863,2,0,P|55:141|48:167,1,52.5,2|2,3:2|3:2,0:0:0:0:
93,252,57156,1,10,3:2:0:0:
16,224,57302,6,0,B|78:231|48:192|123:207,1,105,2|2,0:2|0:0,0:0:0:0:
155,178,57741,1,4,3:2:0:0:
202,237,57887,2,0,P|199:198|197:174,1,52.5,0|0,0:0|3:2,0:0:0:0:
242,168,58180,1,0,0:0:0:0:
266,209,58326,2,0,P|263:235|261:261,1,52.5,4|0,3:2|0:0,0:0:0:0:
260,380,58619,5,4,3:2:0:0:
226,309,58765,1,10,0:2:0:0:
302,357,58912,5,4,3:2:0:0:
310,273,59058,1,10,0:2:0:0:
347,372,59204,5,4,3:2:0:0:
393,308,59351,1,10,0:2:0:0:
272,313,59497,2,0,P|264:274|262:245,1,52.5,4|10,3:2|0:0,0:0:0:0:
349,192,59790,5,2,3:2:0:0:
371,253,59936,2,0,P|357:218|290:216,1,105,10|10,0:2|0:2,0:0:0:0:
262,261,60375,2,0,P|222:262|140:268,1,105,10|8,3:2|3:2,0:0:0:0:
90,178,60814,1,2,0:2:0:0:
110,233,60961,6,0,P|106:260|100:297,1,52.5,2|2,3:2|3:2,0:0:0:0:
148,189,61253,2,0,P|180:177|217:174,2,52.5,10|8|2,3:2|0:0|3:2,0:0:0:0:
90,178,61693,1,2,3:2:0:0:
90,178,61839,2,0,P|67:164|50:134,1,52.5,8|0,3:2|0:0,0:0:0:0:
40,47,62131,5,2,3:2:0:0:
40,47,62278,2,0,L|20:89,1,26.25,8|8,0:0|0:0,0:0:0:0:
98,104,62424,5,2,3:2:0:0:
98,104,62570,2,0,L|97:138,1,26.25,8|0,0:0|0:0,0:0:0:0:
170,87,62717,5,2,3:2:0:0:
170,87,62863,2,0,L|188:117,1,26.25,8|0,0:0|0:0,0:0:0:0:
199,18,63009,6,0,L|288:11,1,78.75,12|0,3:2|0:0,0:0:0:0:
306,47,63302,5,4,3:2:0:0:
387,8,63448,1,10,0:0:0:0:
308,93,63595,5,4,3:2:0:0:
403,120,63741,1,10,0:0:0:0:
271,124,63887,5,4,3:2:0:0:
342,200,64034,1,10,0:0:0:0:
228,116,64180,2,0,P|223:153|217:177,1,52.5,8|10,3:2|0:2,0:0:0:0:
270,263,64473,5,2,3:2:0:0:
167,178,64619,2,0,P|198:172|234:231,1,105,10|10,0:0|3:2,0:0:0:0:
234,301,65058,2,0,L|196:294,2,35,8|0|4,3:2|3:0|3:0,0:0:0:0:
256,333,65351,2,0,L|294:326,2,35,0|0|4,3:3|0:0|0:3,0:0:0:0:
229,362,65643,5,6,3:2:0:0:
229,362,66229,5,4,0:0:0:0:
97,325,66522,1,2,0:0:0:0:
274,275,66814,5,4,3:2:0:0:
285,219,66961,1,4,3:2:0:0:
137,184,67253,5,4,3:2:0:0:
126,128,67400,1,4,3:2:0:0:
253,34,67692,6,0,P|241:75|233:143,1,105,4|4,0:0|0:1,0:0:0:0:
233,136,68413,6,2,B|250:135|261:131|261:131|276:135|276:135|286:131|286:131|300:133|300:133|316:129|316:129|328:133|345:129,1,105,2|2,3:1|0:2,0:1:0:0:
350,90,69699,5,2,0:0:0:0:
393,78,70127,5,2,0:0:0:0:
429,100,70556,5,12,0:0:0:0:
468,86,71413,6,0,L|487:24,1,52.5,6|0,3:2|0:0,0:0:0:0:
432,59,71842,2,0,L|427:7,1,52.5,2|0,1:2|0:0,0:0:0:0:
394,78,72270,2,0,L|370:32,1,52.5,2|0,3:2|0:0,0:0:0:0:
369,31,72699,1,2,1:2:0:0:
225,109,73127,6,0,L|214:169,1,52.5,2|0,3:2|0:0,0:0:0:0:
180,113,73556,2,0,L|145:152,1,52.5,2|0,1:2|0:0,0:0:0:0:
139,97,73985,2,0,L|85:108,1,52.5,2|0,3:2|0:0,0:0:0:0:
118,60,74413,6,0,P|82:51|32:40,1,78.75,2|0,3:2|0:0,0:0:0:0:
33,32,74842,2,0,P|35:60|37:88,1,52.5,2|2,1:1|0:0,0:0:0:0:
2,135,75270,2,0,P|38:126|88:115,1,78.75,2|0,3:2|0:0,0:0:0:0:
87,107,75699,2,0,P|84:135|83:163,1,52.5,2|2,1:1|0:0,0:0:0:0:
52,248,76127,6,0,P|82:237|112:248,1,52.5,2|2,3:2|1:1,0:0:0:0:
125,240,76449,1,2,0:0:0:0:
130,236,76556,6,0,P|154:256|160:287,1,52.5,2|2,1:1|1:1,0:0:0:0:
170,295,76878,1,2,1:0:0:0:
175,299,76985,6,0,P|169:330|115:350,1,78.75,2|0,1:1|0:0,0:0:0:0:
96,331,77413,1,4,1:2:0:0:
468,298,77842,6,0,L|487:360,1,52.5,6|0,3:2|0:0,0:0:0:0:
432,325,78271,2,0,L|427:377,1,52.5,2|0,1:2|0:0,0:0:0:0:
394,306,78699,2,0,L|370:352,1,52.5,2|0,3:2|0:0,0:0:0:0:
369,353,79128,1,2,1:2:0:0:
287,257,79556,6,0,L|298:197,1,52.5,2|0,3:2|0:0,0:0:0:0:
332,253,79985,2,0,L|367:214,1,52.5,2|0,1:2|0:0,0:0:0:0:
373,269,80414,2,0,L|427:258,1,52.5,2|0,3:2|0:0,0:0:0:0:
424,258,80842,1,2,1:2:0:0:
394,306,81056,1,0,0:0:0:0:
394,306,81270,6,0,P|430:315|480:326,1,78.75,4|0,3:2|0:0,0:0:0:0:
479,334,81699,2,0,P|477:306|475:278,1,52.5,2|2,1:0|0:0,0:0:0:0:
510,231,82127,2,0,P|474:240|424:251,1,78.75,2|0,3:2|0:0,0:0:0:0:
425,259,82556,2,0,P|428:231|429:203,1,52.5,2|2,1:0|0:0,0:0:0:0:
460,118,82984,6,0,P|430:129|400:118,1,52.5,2|2,3:2|1:0,0:0:0:0:
387,126,83306,1,2,0:0:0:0:
382,130,83413,6,0,P|358:110|352:79,1,52.5,2|2,1:0|1:0,0:0:0:0:
342,71,83734,1,2,1:1:0:0:
337,67,83842,6,0,P|343:36|397:16,1,78.75,2|0,1:0|0:0,0:0:0:0:
416,35,84270,1,4,1:2:0:0:
397,73,84699,5,4,0:1:0:0:
256,192,96699,12,4,98994,3:1:0:0:
75,70,100914,5,4,3:2:0:0:
231,43,101060,1,4,3:2:0:0:
100,119,101500,5,4,3:2:0:0:
256,92,101646,1,4,3:2:0:0:
114,30,101792,5,0,3:2:0:0:
114,30,101865,1,0,3:2:0:0:
114,30,101939,1,0,3:2:0:0:
114,30,102012,1,0,3:2:0:0:
114,30,102085,2,0,B|149:13|149:13|130:94,1,105,4|4,0:0|0:0,0:0:0:0:
145,211,102524,1,0,0:0:0:0:
48,128,102670,6,0,P|74:123|100:119,1,52.5,0|0,0:0|0:0,0:0:0:0:
179,179,102963,2,0,P|204:174|230:169,1,52.5,12|0,0:0|0:0,0:0:0:0:
238,127,103256,5,4,3:1:0:0:
238,127,104280,5,4,3:2:0:0:
283,197,104426,1,4,3:2:0:0:
319,101,104573,1,4,3:2:0:0:
308,53,104865,5,4,3:2:0:0:
283,129,105012,1,4,3:2:0:0:
363,115,105158,1,0,3:0:0:0:
365,115,105231,1,0,3:0:0:0:
368,116,105304,1,0,3:0:0:0:
371,117,105377,1,0,3:0:0:0:
374,118,105450,1,0,3:0:0:0:
378,119,105523,1,0,3:0:0:0:
381,120,105597,1,4,1:0:0:0:
46,309,106622,5,0,3:2:0:0:
49,325,106695,1,0,3:2:0:0:
52,341,106768,2,0,P|80:346|108:322,1,52.5,4|0,0:2|0:0,0:0:0:0:
143,354,106987,2,0,L|135:303,1,52.5,2|0,0:0|0:0,0:0:0:0:
87,264,107207,2,0,L|92:290,1,26.25,2|0,0:2|0:0,0:0:0:0:
174,278,107353,6,0,L|242:288,1,52.5,4|0,3:2|0:0,0:0:0:0:
214,242,107573,2,0,L|221:190,1,52.5,2|0,0:2|0:0,0:0:0:0:
151,196,107792,2,0,L|177:202,1,26.25,2|0,0:2|0:0,0:0:0:0:
256,158,107939,6,0,P|264:131|245:93,1,52.5,4|2,3:1|0:0,0:0:0:0:
148,86,108231,2,0,P|140:113|159:151,1,52.5,2|2,0:0|0:0,0:0:0:0:
238,66,108524,2,0,P|266:63|294:57,1,52.5,2|2,0:0|0:0,0:0:0:0:
394,64,108817,1,0,0:0:0:0:
313,106,108963,1,0,0:0:0:0:
318,13,109109,5,2,0:0:0:0:
336,66,109256,2,0,P|330:99|325:129,1,52.5,0|2,0:0|0:0,0:0:0:0:
371,206,109548,1,2,0:0:0:0:
413,133,109695,2,0,B|345:133|389:171|305:166,1,105,2|2,0:0|0:0,0:0:0:0:
271,154,110134,1,0,0:0:0:0:
282,199,110280,6,0,L|277:227,7,26.25,6|2|2|2|2|2|2|2,0:0|0:0|0:0|0:0|0:0|0:0|0:0|0:0,0:0:0:0:
271,238,110865,5,4,0:2:0:0:
274,237,110938,1,2,0:0:0:0:
277,237,111012,1,2,0:0:0:0:
280,236,111084,1,2,0:0:0:0:
284,236,111157,1,2,0:0:0:0:
287,235,111230,1,2,0:0:0:0:
290,235,111304,1,2,0:0:0:0:
293,235,111377,1,2,0:0:0:0:
297,234,111451,5,6,0:1:0:0:
46,260,112622,6,0,P|41:232|35:193,1,52.5,4|0,3:2|0:0,0:0:0:0:
126,120,112914,5,6,3:2:0:0:
91,226,113061,1,10,0:2:0:0:
164,159,113207,5,4,3:2:0:0:
59,127,113353,1,10,0:2:0:0:
137,210,113500,2,0,P|134:238|129:272,1,52.5,4|10,0:2|0:2,0:0:0:0:
208,131,113792,5,2,3:2:0:0:
185,233,113939,2,0,P|194:195|262:194,1,105,10|10,0:2|0:2,0:0:0:0:
277,235,114378,2,0,P|310:237|345:243,1,52.5,10|2,3:2|3:2,0:0:0:0:
409,145,114670,2,0,P|382:147|356:149,1,52.5,8|2,3:2|0:2,0:0:0:0:
243,121,114963,5,2,3:2:0:0:
322,189,115109,1,2,3:2:0:0:
345,82,115256,1,10,3:2:0:0:
297,140,115402,1,8,0:2:0:0:
374,201,115548,2,0,P|382:240|387:260,1,52.5,0|2,3:2|3:2,0:0:0:0:
335,333,115841,2,0,P|327:363|323:392,1,52.5,10|0,3:2|0:0,0:0:0:0:
425,288,116134,5,2,3:2:0:0:
425,288,116280,2,0,L|463:268,1,26.25,8|8,0:2|0:2,0:0:0:0:
377,354,116426,5,2,3:2:0:0:
377,354,116572,2,0,L|400:376,1,26.25,8|0,0:2|0:2,0:0:0:0:
291,329,116719,5,2,3:2:0:0:
291,329,116865,2,0,L|272:355,1,26.25,8|0,0:2|0:2,0:0:0:0:
293,247,117012,6,0,L|204:229,1,78.75,12|0,3:2|0:2,0:0:0:0:
175,214,117304,5,4,3:2:0:0:
197,340,117451,1,10,0:0:0:0:
84,291,117597,5,4,3:2:0:0:
221,298,117743,1,10,0:2:0:0:
221,298,117817,1,0,3:2:0:0:
221,298,117890,2,0,L|225:266,2,26.25,4|0|0,3:2|3:0|0:0,3:0:0:0:
114,237,118183,1,4,3:2:0:0:
119,248,118256,1,0,3:0:0:0:
123,261,118329,1,10,3:2:0:0:
126,274,118402,1,0,3:0:0:0:
128,287,118475,6,0,L|123:324,7,26.25,4|2|8|0|4|2|8|0,3:2|3:2|0:0|0:0|3:2|3:2|0:0|0:0,0:0:0:0:
143,350,119061,6,0,L|121:356,3,15.7499995193482,8|0|0|0,3:2|3:2|3:2|3:2,0:0:0:0:
86,378,119353,2,0,L|80:356,3,15.7499995193482,10|0|0|0,3:2|3:0|3:0|3:0,0:0:0:0:
34,366,119646,5,4,0:1:0:0:
34,366,120231,5,6,3:2:0:0:
73,205,120524,1,2,0:0:0:0:
227,269,120817,5,4,3:2:0:0:
237,209,120963,1,4,3:2:0:0:
111,176,121256,5,4,3:2:0:0:
101,116,121402,1,4,3:2:0:0:
281,22,121695,6,0,L|282:7,6,10.4999996795654,4|0|0|0|0|0|4,3:2|3:0|3:0|3:0|3:0|0:0|3:2,0:0:0:0:
281,22,122573,5,6,3:2:0:0:
508,125,122865,1,2,0:0:0:0:
244,180,123158,5,6,3:2:0:0:
232,239,123304,1,6,3:2:0:0:
419,295,123597,5,6,3:2:0:0:
407,236,123743,1,6,3:2:0:0:
448,212,124036,5,2,0:1:0:0:
443,166,124329,6,0,P|403:177|368:126,1,105,4|8,3:1|0:0,0:0:0:0:
391,90,124768,1,0,0:0:0:0:
358,55,124914,2,0,P|364:27|367:-11,1,52.5,0|0,3:0|0:0,0:0:0:0:
310,78,125207,2,0,P|320:102|324:133,1,52.5,8|0,0:0|0:0,0:0:0:0:
311,27,125500,5,2,3:2:0:0:
267,44,125646,1,2,0:0:0:0:
267,44,125719,1,2,0:0:0:0:
267,44,125792,2,0,P|262:80|255:109,1,52.5,8|0,0:0|0:0,0:0:0:0:
232,140,126085,2,0,P|269:138|307:133,1,52.5,2|2,3:2|0:0,0:0:0:0:
299,184,126378,2,0,P|273:187|247:188,1,52.5,8|2,0:0|0:0,0:0:0:0:
195,113,126671,6,0,P|184:148|117:146,1,105,4|8,3:2|0:0,0:0:0:0:
56,103,127110,1,0,0:0:0:0:
99,58,127256,2,0,P|102:84|104:110,1,52.5,0|0,3:0|0:0,0:0:0:0:
71,149,127549,2,0,B|66:176|62:208,1,52.5,8|0,0:0|0:0,0:0:0:0:
98,300,127841,5,2,3:2:0:0:
104,213,127988,1,2,0:0:0:0:
29,251,128134,1,8,0:0:0:0:
80,254,128280,1,2,0:0:0:0:
80,254,128427,6,0,L|70:137,1,105,2|4,3:2|3:2,0:0:0:0:
202,333,129012,5,0,3:2:0:0:
216,341,129085,1,0,3:0:0:0:
233,339,129158,1,0,3:0:0:0:
244,326,129231,1,0,3:0:0:0:
246,309,129304,1,4,3:2:0:0:
218,271,129451,1,0,0:0:0:0:
248,235,129597,2,0,P|283:230|316:220,1,52.5,0|0,3:0|3:0,0:0:0:0:
217,198,129890,1,8,0:0:0:0:
215,183,129963,1,0,0:3:0:0:
213,170,130036,1,2,0:3:0:0:
171,134,130183,5,2,3:2:0:0:
211,109,130329,1,0,3:3:0:0:
211,109,130402,1,0,3:3:0:0:
211,109,130475,1,8,3:2:0:0:
253,133,130622,1,0,3:0:0:0:
270,90,130768,2,0,P|267:64|263:39,1,52.5,0|0,3:0|0:0,0:0:0:0:
323,99,131061,1,8,0:0:0:0:
323,99,131134,1,2,3:2:0:0:
323,99,131207,1,2,3:2:0:0:
373,82,131353,6,0,B|395:69|395:69|382:154,1,105,4|8,3:2|0:0,0:0:0:0:
342,171,131792,1,0,0:0:0:0:
374,207,131939,1,0,3:0:0:0:
384,199,132012,1,0,3:0:0:0:
395,192,132085,1,2,3:2:0:0:
408,189,132158,1,2,3:2:0:0:
421,189,132231,1,10,0:0:0:0:
436,234,132378,1,0,0:0:0:0:
490,168,132524,6,0,P|485:194|481:220,1,52.5,2|2,3:2|3:2,0:0:0:0:
500,255,132743,1,2,3:2:0:0:
506,265,132817,2,0,P|480:268|455:276,1,52.5,4|0,3:2|0:0,0:0:0:0:
418,323,133109,2,0,P|412:298|403:274,1,52.5,4|0,0:0|0:0,0:0:0:0:
467,120,133402,5,6,0:1:0:0:
