osu file format v14

[General]
AudioFilename: audio.mp3
AudioLeadIn: 0
PreviewTime: 85908
Countdown: 0
SampleSet: Normal
StackLeniency: 0.7
Mode: 0
LetterboxInBreaks: 0
WidescreenStoryboard: 0

[Editor]
Bookmarks: 2999,26271,49544,61180,85908,109187,123907,141361,161725,184998
DistanceSpacing: 1.8
BeatDivisor: 4
GridSize: 4
TimelineZoom: 1.8

[Metadata]
Title:Sayonara Mata Ne
TitleUnicode:サヨナラマタネ
Artist:t+pazolite & Buta-Otome
ArtistUnicode:t+pazolite & 豚乙女
Creator:Kawa
Version:Insane
Source:
Tags:
BeatmapID:1295238
BeatmapSetID:613952

[Difficulty]
HPDrainRate:5
CircleSize:4
OverallDifficulty:7.5
ApproachRate:9.3
SliderMultiplier:1.6
SliderTickRate:1

[Events]
//Background and Video events
0,0,"bg.jpg",0,0
//Break Periods
2,135651,140761
//Storyboard Layer 0 (Background)
//Storyboard Layer 1 (Fail)
//Storyboard Layer 2 (Pass)
//Storyboard Layer 3 (Foreground)
//Storyboard Sound Samples

[TimingPoints]
90,363.636363636364,4,1,1,45,1,0
1544,-133.333333333333,4,1,1,45,0,0
1817,-133.333333333333,4,1,1,5,0,0
1908,-133.333333333333,4,1,1,45,0,0
2180,-133.333333333333,4,1,1,5,0,0
2271,-133.333333333333,4,1,1,45,0,0
2544,-133.333333333333,4,1,1,5,0,0
2635,-100,4,1,1,45,0,0
24817,-90.9090909090909,4,1,1,45,0,0
25180,-83.3333333333333,4,1,1,45,0,0
25544,-76.9230769230769,4,1,1,45,0,0
25908,-66.6666666666667,4,1,1,45,0,0
26271,-100,4,2,1,45,0,0
37908,-83.3333333333333,4,1,1,45,0,0
42271,-66.6666666666667,4,1,1,45,0,0
42453,-66.6666666666667,4,1,1,5,0,0
42544,-66.6666666666667,4,1,1,45,0,0
42726,-66.6666666666667,4,1,1,5,0,0
42817,-66.6666666666667,4,1,1,45,0,0
43271,-66.6666666666667,4,1,1,5,0,0
43362,-66.6666666666667,4,1,1,45,0,0
43726,-83.3333333333333,4,1,1,45,0,0
46635,-66.6666666666667,4,1,1,45,0,0
48180,-100,4,1,1,45,0,0
54635,-200,4,1,1,45,0,0
55362,-83.3333333333333,4,1,1,45,0,0
60453,-66.6666666666667,4,1,1,45,0,0
61180,-100,4,2,1,45,0,0
66999,-100,4,1,1,45,0,0
77180,-66.6666666666667,4,1,1,45,0,0
78635,-100,4,1,1,45,0,0
84453,-66.6666666666667,4,1,1,45,0,0
85908,-76.9230769230769,4,1,1,45,0,1
109180,-66.6666666666667,4,1,1,45,0,0
111544,-200,4,1,1,45,0,0
112271,363.636363636364,4,1,1,45,1,0
134089,-90.9090909090909,4,1,1,45,0,0
134452,-83.3333333333333,4,1,1,45,0,0
134816,-76.9230769230769,4,1,1,45,0,0
135180,-66.6666666666667,4,1,1,45,0,0
141361,-133.333333333333,4,1,1,45,0,0
142816,-100,4,1,1,45,0,0
144271,-133.333333333333,4,1,1,45,0,0
145725,-100,4,1,1,45,0,0
151543,-66.6666666666667,4,1,1,45,0,0
152998,-100,4,1,1,45,0,0
158816,-200,4,1,1,5,0,0
160271,-66.6666666666667,4,1,1,45,0,0
161725,-76.9230769230769,4,1,1,45,0,1
173361,-76.9230769230769,4,3,1,45,0,1
184998,-66.6666666666667,4,1,1,45,0,0
187361,-200,4,1,1,45,0,0
188089,363.636363636364,4,1,1,45,1,0
193179,-200,4,1,1,45,0,0
193907,-83.3333333333333,4,1,1,45,0,0
198998,-66.6666666666667,4,1,1,45,0,0
199725,-100,4,1,1,45,0,0
209907,-90.9090909090909,4,1,1,45,0,0
210270,-83.3333333333333,4,1,1,45,0,0
210634,-76.9230769230769,4,1,1,45,0,0
211361,-100,4,1,1,45,0,0
214270,-50,4,1,1,5,0,0

[Colours]
Combo1 : 255,145,145
Combo2 : 184,251,94
Combo3 : 253,199,85
Combo4 : 194,252,20

[HitObjects]
140,120,90,5,2,0:0:0:0:
220,220,1544,2,0,L|260:132,1,90.0000034332277,2|0,0:0|0:0,0:0:0:0:
316,192,1908,2,0,L|372:116,1,90.0000034332277,2|0,0:0|0:0,0:0:0:0:
412,192,2271,2,0,L|500:148,1,90.0000034332277,2|0,0:0|0:0,0:0:0:0:
468,256,2635,2,0,L|464:288,6,20,0|0|0|0|0|0|0,3:0|3:0|3:0|3:0|3:0|3:0|3:0,0:0:0:0:
456,64,2999,6,0,L|452:152,1,80,2|0,0:0|0:0,0:0:0:0:
372,92,3271,1,0,0:0:0:0:
372,92,3362,2,0,L|368:0,1,80,2|8,0:0|0:0,0:0:0:0:
184,48,3726,1,4,0:0:0:0:
207,66,3816,1,0,0:0:0:0:
230,84,3907,1,0,0:0:0:0:
253,103,3998,1,2,0:0:0:0:
276,120,4090,2,0,L|272:216,1,80,8|2,0:0|0:0,0:0:0:0:
182,260,4453,6,0,L|180:300,2,40,2|0|4,0:0|0:0|0:0,0:0:0:0:
160,336,4726,1,2,0:0:0:0:
160,336,4817,1,0,0:0:0:0:
72,276,4999,1,8,0:0:0:0:
272,276,5180,2,0,L|328:276,1,40,4|0,0:0|0:0,0:0:0:0:
408,352,5362,2,0,L|356:336,1,40,0|2,0:0|0:0,0:0:0:0:
336,176,5544,1,8,0:0:0:0:
272,276,5726,1,2,0:0:0:0:
336,176,5908,5,2,0:0:0:0:
164,120,6090,1,0,0:0:0:0:
164,120,6180,1,2,0:0:0:0:
164,120,6271,2,0,L|252:124,1,80,0|8,0:0|0:0,0:0:0:0:
420,220,6635,1,4,0:0:0:0:
406,242,6725,1,0,0:0:0:0:
385,259,6816,1,0,0:0:0:0:
361,269,6907,1,2,0:0:0:0:
335,271,6999,2,0,L|415:315,1,80,8|2,0:0|0:0,0:0:0:0:
504,300,7362,5,2,0:0:0:0:
504,300,7453,1,0,0:0:0:0:
512,160,7635,2,0,L|512:204,1,40,2|0,0:0|0:0,0:0:0:0:
504,300,7908,1,8,0:0:0:0:
488,92,8090,2,0,L|516:52,2,40,4|0|0,0:0|0:0|0:0,0:0:0:0:
428,200,8362,1,2,0:0:0:0:
428,200,8453,2,0,L|412:148,1,40,8|0,3:0|3:0,0:0:0:0:
392,48,8635,2,0,L|392:92,1,40,2|8,3:1|3:0,0:0:0:0:
324,128,8817,6,0,P|278:123|230:104,1,80,2|0,0:0|0:0,0:0:0:0:
178,59,9090,1,2,0:0:0:0:
178,59,9180,1,0,0:0:0:0:
264,208,9362,1,8,0:0:0:0:
244,292,9453,2,0,L|244:332,2,40,0|4|0,0:0|0:0|0:0,0:0:0:0:
84,240,9817,1,2,0:0:0:0:
93,267,9908,2,0,B|120:303|120:303|163:319,1,80,8|2,0:0|0:0,0:0:0:0:
168,308,10271,6,0,L|168:248,1,40,2|0,0:0|0:0,0:0:0:0:
200,136,10544,1,2,0:0:0:0:
200,136,10635,1,0,0:0:0:0:
168,268,10817,1,8,0:0:0:0:
116,104,10999,2,0,B|120:148|120:148|112:192,1,80,4|0,0:0|0:0,0:0:0:0:
28,144,11271,1,2,0:0:0:0:
28,144,11362,2,0,L|32:52,1,80,8|2,0:0|0:0,0:0:0:0:
31,64,11726,5,2,0:0:0:0:
180,48,11908,2,0,L|208:84,1,40,0|2,0:0|0:0,0:0:0:0:
248,196,12090,2,0,L|300:116,1,80,8|2,0:0|0:0,0:0:0:0:
312,40,12362,2,0,L|312:0,2,40,0|6|0,0:0|0:0|0:0,0:0:0:0:
428,96,12726,1,2,0:0:0:0:
440,108,12817,2,0,P|436:156|416:200,1,80,8|2,0:0|0:0,0:0:0:0:
380,303,13180,6,0,L|396:340,2,40,2|0|8,3:1|3:0|3:3,0:0:0:0:
292,192,13453,1,2,3:1:0:0:
292,217,13543,1,2,0:0:0:0:
292,243,13634,1,8,0:3:0:0:
292,268,13726,2,0,L|292:320,1,40,2|8,3:1|3:3,0:0:0:0:
332,380,13908,1,12,3:0:0:0:
155,326,14090,1,2,3:0:0:0:
160,216,14271,2,0,L|112:184,1,40,2|2,0:0|0:0,0:0:0:0:
0,176,14453,2,0,L|48:216,1,40,2|2,0:0|0:0,0:0:0:0:
155,326,14635,5,2,0:0:0:0:
236,264,14817,1,0,0:0:0:0:
236,264,14908,1,2,0:0:0:0:
236,264,14999,2,0,L|244:176,1,80,8|2,0:0|0:0,0:0:0:0:
188,36,15362,2,0,P|180:80|196:124,1,80,2|0,0:0|0:0,0:0:0:0:
376,100,15726,1,12,0:0:0:0:
348,8,15908,1,2,0:0:0:0:
260,76,16090,6,0,L|264:128,1,40,2|0,0:0|0:0,0:0:0:0:
280,228,16362,1,2,0:0:0:0:
280,228,16453,1,0,0:0:0:0:
376,100,16635,1,8,0:0:0:0:
260,76,16817,1,2,0:0:0:0:
96,152,16999,2,0,L|136:153,1,40,2|0,0:0|0:0,0:0:0:0:
232,154,17180,1,12,0:3:0:0:
71,151,17362,1,2,0:0:0:0:
232,154,17544,5,10,0:3:0:0:
112,264,17726,1,0,0:0:0:0:
96,278,17816,1,2,0:0:0:0:
81,293,17907,1,8,0:0:0:0:
152,188,18090,1,2,0:0:0:0:
184,324,18271,2,0,L|184:360,6,20,2|0|0|0|0|0|0,2:1|2:0|2:0|2:0|2:0|2:0|2:0,0:0:0:0:
216,244,18635,1,12,0:0:0:0:
320,324,18817,1,2,0:0:0:0:
448,176,18999,6,0,L|396:208,1,40,2|0,0:0|0:0,0:0:0:0:
300,236,19180,2,0,L|360:236,1,40,0|2,0:0|0:0,0:0:0:0:
476,268,19362,1,8,0:0:0:0:
440,344,19544,1,2,0:0:0:0:
340,156,19726,1,2,0:0:0:0:
340,156,19908,1,2,0:0:0:0:
452,72,20090,1,12,2:0:0:0:
419,57,20180,1,0,2:0:0:0:
386,43,20271,1,2,2:0:0:0:
350,44,20362,1,8,2:0:0:0:
314,46,20453,5,2,0:0:0:0:
312,232,20635,1,0,0:0:0:0:
312,232,20726,1,2,0:0:0:0:
312,232,20817,2,0,B|320:188|320:188|312:144,1,80,8|2,0:0|0:0,0:0:0:0:
168,88,21180,1,2,0:0:0:0:
124,172,21362,2,0,L|120:220,2,40,0|0|12,0:0|0:0|0:0,0:0:0:0:
216,216,21726,1,2,0:0:0:0:
216,216,21817,1,0,0:0:0:0:
216,216,21908,6,0,L|212:300,1,80,2|0,0:0|0:0,0:0:0:0:
148,360,22180,1,2,0:0:0:0:
148,360,22271,1,8,0:0:0:0:
216,216,22453,1,2,0:0:0:0:
304,296,22635,1,0,0:0:0:0:
304,296,22726,2,0,L|340:232,1,40,2|2,0:0|0:0,0:0:0:0:
392,136,22999,1,14,0:3:0:0:
396,304,23180,1,2,0:0:0:0:
392,136,23362,5,10,0:3:0:0:
284,88,23544,1,0,0:0:0:0:
244,89,23634,1,0,0:0:0:0:
204,91,23726,1,8,0:0:0:0:
316,68,23908,1,2,0:0:0:0:
288,248,24090,2,0,L|288:276,4,20,2|0|0|0|0,0:1|0:0|0:0|0:0|0:0,0:0:0:0:
232,176,24362,1,0,0:0:0:0:
232,176,24453,1,12,0:0:0:0:
144,240,24635,1,2,0:0:0:0:
144,240,24726,1,0,0:0:0:0:
144,240,24817,6,0,L|120:304,1,44.0000013427735,2|0,0:0|0:0,0:0:0:0:
188,384,24999,2,0,B|208:320,1,44.0000013427735,8|2,0:0|0:0,0:0:0:0:
136,212,25180,2,0,L|108:284,1,47.9999985351563,0|8,0:0|0:0,0:0:0:0:
208,376,25362,2,0,L|224:320,1,47.9999985351563,2|8,0:0|0:0,0:0:0:0:
216,136,25544,2,0,L|268:164,1,51.999997619629,2|8,0:0|0:0,0:0:0:0:
432,176,25726,2,0,L|376:152,1,51.999997619629,2|8,0:0|0:0,0:0:0:0:
178,148,25908,2,0,L|242:181,1,60.0000022888184,8|0,0:0|0:0,0:0:0:0:
480,152,26090,2,0,L|416:124,1,60.0000022888184,2|0,0:0|0:0,0:0:0:0:
256,60,26271,6,0,P|288:88|328:96,1,80,0|0,0:0|0:0,0:0:0:0:
388,40,26635,1,0,0:0:0:0:
404,128,26817,2,0,L|404:172,1,40,0|0,0:0|0:0,0:0:0:0:
436,196,26999,2,0,P|440:235|436:276,1,80,0|0,0:0|0:0,0:0:0:0:
400,360,27362,1,0,0:0:0:0:
328,296,27544,1,0,0:0:0:0:
328,296,27635,1,0,0:0:0:0:
328,296,27726,6,0,P|276:280|236:288,1,80,0|0,0:0|0:0,0:0:0:0:
172,336,28090,1,0,0:0:0:0:
280,356,28271,2,0,P|308:288|296:200,1,160,0|0,0:0|0:0,0:0:0:0:
248,104,28817,2,0,B|240:144|240:144|276:112,1,80,0|0,0:0|0:0,0:0:0:0:
384,72,29180,6,0,L|384:156,1,80,0|0,0:0|0:0,0:0:0:0:
420,240,29544,1,0,0:0:0:0:
338,271,29726,2,0,L|298:227,1,40,0|0,0:0|0:0,0:0:0:0:
284,268,29908,2,0,L|232:208,1,80,0|0,0:0|0:0,0:0:0:0:
144,192,30271,1,0,0:0:0:0:
72,244,30453,1,0,0:0:0:0:
72,244,30544,1,0,0:0:0:0:
72,244,30635,6,0,P|112:276|148:280,1,80,0|0,0:0|0:0,0:0:0:0:
208,316,30999,1,0,0:0:0:0:
144,192,31180,2,0,P|137:163|148:196,1,160,0|0,0:0|0:0,0:0:0:0:
56,156,31726,2,0,L|8:132,2,40,0|0|0,0:0|0:0|0:0,0:0:0:0:
144,116,32090,6,0,L|232:84,1,80,0|0,0:0|0:0,0:0:0:0:
280,24,32453,1,0,0:0:0:0:
324,104,32635,2,0,L|324:168,1,40,0|0,0:0|0:0,0:0:0:0:
356,156,32817,2,0,B|356:200|356:200|376:256,1,80,0|0,0:0|0:0,0:0:0:0:
428,296,33180,1,0,0:0:0:0:
344,344,33362,1,0,0:0:0:0:
344,344,33453,1,0,0:0:0:0:
344,344,33544,6,0,P|300:336|264:312,1,80,0|0,0:0|0:0,0:0:0:0:
236,212,33908,1,0,0:0:0:0:
334,189,34090,2,0,P|310:293|246:321,1,160,0|0,0:0|0:0,0:0:0:0:
192,284,34635,2,0,B|152:284|152:284|108:296,1,80,0|0,0:0|0:0,0:0:0:0:
24,320,34999,6,0,L|60:232,1,80,0|0,0:0|0:0,0:0:0:0:
48,156,35362,1,0,0:0:0:0:
112,80,35544,2,0,L|156:56,1,40,0|0,0:0|0:0,0:0:0:0:
172,92,35726,2,0,B|212:72|212:72|276:72,1,80,0|0,0:0|0:0,0:0:0:0:
332,104,36090,1,0,0:0:0:0:
276,180,36271,1,0,0:0:0:0:
276,180,36362,1,0,0:0:0:0:
276,180,36453,6,0,P|320:196|372:184,1,80,0|0,0:0|0:0,0:0:0:0:
440,184,36817,2,0,L|440:248,1,40,0|0,0:0|0:0,0:0:0:0:
376,264,36999,2,0,L|376:312,1,40,0|0,0:0|0:0,0:0:0:0:
304,376,37180,2,0,L|304:328,2,40,0|0|0,0:0|0:0|0:0,0:0:0:0:
252,260,37544,2,0,P|212:276|188:304,1,80,0|0,0:0|0:0,0:0:0:0:
188,303,37908,6,0,L|184:192,1,95.9999970703126,6|0,0:0|0:0,0:0:0:0:
176,76,38271,1,8,0:0:0:0:
100,136,38453,1,2,0:0:0:0:
100,136,38544,1,0,0:0:0:0:
100,136,38635,2,0,L|44:156,2,47.9999985351563,8|0|0,3:0|3:0|3:0,0:0:0:0:
268,132,38999,1,2,0:0:0:0:
316,211,39180,1,0,0:0:0:0:
244,328,39362,6,0,L|184:312,1,47.9999985351563,2|0,0:0|0:0,0:0:0:0:
116,244,39544,1,0,0:0:0:0:
132,240,39635,2,0,L|184:228,1,47.9999985351563,2|8,0:0|0:0,0:0:0:0:
316,211,39908,1,2,0:0:0:0:
360,304,40090,2,0,L|360:364,2,47.9999985351563,8|0|0,3:0|3:0|3:0,0:0:0:0:
356,128,40453,1,2,0:0:0:0:
408,216,40635,1,0,0:0:0:0:
408,216,40817,5,2,0:0:0:0:
361,223,40907,1,0,0:0:0:0:
316,211,40998,1,0,0:0:0:0:
279,179,41089,1,0,0:0:0:0:
260,136,41180,2,0,L|260:96,4,23.9999992675781,8|0|0|0|2,3:0|3:0|3:0|3:0|3:1,0:0:0:0:
256,296,41544,1,8,0:0:0:0:
168,224,41726,1,0,0:0:0:0:
168,224,41817,1,0,0:0:0:0:
168,224,41908,2,0,B|152:272|152:272|164:320,1,95.9999970703126,2|0,0:0|0:0,0:0:0:0:
180,344,42271,6,0,L|252:248,1,120.000004577637,2|0,0:0|0:0,0:0:0:0:
344,184,42544,2,0,L|264:296,1,120.000004577637,2|0,0:0|0:0,0:0:0:0:
264,364,42817,1,2,0:0:0:0:
360,288,42999,2,0,P|363:353|350:298,1,180.000006866455,8|0,3:0|3:0,0:0:0:0:
274,281,43362,2,0,L|240:252,6,30.0000011444092,0|0|0|0|0|0|0,3:0|3:0|3:0|2:0|3:0|2:0|3:0,0:0:0:0:
392,184,43726,6,0,L|332:184,1,47.9999985351563,6|0,2:1|2:0,0:0:0:0:
264,112,43908,2,0,L|320:112,1,47.9999985351563,4|0,2:1|2:0,0:0:0:0:
416,156,44090,2,0,L|360:156,1,47.9999985351563,4|0,2:1|2:0,0:0:0:0:
228,140,44271,2,0,L|288:140,1,47.9999985351563,6|0,2:1|2:0,0:0:0:0:
408,72,44453,1,8,0:0:0:0:
496,108,44635,1,0,0:0:0:0:
460,232,44817,1,2,0:0:0:0:
460,232,44908,1,2,0:0:0:0:
460,232,44999,1,0,0:0:0:0:
344,152,45180,6,0,L|352:216,1,47.9999985351563,2|0,0:0|0:0,0:0:0:0:
352,220,45362,1,0,0:0:0:0:
356,240,45453,1,2,0:0:0:0:
292,352,45544,2,0,B|272:304|272:304|280:240,1,95.9999970703126,8|0,0:0|0:0,0:0:0:0:
284,96,45908,2,0,L|284:60,2,23.9999992675781,8|0|0,3:1|3:3|3:3,0:0:0:0:
236,188,46090,1,0,0:0:0:0:
152,208,46271,1,2,0:0:0:0:
175,125,46453,1,0,0:0:0:0:
208,52,46635,6,0,B|216:112|216:112|193:178|193:178|204:268,1,180.000006866455,2|0,0:0|0:0,0:0:0:0:
204,344,46999,2,0,P|156:316|192:304,1,120.000004577637,4|2,0:0|0:0,0:0:0:0:
340,352,47362,2,0,L|284:232,1,120.000004577637,8|4,3:0|3:0,0:0:0:0:
292,148,47635,2,0,L|348:280,1,120.000004577637,8|4,3:0|3:0,0:0:0:0:
416,328,47908,2,0,L|360:208,1,120.000004577637,8|2,3:0|3:1,0:0:0:0:
312,124,48180,6,0,L|312:80,2,40,8|4|2,3:0|3:0|3:1,0:0:0:0:
224,72,48453,1,8,3:0:0:0:
242,36,48544,1,8,3:0:0:0:
273,12,48634,1,2,3:1:0:0:
311,1,48725,1,8,3:0:0:0:
351,8,48817,2,0,L|375:7,14,20,8|0|0|0|0|0|0|0|0|0|0|0|0|0|0,2:3|2:0|2:0|2:0|2:0|2:0|2:0|2:0|2:0|2:0|2:0|2:0|2:0|2:0|2:0,0:0:0:0:
164,28,49544,5,2,0:0:0:0:
76,148,49726,2,0,L|44:196,2,40,0|2|8,0:0|0:0|0:0,0:0:0:0:
80,56,50090,1,2,0:0:0:0:
156,196,50271,1,2,0:0:0:0:
320,196,50453,2,0,L|376:196,1,40,0|0,0:0|0:0,0:0:0:0:
296,196,50635,1,8,0:0:0:0:
228,136,50817,1,2,0:0:0:0:
164,276,50999,5,2,3:1:0:0:
140,284,51089,1,0,3:1:0:0:
118,292,51180,1,0,3:1:0:0:
94,300,51271,1,2,3:1:0:0:
70,307,51362,2,0,B|104:336|104:336|160:332,1,80,8|2,0:0|0:0,0:0:0:0:
256,304,51726,1,10,0:3:0:0:
296,196,51908,1,2,0:0:0:0:
256,304,52090,1,8,0:3:0:0:
228,136,52271,1,2,0:0:0:0:
380,212,52453,6,0,P|412:180|428:133,1,80,2|0,0:0|0:0,0:0:0:0:
436,56,52726,1,2,0:0:0:0:
436,32,52817,2,0,L|436:0,2,20,8|0|0,3:1|3:0|3:0,0:0:0:0:
500,164,52999,1,2,0:0:0:0:
344,136,53180,1,2,0:0:0:0:
380,288,53362,2,0,L|380:336,1,40,0|0,0:0|0:0,0:0:0:0:
380,212,53544,1,8,0:0:0:0:
292,328,53726,1,2,0:0:0:0:
292,328,53908,6,0,L|272:276,1,40,2|0,0:0|0:0,0:0:0:0:
172,228,54090,2,0,L|188:272,1,40,0|2,0:0|0:0,0:0:0:0:
272,196,54271,2,0,L|252:144,1,40,8|0,0:3|0:0,0:0:0:0:
152,96,54453,2,0,L|168:140,1,40,2|0,0:0|0:0,0:0:0:0:
220,24,54635,6,0,P|148:0|84:20,1,140,2|0,0:2|0:0,0:0:0:0:
92,144,55362,5,2,0:0:0:0:
28,236,55544,2,0,L|0:280,2,47.9999985351563,0|2|8,0:0|0:0|0:0,0:0:0:0:
104,124,55908,1,2,0:0:0:0:
100,292,56090,1,2,0:0:0:0:
232,264,56271,2,0,L|292:252,1,47.9999985351563,0|0,0:0|0:0,0:0:0:0:
196,272,56453,1,8,0:0:0:0:
72,300,56635,1,2,0:0:0:0:
176,180,56817,5,2,3:1:0:0:
221,165,56907,1,0,3:1:0:0:
268,172,56998,1,0,3:1:0:0:
307,199,57089,1,2,3:1:0:0:
331,240,57180,1,8,0:0:0:0:
240,336,57362,2,0,L|196:352,2,23.9999992675781,2|0|0,3:1|0:0|0:0,0:0:0:0:
356,348,57544,1,10,0:3:0:0:
440,288,57726,1,2,0:0:0:0:
356,348,57908,1,8,0:3:0:0:
408,188,58090,1,2,0:0:0:0:
408,188,58271,6,0,P|376:136|372:88,1,95.9999970703126,2|0,0:0|0:0,0:0:0:0:
400,12,58544,1,2,0:0:0:0:
400,12,58635,1,8,0:0:0:0:
468,108,58817,1,2,0:0:0:0:
292,88,58999,1,2,0:0:0:0:
208,200,59180,2,0,L|168:252,1,47.9999985351563,0|2,0:0|0:3,0:0:0:0:
224,176,59362,1,8,0:0:0:0:
224,24,59544,1,2,0:0:0:0:
68,152,59726,6,0,L|32:112,1,47.9999985351563,2|2,0:0|2:0,0:0:0:0:
80,0,59908,2,0,L|116:40,1,47.9999985351563,4|2,0:0|0:0,0:0:0:0:
156,184,60090,1,8,3:0:0:0:
142,215,60180,1,8,3:0:0:0:
118,239,60271,1,8,3:0:0:0:
87,252,60362,1,8,3:0:0:0:
53,253,60453,2,0,L|24:296,2,30.0000011444092,2|0|0,0:0|0:0|0:0,0:0:0:0:
208,320,60635,2,0,B|236:336|236:336|284:344,1,60.0000022888184,2|0,0:0|0:0,0:0:0:0:
76,356,60817,1,8,0:3:0:0:
248,232,60999,1,2,0:0:0:0:
352,344,61180,5,0,0:0:0:0:
360,360,61362,1,0,0:0:0:0:
420,192,62635,5,0,0:0:0:0:
408,208,62817,1,0,0:0:0:0:
256,156,64090,5,0,0:0:0:0:
268,172,64271,1,0,0:0:0:0:
352,40,65544,5,0,0:0:0:0:
348,60,65726,1,0,0:0:0:0:
152,84,66999,6,0,P|160:140|220:196,1,120,6|2,0:0|0:0,0:0:0:0:
284,188,67362,2,0,B|268:148|268:148|220:96,1,80,8|2,0:0|0:0,0:0:0:0:
242,120,67635,1,0,0:0:0:0:
242,120,67726,1,2,0:0:0:0:
240,256,67908,1,0,0:0:0:0:
328,268,68090,2,0,P|356:240|372:200,1,80,8|2,0:3|0:3,0:0:0:0:
368,60,68453,6,0,L|392:188,1,120,6|2,0:0|0:0,0:0:0:0:
480,232,68817,2,0,B|484:184|484:184|472:136,1,80,8|2,0:0|0:0,0:0:0:0:
468,140,69090,1,0,0:0:0:0:
460,124,69180,2,0,B|448:64|448:64|464:32,1,80,2|2,0:0|0:0,0:0:0:0:
390,177,69544,1,8,0:3:0:0:
320,120,69726,1,2,0:3:0:0:
272,248,69908,6,0,P|216:272|132:260,1,120,6|2,0:0|0:0,0:0:0:0:
96,204,70271,2,0,B|140:188|140:188|192:192,1,80,8|2,0:0|0:0,0:0:0:0:
173,190,70544,1,0,0:0:0:0:
173,190,70635,1,2,0:0:0:0:
160,352,70817,1,0,0:0:0:0:
80,304,70999,2,0,P|76:260|96:208,1,80,8|2,0:3|0:3,0:0:0:0:
188,80,71362,5,2,0:0:0:0:
188,80,71453,2,0,P|188:128|172:172,1,80,0|2,0:0|0:0,0:0:0:0:
96,204,71726,1,8,0:0:0:0:
64,100,71908,2,0,L|116:112,1,40,2|0,0:0|0:0,0:0:0:0:
260,152,72090,1,8,3:0:0:0:
276,156,72271,1,8,3:0:0:0:
324,68,72453,2,0,L|324:20,2,40,2|8|2,3:0|3:0|3:0,0:0:0:0:
376,236,72817,6,0,B|376:140|376:140|396:100,1,120,6|2,0:0|0:0,0:0:0:0:
440,8,73180,1,8,0:0:0:0:
490,124,73362,1,2,0:0:0:0:
490,124,73544,2,0,P|511:164|512:120,1,120,2|0,0:0|0:0,0:0:0:0:
352,140,73908,1,8,0:3:0:0:
396,220,74090,1,2,0:3:0:0:
252,256,74271,6,0,P|208:212|204:140,1,120,6|2,0:0|0:0,0:0:0:0:
224,72,74635,1,8,0:0:0:0:
288,172,74817,2,0,L|292:308,1,120,2|2,0:0|0:0,0:0:0:0:
240,368,75180,1,2,0:0:0:0:
388,300,75362,2,0,B|364:342|364:342|327:364,1,80,8|2,0:3|0:3,0:0:0:0:
120,356,75726,6,0,P|168:300|228:300,1,120,6|2,0:0|0:0,0:0:0:0:
210,295,76090,1,8,0:0:0:0:
192,124,76271,1,2,0:0:0:0:
192,124,76453,1,2,0:0:0:0:
252,196,76635,1,0,0:0:0:0:
108,248,76817,2,0,B|88:204|88:204|96:156,1,80,8|2,0:3|0:3,0:0:0:0:
236,60,77180,6,0,B|266:77|266:77|272:120|272:120|324:148,1,120.000004577637,8|2,1:0|1:0,0:0:0:0:
309,139,77453,1,2,1:0:0:0:
309,139,77544,1,8,1:0:0:0:
388,188,77726,2,0,L|388:228,2,30.0000011444092,8|0|0,2:0|2:0|2:0,0:0:0:0:
388,48,77908,2,0,L|388:132,1,60.0000022888184,4|2,2:0|2:0,0:0:0:0:
280,192,78090,2,0,L|315:128,1,60.0000022888184,4|2,2:0|2:0,0:0:0:0:
460,120,78271,1,8,3:0:0:0:
482,150,78361,1,0,0:0:0:0:
489,188,78452,1,0,0:0:0:0:
478,224,78543,1,0,0:0:0:0:
451,252,78635,6,0,P|388:252|332:288,1,120.000004577637,6|2,0:0|0:0,0:0:0:0:
268,360,78999,1,8,0:0:0:0:
168,260,79180,1,2,0:0:0:0:
168,260,79362,2,0,P|135:292|181:288,1,120,2|0,0:0|0:0,0:0:0:0:
216,124,79726,1,8,0:3:0:0:
272,196,79908,1,2,0:3:0:0:
136,180,80090,6,0,P|120:124|144:60,1,120,6|2,0:0|0:0,0:0:0:0:
220,12,80453,1,8,0:0:0:0:
394,53,80635,2,0,B|318:89|318:89|274:69,1,120,2|2,0:0|0:0,0:0:0:0:
286,74,80999,1,2,0:0:0:0:
388,204,81180,1,8,0:3:0:0:
352,280,81362,1,2,0:3:0:0:
480,184,81544,6,0,P|444:132|364:116,1,120,6|2,0:0|0:0,0:0:0:0:
304,152,81908,1,8,0:0:0:0:
352,280,82090,1,2,0:0:0:0:
352,280,82271,1,2,0:0:0:0:
272,332,82453,1,0,0:0:0:0:
216,184,82635,2,0,B|252:212|252:212|280:256,1,80,8|2,0:3|0:3,0:0:0:0:
136,252,82999,6,0,P|112:196|132:120,1,120,6|2,0:0|0:0,0:0:0:0:
224,32,83362,2,0,B|224:80|224:80|200:120,1,80,8|2,0:0|0:0,0:0:0:0:
72,176,83726,1,2,0:0:0:0:
72,176,83908,1,2,0:0:0:0:
216,184,84090,2,0,L|280:188,2,40,8|8|2,0:3|0:3|0:3,0:0:0:0:
324,100,84453,6,0,B|288:232,1,120.000004577637,2|0,1:0|1:0,0:0:0:0:
308,320,84726,2,0,L|340:200,1,120.000004577637,2|0,1:0|1:0,0:0:0:0:
396,148,84999,2,0,L|376:228,1,60.0000022888184,2|0,1:0|1:0,0:0:0:0:
400,304,85180,1,2,3:0:0:0:
407,274,85270,1,0,3:0:0:0:
414,245,85362,1,2,3:0:0:0:
422,216,85453,1,0,3:0:0:0:
429,187,85544,2,0,L|460:164,6,30.0000011444092,0|0|0|0|0|0|0,1:0|1:0|1:0|1:0|1:0|1:0|1:0,0:0:0:0:
294,154,85908,6,0,B|346:139|346:139|406:150,1,103.999995239258,2|2,0:0|0:0,0:0:0:0:
248,252,86271,1,8,0:0:0:0:
212,116,86453,1,0,3:0:0:0:
200,96,86544,1,0,3:0:0:0:
188,76,86635,2,0,P|160:128|148:184,1,103.999995239258,0|8,3:0|0:3,0:0:0:0:
164,352,86908,2,0,P|192:308|207:257,1,103.999995239258,2|0,0:0|0:0,0:0:0:0:
207,258,87180,1,8,0:3:0:0:
32,204,87362,6,0,P|64:252|120:276,1,103.999995239258,2|2,0:0|0:0,0:0:0:0:
272,184,87726,1,0,3:0:0:0:
291,217,87816,1,0,3:0:0:0:
299,254,87907,1,2,3:1:0:0:
293,292,87998,1,0,3:0:0:0:
275,326,88090,2,0,B|224:292|224:292|276:272,1,103.999995239258,0|10,0:0|0:3,0:0:0:0:
464,280,88362,2,0,P|437:326|390:353,1,103.999995239258,0|0,0:0|0:0,0:0:0:0:
395,351,88635,1,10,0:3:0:0:
428,160,88817,6,0,L|447:124,2,25.9999988098145,2|2|2,0:0|0:0|0:0,0:0:0:0:
368,256,88999,1,8,0:3:0:0:
280,148,89180,1,0,0:0:0:0:
280,120,89271,1,0,0:0:0:0:
280,92,89362,2,0,L|280:32,2,51.999997619629,2|0|8,0:0|0:0|0:3,0:0:0:0:
160,208,89726,1,8,0:3:0:0:
168,76,89817,2,0,B|146:131|146:131|154:179,1,103.999995239258,2|0,0:0|0:0,0:0:0:0:
128,292,90090,1,8,0:3:0:0:
288,280,90271,5,2,0:0:0:0:
288,372,90453,1,2,0:0:0:0:
472,224,90635,1,0,3:0:0:0:
445,197,90725,1,0,0:0:0:0:
410,183,90816,1,8,3:0:0:0:
372,186,90907,1,0,3:0:0:0:
336,204,90999,2,0,L|364:248,1,51.999997619629,8|0,3:0|3:0,0:0:0:0:
460,368,91180,2,0,L|424:304,1,51.999997619629,2|0,3:0|3:0,0:0:0:0:
288,280,91362,2,0,L|316:328,1,51.999997619629,4|0,3:0|3:0,0:0:0:0:
499,268,91544,2,0,L|459:204,1,51.999997619629,2|0,3:0|3:0,0:0:0:0:
396,112,91726,5,8,0:3:0:0:
216,168,91908,2,0,P|272:184|312:152,1,103.999995239258,2|0,0:0|0:0,0:0:0:0:
280,48,92180,1,0,0:0:0:0:
268,32,92271,1,8,0:3:0:0:
188,184,92453,2,0,L|176:244,2,51.999997619629,0|0|8,0:0|0:0|0:3,0:0:0:0:
140,56,92726,2,0,B|108:96|108:96|108:164,1,103.999995239258,2|0,0:0|0:0,0:0:0:0:
108,264,92999,1,8,0:3:0:0:
228,352,93180,6,0,L|284:328,1,51.999997619629,2|0,0:0|0:0,0:0:0:0:
328,236,93362,2,0,L|380:268,1,51.999997619629,2|0,0:0|0:0,0:0:0:0:
476,352,93544,1,8,0:3:0:0:
476,352,93635,1,8,0:3:0:0:
476,352,93726,2,0,B|488:296|488:296|472:224,1,103.999995239258,2|0,0:0|0:0,0:0:0:0:
400,112,93999,1,0,0:0:0:0:
384,88,94090,2,0,P|384:140|404:196,1,103.999995239258,10|0,0:3|0:0,0:0:0:0:
456,300,94453,1,10,0:3:0:0:
484,168,94635,6,0,L|492:132,2,25.9999988098145,2|2|2,0:0|0:0|0:0,0:0:0:0:
376,264,94817,2,0,B|324:252|324:252|272:204,1,103.999995239258,8|0,0:3|0:0,0:0:0:0:
292,104,95090,1,0,0:0:0:0:
292,83,95180,2,0,P|235:95|176:82,1,103.999995239258,2|0,0:0|0:0,0:0:0:0:
24,44,95544,1,8,0:3:0:0:
15,75,95635,1,2,0:0:0:0:
15,107,95725,1,0,0:0:0:0:
24,138,95816,1,0,0:0:0:0:
42,165,95908,1,8,0:3:0:0:
116,296,96090,5,2,0:0:0:0:
136,176,96271,1,2,0:0:0:0:
196,332,96453,2,0,L|196:372,2,25.9999988098145,6|0|0,0:3|0:0|0:0,0:0:0:0:
199,124,96635,2,0,L|196:92,2,25.9999988098145,6|0|0,0:3|0:0|0:0,0:0:0:0:
304,296,96817,1,0,3:0:0:0:
351,298,96907,1,0,3:0:0:0:
396,283,96998,1,2,3:1:0:0:
432,251,97089,1,0,3:0:0:0:
452,208,97180,2,0,L|464:344,1,103.999995239258,8|2,0:3|0:0,0:0:0:0:
392,144,97544,6,0,B|443:126|443:126|503:134,1,103.999995239258,2|2,0:0|0:0,0:0:0:0:
344,208,97907,1,8,0:0:0:0:
280,64,98089,1,0,3:0:0:0:
268,44,98180,1,0,3:0:0:0:
256,24,98271,2,0,P|228:76|216:132,1,103.999995239258,0|8,3:0|0:3,0:0:0:0:
92,236,98544,2,0,P|120:192|135:141,1,103.999995239258,2|0,0:0|0:0,0:0:0:0:
116,4,98816,1,8,0:3:0:0:
134,142,98998,6,0,P|166:190|222:214,1,103.999995239258,2|2,0:0|0:0,0:0:0:0:
384,284,99362,1,0,3:0:0:0:
352,287,99452,1,0,3:0:0:0:
321,290,99543,1,2,3:1:0:0:
290,294,99634,1,0,3:0:0:0:
258,297,99726,2,0,B|200:320|200:320|136:304,1,103.999995239258,0|10,0:0|0:3,0:0:0:0:
344,212,99998,2,0,P|396:204|447:223,1,103.999995239258,0|0,0:0|0:0,0:0:0:0:
442,220,100271,1,10,0:3:0:0:
336,68,100453,6,0,L|336:36,2,25.9999988098145,2|2|2,0:0|0:0|0:0,0:0:0:0:
356,184,100635,1,8,0:3:0:0:
188,148,100816,1,0,0:0:0:0:
163,133,100907,1,0,0:0:0:0:
139,119,100998,2,0,L|87:89,2,51.999997619629,2|0|8,0:0|0:0|0:3,0:0:0:0:
212,236,101362,1,8,0:3:0:0:
284,124,101453,2,0,B|276:182|276:182|246:220,1,103.999995239258,2|0,0:0|0:0,0:0:0:0:
280,332,101726,1,8,0:3:0:0:
76,264,101907,5,2,0:0:0:0:
164,336,102089,1,2,0:0:0:0:
324,248,102271,1,0,3:0:0:0:
348,229,102361,1,0,0:0:0:0:
373,210,102452,1,8,3:0:0:0:
398,192,102543,1,0,3:0:0:0:
423,173,102636,2,0,L|380:120,1,51.999997619629,8|0,3:0|3:0,0:0:0:0:
256,32,102817,2,0,L|292:76,1,51.999997619629,2|0,3:0|3:0,0:0:0:0:
432,120,102999,2,0,L|399:79,1,51.999997619629,4|0,3:0|3:0,0:0:0:0:
244,84,103181,2,0,L|276:124,1,51.999997619629,2|0,3:0|3:0,0:0:0:0:
284,272,103362,5,8,0:3:0:0:
400,296,103544,2,0,P|429:248|424:191,1,103.999995239258,2|0,0:0|0:0,0:0:0:0:
428,202,103816,1,0,0:0:0:0:
428,202,103907,1,8,0:3:0:0:
492,316,104089,2,0,L|512:372,2,51.999997619629,0|0|8,0:0|0:0|0:3,0:0:0:0:
332,340,104362,2,0,B|371:372|371:372|439:373,1,103.999995239258,2|0,0:0|0:0,0:0:0:0:
348,229,104635,1,8,0:3:0:0:
236,288,104817,6,0,L|184:260,1,51.999997619629,2|0,0:0|0:0,0:0:0:0:
32,212,104999,2,0,L|52:260,1,51.999997619629,2|0,0:0|0:0,0:0:0:0:
144,360,105180,1,8,0:3:0:0:
144,360,105271,1,8,0:3:0:0:
144,360,105362,2,0,B|156:304|156:304|140:232,1,103.999995239258,2|0,0:0|0:0,0:0:0:0:
108,120,105635,1,0,0:0:0:0:
97,134,105726,2,0,P|147:145|206:138,1,103.999995239258,10|0,0:3|0:0,0:0:0:0:
256,32,106089,1,10,0:3:0:0:
276,200,106271,6,0,L|284:232,2,25.9999988098145,2|2|2,0:0|0:0|0:0,0:0:0:0:
340,56,106453,2,0,B|360:105|360:105|352:175,1,103.999995239258,8|0,0:3|0:0,0:0:0:0:
196,176,106726,1,0,0:0:0:0:
185,191,106817,2,0,B|196:248|196:248|241:291,1,103.999995239258,2|0,0:0|0:0,0:0:0:0:
395,242,107180,1,8,0:3:0:0:
370,220,107270,1,2,0:0:0:0:
340,206,107361,1,0,0:0:0:0:
309,199,107452,1,0,0:0:0:0:
276,200,107543,1,8,0:3:0:0:
64,280,107726,5,2,0:0:0:0:
164,344,107907,1,2,0:0:0:0:
172,172,108089,2,0,L|146:140,2,25.9999988098145,6|0|0,0:3|0:0|0:0,0:0:0:0:
312,296,108271,2,0,L|335:317,2,25.9999988098145,6|0|0,0:3|0:0|0:0,0:0:0:0:
312,64,108453,1,0,3:0:0:0:
361,65,108543,1,0,3:0:0:0:
405,85,108634,1,2,3:1:0:0:
437,123,108725,1,0,3:0:0:0:
451,170,108817,2,0,L|328:148,1,103.999995239258,8|2,0:3|0:0,0:0:0:0:
29,27,109180,6,0,B|60:88|60:88|65:151,1,120.000004577637,2|0,0:0|0:0,0:0:0:0:
29,219,109543,1,8,0:0:0:0:
376,332,109726,6,0,B|292:340|292:340|232:320,1,120.000004577637,2|0,0:0|0:0,0:0:0:0:
168,288,110090,1,8,0:0:0:0:
252,12,110271,5,2,0:0:0:0:
308,260,110453,1,2,0:0:0:0:
360,40,110635,5,2,0:0:0:0:
168,288,110817,1,2,0:0:0:0:
188,208,111544,6,0,L|248:256,1,60,2|0,0:0|0:0,0:0:0:0:
268,272,111908,2,0,L|268:208,1,60,8|0,0:0|0:0,0:0:0:0:
292,60,112271,6,0,L|292:160,1,80,2|0,0:0|0:0,0:0:0:0:
348,244,112543,2,0,L|348:188,1,40,2|8,0:0|0:0,0:0:0:0:
292,60,112816,1,2,0:0:0:0:
188,208,112998,1,8,3:1:0:0:
172,222,113088,1,0,3:0:0:0:
157,236,113179,1,0,3:0:0:0:
141,250,113270,1,2,3:1:0:0:
124,264,113361,2,0,P|108:224|112:168,1,80,8|2,3:3|0:0,0:0:0:0:
140,36,113725,6,0,P|192:80|256:92,1,120,10|2,0:3|0:0,0:0:0:0:
336,48,114089,1,8,0:0:0:0:
272,184,114271,1,2,0:0:0:0:
372,304,114452,1,8,3:1:0:0:
392,269,114542,1,0,3:1:0:0:
403,231,114634,2,0,L|368:176,1,40,0|2,3:1|3:1,3:1:0:0:
464,320,114816,1,8,3:3:0:0:
460,124,114998,1,2,0:0:0:0:
260,104,115180,6,0,P|296:132|344:140,1,80,10|0,0:3|0:0,0:0:0:0:
368,36,115452,2,0,L|312:68,1,40,2|8,0:0|0:0,0:0:0:0:
176,160,115725,1,2,0:0:0:0:
100,24,115907,1,8,3:1:0:0:
89,46,115997,1,0,3:1:0:0:
85,70,116088,1,0,3:1:0:0:
86,94,116179,1,2,3:1:0:0:
93,118,116271,2,0,P|88:172|68:216,1,80,8|2,3:3|0:0,0:0:0:0:
68,340,116634,5,10,0:3:0:0:
184,224,116816,2,0,L|232:196,1,40,0|2,0:0|0:0,0:0:0:0:
256,264,116998,2,0,L|312:264,1,40,8|0,0:0|0:0,0:0:0:0:
104,268,117180,1,2,0:0:0:0:
176,136,117361,2,0,L|176:88,2,40,8|0|0,3:1|3:1|3:1,3:1:0:0:
112,48,117634,1,2,3:1:0:0:
112,48,117725,1,8,3:3:0:0:
316,112,117907,2,0,L|364:96,1,40,2|8,0:0|0:0,0:0:0:0:
432,24,118089,6,0,L|436:120,1,80,10|0,0:3|0:0,0:0:0:0:
384,220,118361,2,0,L|384:172,1,40,2|8,0:0|0:0,0:0:0:0:
432,24,118634,1,2,0:0:0:0:
316,112,118816,1,8,3:1:0:0:
284,123,118906,1,0,3:1:0:0:
251,125,118997,1,0,3:1:0:0:
219,118,119088,1,2,3:1:0:0:
190,101,119180,2,0,L|116:152,1,80,8|2,3:3|0:0,0:0:0:0:
0,208,119543,6,0,B|68:212|68:212|128:240,1,120,10|2,0:3|0:0,0:0:0:0:
160,340,119907,1,8,0:0:0:0:
200,196,120089,1,2,0:0:0:0:
280,316,120271,1,8,3:1:0:0:
280,292,120361,1,0,3:1:0:0:
280,268,120452,2,0,L|304:220,1,40,0|2,3:1|3:1,3:1:0:0:
372,96,120634,1,8,3:3:0:0:
396,248,120816,1,2,0:0:0:0:
492,268,120998,5,10,0:3:0:0:
400,139,121180,1,0,0:0:0:0:
386,117,121270,1,2,0:0:0:0:
372,96,121361,1,8,0:0:0:0:
492,268,121543,1,2,0:0:0:0:
496,132,121725,2,0,L|512:96,2,40,8|0|0,3:1|3:1|3:1,3:1:0:0:
300,128,121998,1,2,3:1:0:0:
295,113,122089,2,0,P|332:96|397:102,1,80,8|0,3:3|0:0,0:0:0:0:
236,184,122452,6,0,L|176:200,1,40,10|0,0:3|0:0,0:0:0:0:
48,228,122634,2,0,L|100:228,1,40,8|2,0:3|0:0,0:0:0:0:
264,256,122816,1,0,0:0:0:0:
176,332,122907,2,0,L|176:384,1,40,8|2,0:3|0:0,0:0:0:0:
128,160,123089,2,0,L|128:116,2,40,8|8|8,0:3|0:0|0:3,0:0:0:0:
204,64,123361,2,0,L|240:8,1,40,2|8,0:0|0:3,0:0:0:0:
295,113,123543,1,2,0:0:0:0:
332,126,123633,1,2,0:0:0:0:
372,126,123724,1,2,0:0:0:0:
409,112,123815,1,2,0:0:0:0:
440,88,123907,5,14,0:0:0:0:
488,200,124089,1,0,0:0:0:0:
488,200,124180,1,2,0:0:0:0:
488,200,124271,2,0,L|440:280,1,80,8|2,0:0|0:0,0:0:0:0:
408,352,124543,2,0,B|400:308|400:308|416:264|416:264|408:212,1,120,0|0,0:0|0:0,0:0:0:0:
352,40,124998,1,8,0:0:0:0:
384,136,125180,1,2,0:0:0:0:
232,144,125362,6,0,L|276:128,1,40,2|0,0:0|0:0,0:0:0:0:
440,64,125634,1,2,0:0:0:0:
440,64,125725,1,0,0:0:0:0:
336,200,125907,1,8,0:0:0:0:
232,144,126089,1,6,0:0:0:0:
260,12,126271,2,0,L|223:27,1,40,2|0,0:0|0:0,0:0:0:0:
135,67,126452,1,8,0:3:0:0:
283,0,126634,1,2,0:0:0:0:
135,67,126816,5,10,0:3:0:0:
80,216,126998,1,0,0:0:0:0:
70,235,127088,1,2,0:0:0:0:
62,254,127179,1,8,0:0:0:0:
48,120,127362,1,2,0:0:0:0:
216,184,127543,2,0,L|248:184,6,20,2|0|0|0|0|0|0,2:1|2:0|2:0|2:0|2:0|2:0|2:0,0:0:0:0:
136,152,127907,1,8,0:0:0:0:
168,288,128089,1,2,0:0:0:0:
168,288,128271,6,0,L|232:272,1,40,2|0,0:0|0:0,0:0:0:0:
284,340,128452,2,0,L|336:328,1,40,0|2,0:0|0:0,0:0:0:0:
456,248,128634,1,8,0:0:0:0:
496,332,128816,1,2,0:0:0:0:
312,248,128998,1,2,0:0:0:0:
312,248,129180,1,2,0:0:0:0:
380,48,129361,1,8,2:0:0:0:
397,79,129451,1,0,2:0:0:0:
405,114,129542,1,2,2:0:0:0:
401,150,129633,1,8,2:0:0:0:
388,183,129724,5,2,0:0:0:0:
240,132,129907,1,0,0:0:0:0:
240,132,129998,1,2,0:0:0:0:
240,132,130089,2,0,B|280:116|280:116|328:120,1,80,8|2,0:0|0:0,0:0:0:0:
196,48,130452,1,2,0:0:0:0:
108,128,130634,2,0,L|76:156,2,40,0|0|8,0:0|0:0|0:0,0:0:0:0:
208,216,130998,1,2,0:0:0:0:
208,216,131089,1,0,0:0:0:0:
208,216,131180,6,0,B|260:236|260:236|288:236,1,80,2|0,0:0|0:0,0:0:0:0:
388,183,131452,1,2,0:0:0:0:
388,183,131543,1,8,0:0:0:0:
208,216,131725,1,2,0:0:0:0:
240,356,131907,1,4,0:0:0:0:
240,356,131998,2,0,L|252:288,1,40,2|2,0:0|0:0,0:0:0:0:
272,152,132271,1,10,0:3:0:0:
349,301,132452,1,2,0:0:0:0:
272,152,132634,5,10,0:3:0:0:
360,68,132816,1,0,0:0:0:0:
370,46,132906,1,0,0:0:0:0:
380,24,132997,1,8,0:0:0:0:
404,160,133180,1,2,0:0:0:0:
268,240,133362,2,0,L|248:259,4,20,2|0|0|0|0,0:1|0:0|0:0|0:0|0:0,0:0:0:0:
272,152,133634,1,0,0:0:0:0:
272,152,133725,1,8,0:0:0:0:
416,256,133907,1,2,0:0:0:0:
416,256,133998,1,0,0:0:0:0:
416,256,134089,6,0,L|352:272,1,44.0000013427735,2|0,0:0|0:0,0:0:0:0:
224,248,134271,2,0,L|277:236,1,44.0000013427735,8|2,0:0|0:0,0:0:0:0:
444,272,134452,2,0,L|392:284,1,47.9999985351563,4|8,0:0|0:0,0:0:0:0:
200,228,134634,2,0,L|260:216,1,47.9999985351563,2|8,0:0|0:0,0:0:0:0:
332,348,134816,2,0,L|320:296,1,51.999997619629,2|8,0:0|0:0,0:0:0:0:
348,128,134998,2,0,L|368:196,1,51.999997619629,2|8,0:0|0:0,0:0:0:0:
304,380,135180,2,0,L|288:316,1,60.0000022888184,8|0,0:0|0:0,0:0:0:0:
380,96,135361,2,0,L|400:168,1,60.0000022888184,2|0,0:0|0:0,0:0:0:0:
196,280,141361,6,0,P|232:268|260:240,1,60.0000022888184,2|0,0:0|0:0,0:0:0:0:
268,176,141725,2,0,L|284:252,1,60.0000022888184,0|0,0:0|0:0,0:0:0:0:
348,304,142089,2,0,L|332:244,1,60.0000022888184,8|0,0:0|0:0,0:0:0:0:
376,168,142452,2,0,P|404:192|416:220,1,60.0000022888184,0|0,0:0|0:0,0:0:0:0:
332,84,142816,6,0,P|340:40|368:-4,1,80,4|4,3:0|3:0,3:0:0:0:
376,168,143180,1,8,3:0:0:0:
376,168,143271,1,0,3:0:0:0:
376,168,143361,1,0,3:0:0:0:
224,76,143543,2,0,L|200:40,2,40,2|0|0,3:0|3:0|3:0,3:0:0:0:
268,176,143816,1,2,3:0:0:0:
268,176,143907,2,0,P|224:184|172:172,1,80,8|4,3:0|3:0,3:0:0:0:
68,112,144271,6,2,L|52:188,1,60.0000022888184
20,240,144634,2,0,P|54:251|84:272,1,60.0000022888184,0|0,0:0|0:0,0:0:0:0:
128,344,144998,2,0,L|156:272,1,60.0000022888184,8|0,0:0|0:0,0:0:0:0:
212,232,145361,2,0,L|184:308,1,60.0000022888184,0|0,0:0|0:0,0:0:0:0:
304,344,145725,6,0,L|308:384,2,40,4|0|0,3:0|3:0|3:0,3:0:0:0:
348,228,145998,1,2,3:0:0:0:
348,228,146089,2,0,P|380:260|432:276,1,80,8|4,3:0|3:0,3:0:0:0:
488,180,146452,2,0,L|468:128,1,40,4|0,3:0|3:0,3:0:0:0:
364,120,146634,2,0,L|320:92,1,40,4|0,3:0|3:0,3:0:0:0:
208,116,146816,1,8,3:0:0:0:
208,116,146907,1,8,3:0:0:0:
208,116,146998,1,2,3:0:0:0:
240,296,147180,6,0,L|248:200,1,80,2|0,0:0|0:0,0:0:0:0:
246,216,147543,1,8,0:0:0:0:
388,332,147725,2,0,L|364:288,1,40,0|0,0:0|0:0,0:0:0:0:
352,212,147907,2,0,P|396:220|448:212,1,80,0|0,0:0|0:0,0:0:0:0:
286,120,148271,2,0,P|242:112|190:120,1,80,8|0,0:0|0:0,0:0:0:0:
138,209,148634,6,0,L|138:253,2,40,0|0|0,0:0|0:0|0:0,0:0:0:0:
108,112,148907,1,0,0:0:0:0:
100,124,148998,2,0,L|100:228,1,80,8|0,0:0|0:0,0:0:0:0:
116,348,149361,2,0,P|160:328|208:324,1,80,0|0,0:0|0:0,0:0:0:0:
299,273,149725,2,0,P|263:245|243:205,1,80,8|0,0:0|0:0,0:0:0:0:
328,60,150088,5,0,3:0:0:0:
343,88,150179,1,0,3:0:0:0:
350,120,150270,1,0,3:0:0:0:
349,152,150361,1,0,3:0:0:0:
339,183,150452,2,0,L|348:208,2,20,0|0|0,3:0|3:0|3:0,3:0:0:0:
252,132,150634,1,0,0:0:0:0:
440,192,150816,2,0,P|424:244|396:276,1,80,0|0,0:0|0:0,0:0:0:0:
288,344,151180,2,0,P|304:292|332:260,1,80,8|0,0:0|0:0,0:0:0:0:
204,256,151543,6,0,L|76:232,1,120.000004577637,2|0,0:3|0:0,0:0:0:0:
8,176,151816,2,0,L|144:200,1,120.000004577637,2|0,0:3|0:0,0:0:0:0:
236,172,152089,1,2,0:3:0:0:
192,68,152271,2,0,P|227:41|197:68,1,180.000006866455,0|0,0:0|0:0,0:0:0:0:
100,104,152634,2,0,L|60:96,6,30.0000011444092,0|0|0|0|0|0|0,3:0|3:0|3:0|3:0|3:0|3:0|3:0,3:0:0:0:
236,172,152998,6,0,L|292:180,1,40,2|0,0:0|0:0,0:0:0:0:
404,256,153180,2,0,L|348:248,1,40,0|2,0:0|0:0,0:0:0:0:
224,292,153361,2,0,L|236:244,1,40,8|0,0:0|0:0,0:0:0:0:
360,120,153543,1,2,0:0:0:0:
384,117,153633,1,0,0:0:0:0:
410,113,153725,2,0,B|384:152|384:152|352:168,1,80,8|0,0:0|0:0,0:0:0:0:
240,92,153998,1,2,0:0:0:0:
240,92,154089,2,0,L|204:52,2,40,8|8|2,0:3|0:3|0:0,0:0:0:0:
152,136,154452,6,0,L|92:136,1,40,2|0,0:0|0:0,0:0:0:0:
88,24,154634,2,0,L|120:72,1,40,0|2,0:0|0:0,0:0:0:0:
184,180,154816,1,8,0:3:0:0:
88,24,154998,1,2,0:0:0:0:
40,184,155180,2,0,L|10:199,2,20,0|0|0,3:0|3:0|3:0,3:0:0:0:
184,180,155361,1,0,0:0:0:0:
184,180,155452,2,0,B|168:224|168:224|91:253,1,120,2|2,0:0|0:0,0:0:0:0:
204,296,155907,6,0,L|300:296,1,80,2|0,0:0|0:0,0:0:0:0:
376,336,156180,1,2,0:0:0:0:
376,336,156271,2,0,B|324:336|324:336|282:312,1,80,8|2,0:0|0:0,0:0:0:0:
324,176,156634,1,8,0:3:0:0:
492,152,156816,1,0,0:0:0:0:
492,152,156907,2,0,L|408:212,1,80,2|0,0:0|0:0,0:0:0:0:
352,256,157180,2,0,L|352:192,1,40,2|0,0:0|0:0,0:0:0:0:
380,88,157361,6,0,L|420:48,2,40,2|8|0,0:0|0:0|0:0,0:0:0:0:
276,168,157634,1,2,1:0:0:0:
276,168,157725,2,0,L|276:116,1,40,0|0,3:0|3:0,3:0:0:0:
276,16,157907,1,2,3:1:0:0:
168,92,158089,2,0,P|120:92|68:72,1,80,8|0,0:0|0:0,0:0:0:0:
28,8,158361,1,2,0:0:0:0:
28,8,158452,2,0,L|8:100,1,80,0|2,0:0|0:0,0:0:0:0:
64,236,158816,6,0,P|112:244|40:192,1,280,0|0,0:0|0:0,0:0:0:0:
120,272,160271,6,0,L|256:284,1,120.000004577637,10|2,0:3|0:3,0:0:0:0:
372,256,160543,2,0,L|236:244,1,120.000004577637,10|2,0:3|0:3,0:0:0:0:
168,196,160816,2,0,L|232:204,1,60.0000022888184,10|2,0:3|0:3,0:0:0:0:
352,164,160998,1,0,3:0:0:0:
320,161,161088,1,0,3:0:0:0:
291,158,161179,1,0,3:0:0:0:
261,154,161270,1,0,3:0:0:0:
231,151,161362,2,0,L|203:123,6,30.0000011444092,0|0|0|0|0|0|0,3:0|3:0|3:0|3:0|3:0|3:0|3:0,3:0:0:0:
376,100,161725,6,0,B|403:146|403:146|408:207,1,103.999995239258,2|2,0:0|0:0,0:0:0:0:
296,64,162088,1,8,0:0:0:0:
248,232,162270,1,0,3:0:0:0:
241,254,162361,1,0,3:0:0:0:
235,276,162452,2,0,P|180:244|156:188,1,103.999995239258,0|8,3:0|0:3,0:0:0:0:
248,24,162725,2,0,P|260:80|241:128,1,103.999995239258,2|0,0:0|0:0,0:0:0:0:
160,210,162997,1,8,0:3:0:0:
352,244,163179,6,0,L|464:244,1,103.999995239258,2|2,0:0|0:0,0:0:0:0:
412,48,163543,1,0,3:0:0:0:
377,63,163633,1,0,3:0:0:0:
349,88,163724,1,2,3:1:0:0:
331,123,163815,1,0,3:0:0:0:
326,161,163907,2,0,B|387:163|387:163|416:128,1,103.999995239258,0|10,0:0|0:3,0:0:0:0:
264,232,164179,2,0,P|272:288|320:328,1,103.999995239258,0|0,0:0|0:0,0:0:0:0:
432,320,164452,1,10,0:3:0:0:
440,160,164634,6,0,L|464:128,2,25.9999988098145,2|2|2,0:0|0:0|0:0,0:0:0:0:
352,244,164816,1,8,0:3:0:0:
180,240,164997,1,0,0:0:0:0:
151,241,165088,1,0,0:0:0:0:
123,243,165179,2,0,L|63:246,2,51.999997619629,2|0|8,0:0|0:0|0:3,0:0:0:0:
244,152,165543,1,8,0:3:0:0:
136,100,165634,2,0,B|160:160|218:163,1,103.999995239258,2|0,0:0|0:0,0:0:0:0:
348,136,165907,1,8,0:3:0:0:
224,72,166088,5,2,0:0:0:0:
224,72,166270,1,2,0:0:0:0:
274,231,166452,1,0,3:0:0:0:
281,255,166542,1,0,0:0:0:0:
288,280,166633,1,8,3:0:0:0:
296,305,166724,1,0,3:0:0:0:
304,332,166816,2,0,L|348:280,1,51.999997619629,8|0,3:0|3:0,0:0:0:0:
344,148,166998,2,0,L|344:220,1,51.999997619629,2|0,3:0|3:0,0:0:0:0:
412,360,167180,2,0,L|412:308,1,51.999997619629,4|0,3:0|3:0,0:0:0:0:
472,168,167361,2,0,L|420:168,1,51.999997619629,2|0,3:0|3:0,0:0:0:0:
252,176,167543,5,8,0:3:0:0:
104,256,167725,2,0,P|160:264|212:248,1,103.999995239258,2|0,0:0|0:0,0:0:0:0:
205,251,167997,1,0,0:0:0:0:
205,251,168088,1,8,0:3:0:0:
204,100,168270,2,0,L|204:48,2,51.999997619629,0|0|8,0:0|0:0|0:3,0:0:0:0:
56,140,168543,2,0,B|95:172|95:172|163:173,1,103.999995239258,2|0,0:0|0:0,0:0:0:0:
252,176,168816,1,8,0:3:0:0:
312,316,168998,6,0,L|332:256,1,51.999997619629,2|0,0:0|0:0,0:0:0:0:
364,136,169180,2,0,L|392:208,1,51.999997619629,2|0,0:0|0:0,0:0:0:0:
440,320,169361,1,8,0:3:0:0:
440,320,169452,1,8,0:3:0:0:
440,320,169543,2,0,B|472:256|472:256|468:200,1,103.999995239258,2|0,0:0|0:0,0:0:0:0:
440,64,169816,1,0,0:0:0:0:
428,52,169907,2,0,B|392:104|392:104|412:152,1,103.999995239258,10|0,0:3|0:0,0:0:0:0:
512,156,170270,1,10,0:3:0:0:
328,160,170452,6,0,L|288:160,2,25.9999988098145,2|2|2,0:0|0:0|0:0,0:0:0:0:
216,216,170634,2,0,B|184:160|215:95,1,103.999995239258,8|0,0:3|0:0,0:0:0:0:
316,248,170907,1,0,0:0:0:0:
312,264,170998,2,0,P|264:316|216:324,1,103.999995239258,2|0,0:0|0:0,0:0:0:0:
56,200,171361,1,8,0:3:0:0:
87,206,171451,1,2,0:0:0:0:
115,221,171542,1,0,0:0:0:0:
138,244,171633,1,0,0:0:0:0:
154,272,171724,1,8,0:3:0:0:
48,316,171907,5,2,0:0:0:0:
20,204,172088,1,2,0:0:0:0:
204,212,172270,2,0,L|244:216,2,25.9999988098145,6|0|0,0:3|0:0|0:0,0:0:0:0:
80,88,172452,2,0,L|52:56,2,25.9999988098145,6|0|0,0:3|0:0|0:0,0:0:0:0:
252,88,172635,1,0,3:0:0:0:
296,114,172725,1,0,3:0:0:0:
326,156,172816,1,2,3:1:0:0:
338,206,172907,1,0,3:0:0:0:
329,257,172998,2,0,B|264:292|264:292|264:252,1,103.999995239258,8|2,0:3|0:0,0:0:0:0:
376,88,173361,5,10,0:0:0:0:
424,216,173543,1,0,0:0:0:0:
448,48,173725,5,10,0:0:0:0:
500,236,173907,1,0,0:0:0:0:
512,104,174089,5,10,0:0:0:0:
440,296,174271,1,0,0:0:0:0:
376,88,174452,5,10,0:0:0:0:
360,272,174634,1,0,0:0:0:0:
292,64,174816,5,10,0:0:0:0:
284,236,174998,1,0,0:0:0:0:
212,72,175180,5,10,0:0:0:0:
216,288,175361,1,0,0:0:0:0:
264,140,175543,5,10,0:0:0:0:
128,280,175725,1,0,0:0:0:0:
348,184,175907,5,10,0:0:0:0:
72,212,176089,1,0,0:0:0:0:
360,272,176271,5,10,0:0:0:0:
112,136,176452,1,0,0:0:0:0:
296,332,176634,5,10,0:0:0:0:
192,164,176816,1,0,0:0:0:0:
216,344,176998,5,10,0:0:0:0:
268,136,177180,1,0,0:0:0:0:
296,332,177361,5,10,0:0:0:0:
352,152,177543,1,0,0:0:0:0:
376,352,177725,5,10,0:0:0:0:
420,200,177907,1,0,0:0:0:0:
460,328,178089,5,10,0:0:0:0:
492,152,178271,1,0,0:0:0:0:
356,272,178452,5,2,0:0:0:0:
324,231,178542,1,2,0:0:0:0:
319,180,178633,1,2,0:0:0:0:
341,134,178724,1,2,0:0:0:0:
384,106,178815,5,10,0:0:0:0:
512,260,178998,1,0,0:0:0:0:
440,44,179180,5,10,0:0:0:0:
420,200,179361,1,0,0:0:0:0:
360,8,179543,5,10,0:0:0:0:
319,180,179725,1,0,0:0:0:0:
268,20,179907,5,10,0:0:0:0:
228,216,180089,1,0,0:0:0:0:
184,48,180271,5,10,0:0:0:0:
128,200,180452,1,0,0:0:0:0:
252,120,180634,5,10,0:0:0:0:
72,128,180816,1,0,0:0:0:0:
228,216,180998,5,10,0:0:0:0:
100,52,181180,1,0,0:0:0:0:
128,200,181361,5,10,0:0:0:0:
184,48,181543,1,0,0:0:0:0:
172,284,181725,5,10,0:0:0:0:
252,120,181907,1,0,0:0:0:0:
272,320,182089,5,10,0:0:0:0:
336,160,182271,1,2,0:0:0:0:
376,320,182452,1,10,0:0:0:0:
428,192,182634,1,2,0:0:0:0:
472,292,182816,5,10,0:0:0:0:
500,136,182998,1,2,0:0:0:0:
356,240,183180,1,10,0:0:0:0:
512,216,183361,1,2,0:0:0:0:
312,160,183543,5,2,0:0:0:0:
262,146,183633,1,2,0:0:0:0:
211,156,183724,1,2,0:0:0:0:
161,168,183815,1,2,0:0:0:0:
111,157,183907,2,0,L|88:120,6,25.9999988098145
384,80,184271,5,2,0:0:0:0:
406,125,184361,1,2,0:0:0:0:
410,177,184452,1,2,0:0:0:0:
395,226,184543,1,2,0:0:0:0:
364,267,184634,2,0,L|364:300,6,25.9999988098145
166,50,184998,6,0,B|154:114|154:114|162:174,1,120.000004577637,2|0,0:0|0:0,0:0:0:0:
212,256,185361,1,8,0:0:0:0:
478,17,185543,6,0,B|416:16|416:16|356:32,1,120.000004577637,2|0,0:0|0:0,0:0:0:0:
296,92,185907,1,8,0:0:0:0:
348,352,186089,5,2,0:0:0:0:
424,100,186271,1,2,0:0:0:0:
212,256,186452,1,2,0:0:0:0:
512,208,186634,1,2,0:0:0:0:
270,106,187361,6,0,L|280:168,1,60,2|0,0:0|0:0,0:0:0:0:
308,240,187725,2,0,L|316:176,1,60,8|0,0:0|0:0,0:0:0:0:
328,24,188089,5,2,0:0:0:0:
192,136,188271,2,0,L|144:172,2,40,0|2|8,0:0|0:0|0:0,0:0:0:0:
220,44,188635,1,2,0:0:0:0:
296,196,188816,1,2,0:0:0:0:
400,112,188998,2,0,L|432:84,1,40,0|0,0:0|0:0,0:0:0:0:
384,124,189180,1,8,0:0:0:0:
392,216,189361,1,2,0:0:0:0:
263,334,189543,5,2,3:1:0:0:
247,297,189633,1,0,3:1:0:0:
248,257,189724,1,0,3:1:0:0:
265,221,189815,1,2,3:1:0:0:
295,195,189907,2,0,P|248:200|180:184,1,80,8|2,0:0|0:0,0:0:0:0:
124,136,190271,1,10,0:3:0:0:
252,96,190453,1,2,0:0:0:0:
124,136,190635,1,8,0:3:0:0:
248,0,190816,1,2,0:0:0:0:
295,195,190998,6,0,B|296:244|296:244|288:280,1,80,2|0,0:0|0:0,0:0:0:0:
216,352,191271,1,2,0:0:0:0:
200,360,191362,2,0,L|168:376,2,20,8|0|0,3:1|3:0|3:0,0:0:0:0:
336,352,191544,1,2,0:0:0:0:
212,236,191725,1,2,0:0:0:0:
368,156,191907,2,0,L|416:132,1,40,0|0,0:0|0:0,0:0:0:0:
295,195,192089,1,8,0:0:0:0:
296,48,192271,1,2,0:0:0:0:
296,48,192453,6,0,L|240:16,1,40,2|0,0:0|0:0,0:0:0:0:
72,28,192635,2,0,L|112:56,1,40,0|2,0:0|0:0,0:0:0:0:
220,176,192816,2,0,L|220:120,1,40,8|0,0:3|0:0,0:0:0:0:
184,16,192998,2,0,L|184:64,1,40,2|0,0:0|0:0,0:0:0:0:
152,232,193180,6,0,P|220:264|288:236,1,140,2|0,0:2|0:0,0:0:0:0:
344,120,193907,5,2,0:0:0:0:
425,218,194089,2,0,L|459:257,2,47.9999985351563,0|2|8,0:0|0:0|0:0,0:0:0:0:
326,102,194453,1,2,0:0:0:0:
356,268,194635,1,2,0:0:0:0:
202,328,194816,2,0,L|151:347,1,47.9999985351563,0|0,0:0|0:0,0:0:0:0:
240,316,194998,1,8,0:0:0:0:
392,244,195179,1,2,0:0:0:0:
260,172,195361,5,2,3:1:0:0:
226,171,195451,1,0,3:0:0:0:
195,171,195542,1,0,3:0:0:0:
162,170,195633,1,0,3:0:0:0:
131,170,195724,1,0,3:0:0:0:
32,216,195907,2,0,L|20:239,2,23.9999992675781,2|0|0,3:1|0:0|0:0,0:0:0:0:
64,108,196089,1,10,0:3:0:0:
148,36,196270,1,2,0:0:0:0:
64,108,196453,1,8,0:3:0:0:
244,92,196635,1,2,0:0:0:0:
152,260,196816,5,2,0:0:0:0:
152,260,196907,1,0,0:0:0:0:
252,220,197089,1,2,0:0:0:0:
252,220,197179,1,8,0:0:0:0:
104,172,197361,1,2,0:0:0:0:
104,172,197452,1,0,0:0:0:0:
184,344,197634,1,2,0:0:0:0:
184,344,197725,1,0,0:0:0:0:
324,160,197907,2,0,P|280:132|212:136,1,95.9999970703126,8|2,0:0|0:0,0:0:0:0:
332,252,198271,6,0,L|384:284,1,47.9999985351563,2|2,0:0|2:0,0:0:0:0:
496,332,198453,2,0,L|468:280,1,47.9999985351563,4|2,0:0|0:0,0:0:0:0:
408,168,198634,1,8,3:0:0:0:
398,139,198724,1,8,3:0:0:0:
400,109,198815,1,8,3:0:0:0:
413,82,198906,1,8,3:0:0:0:
435,62,198998,2,0,L|464:44,2,30.0000011444092,2|0|0,0:0|0:0|0:0,0:0:0:0:
284,68,199180,2,0,B|256:56|256:56|224:52,1,60.0000022888184,2|0,0:0|0:0,0:0:0:0:
368,8,199361,1,8,0:3:0:0:
232,140,199543,1,2,0:0:0:0:
336,296,199725,5,2,0:0:0:0:
432,240,199907,1,0,0:0:0:0:
432,240,199998,1,2,0:0:0:0:
432,240,200089,2,0,L|460:160,1,80,8|2,0:0|0:0,0:0:0:0:
376,40,200452,2,0,P|368:84|384:128,1,80,6|0,0:0|0:0,0:0:0:0:
512,8,200816,1,8,0:0:0:0:
456,80,200998,1,2,0:0:0:0:
280,128,201180,6,0,L|228:88,1,40,2|0,0:0|0:0,0:0:0:0:
152,24,201452,1,2,0:0:0:0:
152,24,201543,1,0,0:0:0:0:
356,64,201725,1,8,0:0:0:0:
280,128,201907,1,6,0:0:0:0:
376,196,202089,2,0,L|415:198,1,40,2|0,0:0|0:0,0:0:0:0:
512,202,202270,1,8,0:3:0:0:
351,192,202452,1,2,0:0:0:0:
512,202,202634,5,10,0:3:0:0:
420,280,202816,1,0,0:0:0:0:
382,291,202906,1,2,0:0:0:0:
343,284,202997,1,8,0:0:0:0:
212,192,203180,1,2,0:0:0:0:
260,320,203361,2,0,L|260:352,6,20,2|0|0|0|0|0|0,2:1|2:0|2:0|2:0|2:0|2:0|2:0,0:0:0:0:
296,212,203725,1,8,0:0:0:0:
140,232,203907,1,2,0:0:0:0:
140,232,204089,6,0,L|128:168,1,40,2|0,0:0|0:0,0:0:0:0:
176,76,204270,2,0,L|192:136,1,40,0|2,0:0|0:0,0:0:0:0:
128,268,204452,1,8,0:0:0:0:
52,200,204634,1,2,0:0:0:0:
272,132,204816,1,2,0:0:0:0:
272,132,204998,1,2,0:0:0:0:
424,212,205179,1,8,2:0:0:0:
393,237,205269,1,0,2:0:0:0:
356,250,205360,1,2,2:0:0:0:
316,248,205451,1,8,2:0:0:0:
280,231,205542,5,2,0:0:0:0:
352,84,205725,1,0,0:0:0:0:
352,84,205816,1,2,0:0:0:0:
352,84,205907,2,0,B|360:132|360:132|352:164,1,80,8|2,0:0|0:0,0:0:0:0:
244,248,206270,1,2,0:0:0:0:
112,248,206452,2,0,L|60:256,2,40,0|0|8,0:0|0:0|0:0,0:0:0:0:
192,140,206816,1,2,0:0:0:0:
192,140,206907,1,0,0:0:0:0:
192,140,206998,6,0,L|108:124,1,80,2|0,0:0|0:0,0:0:0:0:
64,48,207270,1,2,0:0:0:0:
64,48,207361,1,8,0:0:0:0:
212,144,207543,1,2,0:0:0:0:
64,168,207725,1,4,0:0:0:0:
64,168,207816,2,0,L|96:124,1,40,2|2,0:0|0:0,0:0:0:0:
160,36,208089,1,10,0:3:0:0:
144,208,208270,1,2,0:0:0:0:
160,36,208452,5,10,0:3:0:0:
292,108,208634,1,0,0:0:0:0:
300,129,208724,1,0,0:0:0:0:
303,153,208815,1,8,0:0:0:0:
368,40,208998,1,2,0:0:0:0:
376,212,209180,2,0,L|368:244,4,20,2|0|0|0|0,0:1|0:0|0:0|0:0|0:0,0:0:0:0:
448,152,209452,1,0,0:0:0:0:
448,152,209543,1,8,0:0:0:0:
424,308,209725,1,2,0:0:0:0:
387,323,209815,1,0,0:0:0:0:
344,332,209907,6,0,L|280:315,1,44.0000013427735,2|0,0:0|0:0,0:0:0:0:
216,224,210089,2,0,L|258:235,1,44.0000013427735,8|2,0:0|0:0,0:0:0:0:
296,352,210270,2,0,L|224:332,1,47.9999985351563,4|8,0:0|0:0,0:0:0:0:
260,208,210452,2,0,L|312:224,1,47.9999985351563,2|8,0:0|0:0,0:0:0:0:
424,308,210634,2,0,L|424:236,1,51.999997619629,2|8,0:0|0:0,0:0:0:0:
448,100,210816,2,0,L|448:180,1,51.999997619629,2|8,0:0|0:0,0:0:0:0:
260,208,210998,1,8,3:0:0:0:
233,187,211088,1,0,3:0:0:0:
219,157,211179,1,2,3:0:0:0:
222,123,211270,1,0,3:0:0:0:
241,95,211361,6,0,B|316:100|316:100|288:156,1,120,10|0,3:0|0:0,0:0:0:0:
204,320,211725,1,12,0:0:0:0:
256,192,211907,12,0,214270,0:0:0:0:
176,183,214452,6,0,B|224:192|224:192|264:188|264:188|296:204|296:204|335:200,1,160
