osu file format v14

[General]
AudioFilename: audio.mp3
AudioLeadIn: 0
PreviewTime: 2622
Countdown: 0
SampleSet: Soft
StackLeniency: 0.7
Mode: 0
LetterboxInBreaks: 0
WidescreenStoryboard: 0

[Editor]
DistanceSpacing: 1.1
BeatDivisor: 16
GridSize: 4
TimelineZoom: 0.5999999

[Metadata]
Title:Mugen TEARDROPS Namida no Umi de
TitleUnicode:無限 TEARDROPS 涙の海で
Artist:t e l e p a t h Terepashii Nouryoku-sha
ArtistUnicode:t e l e p a t h テレパシー能力者
Creator:Shmiklak
Version:High
Source:
Tags:marvollo m_a_r_v_o_l_l_o telepath ゲートウェイ vaporwave sad
BeatmapID:1548067
BeatmapSetID:733535

[Difficulty]
HPDrainRate:5
CircleSize:3.8
OverallDifficulty:5
ApproachRate:6
SliderMultiplier:3
SliderTickRate:1

[Events]
//Background and Video events
0,0,"bg provided by illuminati.jpg",0,0
//Break Periods
//Storyboard Layer 0 (Background)
//Storyboard Layer 1 (Fail)
//Storyboard Layer 2 (Pass)
//Storyboard Layer 3 (Foreground)
//Storyboard Sound Samples

[TimingPoints]
2622,1165.04854368932,5,2,1,30,1,0
49223,-100,5,2,1,5,0,0

[Colours]
Combo1 : 114,114,114
Combo2 : 133,163,143
SliderTrackOverride : 0,0,0

[HitObjects]
112,320,2622,6,0,P|107:259|75:174,1,150,2|0,0:0|0:0,0:0:0:0:
30,107,3495,1,0,0:0:0:0:
94,51,3787,2,0,P|132:52|183:57,1,75,4|0,0:3|0:0,0:0:0:0:
226,115,4369,2,0,P|227:153|232:204,1,75,0|0,0:0|0:0,0:0:0:0:
288,248,4952,2,0,B|347:286|403:253|363:220|459:204|499:249,1,225,8|0,0:0|0:0,0:0:0:0:
439,306,6117,2,0,P|427:179|423:80,1,225,4|0,0:3|0:0,0:0:0:0:
352,36,7282,1,2,0:0:0:0:
310,107,7573,1,0,0:0:0:0:
239,64,7864,1,0,0:0:0:0:
190,131,8155,1,0,0:0:0:0:
129,73,8447,6,0,P|57:91|23:173,1,150,2|0,0:0|0:0,0:0:0:0:
34,235,9321,1,0,0:0:0:0:
82,303,9612,1,4,0:3:0:0:
144,355,9903,1,0,0:0:0:0:
226,363,10194,2,0,P|303:355|386:347,2,150,0|4|0,0:0|0:3|0:0,0:0:0:0:
106,251,11942,1,8,0:0:0:0:
256,184,12524,1,2,0:0:0:0:
149,86,13107,2,0,L|46:83,1,75,2|0,0:0|0:0,0:0:0:0:
18,143,13689,2,0,P|14:193|21:246,1,75,0|0,0:0|0:0,0:0:0:0:
74,276,14272,6,0,P|158:247|294:307,1,225,4|0,0:3|0:0,0:0:0:0:
338,351,15437,2,0,P|388:348|412:344,1,75,2|0,0:0|0:0,0:0:0:0:
476,290,16020,1,0,0:0:0:0:
480,207,16311,1,0,0:0:0:0:
415,156,16602,2,0,B|334:151|334:151|286:111|286:111|190:107,1,225,4|0,0:3|0:0,0:0:0:0:
173,186,17767,2,0,P|104:249|82:158,1,225,8|0,0:0|0:0,0:0:0:0:
112,79,18932,2,0,B|163:101|239:91|188:53|266:45|331:79,1,225,4|0,0:3|0:0,0:0:0:0:
385,135,20097,6,0,P|391:178|376:292,1,150,2|0,0:0|0:0,0:0:0:0:
320,340,20971,1,0,0:0:0:0:
244,372,21262,2,0,P|196:364|164:348,1,75,4|0,0:3|0:0,0:0:0:0:
130,283,21845,2,0,P|178:275|210:259,1,75,0|0,0:0|0:0,0:0:0:0:
274,225,22427,2,0,B|299:205|311:181|307:149|307:149|335:174|372:177|412:176|444:144,1,225,8|0,0:0|0:0,0:0:0:0:
476,80,23592,2,0,L|493:318,1,225,4|0,0:3|0:0,0:0:0:0:
420,348,24757,1,2,0:0:0:0:
340,360,25049,1,0,0:0:0:0:
260,348,25340,1,0,0:0:0:0:
184,312,25631,1,0,0:0:0:0:
124,256,25922,6,0,P|120:193|160:109,1,150,2|0,0:0|0:0,0:0:0:0:
212,56,26796,1,0,0:0:0:0:
264,120,27088,1,4,0:3:0:0:
296,44,27379,1,0,0:0:0:0:
360,96,27670,2,0,L|353:255,2,150,0|4|0,0:0|0:3|0:0,0:0:0:0:
476,212,29418,1,8,0:0:0:0:
355,324,30000,1,2,0:0:0:0:
252,196,30583,2,0,P|212:186|155:183,1,75,2|0,0:0|0:0,0:0:0:0:
104,220,31165,2,0,P|104:261|107:321,1,75
168,348,31748,6,0,B|219:370|295:360|244:322|322:314|387:348,1,225,4|0,0:3|0:0,0:0:0:0:
463,324,32913,2,0,P|460:283|457:244,1,75,2|0,0:0|0:0,0:0:0:0:
431,171,33495,1,0,0:0:0:0:
496,120,33787,1,0,0:0:0:0:
436,64,34078,2,0,B|381:26|381:26|217:70,1,225,4|0,0:3|0:0,0:0:0:0:
172,128,35243,2,0,P|176:176|164:352,1,225,8|0,0:0|0:0,0:0:0:0:
84,380,36408,2,0,P|60:296|100:168,1,225,4|0,0:3|0:0,0:0:0:0:
172,128,37573,6,0,P|231:132|320:104,1,150,2|0,0:0|0:0,0:0:0:0:
388,64,38447,1,0,0:0:0:0:
452,116,38738,2,0,P|457:165|453:197,1,75,4|0,0:3|0:0,0:0:0:0:
400,252,39321,2,0,P|351:257|319:253,1,75
267,195,39903,2,0,B|216:173|140:183|191:221|113:229|48:195,1,225,8|0,0:0|0:0,0:0:0:0:
24,120,41068,2,0,P|136:75|248:99,1,225,4|0,0:3|0:0,0:0:0:0:
294,151,42233,1,2,0:0:0:0:
352,92,42524,1,0,0:0:0:0:
410,150,42816,1,0,0:0:0:0:
468,91,43107,1,0,0:0:0:0:
493,169,43398,6,0,P|454:223|328:171,1,225,2|0,0:0|0:0,0:0:0:0:
288,100,44563,1,4,0:3:0:0:
208,80,44855,1,0,0:0:0:0:
136,120,45146,2,0,L|150:279,2,150,0|4|0,0:0|0:3|0:0,0:0:0:0:
19,236,46893,1,8,0:0:0:0:
135,352,47476,1,2,0:0:0:0:
251,235,48058,2,0,P|293:231|327:231,1,75,2|0,0:0|0:0,0:0:0:0:
384,289,48641,2,0,P|426:292|460:293,1,75
256,192,49223,12,0,55049,0:0:0:0:
