osu file format v14

[General]
AudioFilename: audio.mp3
AudioLeadIn: 0
PreviewTime: 2627
Countdown: 0
SampleSet: Soft
StackLeniency: 0.7
Mode: 0
LetterboxInBreaks: 0
WidescreenStoryboard: 1

[Editor]
DistanceSpacing: 1
BeatDivisor: 8
GridSize: 32
TimelineZoom: 1

[Metadata]
Title:Mugen TEARDROPS Namida no Umi de
TitleUnicode:無限 TEARDROPS 涙の海で
Artist:t e l e p a t h Telepathy Nouryokusha
ArtistUnicode:t e l e p a t h テレパシー能力者
Creator:Asahina Oleshev
Version:d y s p h o r i a
Source:
Tags:hausenberg ryxliee bluirre baack de4n electronic instrumental telepath ゲートウェイ vaporwave sad lo-fi ambient
BeatmapID:3568776
BeatmapSetID:1744864

[Difficulty]
HPDrainRate:5
CircleSize:10
OverallDifficulty:5.2
ApproachRate:7.2
SliderMultiplier:1.7
SliderTickRate:1

[Events]
//Background and Video events
0,0,"bg provided by illuminati.jpg",0,0
//Break Periods
//Storyboard Layer 0 (Background)
//Storyboard Layer 1 (Fail)
//Storyboard Layer 2 (Pass)
//Storyboard Layer 3 (Foreground)
Sprite,Foreground,CentreRight,"sb\p.png",0,0 M,0,0,,747,90 C,0,0,,0,0,0 F,0,2421,2621,0,0.7 V,0,2421,2621,0,36,225,36 F,0,4665,4865,0.7,0 V,0,4665,4865,225,36,0,36
Sprite,Foreground,Centre,"sb\0041.png",564.25,90.25 F,0,2410,2610,0,1 S,0,2610,,0.5 F,0,4410,4610,1,0
Sprite,Foreground,Centre,"sb\0073.png",577.75,92 F,0,2410,2610,0,1 S,0,2610,,0.5 F,0,4410,4610,1,0
Sprite,Foreground,Centre,"sb\0061.png",590.75,92 F,0,2410,2610,0,1 S,0,2610,,0.5 F,0,4410,4610,1,0
Sprite,Foreground,Centre,"sb\0068.png",605.5,89.75 F,0,2410,2610,0,1 S,0,2610,,0.5 F,0,4410,4610,1,0
Sprite,Foreground,Centre,"sb\0069.png",615.25,89.5 F,0,2410,2610,0,1 S,0,2610,,0.5 F,0,4410,4610,1,0
Sprite,Foreground,Centre,"sb\006e.png",625.5,92 F,0,2410,2610,0,1 S,0,2610,,0.5 F,0,4410,4610,1,0
Sprite,Foreground,Centre,"sb\0061.png",639.75,92 F,0,2410,2610,0,1 S,0,2610,,0.5 F,0,4410,4610,1,0
Sprite,Foreground,Centre,"sb\004f.png",662.75,90.25 F,0,2410,2610,0,1 S,0,2610,,0.5 F,0,4410,4610,1,0
Sprite,Foreground,Centre,"sb\006c.png",674.75,89.5 F,0,2410,2610,0,1 S,0,2610,,0.5 F,0,4410,4610,1,0
Sprite,Foreground,Centre,"sb\0065.png",684.25,92 F,0,2410,2610,0,1 S,0,2610,,0.5 F,0,4410,4610,1,0
Sprite,Foreground,Centre,"sb\0073.png",696.75,92 F,0,2410,2610,0,1 S,0,2610,,0.5 F,0,4410,4610,1,0
Sprite,Foreground,Centre,"sb\0068.png",709.5,89.75 F,0,2410,2610,0,1 S,0,2610,,0.5 F,0,4410,4610,1,0
Sprite,Foreground,Centre,"sb\0065.png",723.25,92 F,0,2410,2610,0,1 S,0,2610,,0.5 F,0,4410,4610,1,0
Sprite,Foreground,Centre,"sb\0076.png",736.25,92 F,0,2410,2610,0,1 S,0,2610,,0.5 F,0,4410,4610,1,0
Sprite,Foreground,Centre,"sb\hausenberg.png",0,0 M,0,0,,540,90 S,0,0,,0.2 F,0,2421,2621,0,1 F,0,4665,4865,1,0
//Storyboard Layer 4 (Overlay)
//Storyboard Sound Samples

[TimingPoints]
2627,1165.04854368932,5,2,10,65,1,0
3209,-100,5,2,11,65,0,0
3500,-100,5,2,12,65,0,0
4957,-166.666666666667,5,2,12,65,0,0
7287,-100,5,2,13,65,0,0
7578,-100,5,2,10,65,0,0
7869,-100,5,2,12,65,0,0
9326,-100,5,2,14,65,0,0
9908,-100,5,2,12,65,0,0
10199,-100,5,2,10,65,0,0
10782,-166.666666666667,5,2,10,65,0,0
12966,-166.666666666667,5,2,10,5,0,0
13112,-100,5,2,10,65,0,0
14131,-100,5,2,10,5,0,0
14277,-125,5,2,10,65,0,0
15442,-83.3333333333333,5,2,11,65,0,0
15879,-83.3333333333333,5,2,11,5,0,0
16025,-83.3333333333333,5,2,15,65,0,0
16316,-83.3333333333333,5,2,13,65,0,0
16607,-125,5,2,13,65,0,0
20102,-100,5,2,10,65,0,0
20685,-100,5,2,11,65,0,0
20976,-100,5,2,12,65,0,0
22432,-166.666666666667,5,2,12,65,0,0
24762,-100,5,2,13,65,0,0
25054,-100,5,2,10,65,0,0
25345,-100,5,2,12,65,0,0
26801,-100,5,2,14,65,0,0
27384,-100,5,2,12,65,0,0
27675,-100,5,2,10,65,0,0
28258,-166.666666666667,5,2,10,65,0,0
30442,-166.666666666667,5,2,10,5,0,0
30588,-100,5,2,10,65,0,0
31607,-100,5,2,10,5,0,0
31753,-125,5,2,10,65,0,0
32918,-83.3333333333333,5,2,11,65,0,0
33355,-83.3333333333333,5,2,11,5,0,0
33500,-83.3333333333333,5,2,15,65,0,0
33792,-83.3333333333333,5,2,13,65,0,0
34083,-125,5,2,13,65,0,0
37578,-100,5,2,10,65,0,0
38160,-100,5,2,11,65,0,0
38452,-100,5,2,12,65,0,0
39908,-166.666666666667,5,2,12,65,0,0
42238,-100,5,2,13,65,0,0
42529,-100,5,2,10,65,0,0
42821,-100,5,2,12,65,0,0
44277,-100,5,2,14,65,0,0
44860,-100,5,2,12,65,0,0
45151,-100,5,2,10,65,0,0
45733,-166.666666666667,5,2,10,65,0,0
47918,-166.666666666667,5,2,10,5,0,0
48063,-100,5,2,10,65,0,0
49083,-100,5,2,10,5,0,0
49228,-125,5,2,10,65,0,0
50393,-83.3333333333333,5,2,11,65,0,0
50830,-83.3333333333333,5,2,11,5,0,0
50976,-83.3333333333333,5,2,15,65,0,0
51267,-83.3333333333333,5,2,13,65,0,0
51559,-100,5,2,13,60,0,0
52141,-100,5,2,13,50,0,0
52724,-100,5,2,13,40,0,0
53306,-100,5,2,13,30,0,0
53889,-100,5,2,13,20,0,0
54471,-100,5,2,13,10,0,0
55054,-100,5,2,13,5,0,0

[Colours]
Combo1 : 101,82,126
Combo2 : 143,170,197
Combo3 : 74,100,128
Combo4 : 185,162,196

[HitObjects]
19,54,2627,6,0,B|47:59|62:39|51:39|69:15|98:23,1,85,10|2,0:0|0:0,0:0:0:0:
88,57,3500,1,2,0:0:0:0:
114,8,3792,5,0,3:0:0:0:
149,60,4083,2,0,B|170:40|150:14|150:14|130:21|134:43,1,85
149,89,4957,2,0,B|175:89|183:57|183:57|175:89|204:104,1,101.999996887207,8|0,0:0|3:0,0:0:0:0:
214,76,7287,5,10,0:0:0:0:
229,102,7578,1,2,0:0:0:0:
199,101,7869,1,2,0:0:0:0:
243,77,8160,1,2,0:0:0:0:
294,100,8452,6,0,B|267:91|251:115|262:115|244:142|215:131,1,85,0|0,3:0|0:0,0:0:0:0:
194,118,9326,1,2,0:0:0:0:
210,153,9617,1,10,0:0:0:0:
229,102,9908,1,2,0:0:0:0:
184,144,10199,2,0,P|164:146|145:126,1,42.5,2|0,0:0|0:0,0:0:0:0:
157,100,10782,6,0,P|121:107|116:142,1,76.4999976654053,0|0,3:0|0:0,0:0:0:0:
115,141,11947,1,8,0:0:0:0:
52,182,12529,2,0,P|67:168|88:170,1,38.2499988327027
95,195,13112,6,0,B|80:210|80:210|54:207,1,42.5,0|0,3:0|0:0,0:0:0:0:
100,236,13694,2,0,B|117:240|133:219|123:218|137:200|162:208,1,63.75
180,198,14277,2,0,B|209:223|183:254|183:254|172:234|150:235,1,102,8|0,0:2|0:0,0:0:0:0:
143,293,15442,6,0,B|178:288|178:288|181:293|181:293|219:288,1,76.4999976654053,10|0,0:0|0:0,0:0:0:0:
236,270,16025,1,2,0:0:0:0:
276,327,16316,1,2,0:0:0:0:
315,275,16607,6,0,B|286:234|234:265|261:301|288:287,1,102,0|0,3:0|0:0,0:0:0:0:
338,298,17772,2,0,B|358:275|342:251|336:261|322:229|342:196|374:203|387:232|371:252,1,136,8|0,0:0|3:0,0:0:0:0:
324,208,20102,6,0,B|300:219|284:194|295:194|275:170|247:182,1,85,10|2,0:0|0:0,0:0:0:0:
238,242,20976,1,2,0:0:0:0:
261,210,21267,5,0,3:0:0:0:
230,154,21559,2,0,B|215:171|221:195|221:195|215:171|178:167,1,85
216,135,22432,2,0,B|223:109|191:96|191:96|170:119|189:144,1,101.999996887207,8|0,0:0|3:0,0:0:0:0:
290,100,24762,5,10,0:0:0:0:
311,68,25054,1,2,0:0:0:0:
297,36,25345,1,2,0:0:0:0:
275,67,25636,1,2,0:0:0:0:
328,103,25927,6,0,B|349:121|372:106|372:106|371:78|399:71,1,85,0|0,3:0|0:0,0:0:0:0:
403,101,26801,1,2,0:0:0:0:
357,70,27093,1,10,0:0:0:0:
408,48,27384,1,2,0:0:0:0:
415,127,27675,2,0,P|395:129|376:109,1,42.5,2|0,0:0|0:0,0:0:0:0:
436,181,28258,2,0,P|452:132|470:135,1,76.4999976654053,0|0,3:0|0:0,0:0:0:0:
480,154,29423,1,8,0:0:0:0:
440,220,30005,2,0,P|425:207|405:209,1,38.2499988327027
397,232,30588,6,0,P|413:247|434:246,1,42.5,0|0,3:0|0:0,0:0:0:0:
390,268,31170,2,0,B|377:271|372:281|372:281|353:259|376:235,1,63.75
378,214,31753,2,0,B|345:206|332:238|343:237|326:269|294:258,1,102,8|0,0:2|0:0,0:0:0:0:
237,246,32918,6,0,B|220:225|220:225|230:277,1,76.4999976654053,10|0,0:0|0:0,0:0:0:0:
248,290,33500,1,2,0:0:0:0:
225,343,33792,1,2,0:0:0:0:
186,299,34083,6,0,B|167:293|154:307|162:308|150:326|128:329|119:314|125:310|105:300|84:321,1,102,0|0,3:0|0:0,0:0:0:0:
115,241,35248,2,0,B|107:255|107:255|133:264|138:293|138:293|133:264|153:245|153:245|134:231,1,136,8|0,0:0|3:0,0:0:0:0:
227,196,37578,6,0,B|255:201|270:181|259:181|277:157|306:165,1,85,10|2,0:0|0:0,0:0:0:0:
318,185,38452,1,2,0:0:0:0:
344,113,38743,5,0,3:0:0:0:
365,154,39034,2,0,B|388:142|407:172|364:201|341:166,1,85
294,154,39908,2,0,B|318:142|312:110|312:110|318:142|344:144,1,101.999996887207,8|0,0:0|3:0,0:0:0:0:
347,197,42238,5,10,0:0:0:0:
379,209,42529,1,2,0:0:0:0:
351,232,42821,1,2,0:0:0:0:
319,220,43112,1,2,0:0:0:0:
356,265,43403,6,0,B|338:269|327:287|327:287|348:309|339:336,1,85,0|0,3:0|0:0,0:0:0:0:
350,361,44277,1,2,0:0:0:0:
363,307,44568,1,10,0:0:0:0:
308,322,44860,1,2,0:0:0:0:
295,376,45151,2,0,P|275:378|256:358,1,42.5,2|0,0:0|0:0,0:0:0:0:
227,309,45733,2,0,P|238:325|212:371,1,76.4999976654053,0|0,3:0|0:0,0:0:0:0:
202,347,46898,1,8,0:0:0:0:
84,334,47481,2,0,P|79:353|95:368,1,38.2499988327027
117,361,48063,6,0,P|122:342|106:327,1,42.5,0|0,3:0|0:0,0:0:0:0:
71,297,48646,2,0,B|85:298|90:309|90:309|85:281|115:269,1,63.75
120,302,49228,2,0,B|153:294|166:326|155:325|172:357|204:346,1,102,8|0,0:2|0:0,0:0:0:0:
331,345,50393,6,0,B|335:330|352:326|352:326|300:336,1,76.4999976654053,10|0,0:0|0:0,0:0:0:0:
292,355,50976,1,2,0:0:0:0:
246,318,51267,1,2,0:0:0:0:
303,299,51559,1,0,3:0:0:0:
256,192,51850,12,0,55054,0:0:0:0:
