osu file format v14

[General]
AudioFilename: audio.mp3
AudioLeadIn: 0
PreviewTime: 2627
Countdown: 0
SampleSet: Soft
StackLeniency: 0.7
Mode: 0
LetterboxInBreaks: 0
WidescreenStoryboard: 1

[Editor]
DistanceSpacing: 1.1
BeatDivisor: 8
GridSize: 32
TimelineZoom: 1

[Metadata]
Title:Mugen TEARDROPS Namida no Umi de
TitleUnicode:無限 TEARDROPS 涙の海で
Artist:t e l e p a t h Telepathy Nouryokusha
ArtistUnicode:t e l e p a t h テレパシー能力者
Creator:Asahina Oleshev
Version:b l u i r r e ' s h a r d
Source:
Tags:hausenberg ryxliee bluirre baack de4n electronic instrumental telepath ゲートウェイ vaporwave sad lo-fi ambient
BeatmapID:3579401
BeatmapSetID:1744864

[Difficulty]
HPDrainRate:4
CircleSize:8.5
OverallDifficulty:4
ApproachRate:6.5
SliderMultiplier:1.5
SliderTickRate:1

[Events]
//Background and Video events
0,0,"bg provided by illuminati.jpg",0,0
//Break Periods
//Storyboard Layer 0 (Background)
//Storyboard Layer 1 (Fail)
//Storyboard Layer 2 (Pass)
//Storyboard Layer 3 (Foreground)
Sprite,Foreground,CentreRight,"sb\p.png",0,0 M,0,0,,747,90 C,0,0,,0,0,0 F,0,2421,2621,0,0.7 V,0,2421,2621,0,36,120,36 F,0,4665,4865,0.7,0 V,0,4665,4865,120,36,0,36
Sprite,Foreground,Centre,"sb\0062.png",675.75,89.5 F,0,2410,2610,0,1 S,0,2610,,0.5 F,0,4410,4610,1,0
Sprite,Foreground,Centre,"sb\006c.png",685.75,89.5 F,0,2410,2610,0,1 S,0,2610,,0.5 F,0,4410,4610,1,0
Sprite,Foreground,Centre,"sb\0075.png",695.5,92 F,0,2410,2610,0,1 S,0,2610,,0.5 F,0,4410,4610,1,0
Sprite,Foreground,Centre,"sb\0069.png",705.25,89.5 F,0,2410,2610,0,1 S,0,2610,,0.5 F,0,4410,4610,1,0
Sprite,Foreground,Centre,"sb\0072.png",713.75,92 F,0,2410,2610,0,1 S,0,2610,,0.5 F,0,4410,4610,1,0
Sprite,Foreground,Centre,"sb\0072.png",723.75,92 F,0,2410,2610,0,1 S,0,2610,,0.5 F,0,4410,4610,1,0
Sprite,Foreground,Centre,"sb\0065.png",735.25,92 F,0,2410,2610,0,1 S,0,2610,,0.5 F,0,4410,4610,1,0
Sprite,Foreground,Centre,"sb\bluirre.png",0,0 M,0,0,,650,90 S,0,0,,0.2 F,0,2421,2621,0,1 F,0,4665,4865,1,0
//Storyboard Layer 4 (Overlay)
//Storyboard Sound Samples

[TimingPoints]
2627,1165.04854368932,5,2,10,65,1,0
3209,-100,5,2,11,65,0,0
3500,-100,5,2,12,65,0,0
4957,-100,5,2,12,65,0,0
7287,-100,5,2,13,65,0,0
7578,-100,5,2,10,65,0,0
7869,-100,5,2,12,65,0,0
9326,-100,5,2,14,65,0,0
9908,-100,5,2,12,65,0,0
10199,-100,5,2,10,65,0,0
10782,-100,5,2,10,65,0,0
12966,-100,5,2,10,65,0,0
13112,-100,5,2,10,65,0,0
14131,-100,5,2,10,65,0,0
14277,-100,5,2,10,65,0,0
15442,-100,5,2,11,65,0,0
15879,-100,5,2,11,65,0,0
16025,-100,5,2,15,65,0,0
16316,-100,5,2,13,65,0,0
16607,-100,5,2,13,65,0,0
20102,-100,5,2,10,65,0,0
20685,-100,5,2,11,65,0,0
20976,-100,5,2,12,65,0,0
22432,-100,5,2,12,65,0,0
24762,-100,5,2,13,65,0,0
25054,-100,5,2,10,65,0,0
25345,-100,5,2,12,65,0,0
26801,-100,5,2,14,65,0,0
27384,-100,5,2,12,65,0,0
27675,-100,5,2,10,65,0,0
28258,-100,5,2,10,65,0,0
30442,-100,5,2,10,65,0,0
30588,-100,5,2,10,65,0,0
31607,-100,5,2,10,65,0,0
31753,-100,5,2,10,65,0,0
32918,-100,5,2,11,65,0,0
33355,-100,5,2,11,65,0,0
33500,-100,5,2,15,65,0,0
33792,-100,5,2,13,65,0,0
34083,-100,5,2,13,65,0,0
37578,-100,5,2,10,65,0,0
38160,-100,5,2,11,65,0,0
38452,-100,5,2,12,65,0,0
39908,-100,5,2,12,65,0,0
42238,-100,5,2,13,65,0,0
42529,-100,5,2,10,65,0,0
42821,-100,5,2,12,65,0,0
44277,-100,5,2,14,65,0,0
44860,-100,5,2,12,65,0,0
45151,-100,5,2,10,65,0,0
45733,-100,5,2,10,65,0,0
47918,-100,5,2,10,65,0,0
48063,-100,5,2,10,65,0,0
49083,-100,5,2,10,65,0,0
49228,-100,5,2,10,65,0,0
50393,-100,5,2,11,65,0,0
50830,-100,5,2,11,65,0,0
50976,-100,5,2,15,65,0,0
51267,-100,5,2,13,65,0,0
51559,-100,5,2,13,60,0,0
52141,-100,5,2,13,50,0,0
52724,-100,5,2,13,40,0,0
53306,-100,5,2,13,30,0,0
53889,-100,5,2,13,20,0,0
54471,-100,5,2,13,10,0,0
54762,-100,5,2,13,5,0,0

[Colours]
Combo1 : 101,82,126
Combo2 : 143,170,197
Combo3 : 74,100,128
Combo4 : 185,162,196

[HitObjects]
497,345,2627,6,0,L|421:359,1,75,10|2,0:0|0:0,0:0:0:0:
384,344,3500,1,2,0:0:0:0:
392,303,3792,2,0,B|408:246|343:265|367:190,1,112.5,0|0,3:0|0:0,0:0:0:0:
405,192,4957,2,0,B|388:248|453:229|429:304,1,112.5,8|0,0:0|0:0,0:0:0:0:
459,325,6122,2,0,P|427:305|358:323,1,112.5,0|0,3:0|0:0,0:0:0:0:
328,351,7287,1,10,0:0:0:0:
286,347,7578,1,2,0:0:0:0:
258,313,7869,1,2,0:0:0:0:
259,271,8160,1,2,0:0:0:0:
293,248,8452,6,0,B|304:238|318:238|318:238|304:214|269:199|237:230,1,112.5,0|2,3:0|0:0,0:0:0:0:
205,236,9617,2,0,L|197:181,2,37.5,10|2|2,0:0|0:0|0:0,0:0:0:0:
219,317,10782,2,0,B|162:333|181:268|106:292,1,112.5,0|0,3:0|0:0,0:0:0:0:
108,330,11947,2,0,P|136:330|144:372,1,75,8|0,0:0|0:0,0:0:0:0:
103,371,12821,1,0,0:0:0:0:
67,349,13112,2,0,P|72:326|69:295,1,37.5,0|0,3:2|0:0,0:0:0:0:
83,272,13694,2,0,P|78:249|81:218,1,37.5
36,234,14277,6,0,B|52:291|-13:272|11:347,1,112.5,8|0,0:2|0:0,0:0:0:0:
19,375,15442,2,0,P|44:359|97:373,1,75,10|2,0:0|0:0,0:0:0:0:
125,382,16316,1,2,0:0:0:0:
157,357,16607,2,0,P|193:364|225:347,1,75,0|0,3:0|0:0,0:0:0:0:
248,312,17481,1,0,0:0:0:0:
211,293,17772,2,0,B|154:277|173:342|98:318,1,112.5,8|0,0:0|0:0,0:0:0:0:
100,280,18937,2,0,B|156:297|137:232|212:256,1,112.5,0|0,3:0|0:0,0:0:0:0:
242,244,20102,6,0,L|255:317,1,75,10|2,0:0|0:0,0:0:0:0:
287,344,20976,1,2,0:0:0:0:
326,331,21267,2,0,B|342:274|277:293|301:218,1,112.5,0|0,3:0|0:0,0:0:0:0:
339,220,22432,2,0,B|322:276|387:257|363:332,1,112.5,8|0,0:0|0:0,0:0:0:0:
359,362,23597,2,0,B|389:367|404:338|404:338|422:370|460:360,1,112.5,0|0,3:0|0:0,0:0:0:0:
476,328,24762,1,10,0:0:0:0:
472,286,25054,1,2,0:0:0:0:
438,258,25345,1,2,0:0:0:0:
396,259,25636,1,2,0:0:0:0:
369,291,25927,6,0,B|374:266|396:260|396:260|415:276|419:310|383:326,1,112.5,0|2,3:0|0:0,0:0:0:0:
353,323,27093,2,0,L|298:331,2,37.5,10|2|2,0:0|0:0|0:0,0:0:0:0:
272,341,28258,2,0,B|256:284|321:303|297:227,1,112.5,0|0,3:0|0:0,0:0:0:0:
259,230,29423,2,0,B|264:244|260:262|260:262|240:246|219:252,1,75,8|0,0:0|0:0,0:0:0:0:
231,291,30296,1,0,0:0:0:0:
190,282,30588,2,0,P|167:277|136:280,1,37.5,0|0,3:0|0:0,0:0:0:0:
128,310,31170,2,0,P|133:327|142:344,1,37.5
152,381,31753,6,0,B|95:397|114:332|39:356,1,112.5,8|0,0:2|0:0,0:0:0:0:
8,356,32918,2,0,P|21:325|74:315,1,75,10|2,0:0|0:0,0:0:0:0:
99,323,33792,1,2,0:0:0:0:
137,308,34083,2,0,P|143:272|122:242,1,75,0|0,3:0|0:0,0:0:0:0:
81,242,34957,1,0,0:0:0:0:
44,260,35248,2,0,B|28:317|93:298|69:373,1,112.5,8|0,0:0|0:0,0:0:0:0:
31,371,36413,2,0,B|48:315|-17:334|7:259,1,112.5,0|0,3:0|0:0,0:0:0:0:
33,239,37578,6,0,L|106:252,1,75,10|2,0:0|0:0,0:0:0:0:
147,245,38452,1,2,0:0:0:0:
182,266,38743,2,0,B|239:282|220:217|295:241,1,112.5,0|0,3:0|0:0,0:0:0:0:
293,279,39908,2,0,B|237:262|256:327|181:303,1,112.5,8|0,0:0|0:0,0:0:0:0:
151,291,41073,2,0,B|144:321|173:339|173:339|180:373|149:384,1,112.5,0|0,3:0|0:0,0:0:0:0:
120,356,42238,1,10,0:0:0:0:
118,315,42529,1,2,0:0:0:0:
151,292,42821,1,2,0:0:0:0:
191,300,43112,1,2,0:0:0:0:
207,338,43403,6,0,B|232:330|234:307|234:307|253:323|257:357|221:373,1,112.5,0|2,3:0|0:0,0:0:0:0:
273,371,44568,2,0,L|328:379,2,37.5,10|2|2,0:0|0:0|0:0,0:0:0:0:
354,384,45733,2,0,B|370:327|305:346|329:271,1,112.5,0|0,3:0|0:0,0:0:0:0:
329,240,46898,2,0,B|351:241|361:257|361:257|377:245|412:254,1,75,8|0,0:0|0:0,0:0:0:0:
432,271,47772,1,0,0:0:0:0:
452,306,48063,2,0,P|447:329|450:360,1,37.5,0|0,3:0|0:0,0:0:0:0:
488,346,48646,2,0,P|493:323|490:292,1,37.5
487,268,49228,6,0,B|430:284|449:219|374:243,1,112.5,8|0,0:2|0:0,0:0:0:0:
343,244,50393,2,0,B|337:230|347:213|347:213|397:202,1,75,10|2,0:0|0:0,0:0:0:0:
429,204,51267,1,2,0:0:0:0:
458,232,51559,2,0,P|464:267|443:297,1,75,0|0,3:0|0:0,0:0:0:0:
404,308,52432,1,0,0:0:0:0:
372,334,52724,2,0,B|315:318|334:383|259:359,1,112.5,8|0,0:0|0:0,0:0:0:0:
261,321,53889,2,0,B|317:338|298:273|373:297,1,112.5,0|0,3:0|0:0,0:0:0:0:
