osu file format v14

[General]
AudioFilename: audio.mp3
AudioLeadIn: 0
PreviewTime: 50497
Countdown: 0
SampleSet: Normal
StackLeniency: 0.7
Mode: 1
LetterboxInBreaks: 0
WidescreenStoryboard: 1

[Editor]
Bookmarks: 769,7003,13237,19470
DistanceSpacing: 1
BeatDivisor: 8
GridSize: 4
TimelineZoom: 0.9000001

[Metadata]
Title:Hotondo Shiawase
TitleUnicode:ほとんど幸せ
Artist:t e l e p a t h Telepathy Nouryokusha
ArtistUnicode:t e l e p a t h テレパシー能力者
Creator:Horiiizon
Version:Kantan
Source:
Tags:vaporwave slushwave dream catalogue ambient almost happy andromeda アンドロメダ electronic instrumental
BeatmapID:2525030
BeatmapSetID:1212983

[Difficulty]
HPDrainRate:10
CircleSize:5
OverallDifficulty:2.5
ApproachRate:5
SliderMultiplier:1.4
SliderTickRate:1

[Events]
//Background and Video events
0,0,"almost happy.jpg",0,-20
//Break Periods
//Storyboard Layer 0 (Background)
//Storyboard Layer 1 (Fail)
//Storyboard Layer 2 (Pass)
//Storyboard Layer 3 (Foreground)
//Storyboard Layer 4 (Overlay)
//Storyboard Sound Samples

[TimingPoints]
238,779.220779220779,4,1,0,40,1,0
6926,-100,4,1,0,35,0,0
13160,-100,4,1,0,45,0,0
19393,-100,4,1,0,50,0,0
56796,-100,4,1,0,40,0,0
60140,-100,4,1,0,33,0,0
63030,-100,4,1,0,25,0,0
66082,-100,4,1,0,18,0,0
69263,-100,4,1,0,10,0,0

[HitObjects]
217,172,237,5,8,0:0:0:0:
225,172,1017,1,0,0:0:0:0:
206,147,3062,1,8,0:0:0:0:
206,147,4134,1,8,0:0:0:0:
187,135,5692,1,0,0:0:0:0:
187,135,6471,1,0,0:0:0:0:
212,154,7250,1,8,0:0:0:0:
205,131,9296,1,0,0:0:0:0:
201,159,10367,1,0,0:0:0:0:
208,138,12705,1,8,0:0:0:0:
225,187,13484,1,8,0:0:0:0:
229,214,15530,1,8,0:0:0:0:
206,147,16601,1,8,0:0:0:0:
228,175,18160,1,0,0:0:0:0:
200,180,18939,1,0,0:0:0:0:
241,174,19718,5,0,0:0:0:0:
211,151,21763,1,0,0:0:0:0:
201,188,22835,1,8,0:0:0:0:
205,164,25173,1,8,0:0:0:0:
212,154,25952,1,8,0:0:0:0:
205,131,27997,1,0,0:0:0:0:
206,147,29069,1,8,0:0:0:0:
187,135,30627,1,0,0:0:0:0:
191,195,31406,1,8,0:0:0:0:
225,187,32186,1,8,0:0:0:0:
229,214,34231,1,8,0:0:0:0:
209,215,35302,1,8,0:0:0:0:
209,215,37640,1,0,0:0:0:0:
241,174,38419,5,0,0:0:0:0:
211,151,40465,1,0,0:0:0:0:
206,147,41536,1,8,0:0:0:0:
187,135,43095,1,0,0:0:0:0:
191,150,43874,1,0,0:0:0:0:
241,174,44653,5,0,0:0:0:0:
211,151,46699,1,0,0:0:0:0:
203,157,47770,1,8,0:0:0:0:
205,164,50108,5,8,0:0:0:0:
225,187,50887,1,8,0:0:0:0:
229,214,52932,1,8,0:0:0:0:
206,147,54004,1,8,0:0:0:0:
187,135,55562,1,0,0:0:0:0:
206,146,56341,1,0,0:0:0:0:
238,145,57121,1,8,0:0:0:0:
206,147,59166,1,8,0:0:0:0:
210,184,60237,1,8,0:0:0:0:
209,198,62575,1,8,0:0:0:0:
212,154,63354,1,8,0:0:0:0:
205,131,65400,1,0,0:0:0:0:
206,147,66471,1,8,0:0:0:0:
187,135,68030,1,0,0:0:0:0:
194,177,68809,1,0,0:0:0:0:
256,192,69328,12,0,73484,0:0:0:0:
