osu file format v14

[General]
AudioFilename: audio.mp3
AudioLeadIn: 0
PreviewTime: 50497
Countdown: 0
SampleSet: Normal
StackLeniency: 0.7
Mode: 1
LetterboxInBreaks: 0
WidescreenStoryboard: 1

[Editor]
Bookmarks: 769,7003,13237,19470
DistanceSpacing: 1
BeatDivisor: 8
GridSize: 4
TimelineZoom: 1

[Metadata]
Title:Hotondo Shiawase
TitleUnicode:ほとんど幸せ
Artist:t e l e p a t h Telepathy Nouryokusha
ArtistUnicode:t e l e p a t h テレパシー能力者
Creator:Horiiizon
Version:Futsuu
Source:
Tags:vaporwave slushwave dream catalogue ambient almost happy andromeda アンドロメダ electronic instrumental
BeatmapID:2524632
BeatmapSetID:1212983

[Difficulty]
HPDrainRate:9.5
CircleSize:5
OverallDifficulty:3
ApproachRate:5
SliderMultiplier:1.4
SliderTickRate:1

[Events]
//Background and Video events
0,0,"almost happy.jpg",0,-20
//Break Periods
//Storyboard Layer 0 (Background)
//Storyboard Layer 1 (Fail)
//Storyboard Layer 2 (Pass)
//Storyboard Layer 3 (Foreground)
//Storyboard Layer 4 (Overlay)
//Storyboard Sound Samples

[TimingPoints]
238,779.220779220779,4,1,0,40,1,0
6926,-100,4,1,0,35,0,0
13160,-100,4,1,0,45,0,0
19393,-100,4,1,0,50,0,0
56796,-100,4,1,0,40,0,0
60140,-100,4,1,0,33,0,0
63030,-100,4,1,0,25,0,0
66082,-100,4,1,0,18,0,0
69263,-100,4,1,0,10,0,0

[HitObjects]
217,172,237,5,8,0:0:0:0:
225,172,1017,1,0,0:0:0:0:
198,200,1536,5,0,0:0:0:0:
221,181,2575,1,8,0:0:0:0:
206,147,3062,1,8,0:0:0:0:
206,147,4134,1,8,0:0:0:0:
206,147,4653,1,0,0:0:0:0:
187,135,5692,1,0,0:0:0:0:
187,135,6471,1,0,0:0:0:0:
212,154,7250,1,8,0:0:0:0:
197,121,7770,1,8,0:0:0:0:
197,121,8809,1,0,0:0:0:0:
205,131,9296,1,0,0:0:0:0:
201,159,10367,1,0,0:0:0:0:
208,138,11926,1,0,0:0:0:0:
208,138,12705,1,8,0:0:0:0:
225,187,13484,1,8,0:0:0:0:
225,193,14004,1,0,0:0:0:0:
229,214,15043,1,8,0:0:0:0:
229,214,15530,1,8,0:0:0:0:
206,147,16601,1,8,0:0:0:0:
209,173,17121,1,8,0:0:0:0:
187,135,18160,1,0,0:0:0:0:
200,180,18939,1,0,0:0:0:0:
241,174,19718,5,0,0:0:0:0:
215,143,20237,1,8,0:0:0:0:
214,152,21276,1,8,0:0:0:0:
211,151,21763,1,0,0:0:0:0:
202,161,22835,1,0,0:0:0:0:
183,143,24393,1,8,0:0:0:0:
205,164,25173,1,8,0:0:0:0:
212,154,25952,1,8,0:0:0:0:
197,121,26471,1,8,0:0:0:0:
197,121,27510,1,0,0:0:0:0:
205,131,27997,1,0,0:0:0:0:
206,147,29069,1,8,0:0:0:0:
197,181,29588,1,0,0:0:0:0:
187,135,30627,1,0,0:0:0:0:
191,195,31406,1,8,0:0:0:0:
225,187,32186,1,8,0:0:0:0:
201,167,32705,1,0,0:0:0:0:
229,214,33744,1,8,0:0:0:0:
229,214,34231,1,8,0:0:0:0:
209,215,35302,1,8,0:0:0:0:
204,171,36861,1,8,0:0:0:0:
209,215,37640,1,0,0:0:0:0:
241,174,38419,5,0,0:0:0:0:
205,151,38939,1,0,0:0:0:0:
214,152,39978,1,8,0:0:0:0:
211,151,40465,1,0,0:0:0:0:
206,147,41536,1,8,0:0:0:0:
209,173,42056,1,8,0:0:0:0:
187,135,43095,1,0,0:0:0:0:
191,150,43874,1,0,0:0:0:0:
241,174,44653,5,0,0:0:0:0:
215,143,45173,1,8,0:0:0:0:
214,152,46212,1,8,0:0:0:0:
211,151,46699,1,0,0:0:0:0:
211,160,47770,1,8,0:0:0:0:
181,197,49328,1,0,0:0:0:0:
205,164,50108,5,8,0:0:0:0:
225,187,50887,1,8,0:0:0:0:
211,172,51406,1,0,0:0:0:0:
229,214,52445,1,8,0:0:0:0:
229,214,52932,1,8,0:0:0:0:
206,147,54004,1,8,0:0:0:0:
209,191,54523,1,0,0:0:0:0:
187,135,55562,1,0,0:0:0:0:
206,146,56341,1,0,0:0:0:0:
232,196,57121,1,8,0:0:0:0:
198,200,57640,5,0,0:0:0:0:
221,181,58679,1,8,0:0:0:0:
206,147,59166,1,8,0:0:0:0:
208,138,60237,1,8,0:0:0:0:
197,152,61796,1,8,0:0:0:0:
209,198,62575,1,8,0:0:0:0:
212,154,63354,1,8,0:0:0:0:
197,121,63874,1,8,0:0:0:0:
197,121,64913,1,0,0:0:0:0:
205,131,65400,1,0,0:0:0:0:
206,147,66471,1,8,0:0:0:0:
184,145,66991,1,8,0:0:0:0:
187,135,68030,1,0,0:0:0:0:
210,145,68809,1,8,0:0:0:0:
256,192,69328,12,0,73484,0:0:0:0:
