osu file format v14

[General]
AudioFilename: audio.mp3
AudioLeadIn: 0
PreviewTime: -1
Countdown: 0
SampleSet: None
StackLeniency: 0.7
Mode: 3
LetterboxInBreaks: 0
SpecialStyle: 0
WidescreenStoryboard: 1

[Editor]
DistanceSpacing: 1.4
BeatDivisor: 4
GridSize: 32
TimelineZoom: 1.7

[Metadata]
Title:when that new fortnite funny video comes on
TitleUnicode:when that new fortnite funny video comes on
Artist:t
ArtistUnicode:t
Creator:trey-
Version:ode getting one-pumped by a kid with a default skin
Source:
Tags:
BeatmapID:1622990
BeatmapSetID:747876

[Difficulty]
HPDrainRate:6
CircleSize:4
OverallDifficulty:8
ApproachRate:9
SliderMultiplier:3.59999990463257
SliderTickRate:1

[Events]
//Background and Video events
0,0,"fmfim.png",0,0
//Break Periods
//Storyboard Layer 0 (Background)
//Storyboard Layer 1 (Fail)
//Storyboard Layer 2 (Pass)
//Storyboard Layer 3 (Foreground)
//Storyboard Sound Samples

[TimingPoints]
39,375,4,1,0,60,1,0
11063,623.052959501558,4,1,0,60,1,0
11063,-200,4,1,0,60,0,0

[HitObjects]
192,192,39,5,0,0:0:0:0:
448,192,39,1,0,0:0:0:0:
320,192,226,1,0,0:0:0:0:
448,192,226,1,0,0:0:0:0:
64,192,414,1,0,0:0:0:0:
192,192,414,1,0,0:0:0:0:
448,192,601,1,0,0:0:0:0:
192,192,601,1,0,0:0:0:0:
320,192,789,1,0,0:0:0:0:
64,192,789,1,0,0:0:0:0:
448,192,976,1,0,0:0:0:0:
320,192,976,1,0,0:0:0:0:
64,192,1164,1,0,0:0:0:0:
192,192,1164,1,0,0:0:0:0:
192,192,1351,1,0,0:0:0:0:
320,192,1351,1,0,0:0:0:0:
64,192,1539,1,0,0:0:0:0:
448,192,1539,1,0,0:0:0:0:
192,192,1726,1,0,0:0:0:0:
448,192,1726,1,0,0:0:0:0:
320,192,1914,1,0,0:0:0:0:
192,192,1914,1,0,0:0:0:0:
320,192,2101,1,0,0:0:0:0:
448,192,2101,1,0,0:0:0:0:
320,192,2289,1,0,0:0:0:0:
192,192,2289,1,0,0:0:0:0:
64,192,2476,1,0,0:0:0:0:
192,192,2476,1,0,0:0:0:0:
64,192,2664,128,0,2804:0:0:0:0:
192,192,2664,128,0,2804:0:0:0:0:
320,192,2664,128,0,2804:0:0:0:0:
448,192,2664,128,0,2804:0:0:0:0:
448,192,2851,128,0,2992:0:0:0:0:
320,192,2851,128,0,2992:0:0:0:0:
192,192,2851,128,0,2992:0:0:0:0:
64,192,2851,128,0,2992:0:0:0:0:
448,192,3039,128,0,3367:0:0:0:0:
320,192,3039,128,0,3367:0:0:0:0:
192,192,3039,128,0,3367:0:0:0:0:
64,192,3039,128,0,3367:0:0:0:0:
448,192,3414,128,0,3742:0:0:0:0:
320,192,3414,128,0,3742:0:0:0:0:
192,192,3414,128,0,3742:0:0:0:0:
64,192,3414,128,0,3742:0:0:0:0:
448,192,3789,128,0,4117:0:0:0:0:
320,192,3789,128,0,4117:0:0:0:0:
192,192,3789,128,0,4117:0:0:0:0:
64,192,3789,128,0,4117:0:0:0:0:
64,192,4164,1,0,0:0:0:0:
192,192,4164,1,0,0:0:0:0:
320,192,4164,1,0,0:0:0:0:
448,192,4164,1,0,0:0:0:0:
64,192,4539,128,0,4726:0:0:0:0:
320,192,4539,128,0,4726:0:0:0:0:
192,192,4726,128,0,4914:0:0:0:0:
448,192,4914,128,0,5101:0:0:0:0:
64,192,4914,1,0,0:0:0:0:
320,192,5101,128,0,5289:0:0:0:0:
192,192,5289,128,0,5476:0:0:0:0:
64,192,5289,128,0,5476:0:0:0:0:
448,192,5476,128,0,5664:0:0:0:0:
320,192,5476,1,0,0:0:0:0:
192,192,5664,128,0,5851:0:0:0:0:
320,192,5664,1,0,0:0:0:0:
64,192,5664,1,0,0:0:0:0:
64,192,5851,128,0,6039:0:0:0:0:
320,192,5851,1,0,0:0:0:0:
448,192,6039,128,0,6226:0:0:0:0:
320,192,6039,128,0,6226:0:0:0:0:
192,192,6039,128,0,6226:0:0:0:0:
64,192,6226,128,0,6414:0:0:0:0:
320,192,6414,128,0,6601:0:0:0:0:
448,192,6414,1,0,0:0:0:0:
192,192,6414,1,0,0:0:0:0:
192,192,6601,128,0,6789:0:0:0:0:
64,192,6789,1,0,0:0:0:0:
320,192,6789,1,0,0:0:0:0:
448,192,6789,1,0,0:0:0:0:
448,192,6976,128,0,7164:0:0:0:0:
320,192,6976,1,0,0:0:0:0:
64,192,7164,128,0,7539:0:0:0:0:
192,192,7164,128,0,7539:0:0:0:0:
320,192,7164,128,0,7539:0:0:0:0:
448,192,7539,128,0,7726:0:0:0:0:
192,192,7726,128,0,7914:0:0:0:0:
320,192,7726,1,0,0:0:0:0:
64,192,7914,128,0,8101:0:0:0:0:
320,192,7914,1,0,0:0:0:0:
448,192,7914,1,0,0:0:0:0:
448,192,8101,128,0,8289:0:0:0:0:
64,192,8289,128,0,8476:0:0:0:0:
192,192,8476,128,0,8664:0:0:0:0:
448,192,8476,1,0,0:0:0:0:
320,192,8664,128,0,8851:0:0:0:0:
64,192,8851,128,0,9039:0:0:0:0:
448,192,8851,128,0,9039:0:0:0:0:
192,192,8851,1,0,0:0:0:0:
192,192,9039,128,0,9226:0:0:0:0:
320,192,9039,128,0,9226:0:0:0:0:
64,192,9226,128,0,9414:0:0:0:0:
448,192,9226,1,0,0:0:0:0:
448,192,9414,128,0,9601:0:0:0:0:
192,192,9414,1,0,0:0:0:0:
320,192,9414,1,0,0:0:0:0:
320,192,9601,128,0,9789:0:0:0:0:
192,192,9601,128,0,9789:0:0:0:0:
64,192,9601,128,0,9789:0:0:0:0:
448,192,9789,1,0,0:0:0:0:
320,192,9976,128,0,10164:0:0:0:0:
192,192,9976,1,0,0:0:0:0:
64,192,10164,128,0,10351:0:0:0:0:
192,192,10164,128,0,10351:0:0:0:0:
448,192,10164,128,0,10351:0:0:0:0:
320,192,10351,128,0,10539:0:0:0:0:
320,192,11063,128,0,11374:0:0:0:0:
64,192,11063,128,0,11997:0:0:0:0:
448,192,11063,128,0,11530:0:0:0:0:
192,192,11063,128,0,11686:0:0:0:0:
320,192,11530,128,0,12153:0:0:0:0:
448,192,11686,128,0,12309:0:0:0:0:
192,192,11997,128,0,12620:0:0:0:0:
64,192,12153,128,0,12620:0:0:0:0:
320,192,12309,128,0,12776:0:0:0:0:
448,192,12620,128,0,12776:0:0:0:0:
64,192,12776,128,0,13866:0:0:0:0:
192,192,12776,128,0,12932:0:0:0:0:
320,192,12932,128,0,13555:0:0:0:0:
448,192,12932,128,0,13555:0:0:0:0:
192,192,13243,1,0,0:0:0:0:
192,192,13555,128,0,14334:0:0:0:0:
320,192,13866,128,0,14178:0:0:0:0:
448,192,13866,128,0,14022:0:0:0:0:
64,192,14022,128,0,14645:0:0:0:0:
448,192,14178,128,0,14489:0:0:0:0:
320,192,14334,128,0,14801:0:0:0:0:
192,192,14489,128,0,14957:0:0:0:0:
448,192,14645,128,0,15424:0:0:0:0:
64,192,14801,128,0,15112:0:0:0:0:
320,192,14957,128,0,15112:0:0:0:0:
192,192,15112,128,0,16047:0:0:0:0:
320,192,15424,128,0,15735:0:0:0:0:
64,192,15424,128,0,16358:0:0:0:0:
448,192,15735,128,0,16047:0:0:0:0:
320,192,16047,128,0,16514:0:0:0:0:
192,192,16358,128,0,16670:0:0:0:0:
448,192,16358,128,0,16670:0:0:0:0:
64,192,16514,128,0,16982:0:0:0:0:
320,192,16670,128,0,17293:0:0:0:0:
192,192,16826,128,0,17137:0:0:0:0:
448,192,16982,128,0,17605:0:0:0:0:
64,192,17293,128,0,17916:0:0:0:0:
192,192,17293,128,0,17605:0:0:0:0:
320,192,17605,128,0,18228:0:0:0:0:
192,192,17916,128,0,18072:0:0:0:0:
448,192,17916,128,0,18383:0:0:0:0:
192,192,18228,128,0,18539:0:0:0:0:
320,192,18383,128,0,18539:0:0:0:0:
64,192,18539,128,0,18695:0:0:0:0:
448,192,18539,128,0,18695:0:0:0:0:
192,192,18695,128,0,19006:0:0:0:0:
320,192,18695,128,0,18851:0:0:0:0:
64,192,18851,128,0,19162:0:0:0:0:
448,192,18851,128,0,19162:0:0:0:0:
320,192,19006,128,0,19318:0:0:0:0:
192,192,19162,128,0,19629:0:0:0:0:
64,192,19318,128,0,19785:0:0:0:0:
448,192,19318,128,0,19474:0:0:0:0:
320,192,19474,128,0,19941:0:0:0:0:
448,192,19629,128,0,20097:0:0:0:0:
192,192,19785,128,0,20097:0:0:0:0:
64,192,20097,128,0,20876:0:0:0:0:
320,192,20097,128,0,20408:0:0:0:0:
192,192,20253,128,0,20876:0:0:0:0:
448,192,20253,128,0,20876:0:0:0:0:
320,192,20720,128,0,20876:0:0:0:0:
