osu file format v14

[General]
AudioFilename: audio.mp3
AudioLeadIn: 0
PreviewTime: 0
Countdown: 0
SampleSet: Normal
StackLeniency: 0.7
Mode: 0
LetterboxInBreaks: 0
WidescreenStoryboard: 1

[Editor]
DistanceSpacing: 1.8
BeatDivisor: 3
GridSize: 8
TimelineZoom: 1.800003

[Metadata]
Title:when that new fortnite funny video comes on
TitleUnicode:when that new fortnite funny video comes on
Artist:t
ArtistUnicode:t
Creator:trey-
Version:death grips' Boogie Bomb
Source:
Tags:jump training funny moments fortnite matrix freddie benson monstrata fieryrage squilly trey lilynn ambrew astolfo stq death grips skill blu ming3012 ming
BeatmapID:1619899
BeatmapSetID:747876

[Difficulty]
HPDrainRate:6
CircleSize:3.5
OverallDifficulty:8
ApproachRate:9.3
SliderMultiplier:1.4
SliderTickRate:1

[Events]
//Background and Video events
Video,0,"videoplayback (3).mp4"
0,0,"fmfim.png",0,0
//Break Periods
//Storyboard Layer 0 (Background)
//Storyboard Layer 1 (Fail)
//Storyboard Layer 2 (Pass)
//Storyboard Layer 3 (Foreground)
//Storyboard Sound Samples

[TimingPoints]
22,375,4,1,0,100,1,0
4147,375,4,1,0,100,1,0
10424,625,4,1,0,100,1,0
10453,-200,4,1,0,100,0,0
10553,-100,4,1,0,100,0,0
10595,-200,4,1,0,100,0,0
11049,625,4,1,0,100,1,0

[HitObjects]
48,144,22,6,0,L|96:224,1,70
208,64,397,2,0,L|146:134,1,70
281,196,772,1,0,0:0:0:0:
254,217,959,1,0,0:0:0:0:
233,189,1147,1,0,0:0:0:0:
260,168,1334,1,0,0:0:0:0:
464,280,1522,6,0,L|408:216,1,70
312,208,1897,2,0,L|367:125,1,70
168,112,2272,5,0,0:0:0:0:
168,112,2459,1,0,0:0:0:0:
168,208,2647,1,0,0:0:0:0:
264,264,2834,1,0,0:0:0:0:
376,248,3022,1,0,0:0:0:0:
376,248,3397,1,0,0:0:0:0:
376,248,3772,1,0,0:0:0:0:
376,248,4147,1,0,0:0:0:0:
280,304,4334,5,0,0:0:0:0:
168,264,4522,1,0,0:0:0:0:
160,168,4709,5,0,0:0:0:0:
224,96,4897,1,0,0:0:0:0:
320,106,5084,5,0,0:0:0:0:
360,208,5272,1,0,0:0:0:0:
136,344,5459,5,0,0:0:0:0:
60,45,5647,1,0,0:0:0:0:
40,360,5834,5,0,0:0:0:0:
154,73,6022,1,0,0:0:0:0:
208,328,6209,5,0,0:0:0:0:
249,82,6397,1,0,0:0:0:0:
318,322,6584,5,0,0:0:0:0:
173,119,6772,1,0,0:0:0:0:
168,232,6959,5,0,0:0:0:0:
315,187,7147,1,0,0:0:0:0:
224,312,7522,5,0,0:0:0:0:
288,40,7709,1,0,0:0:0:0:
298,308,7897,5,0,0:0:0:0:
195,49,8084,1,0,0:0:0:0:
357,263,8272,5,0,0:0:0:0:
124,109,8459,1,0,0:0:0:0:
234,286,8647,5,0,0:0:0:0:
161,170,8834,1,0,0:0:0:0:
277,97,9022,1,0,0:0:0:0:
350,213,9209,1,0,0:0:0:0:
104,286,9397,5,0,0:0:0:0:
161,40,9584,1,0,0:0:0:0:
407,97,9772,1,0,0:0:0:0:
350,343,9959,1,0,0:0:0:0:
256,192,10147,1,0,0:0:0:0:
127,288,11051,2,0,B|129:220|129:220|199:182,1,140
400,111,12299,2,0,B|397:177|397:177|327:214,1,140
80,296,13549,1,0,0:0:0:0:
186,57,13705,1,0,0:0:0:0:
328,160,13861,5,0,0:0:0:0:
411,173,14017,1,0,0:0:0:0:
425,257,14174,1,0,0:0:0:0:
348,295,14330,1,0,0:0:0:0:
289,235,14486,1,0,0:0:0:0:
224,176,14642,1,0,0:0:0:0:
156,226,14799,1,0,0:0:0:0:
86,178,14955,1,0,0:0:0:0:
112,96,15111,1,0,0:0:0:0:
197,95,15424,5,0,0:0:0:0:
80,320,15840,1,0,0:0:0:0:
128,288,16674,6,0,B|129:219|129:219|201:181,1,140
400,112,17924,2,0,B|397:177|397:177|327:215,1,140
272,304,19019,1,0,0:0:0:0:
104,216,19486,1,0,0:0:0:0:
376,56,20424,1,0,0:0:0:0:
152,296,20840,1,0,0:0:0:0:
