osu file format v14

[General]
AudioFilename: audio.mp3
AudioLeadIn: 0
PreviewTime: 0
Countdown: 0
SampleSet: None
StackLeniency: 0.2
Mode: 0
LetterboxInBreaks: 0
WidescreenStoryboard: 1

[Editor]
DistanceSpacing: 1.8
BeatDivisor: 4
GridSize: 32
TimelineZoom: 1

[Metadata]
Title:when that new fortnite funny video comes on
TitleUnicode:when that new fortnite funny video comes on
Artist:t
ArtistUnicode:t
Creator:trey-
Version:Mugir's Legendary weapon
Source:
Tags:jump training funny moments fortnite matrix freddie benson monstrata fieryrage squilly trey lilynn ambrew astolfo stq death grips skill blu ming3012 ming
BeatmapID:1628452
BeatmapSetID:747876

[Difficulty]
HPDrainRate:6
CircleSize:4.3
OverallDifficulty:8
ApproachRate:9.3
SliderMultiplier:2
SliderTickRate:1

[Events]
//Background and Video events
Video,0,"videoplayback (3).mp4"
0,0,"fmfim.png",0,0
//Break Periods
//Storyboard Layer 0 (Background)
//Storyboard Layer 1 (Fail)
//Storyboard Layer 2 (Pass)
//Storyboard Layer 3 (Foreground)
//Storyboard Sound Samples

[TimingPoints]
22,375,4,2,0,50,1,0
4147,375,4,2,0,50,1,0
4147,-25,4,2,0,50,0,0
5084,-100,4,2,0,50,0,0
6772,-50,4,2,0,50,0,0
7147,-25,4,2,0,50,0,0
8272,-100,4,2,0,50,0,0
10147,-25,4,2,0,50,0,0
10424,625,4,2,0,50,1,0
11049,625,4,2,0,50,1,0
11049,-66.6666666666667,4,2,0,50,0,0
15424,-66.6666666666667,4,2,0,50,0,0
20424,-100,4,2,0,100,0,0

[HitObjects]
74,61,22,5,0,0:0:0:0:
155,134,209,1,0,0:0:0:0:
226,56,397,1,0,0:0:0:0:
295,135,584,1,0,0:0:0:0:
267,254,772,5,0,0:0:0:0:
186,327,959,1,0,0:0:0:0:
115,249,1147,1,0,0:0:0:0:
46,328,1334,1,0,0:0:0:0:
252,287,1522,5,0,0:0:0:0:
351,195,1709,1,0,0:0:0:0:
259,96,1897,1,0,0:0:0:0:
160,188,2084,1,0,0:0:0:0:
321,261,2272,5,0,0:0:0:0:
325,126,2459,1,0,0:0:0:0:
91,62,2647,5,0,0:0:0:0:
392,146,2834,1,0,0:0:0:0:
92,282,3022,2,0,P|59:237|53:181,1,100
377,177,3397,5,0,0:0:0:0:
119,209,3584,1,0,0:0:0:0:
252,32,3772,1,0,0:0:0:0:
253,352,3959,1,0,0:0:0:0:
408,63,4147,2,0,L|453:334,1,200
271,214,4522,5,0,0:0:0:0:
76,209,4709,1,0,0:0:0:0:
319,139,4897,1,0,0:0:0:0:
182,263,5084,2,0,P|217:312|255:325,1,100
250,60,5459,5,0,0:0:0:0:
317,232,5647,1,0,0:0:0:0:
164,132,5834,1,0,0:0:0:0:
408,167,6022,1,0,0:0:0:0:
198,220,6209,1,0,0:0:0:0:
338,63,6397,1,0,0:0:0:0:
292,295,6584,1,0,0:0:0:0:
289,223,6772,6,0,L|289:11,1,200
289,23,7147,6,0,L|289:223,1,200
96,118,7522,5,0,0:0:0:0:
270,236,7709,1,0,0:0:0:0:
297,76,7897,5,0,0:0:0:0:
103,250,8084,1,0,0:0:0:0:
319,291,8272,2,0,P|343:234|316:178,1,100
111,114,8647,5,0,0:0:0:0:
416,253,8834,6,0,L|351:238,1,50
218,44,9022,2,0,L|169:55,1,50
141,330,9209,5,0,0:0:0:0:
368,131,9397,6,0,L|389:188,1,50
65,244,9584,2,0,L|82:197,1,50
332,17,9772,2,0,L|260:-10,1,50
150,325,9959,2,0,L|216:337,1,50
311,361,10147,2,0,P|347:191|337:150,1,200
159,276,11049,2,0,P|205:341|210:343,1,75.0000028610231
382,301,11361,5,0,0:0:0:0:
186,195,11517,1,0,0:0:0:0:
395,157,11674,2,0,P|413:79|396:42,1,75.0000028610231
268,269,11986,1,0,0:0:0:0:
203,83,12142,1,0,0:0:0:0:
356,276,12299,2,0,P|296:212|270:233,1,75.0000028610231
169,298,12611,5,0,0:0:0:0:
420,109,12767,1,0,0:0:0:0:
224,190,12924,2,0,P|148:198|63:78,1,225.000008583069
116,346,13549,2,0,P|152:340|184:320,1,75.0000028610231
93,181,13861,5,0,0:0:0:0:
275,230,14017,1,0,0:0:0:0:
173,68,14174,1,0,0:0:0:0:
186,261,14330,1,0,0:0:0:0:
337,119,14486,1,0,0:0:0:0:
65,269,14642,1,0,0:0:0:0:
393,218,14799,1,0,0:0:0:0:
81,97,14955,1,0,0:0:0:0:
280,306,15111,1,0,0:0:0:0:
224,202,15424,6,0,B|183:125|266:121|229:54,1,150.000005722046
281,168,16049,2,0,P|290:213|278:241,1,75
111,233,16361,5,0,0:0:0:0:
366,133,16517,1,0,0:0:0:0:
162,331,16674,1,0,0:0:0:0:
398,271,16986,2,0,P|454:211|463:179,1,75.0000028610231
288,130,17299,2,0,L|360:185,1,75.0000028610231
106,260,17611,2,0,L|25:282,1,75.0000028610231
183,346,17924,2,0,P|195:267|33:300,1,300.000011444092
283,227,18861,5,0,0:0:0:0:
226,95,19017,1,0,0:0:0:0:
179,293,19174,1,0,0:0:0:0:
415,183,19330,1,0,0:0:0:0:
99,164,19486,1,0,0:0:0:0:
365,327,19642,1,0,0:0:0:0:
307,35,19799,1,0,0:0:0:0:
204,348,20111,1,0,0:0:0:0:
176,113,20424,2,0,B|138:158|219:162|160:237,1,100
