osu file format v14

[General]
AudioFilename: audio.mp3
AudioLeadIn: 0
PreviewTime: -1
Countdown: 0
SampleSet: None
StackLeniency: 0.2
Mode: 0
LetterboxInBreaks: 0
WidescreenStoryboard: 1

[Editor]
Bookmarks: 2824
DistanceSpacing: 1.2
BeatDivisor: 8
GridSize: 4
TimelineZoom: 2

[Metadata]
Title:when that new fortnite funny video comes on
TitleUnicode:when that new fortnite funny video comes on
Artist:t
ArtistUnicode:t
Creator:trey-
Version:Lilynn's Trash
Source:
Tags:jump training funny moments fortnite matrix freddie benson monstrata fieryrage squilly trey lilynn ambrew astolfo stq death grips skill blu ming3012 ming
BeatmapID:1621581
BeatmapSetID:747876

[Difficulty]
HPDrainRate:6
CircleSize:4
OverallDifficulty:9
ApproachRate:10
SliderMultiplier:2
SliderTickRate:1

[Events]
//Background and Video events
Video,0,"videoplayback (3).mp4"
0,0,"fmfim.png",0,0
//Break Periods
//Storyboard Layer 0 (Background)
//Storyboard Layer 1 (Fail)
//Storyboard Layer 2 (Pass)
//Storyboard Layer 3 (Foreground)
//Storyboard Sound Samples

[TimingPoints]
30,375,4,2,0,50,1,0
2655,-25,4,2,0,50,0,0
3030,-100,4,2,0,50,0,0
4155,375,4,2,0,50,1,0
4155,-25,4,2,0,50,0,0
6030,-200,4,2,0,50,0,0
6405,-100,4,2,0,50,0,0
6780,-50,4,2,0,50,0,0
7155,-25,4,2,0,50,0,0
9780,-100,4,2,0,50,0,0
10442,625,4,2,0,50,1,0
10598,-100,4,2,0,50,0,0
11067,625,4,2,0,50,1,0
11067,-100,4,2,0,50,0,0
15442,-66.6666666666667,4,2,0,50,0,0
15754,-50,4,2,0,50,0,0
16067,-200,4,2,0,50,0,0
19817,-133.333333333333,4,2,0,50,0,0
19917,-100,4,2,0,50,0,0
20754,-25,4,2,0,50,0,0

[HitObjects]
26,248,30,5,2,0:0:0:0:
26,248,217,1,2,0:0:0:0:
26,248,405,2,0,P|72:231|122:235,1,100,0|2,0:2|0:3,0:0:0:0:
186,298,780,5,2,0:0:0:0:
186,298,967,1,2,0:0:0:0:
186,298,1155,2,2,P|232:315|282:311,1,100,2|2,0:0|0:3,0:0:0:0:
356,260,1530,5,2,0:0:0:0:
356,260,1717,1,2,0:0:0:0:
356,260,1905,2,2,P|376:215|414:182,1,100,2|2,0:0|0:3,0:0:0:0:
499,152,2280,5,2,0:0:0:0:
499,152,2467,1,2,0:0:0:0:
414,36,2655,6,0,P|310:44|222:12,1,200,2|0,0:3|0:0,0:0:0:0:
234,109,2842,6,0,P|331:91|413:35,1,200,2|0,0:3|0:0,0:0:0:0:
413,182,3030,6,0,P|315:164|233:108,1,200,2|0,0:3|0:0,0:0:0:0:
66,73,3780,6,0,P|94:134|86:217,1,150,2|0,0:3|0:0,0:0:0:0:
87,214,4155,6,0,P|119:147|232:107,1,200,2|0,0:3|0:0,0:0:0:0:
413,182,4342,5,2,0:0:0:0:
212,232,4530,1,2,0:0:0:0:
448,52,4717,1,2,0:0:0:0:
103,310,4905,2,0,B|87:212|87:212|104:316,1,200,8|0,0:1|0:0,0:0:0:0:
212,352,5092,5,2,0:0:0:0:
76,116,5280,1,2,0:0:0:0:
328,304,5467,1,2,0:0:0:0:
133,69,5655,6,0,P|25:61|149:105,1,400,2|0,0:0|0:0,0:0:0:0:
304,64,6030,2,2,P|268:58|228:64,1,75
76,116,6405,1,8,0:0:0:0:
212,352,6592,1,0,0:0:0:0:
423,160,6780,2,0,B|353:153|353:153|298:180|298:180|227:173,1,200
222,210,7155,2,0,L|326:220,1,100,2|0,0:3|0:0,0:0:0:0:
423,160,7342,5,2,0:0:0:0:
222,210,7530,1,2,0:0:0:0:
458,30,7717,1,2,0:0:0:0:
113,288,7905,2,0,B|97:190|97:190|114:294,1,200,8|0,0:1|0:0,0:0:0:0:
212,352,8092,5,2,0:0:0:0:
88,109,8280,1,2,0:0:0:0:
328,304,8467,1,2,0:0:0:0:
200,240,8655,2,0,B|111:237|111:237|81:248|81:248|1:248,1,200
243,316,8842,2,0,P|285:216|229:156,1,200,2|0,0:3|0:0,0:0:0:0:
0,52,9030,5,2,0:3:0:0:
258,86,9217,1,0,0:0:0:0:
2,249,9405,2,0,B|31:147|-16:147|0:51,1,200
72,31,9592,6,0,P|150:85|242:53,1,200,2|0,0:3|0:0,0:0:0:0:
290,193,9780,6,0,P|242:173|194:177,1,100,2|0,0:3|0:0,0:0:0:0:
110,209,10155,1,4,0:0:0:0:
110,209,10342,1,4,0:0:0:0:
377,290,10598,2,0,P|406:271|425:234,1,75
289,192,11067,6,0,P|296:241|282:289,1,100
218,337,11535,1,2,0:0:0:0:
218,337,11692,2,0,L|106:326,1,100,8|0,0:0|0:0,0:0:0:0:
44,257,12160,1,2,0:0:0:0:
44,257,12317,2,0,L|156:246,1,100,0|2,0:0|0:3,0:0:0:0:
198,189,12785,1,2,3:2:0:0:
198,189,12942,2,0,P|209:139|194:93,1,100
130,40,13567,5,2,0:3:0:0:
472,93,13723,1,2,0:3:0:0:
292,129,13879,5,2,0:0:0:0:
292,129,14035,1,2,0:0:0:0:
292,129,14192,2,0,P|287:153|298:203,1,50,8|0,0:0|0:0,0:0:0:0:
346,233,14504,2,0,P|351:257|340:307,1,50,2|0,0:0|0:0,0:0:0:0:
450,353,14817,6,2,L|443:282,1,50,2|2,0:0|0:3,0:0:0:0:
418,205,15129,2,2,L|425:134,1,50
450,58,15442,6,0,P|420:72|379:76,1,75.0000028610231
290,36,15754,2,0,P|242:40|197:72,1,100
126,122,16067,2,0,P|101:118|79:106,1,50,4|0,0:0|0:0,0:0:0:0:
138,214,16535,5,2,0:0:0:0:
138,214,16692,2,0,L|205:209,1,50,8|0,0:0|0:0,0:0:0:0:
266,237,17160,1,2,0:0:0:0:
266,237,17317,2,0,L|333:232,1,50,0|2,0:0|3:1,0:0:0:0:
455,193,17942,2,2,P|424:181|383:185,1,75,2|2,0:1|0:1,0:1:0:0:
293,345,18567,5,2,0:3:0:0:
268,0,18723,1,2,0:3:0:0:
85,156,18879,6,0,L|112:148,1,25,2|0,0:0|0:0,0:0:0:0:
203,114,19192,5,2,0:3:0:0:
203,114,19348,1,2,0:0:0:0:
153,302,19504,1,2,0:3:0:0:
153,302,19660,1,2,0:0:0:0:
342,167,19817,2,0,P|304:166|264:185,1,75.0000028610231,2|0,0:0|0:0,0:0:0:0:
196,227,20442,2,0,P|156:226|128:208,1,75,2|0,0:0|0:0,0:0:0:0:
