osu file format v14

[General]
AudioFilename: behappy.mp3
AudioLeadIn: 0
PreviewTime: -1
Countdown: 0
SampleSet: None
StackLeniency: 0.2
Mode: 3
LetterboxInBreaks: 0
StoryFireInFront: 0
SpecialStyle: 0
WidescreenStoryboard: 0

[Editor]
Bookmarks: 0
DistanceSpacing: 1
BeatDivisor: 4
GridSize: 4
TimelineZoom: 2.1

[Metadata]
Title:Ultrasonic Anthem
TitleUnicode:Ultrasonic Anthem
Artist:t + pazolite
ArtistUnicode:t + pazolite
Creator:8230
Version:
Source:
Tags:
BeatmapID:2064905
BeatmapSetID:987129

[Difficulty]
HPDrainRate:6
CircleSize:4
OverallDifficulty:7
ApproachRate:3
SliderMultiplier:1
SliderTickRate:1

[Events]
//Background and Video events
0,0,"1.png",0,0
//Break Periods
//Storyboard Layer 0 (Background)
//Storyboard Layer 1 (Fail)
//Storyboard Layer 2 (Pass)
//Storyboard Layer 3 (Foreground)
//Storyboard Sound Samples

[TimingPoints]
9,250,4,1,0,20,1,0

[Colours]
Combo1 : 255,0,0
Combo2 : 0,255,0
Combo3 : 0,0,255
Combo4 : 255,255,0
Combo5 : 0,255,255
Combo6 : 255,0,255

[HitObjects]
192,0,1009,128,0,1509:0:0:0:0:
64,384,1509,128,0,2509:0:0:0:0:
320,384,1509,1,0,0:0:0:0:
320,192,1759,1,0,0:0:0:0:
448,0,2009,1,0,0:0:0:0:
448,192,2259,1,0,0:0:0:0:
448,384,2509,1,0,0:0:0:0:
192,0,3009,1,0,0:0:0:0:
448,0,3009,128,0,4509:0:0:0:0:
192,0,5009,128,0,5509:0:0:0:0:
64,384,5509,1,0,0:0:0:0:
448,384,5509,128,0,6509:0:0:0:0:
64,192,5759,1,0,0:0:0:0:
320,0,6009,1,0,0:0:0:0:
320,192,6259,1,0,0:0:0:0:
320,384,6509,1,0,0:0:0:0:
192,0,7009,128,0,8509:0:0:0:0:
448,0,7009,1,0,0:0:0:0:
192,0,9009,1,0,0:0:0:0:
448,0,9009,1,0,0:0:0:0:
64,192,9009,1,0,0:0:0:0:
192,192,9259,1,0,0:0:0:0:
448,192,9259,1,0,0:0:0:0:
64,384,9509,1,0,0:0:0:0:
320,384,9509,1,0,0:0:0:0:
448,384,9509,1,0,0:0:0:0:
320,192,9759,1,0,0:0:0:0:
320,96,9884,1,0,0:0:0:0:
192,0,10009,1,0,0:0:0:0:
448,0,10009,1,0,0:0:0:0:
192,192,10259,1,0,0:0:0:0:
320,192,10259,1,0,0:0:0:0:
64,384,10509,1,0,0:0:0:0:
192,384,10509,1,0,0:0:0:0:
448,384,10509,1,0,0:0:0:0:
192,192,10759,1,0,0:0:0:0:
192,96,10884,1,0,0:0:0:0:
64,0,11009,1,0,0:0:0:0:
192,0,11009,1,0,0:0:0:0:
448,0,11009,1,0,0:0:0:0:
192,192,11259,1,0,0:0:0:0:
448,192,11259,1,0,0:0:0:0:
192,384,11509,1,0,0:0:0:0:
320,384,11509,1,0,0:0:0:0:
448,384,11509,1,0,0:0:0:0:
64,192,11759,1,0,0:0:0:0:
64,96,11884,1,0,0:0:0:0:
192,0,12009,1,0,0:0:0:0:
448,0,12009,1,0,0:0:0:0:
64,192,12259,1,0,0:0:0:0:
448,192,12259,1,0,0:0:0:0:
64,384,12509,1,0,0:0:0:0:
320,384,12509,1,0,0:0:0:0:
448,384,12509,1,0,0:0:0:0:
320,192,12759,1,0,0:0:0:0:
192,96,12884,1,0,0:0:0:0:
320,96,12884,1,0,0:0:0:0:
448,96,12884,1,0,0:0:0:0:
64,0,13009,1,0,0:0:0:0:
192,0,13009,1,0,0:0:0:0:
320,0,13009,1,0,0:0:0:0:
192,192,13259,1,0,0:0:0:0:
448,192,13259,1,0,0:0:0:0:
64,384,13509,1,0,0:0:0:0:
320,384,13509,1,0,0:0:0:0:
448,384,13509,1,0,0:0:0:0:
192,192,13759,1,0,0:0:0:0:
192,96,13884,1,0,0:0:0:0:
320,0,14009,1,0,0:0:0:0:
448,0,14009,1,0,0:0:0:0:
64,192,14259,1,0,0:0:0:0:
320,192,14259,1,0,0:0:0:0:
64,384,14509,1,0,0:0:0:0:
320,384,14509,1,0,0:0:0:0:
448,384,14509,1,0,0:0:0:0:
192,192,14759,1,0,0:0:0:0:
192,96,14884,1,0,0:0:0:0:
64,0,15009,1,0,0:0:0:0:
192,0,15009,1,0,0:0:0:0:
448,0,15009,1,0,0:0:0:0:
64,192,15259,1,0,0:0:0:0:
448,192,15259,1,0,0:0:0:0:
192,384,15509,1,0,0:0:0:0:
320,384,15509,1,0,0:0:0:0:
448,384,15509,1,0,0:0:0:0:
64,192,15759,1,0,0:0:0:0:
64,96,15884,1,0,0:0:0:0:
192,0,16009,1,0,0:0:0:0:
448,0,16009,1,0,0:0:0:0:
192,192,16259,1,0,0:0:0:0:
448,192,16259,1,0,0:0:0:0:
64,384,16509,1,0,0:0:0:0:
192,384,16509,1,0,0:0:0:0:
448,384,16509,1,0,0:0:0:0:
320,192,16759,1,0,0:0:0:0:
64,96,16884,1,0,0:0:0:0:
320,96,16884,1,0,0:0:0:0:
448,96,16884,1,0,0:0:0:0:
64,0,17009,1,0,0:0:0:0:
192,0,17009,1,0,0:0:0:0:
320,0,17009,1,0,0:0:0:0:
448,0,17009,1,0,0:0:0:0:
192,192,17259,1,0,0:0:0:0:
448,192,17259,1,0,0:0:0:0:
192,384,17509,1,0,0:0:0:0:
320,384,17509,1,0,0:0:0:0:
448,384,17509,1,0,0:0:0:0:
64,192,17759,1,0,0:0:0:0:
192,192,17759,1,0,0:0:0:0:
320,192,17759,1,0,0:0:0:0:
448,192,17759,1,0,0:0:0:0:
320,96,17884,1,0,0:0:0:0:
64,0,18009,1,0,0:0:0:0:
192,0,18009,1,0,0:0:0:0:
320,0,18009,1,0,0:0:0:0:
448,0,18009,1,0,0:0:0:0:
192,192,18259,1,0,0:0:0:0:
320,192,18259,1,0,0:0:0:0:
448,192,18259,1,0,0:0:0:0:
64,384,18509,1,0,0:0:0:0:
320,384,18509,1,0,0:0:0:0:
448,384,18509,1,0,0:0:0:0:
192,192,18759,1,0,0:0:0:0:
192,96,18884,1,0,0:0:0:0:
64,0,19009,1,0,0:0:0:0:
192,0,19009,1,0,0:0:0:0:
448,0,19009,1,0,0:0:0:0:
192,192,19259,1,0,0:0:0:0:
448,192,19259,1,0,0:0:0:0:
64,384,19509,1,0,0:0:0:0:
192,384,19509,1,0,0:0:0:0:
448,384,19509,1,0,0:0:0:0:
64,192,19759,1,0,0:0:0:0:
192,192,19759,1,0,0:0:0:0:
320,192,19759,1,0,0:0:0:0:
448,192,19759,1,0,0:0:0:0:
192,96,19884,1,0,0:0:0:0:
64,0,20009,1,0,0:0:0:0:
192,0,20009,1,0,0:0:0:0:
320,0,20009,1,0,0:0:0:0:
448,0,20009,1,0,0:0:0:0:
192,192,20259,1,0,0:0:0:0:
320,192,20259,1,0,0:0:0:0:
448,192,20259,1,0,0:0:0:0:
64,384,20509,1,0,0:0:0:0:
192,384,20509,1,0,0:0:0:0:
320,384,20509,1,0,0:0:0:0:
320,192,20759,1,0,0:0:0:0:
192,96,20884,1,0,0:0:0:0:
320,96,20884,1,0,0:0:0:0:
448,96,20884,1,0,0:0:0:0:
64,0,21009,1,0,0:0:0:0:
192,0,21009,1,0,0:0:0:0:
320,0,21009,1,0,0:0:0:0:
448,0,21009,1,0,0:0:0:0:
192,192,21259,1,0,0:0:0:0:
448,192,21259,1,0,0:0:0:0:
64,384,21509,1,0,0:0:0:0:
192,384,21509,1,0,0:0:0:0:
448,384,21509,1,0,0:0:0:0:
64,192,21759,1,0,0:0:0:0:
192,192,21759,1,0,0:0:0:0:
320,192,21759,1,0,0:0:0:0:
448,192,21759,1,0,0:0:0:0:
64,96,21884,1,0,0:0:0:0:
64,0,22009,1,0,0:0:0:0:
192,0,22009,1,0,0:0:0:0:
320,0,22009,1,0,0:0:0:0:
448,0,22009,1,0,0:0:0:0:
64,192,22259,1,0,0:0:0:0:
320,192,22259,1,0,0:0:0:0:
448,192,22259,1,0,0:0:0:0:
64,384,22509,1,0,0:0:0:0:
192,384,22509,1,0,0:0:0:0:
320,384,22509,1,0,0:0:0:0:
320,192,22759,1,0,0:0:0:0:
320,96,22884,1,0,0:0:0:0:
64,0,23009,1,0,0:0:0:0:
320,0,23009,1,0,0:0:0:0:
448,0,23009,1,0,0:0:0:0:
64,192,23259,1,0,0:0:0:0:
448,192,23259,1,0,0:0:0:0:
64,384,23509,1,0,0:0:0:0:
320,384,23509,1,0,0:0:0:0:
448,384,23509,1,0,0:0:0:0:
64,192,23759,1,0,0:0:0:0:
192,192,23759,1,0,0:0:0:0:
320,192,23759,1,0,0:0:0:0:
448,192,23759,1,0,0:0:0:0:
192,96,23884,1,0,0:0:0:0:
64,0,24009,1,0,0:0:0:0:
192,0,24009,1,0,0:0:0:0:
320,0,24009,1,0,0:0:0:0:
448,0,24009,1,0,0:0:0:0:
64,192,24259,1,0,0:0:0:0:
320,192,24259,1,0,0:0:0:0:
448,192,24259,1,0,0:0:0:0:
64,384,24509,1,0,0:0:0:0:
192,384,24509,1,0,0:0:0:0:
320,384,24509,1,0,0:0:0:0:
192,192,24759,1,0,0:0:0:0:
64,96,24884,1,0,0:0:0:0:
192,96,24884,1,0,0:0:0:0:
448,96,24884,1,0,0:0:0:0:
64,0,25009,1,0,0:0:0:0:
192,0,25009,1,0,0:0:0:0:
320,0,25009,1,0,0:0:0:0:
448,0,25009,1,0,0:0:0:0:
64,192,25259,1,0,0:0:0:0:
192,192,25259,1,0,0:0:0:0:
192,384,25509,1,0,0:0:0:0:
320,384,25509,1,0,0:0:0:0:
448,384,25509,1,0,0:0:0:0:
64,192,25759,1,0,0:0:0:0:
192,192,25759,1,0,0:0:0:0:
320,192,25759,1,0,0:0:0:0:
448,192,25759,1,0,0:0:0:0:
320,96,25884,1,0,0:0:0:0:
64,0,26009,1,0,0:0:0:0:
192,0,26009,1,0,0:0:0:0:
320,0,26009,1,0,0:0:0:0:
448,0,26009,1,0,0:0:0:0:
64,192,26259,1,0,0:0:0:0:
192,192,26259,1,0,0:0:0:0:
448,192,26259,1,0,0:0:0:0:
192,384,26509,1,0,0:0:0:0:
320,384,26509,1,0,0:0:0:0:
448,384,26509,1,0,0:0:0:0:
192,192,26759,1,0,0:0:0:0:
192,96,26884,1,0,0:0:0:0:
64,0,27009,1,0,0:0:0:0:
192,0,27009,1,0,0:0:0:0:
320,0,27009,1,0,0:0:0:0:
192,192,27259,1,0,0:0:0:0:
448,192,27259,1,0,0:0:0:0:
64,384,27509,1,0,0:0:0:0:
320,384,27509,1,0,0:0:0:0:
448,384,27509,1,0,0:0:0:0:
64,192,27759,1,0,0:0:0:0:
192,192,27759,1,0,0:0:0:0:
320,192,27759,1,0,0:0:0:0:
448,192,27759,1,0,0:0:0:0:
320,96,27884,1,0,0:0:0:0:
64,0,28009,1,0,0:0:0:0:
192,0,28009,1,0,0:0:0:0:
320,0,28009,1,0,0:0:0:0:
448,0,28009,1,0,0:0:0:0:
192,192,28259,1,0,0:0:0:0:
320,192,28259,1,0,0:0:0:0:
448,192,28259,1,0,0:0:0:0:
64,384,28509,1,0,0:0:0:0:
192,384,28509,1,0,0:0:0:0:
448,384,28509,1,0,0:0:0:0:
320,192,28759,1,0,0:0:0:0:
192,96,28884,1,0,0:0:0:0:
320,96,28884,1,0,0:0:0:0:
448,96,28884,1,0,0:0:0:0:
64,0,29009,1,0,0:0:0:0:
192,0,29009,1,0,0:0:0:0:
320,0,29009,1,0,0:0:0:0:
448,0,29009,1,0,0:0:0:0:
64,192,29259,1,0,0:0:0:0:
192,192,29259,1,0,0:0:0:0:
192,384,29509,1,0,0:0:0:0:
448,384,29509,1,0,0:0:0:0:
64,192,29759,1,0,0:0:0:0:
192,192,29759,1,0,0:0:0:0:
320,192,29759,1,0,0:0:0:0:
448,192,29759,1,0,0:0:0:0:
192,96,29884,1,0,0:0:0:0:
64,0,30009,1,0,0:0:0:0:
192,0,30009,1,0,0:0:0:0:
320,0,30009,1,0,0:0:0:0:
448,0,30009,1,0,0:0:0:0:
64,192,30259,1,0,0:0:0:0:
192,192,30259,1,0,0:0:0:0:
448,192,30259,1,0,0:0:0:0:
192,384,30509,1,0,0:0:0:0:
320,384,30509,1,0,0:0:0:0:
448,384,30509,1,0,0:0:0:0:
64,192,30759,1,0,0:0:0:0:
64,96,30884,1,0,0:0:0:0:
64,0,31009,1,0,0:0:0:0:
320,0,31009,1,0,0:0:0:0:
448,0,31009,1,0,0:0:0:0:
64,192,31259,1,0,0:0:0:0:
320,192,31259,1,0,0:0:0:0:
64,384,31509,1,0,0:0:0:0:
320,384,31509,1,0,0:0:0:0:
448,384,31509,1,0,0:0:0:0:
64,192,31759,1,0,0:0:0:0:
192,192,31759,1,0,0:0:0:0:
320,192,31759,1,0,0:0:0:0:
448,192,31759,1,0,0:0:0:0:
192,96,31884,1,0,0:0:0:0:
64,0,32009,1,0,0:0:0:0:
192,0,32009,1,0,0:0:0:0:
320,0,32009,1,0,0:0:0:0:
448,0,32009,1,0,0:0:0:0:
64,192,32259,1,0,0:0:0:0:
192,192,32259,1,0,0:0:0:0:
448,192,32259,1,0,0:0:0:0:
64,384,32509,1,0,0:0:0:0:
320,384,32509,1,0,0:0:0:0:
448,384,32509,1,0,0:0:0:0:
192,192,32759,1,0,0:0:0:0:
192,96,32884,1,0,0:0:0:0:
320,96,32884,1,0,0:0:0:0:
448,96,32884,1,0,0:0:0:0:
64,0,33009,1,0,0:0:0:0:
192,0,33009,1,0,0:0:0:0:
320,0,33009,1,0,0:0:0:0:
448,0,33009,1,0,0:0:0:0:
192,384,33509,1,0,0:0:0:0:
448,192,34259,1,0,0:0:0:0:
320,384,34509,1,0,0:0:0:0:
192,192,34759,1,0,0:0:0:0:
64,0,35009,1,0,0:0:0:0:
448,192,35509,1,0,0:0:0:0:
320,384,36509,1,0,0:0:0:0:
64,0,37009,1,0,0:0:0:0:
192,0,37009,1,0,0:0:0:0:
320,0,37009,1,0,0:0:0:0:
448,0,37009,1,0,0:0:0:0:
64,0,38009,1,0,0:0:0:0:
192,0,38009,1,0,0:0:0:0:
320,0,38009,1,0,0:0:0:0:
448,0,38009,1,0,0:0:0:0:
64,192,38759,1,0,0:0:0:0:
192,192,38759,1,0,0:0:0:0:
320,192,38759,1,0,0:0:0:0:
448,192,38759,1,0,0:0:0:0:
64,288,39384,1,0,0:0:0:0:
192,288,39384,1,0,0:0:0:0:
320,288,39384,1,0,0:0:0:0:
448,288,39384,1,0,0:0:0:0:
64,96,39884,1,0,0:0:0:0:
192,96,39884,1,0,0:0:0:0:
320,96,39884,1,0,0:0:0:0:
448,96,39884,1,0,0:0:0:0:
64,240,40321,1,0,0:0:0:0:
192,240,40321,1,0,0:0:0:0:
320,240,40321,1,0,0:0:0:0:
448,240,40321,1,0,0:0:0:0:
64,239,40696,1,0,0:0:0:0:
192,239,40696,1,0,0:0:0:0:
320,239,40696,1,0,0:0:0:0:
448,239,40696,1,0,0:0:0:0:
64,0,41009,1,0,0:0:0:0:
192,0,41009,1,0,0:0:0:0:
320,0,41009,1,0,0:0:0:0:
448,0,41009,1,0,0:0:0:0:
64,192,41259,1,0,0:0:0:0:
192,192,41259,1,0,0:0:0:0:
320,192,41259,1,0,0:0:0:0:
448,192,41259,1,0,0:0:0:0:
64,336,41446,1,0,0:0:0:0:
192,336,41446,1,0,0:0:0:0:
320,336,41446,1,0,0:0:0:0:
448,336,41446,1,0,0:0:0:0:
64,335,41571,1,0,0:0:0:0:
192,335,41571,1,0,0:0:0:0:
320,288,41634,1,0,0:0:0:0:
448,288,41634,1,0,0:0:0:0:
64,239,41696,1,0,0:0:0:0:
192,239,41696,1,0,0:0:0:0:
448,216,41727,1,0,0:0:0:0:
320,192,41759,1,0,0:0:0:0:
192,168,41790,1,0,0:0:0:0:
64,143,41821,1,0,0:0:0:0:
448,120,41852,1,0,0:0:0:0:
320,96,41884,1,0,0:0:0:0:
192,72,41915,1,0,0:0:0:0:
64,47,41946,1,0,0:0:0:0:
448,24,41977,1,0,0:0:0:0:
320,0,42009,1,0,0:0:0:0:
192,23,42040,1,0,0:0:0:0:
64,48,42071,1,0,0:0:0:0:
448,71,42102,1,0,0:0:0:0:
320,96,42134,1,0,0:0:0:0:
192,119,42165,1,0,0:0:0:0:
64,144,42196,1,0,0:0:0:0:
448,167,42227,1,0,0:0:0:0:
320,192,42259,1,0,0:0:0:0:
192,215,42290,1,0,0:0:0:0:
64,240,42321,1,0,0:0:0:0:
448,263,42352,1,0,0:0:0:0:
320,288,42384,1,0,0:0:0:0:
192,311,42415,1,0,0:0:0:0:
64,336,42446,1,0,0:0:0:0:
448,359,42477,1,0,0:0:0:0:
320,384,42509,1,0,0:0:0:0:
192,360,42540,1,0,0:0:0:0:
64,335,42571,1,0,0:0:0:0:
448,312,42602,1,0,0:0:0:0:
320,288,42634,1,0,0:0:0:0:
192,264,42665,1,0,0:0:0:0:
64,239,42696,1,0,0:0:0:0:
448,216,42727,1,0,0:0:0:0:
320,192,42759,1,0,0:0:0:0:
192,168,42790,1,0,0:0:0:0:
64,143,42821,1,0,0:0:0:0:
448,120,42852,1,0,0:0:0:0:
320,96,42884,1,0,0:0:0:0:
192,72,42915,1,0,0:0:0:0:
64,47,42946,1,0,0:0:0:0:
448,24,42977,1,0,0:0:0:0:
320,0,43009,1,0,0:0:0:0:
192,23,43040,1,0,0:0:0:0:
64,48,43071,1,0,0:0:0:0:
448,71,43102,1,0,0:0:0:0:
320,96,43134,1,0,0:0:0:0:
192,119,43165,1,0,0:0:0:0:
64,144,43196,1,0,0:0:0:0:
448,167,43227,1,0,0:0:0:0:
320,192,43259,1,0,0:0:0:0:
192,215,43290,1,0,0:0:0:0:
64,240,43321,1,0,0:0:0:0:
448,263,43352,1,0,0:0:0:0:
320,288,43384,1,0,0:0:0:0:
192,311,43415,1,0,0:0:0:0:
64,336,43446,128,0,44884:0:0:0:0:
320,239,43696,1,0,0:0:0:0:
320,192,43759,1,0,0:0:0:0:
320,96,43884,1,0,0:0:0:0:
320,96,44134,1,0,0:0:0:0:
320,288,44384,1,0,0:0:0:0:
320,288,44634,1,0,0:0:0:0:
320,192,44759,1,0,0:0:0:0:
320,96,44884,1,0,0:0:0:0:
320,0,45009,1,0,0:0:0:0:
448,0,45009,1,0,0:0:0:0:
64,192,45009,1,0,0:0:0:0:
192,48,45071,1,0,0:0:0:0:
64,96,45134,1,0,0:0:0:0:
448,96,45134,1,0,0:0:0:0:
320,144,45196,1,0,0:0:0:0:
64,192,45259,1,0,0:0:0:0:
192,192,45259,1,0,0:0:0:0:
320,240,45321,1,0,0:0:0:0:
64,288,45384,1,0,0:0:0:0:
448,288,45384,1,0,0:0:0:0:
192,336,45446,1,0,0:0:0:0:
320,384,45509,1,0,0:0:0:0:
448,384,45509,1,0,0:0:0:0:
192,335,45571,1,0,0:0:0:0:
64,288,45634,1,0,0:0:0:0:
448,288,45634,1,0,0:0:0:0:
320,239,45696,1,0,0:0:0:0:
64,192,45759,1,0,0:0:0:0:
192,192,45759,1,0,0:0:0:0:
320,143,45821,1,0,0:0:0:0:
64,96,45884,1,0,0:0:0:0:
448,96,45884,1,0,0:0:0:0:
192,47,45946,1,0,0:0:0:0:
320,0,46009,1,0,0:0:0:0:
448,0,46009,1,0,0:0:0:0:
192,48,46071,1,0,0:0:0:0:
64,96,46134,1,0,0:0:0:0:
448,96,46134,1,0,0:0:0:0:
320,144,46196,1,0,0:0:0:0:
64,192,46259,1,0,0:0:0:0:
192,192,46259,1,0,0:0:0:0:
320,240,46321,1,0,0:0:0:0:
64,288,46384,1,0,0:0:0:0:
448,288,46384,1,0,0:0:0:0:
192,336,46446,1,0,0:0:0:0:
64,384,46509,1,0,0:0:0:0:
448,384,46509,1,0,0:0:0:0:
320,335,46571,1,0,0:0:0:0:
192,288,46634,1,0,0:0:0:0:
64,239,46696,1,0,0:0:0:0:
448,192,46759,1,0,0:0:0:0:
320,143,46821,1,0,0:0:0:0:
192,96,46884,1,0,0:0:0:0:
64,47,46946,1,0,0:0:0:0:
320,0,47009,1,0,0:0:0:0:
448,0,47009,1,0,0:0:0:0:
192,48,47071,1,0,0:0:0:0:
64,96,47134,1,0,0:0:0:0:
320,96,47134,1,0,0:0:0:0:
448,144,47196,1,0,0:0:0:0:
64,192,47259,1,0,0:0:0:0:
192,192,47259,1,0,0:0:0:0:
320,240,47321,1,0,0:0:0:0:
192,288,47384,1,0,0:0:0:0:
448,288,47384,1,0,0:0:0:0:
64,336,47446,1,0,0:0:0:0:
320,384,47509,1,0,0:0:0:0:
448,384,47509,1,0,0:0:0:0:
192,335,47571,1,0,0:0:0:0:
64,288,47634,1,0,0:0:0:0:
448,288,47634,1,0,0:0:0:0:
320,239,47696,1,0,0:0:0:0:
64,192,47759,1,0,0:0:0:0:
448,192,47759,1,0,0:0:0:0:
192,143,47821,1,0,0:0:0:0:
64,96,47884,1,0,0:0:0:0:
448,96,47884,1,0,0:0:0:0:
320,47,47946,1,0,0:0:0:0:
64,0,48009,1,0,0:0:0:0:
448,0,48009,1,0,0:0:0:0:
320,48,48071,1,0,0:0:0:0:
192,96,48134,1,0,0:0:0:0:
64,144,48196,1,0,0:0:0:0:
448,144,48196,1,0,0:0:0:0:
192,192,48259,1,0,0:0:0:0:
320,192,48259,1,0,0:0:0:0:
448,192,48321,1,0,0:0:0:0:
64,288,48384,1,0,0:0:0:0:
320,192,48384,1,0,0:0:0:0:
192,336,48446,1,0,0:0:0:0:
320,384,48509,1,0,0:0:0:0:
448,384,48509,1,0,0:0:0:0:
64,335,48571,1,0,0:0:0:0:
192,288,48634,1,0,0:0:0:0:
64,239,48696,1,0,0:0:0:0:
320,192,48759,1,0,0:0:0:0:
448,192,48759,1,0,0:0:0:0:
64,143,48821,1,0,0:0:0:0:
192,96,48884,1,0,0:0:0:0:
64,47,48946,1,0,0:0:0:0:
320,0,49009,1,0,0:0:0:0:
448,0,49009,1,0,0:0:0:0:
192,48,49071,1,0,0:0:0:0:
64,96,49134,1,0,0:0:0:0:
320,96,49134,1,0,0:0:0:0:
448,144,49196,1,0,0:0:0:0:
192,192,49259,1,0,0:0:0:0:
320,192,49259,1,0,0:0:0:0:
64,240,49321,1,0,0:0:0:0:
192,288,49384,1,0,0:0:0:0:
448,288,49384,1,0,0:0:0:0:
320,336,49446,1,0,0:0:0:0:
64,384,49509,1,0,0:0:0:0:
192,384,49509,1,0,0:0:0:0:
320,335,49571,1,0,0:0:0:0:
64,288,49634,1,0,0:0:0:0:
448,288,49634,1,0,0:0:0:0:
192,239,49696,1,0,0:0:0:0:
320,192,49759,1,0,0:0:0:0:
448,192,49759,1,0,0:0:0:0:
64,143,49821,1,0,0:0:0:0:
192,96,49884,1,0,0:0:0:0:
448,96,49884,1,0,0:0:0:0:
64,47,49946,1,0,0:0:0:0:
192,0,50009,1,0,0:0:0:0:
320,0,50009,1,0,0:0:0:0:
448,48,50071,1,0,0:0:0:0:
64,96,50134,1,0,0:0:0:0:
320,96,50134,1,0,0:0:0:0:
192,144,50196,1,0,0:0:0:0:
320,192,50259,1,0,0:0:0:0:
448,192,50259,1,0,0:0:0:0:
192,240,50321,1,0,0:0:0:0:
64,288,50384,1,0,0:0:0:0:
448,288,50384,1,0,0:0:0:0:
320,336,50446,1,0,0:0:0:0:
64,384,50509,1,0,0:0:0:0:
448,384,50509,1,0,0:0:0:0:
192,335,50571,1,0,0:0:0:0:
320,288,50634,1,0,0:0:0:0:
448,239,50696,1,0,0:0:0:0:
64,192,50759,1,0,0:0:0:0:
192,143,50821,1,0,0:0:0:0:
320,96,50884,1,0,0:0:0:0:
448,47,50946,1,0,0:0:0:0:
64,0,51009,1,0,0:0:0:0:
192,0,51009,1,0,0:0:0:0:
448,48,51071,1,0,0:0:0:0:
64,96,51134,1,0,0:0:0:0:
320,96,51134,1,0,0:0:0:0:
192,144,51196,1,0,0:0:0:0:
320,192,51259,1,0,0:0:0:0:
448,192,51259,1,0,0:0:0:0:
64,240,51321,1,0,0:0:0:0:
192,288,51384,1,0,0:0:0:0:
448,288,51384,1,0,0:0:0:0:
320,336,51446,1,0,0:0:0:0:
64,384,51509,1,0,0:0:0:0:
192,384,51509,1,0,0:0:0:0:
448,335,51571,1,0,0:0:0:0:
64,288,51634,1,0,0:0:0:0:
320,288,51634,1,0,0:0:0:0:
192,239,51696,1,0,0:0:0:0:
320,192,51759,1,0,0:0:0:0:
448,192,51759,1,0,0:0:0:0:
64,143,51821,1,0,0:0:0:0:
192,96,51884,1,0,0:0:0:0:
448,96,51884,1,0,0:0:0:0:
320,47,51946,1,0,0:0:0:0:
64,0,52009,1,0,0:0:0:0:
448,0,52009,1,0,0:0:0:0:
192,48,52071,1,0,0:0:0:0:
320,96,52134,1,0,0:0:0:0:
192,144,52196,1,0,0:0:0:0:
448,144,52196,1,0,0:0:0:0:
64,192,52259,1,0,0:0:0:0:
320,192,52259,1,0,0:0:0:0:
192,192,52321,1,0,0:0:0:0:
64,288,52384,1,0,0:0:0:0:
448,192,52384,1,0,0:0:0:0:
320,192,52446,1,0,0:0:0:0:
192,384,52509,1,0,0:0:0:0:
64,192,52509,1,0,0:0:0:0:
320,192,52571,1,0,0:0:0:0:
448,192,52571,1,0,0:0:0:0:
192,288,52634,1,0,0:0:0:0:
64,192,52634,1,0,0:0:0:0:
320,192,52696,1,0,0:0:0:0:
448,192,52696,1,0,0:0:0:0:
192,192,52759,1,0,0:0:0:0:
192,192,52884,1,0,0:0:0:0:
448,192,53009,1,0,0:0:0:0:
320,192,53009,1,0,0:0:0:0:
64,192,53009,1,0,0:0:0:0:
192,192,53071,1,0,0:0:0:0:
448,96,53134,1,0,0:0:0:0:
320,192,53134,1,0,0:0:0:0:
64,144,53196,1,0,0:0:0:0:
192,192,53259,1,0,0:0:0:0:
320,192,53259,1,0,0:0:0:0:
448,192,53321,1,0,0:0:0:0:
320,288,53384,1,0,0:0:0:0:
192,192,53384,1,0,0:0:0:0:
448,192,53446,1,0,0:0:0:0:
192,384,53509,1,0,0:0:0:0:
64,192,53509,1,0,0:0:0:0:
320,192,53571,1,0,0:0:0:0:
64,288,53634,1,0,0:0:0:0:
192,192,53634,1,0,0:0:0:0:
448,239,53696,1,0,0:0:0:0:
192,192,53759,1,0,0:0:0:0:
320,192,53759,1,0,0:0:0:0:
64,143,53821,1,0,0:0:0:0:
192,96,53884,1,0,0:0:0:0:
320,192,53884,1,0,0:0:0:0:
64,47,53946,1,0,0:0:0:0:
320,0,54009,1,0,0:0:0:0:
448,0,54009,1,0,0:0:0:0:
192,48,54071,1,0,0:0:0:0:
320,96,54134,1,0,0:0:0:0:
448,192,54134,1,0,0:0:0:0:
192,192,54196,1,0,0:0:0:0:
320,192,54259,1,0,0:0:0:0:
64,192,54259,1,0,0:0:0:0:
448,240,54321,1,0,0:0:0:0:
64,288,54384,1,0,0:0:0:0:
320,288,54384,1,0,0:0:0:0:
192,192,54446,1,0,0:0:0:0:
448,192,54509,1,0,0:0:0:0:
64,192,54509,1,0,0:0:0:0:
320,192,54509,1,0,0:0:0:0:
192,192,54571,1,0,0:0:0:0:
320,192,54634,1,0,0:0:0:0:
64,192,54696,1,0,0:0:0:0:
192,192,54759,1,0,0:0:0:0:
320,192,54759,1,0,0:0:0:0:
448,192,54759,1,0,0:0:0:0:
64,192,54821,1,0,0:0:0:0:
192,192,54884,1,0,0:0:0:0:
320,192,54884,1,0,0:0:0:0:
448,192,54946,1,0,0:0:0:0:
64,192,55009,1,0,0:0:0:0:
192,192,55009,1,0,0:0:0:0:
320,192,55071,1,0,0:0:0:0:
192,96,55134,1,0,0:0:0:0:
64,192,55134,1,0,0:0:0:0:
448,192,55196,1,0,0:0:0:0:
192,192,55259,1,0,0:0:0:0:
320,192,55259,1,0,0:0:0:0:
64,192,55321,1,0,0:0:0:0:
320,288,55384,1,0,0:0:0:0:
192,192,55384,1,0,0:0:0:0:
64,192,55446,1,0,0:0:0:0:
320,192,55509,1,0,0:0:0:0:
448,192,55509,1,0,0:0:0:0:
192,192,55571,1,0,0:0:0:0:
448,288,55634,1,0,0:0:0:0:
320,192,55634,1,0,0:0:0:0:
192,192,55696,1,0,0:0:0:0:
448,192,55759,1,0,0:0:0:0:
64,192,55759,1,0,0:0:0:0:
320,192,55821,1,0,0:0:0:0:
64,96,55884,1,0,0:0:0:0:
448,192,55884,1,0,0:0:0:0:
192,47,55946,1,0,0:0:0:0:
448,0,56009,1,0,0:0:0:0:
320,192,56009,1,0,0:0:0:0:
64,192,56071,1,0,0:0:0:0:
192,192,56134,1,0,0:0:0:0:
448,192,56134,1,0,0:0:0:0:
64,192,56196,1,0,0:0:0:0:
320,192,56196,1,0,0:0:0:0:
192,192,56259,1,0,0:0:0:0:
448,192,56259,1,0,0:0:0:0:
64,192,56321,1,0,0:0:0:0:
448,192,56384,1,0,0:0:0:0:
320,192,56384,1,0,0:0:0:0:
192,192,56446,1,0,0:0:0:0:
64,384,56509,1,0,0:0:0:0:
320,192,56509,1,0,0:0:0:0:
448,335,56571,1,0,0:0:0:0:
64,288,56634,1,0,0:0:0:0:
192,288,56634,1,0,0:0:0:0:
320,239,56696,1,0,0:0:0:0:
448,239,56696,1,0,0:0:0:0:
64,192,56759,1,0,0:0:0:0:
192,192,56759,1,0,0:0:0:0:
448,143,56821,1,0,0:0:0:0:
192,96,56884,1,0,0:0:0:0:
320,96,56884,1,0,0:0:0:0:
64,47,56946,1,0,0:0:0:0:
320,0,57009,1,0,0:0:0:0:
448,0,57009,1,0,0:0:0:0:
192,192,57071,1,0,0:0:0:0:
320,96,57134,1,0,0:0:0:0:
448,192,57134,1,0,0:0:0:0:
192,192,57196,1,0,0:0:0:0:
64,192,57259,1,0,0:0:0:0:
320,192,57259,1,0,0:0:0:0:
448,240,57321,1,0,0:0:0:0:
64,288,57384,1,0,0:0:0:0:
320,288,57384,1,0,0:0:0:0:
448,192,57446,1,0,0:0:0:0:
320,384,57509,1,0,0:0:0:0:
192,192,57509,1,0,0:0:0:0:
64,192,57571,1,0,0:0:0:0:
320,288,57634,1,0,0:0:0:0:
192,192,57634,1,0,0:0:0:0:
448,239,57696,1,0,0:0:0:0:
64,192,57759,1,0,0:0:0:0:
192,192,57759,1,0,0:0:0:0:
320,192,57821,1,0,0:0:0:0:
64,96,57884,1,0,0:0:0:0:
192,192,57884,1,0,0:0:0:0:
448,47,57946,1,0,0:0:0:0:
192,0,58009,1,0,0:0:0:0:
320,0,58009,1,0,0:0:0:0:
64,48,58071,1,0,0:0:0:0:
192,96,58134,1,0,0:0:0:0:
320,192,58134,1,0,0:0:0:0:
64,144,58196,1,0,0:0:0:0:
320,192,58259,1,0,0:0:0:0:
448,192,58259,1,0,0:0:0:0:
192,240,58321,1,0,0:0:0:0:
320,288,58384,1,0,0:0:0:0:
448,192,58384,1,0,0:0:0:0:
192,336,58446,1,0,0:0:0:0:
64,384,58509,1,0,0:0:0:0:
448,384,58509,1,0,0:0:0:0:
320,192,58509,1,0,0:0:0:0:
192,192,58571,1,0,0:0:0:0:
64,192,58634,1,0,0:0:0:0:
320,192,58696,1,0,0:0:0:0:
448,192,58759,1,0,0:0:0:0:
192,192,58759,1,0,0:0:0:0:
64,192,58759,1,0,0:0:0:0:
320,192,58821,1,0,0:0:0:0:
192,96,58884,1,0,0:0:0:0:
64,192,58884,1,0,0:0:0:0:
320,192,58946,1,0,0:0:0:0:
192,0,59009,1,0,0:0:0:0:
448,0,59009,1,0,0:0:0:0:
64,192,59009,1,0,0:0:0:0:
448,96,59134,1,0,0:0:0:0:
320,192,59134,1,0,0:0:0:0:
64,192,59259,1,0,0:0:0:0:
192,192,59259,1,0,0:0:0:0:
64,288,59384,1,0,0:0:0:0:
192,288,59384,1,0,0:0:0:0:
448,288,59384,1,0,0:0:0:0:
320,192,59384,1,0,0:0:0:0:
192,384,59509,1,0,0:0:0:0:
320,384,59509,1,0,0:0:0:0:
64,288,59634,1,0,0:0:0:0:
320,288,59634,1,0,0:0:0:0:
64,192,59759,1,0,0:0:0:0:
448,192,59759,1,0,0:0:0:0:
320,192,59759,1,0,0:0:0:0:
192,192,59759,1,0,0:0:0:0:
192,96,59884,1,0,0:0:0:0:
448,96,59884,1,0,0:0:0:0:
64,0,60009,1,0,0:0:0:0:
192,0,60009,1,0,0:0:0:0:
448,0,60009,1,0,0:0:0:0:
320,192,60009,1,0,0:0:0:0:
64,96,60134,1,0,0:0:0:0:
320,96,60134,1,0,0:0:0:0:
64,192,60259,1,0,0:0:0:0:
320,192,60259,1,0,0:0:0:0:
448,192,60259,1,0,0:0:0:0:
192,288,60384,1,0,0:0:0:0:
448,288,60384,1,0,0:0:0:0:
192,384,60509,1,0,0:0:0:0:
448,384,60509,1,0,0:0:0:0:
64,192,60759,1,0,0:0:0:0:
192,192,60759,1,0,0:0:0:0:
320,192,60759,1,0,0:0:0:0:
448,192,60759,1,0,0:0:0:0:
320,0,61009,1,0,0:0:0:0:
448,0,61009,1,0,0:0:0:0:
64,192,61009,1,0,0:0:0:0:
192,48,61071,1,0,0:0:0:0:
64,96,61134,1,0,0:0:0:0:
320,96,61134,1,0,0:0:0:0:
192,192,61196,1,0,0:0:0:0:
320,192,61259,1,0,0:0:0:0:
448,192,61259,1,0,0:0:0:0:
192,192,61321,1,0,0:0:0:0:
64,192,61384,1,0,0:0:0:0:
448,192,61384,1,0,0:0:0:0:
192,192,61446,1,0,0:0:0:0:
320,192,61509,1,0,0:0:0:0:
448,192,61509,1,0,0:0:0:0:
64,192,61571,1,0,0:0:0:0:
192,288,61634,1,0,0:0:0:0:
448,192,61634,1,0,0:0:0:0:
64,239,61696,1,0,0:0:0:0:
320,192,61759,1,0,0:0:0:0:
448,192,61759,1,0,0:0:0:0:
192,143,61821,1,0,0:0:0:0:
64,96,61884,1,0,0:0:0:0:
320,96,61884,1,0,0:0:0:0:
448,47,61946,1,0,0:0:0:0:
192,0,62009,1,0,0:0:0:0:
64,192,62009,1,0,0:0:0:0:
320,192,62009,1,0,0:0:0:0:
448,192,62071,1,0,0:0:0:0:
192,96,62134,1,0,0:0:0:0:
64,192,62134,1,0,0:0:0:0:
320,144,62196,1,0,0:0:0:0:
64,192,62259,1,0,0:0:0:0:
192,192,62259,1,0,0:0:0:0:
320,240,62321,1,0,0:0:0:0:
192,288,62384,1,0,0:0:0:0:
448,288,62384,1,0,0:0:0:0:
320,192,62446,1,0,0:0:0:0:
64,192,62509,1,0,0:0:0:0:
192,192,62509,1,0,0:0:0:0:
448,192,62571,1,0,0:0:0:0:
64,288,62634,1,0,0:0:0:0:
320,288,62634,1,0,0:0:0:0:
448,192,62696,1,0,0:0:0:0:
64,192,62759,1,0,0:0:0:0:
192,192,62759,1,0,0:0:0:0:
320,143,62821,1,0,0:0:0:0:
192,96,62884,1,0,0:0:0:0:
448,192,62884,1,0,0:0:0:0:
320,192,62946,1,0,0:0:0:0:
64,0,63009,1,0,0:0:0:0:
192,0,63009,1,0,0:0:0:0:
448,192,63071,1,0,0:0:0:0:
64,96,63134,1,0,0:0:0:0:
192,192,63134,1,0,0:0:0:0:
320,192,63196,1,0,0:0:0:0:
448,192,63259,1,0,0:0:0:0:
64,192,63259,1,0,0:0:0:0:
192,192,63321,1,0,0:0:0:0:
64,288,63384,1,0,0:0:0:0:
448,192,63384,1,0,0:0:0:0:
192,192,63446,1,0,0:0:0:0:
320,192,63509,1,0,0:0:0:0:
448,192,63509,1,0,0:0:0:0:
64,192,63571,1,0,0:0:0:0:
448,288,63634,1,0,0:0:0:0:
320,192,63634,1,0,0:0:0:0:
64,239,63696,1,0,0:0:0:0:
192,192,63759,1,0,0:0:0:0:
320,192,63759,1,0,0:0:0:0:
448,143,63821,1,0,0:0:0:0:
320,96,63884,1,0,0:0:0:0:
192,192,63884,1,0,0:0:0:0:
448,47,63946,1,0,0:0:0:0:
64,0,64009,1,0,0:0:0:0:
192,0,64009,1,0,0:0:0:0:
320,48,64071,1,0,0:0:0:0:
192,96,64134,1,0,0:0:0:0:
448,192,64134,1,0,0:0:0:0:
64,144,64196,1,0,0:0:0:0:
320,192,64196,1,0,0:0:0:0:
192,192,64259,1,0,0:0:0:0:
448,192,64259,1,0,0:0:0:0:
64,192,64321,1,0,0:0:0:0:
320,192,64384,1,0,0:0:0:0:
448,192,64384,1,0,0:0:0:0:
192,192,64446,1,0,0:0:0:0:
448,384,64509,1,0,0:0:0:0:
64,192,64509,1,0,0:0:0:0:
192,335,64571,1,0,0:0:0:0:
320,288,64634,1,0,0:0:0:0:
448,288,64634,1,0,0:0:0:0:
64,239,64696,1,0,0:0:0:0:
192,239,64696,1,0,0:0:0:0:
320,192,64759,1,0,0:0:0:0:
448,192,64759,1,0,0:0:0:0:
64,143,64821,1,0,0:0:0:0:
192,96,64884,1,0,0:0:0:0:
320,96,64884,1,0,0:0:0:0:
448,47,64946,1,0,0:0:0:0:
64,0,65009,1,0,0:0:0:0:
192,0,65009,1,0,0:0:0:0:
320,192,65009,1,0,0:0:0:0:
448,192,65071,1,0,0:0:0:0:
192,96,65134,1,0,0:0:0:0:
320,192,65134,1,0,0:0:0:0:
448,192,65196,1,0,0:0:0:0:
192,192,65259,1,0,0:0:0:0:
64,192,65259,1,0,0:0:0:0:
448,240,65321,1,0,0:0:0:0:
64,288,65384,1,0,0:0:0:0:
320,288,65384,1,0,0:0:0:0:
448,336,65446,1,0,0:0:0:0:
64,384,65509,1,0,0:0:0:0:
192,384,65509,1,0,0:0:0:0:
320,335,65571,1,0,0:0:0:0:
192,288,65634,1,0,0:0:0:0:
448,288,65634,1,0,0:0:0:0:
320,192,65696,1,0,0:0:0:0:
192,192,65759,1,0,0:0:0:0:
64,192,65759,1,0,0:0:0:0:
448,192,65821,1,0,0:0:0:0:
192,96,65884,1,0,0:0:0:0:
320,192,65884,1,0,0:0:0:0:
64,47,65946,1,0,0:0:0:0:
320,0,66009,1,0,0:0:0:0:
448,192,66009,1,0,0:0:0:0:
192,192,66009,1,0,0:0:0:0:
64,192,66071,1,0,0:0:0:0:
320,96,66134,1,0,0:0:0:0:
448,192,66134,1,0,0:0:0:0:
192,192,66196,1,0,0:0:0:0:
320,192,66259,1,0,0:0:0:0:
448,192,66259,1,0,0:0:0:0:
192,192,66321,1,0,0:0:0:0:
64,288,66384,1,0,0:0:0:0:
320,288,66384,1,0,0:0:0:0:
192,192,66446,1,0,0:0:0:0:
320,384,66509,1,0,0:0:0:0:
448,192,66509,1,0,0:0:0:0:
64,335,66571,1,0,0:0:0:0:
192,288,66634,1,0,0:0:0:0:
448,288,66634,1,0,0:0:0:0:
64,192,66696,1,0,0:0:0:0:
320,192,66759,1,0,0:0:0:0:
448,192,66759,1,0,0:0:0:0:
192,192,66821,1,0,0:0:0:0:
64,96,66884,1,0,0:0:0:0:
320,192,66884,1,0,0:0:0:0:
192,47,66946,1,0,0:0:0:0:
64,0,67009,1,0,0:0:0:0:
320,0,67009,1,0,0:0:0:0:
448,0,67009,1,0,0:0:0:0:
192,96,67134,1,0,0:0:0:0:
448,96,67134,1,0,0:0:0:0:
64,192,67259,1,0,0:0:0:0:
192,192,67259,1,0,0:0:0:0:
64,288,67384,1,0,0:0:0:0:
320,288,67384,1,0,0:0:0:0:
448,288,67384,1,0,0:0:0:0:
192,192,67384,1,0,0:0:0:0:
320,384,67509,1,0,0:0:0:0:
448,384,67509,1,0,0:0:0:0:
64,288,67634,1,0,0:0:0:0:
320,288,67634,1,0,0:0:0:0:
64,192,67759,1,0,0:0:0:0:
192,192,67759,1,0,0:0:0:0:
448,192,67759,1,0,0:0:0:0:
320,192,67759,1,0,0:0:0:0:
448,96,67884,1,0,0:0:0:0:
192,192,67884,1,0,0:0:0:0:
64,0,68009,1,0,0:0:0:0:
320,0,68009,1,0,0:0:0:0:
192,96,68134,1,0,0:0:0:0:
320,96,68134,1,0,0:0:0:0:
448,96,68134,1,0,0:0:0:0:
64,192,68134,1,0,0:0:0:0:
192,192,68259,1,0,0:0:0:0:
448,192,68259,1,0,0:0:0:0:
64,288,68384,1,0,0:0:0:0:
320,288,68384,1,0,0:0:0:0:
64,384,68509,1,0,0:0:0:0:
320,384,68509,1,0,0:0:0:0:
448,384,68509,1,0,0:0:0:0:
192,192,68509,1,0,0:0:0:0:
192,288,68634,1,0,0:0:0:0:
64,192,68759,1,0,0:0:0:0:
192,192,68759,1,0,0:0:0:0:
448,96,68884,1,0,0:0:0:0:
320,192,68884,1,0,0:0:0:0:
64,0,69009,1,0,0:0:0:0:
320,0,69009,1,0,0:0:0:0:
448,0,69009,1,0,0:0:0:0:
192,192,69009,1,0,0:0:0:0:
320,96,69134,1,0,0:0:0:0:
192,192,69259,1,0,0:0:0:0:
448,192,69259,1,0,0:0:0:0:
64,288,69384,1,0,0:0:0:0:
64,384,69509,1,0,0:0:0:0:
448,384,69509,1,0,0:0:0:0:
320,288,69634,1,0,0:0:0:0:
64,192,69759,1,0,0:0:0:0:
448,192,69759,1,0,0:0:0:0:
192,192,69759,1,0,0:0:0:0:
192,96,69884,1,0,0:0:0:0:
64,0,70009,1,0,0:0:0:0:
320,0,70009,1,0,0:0:0:0:
448,0,70009,1,0,0:0:0:0:
448,96,70134,1,0,0:0:0:0:
64,192,70259,1,0,0:0:0:0:
192,192,70259,1,0,0:0:0:0:
320,192,70259,1,0,0:0:0:0:
192,288,70384,1,0,0:0:0:0:
64,384,70509,1,0,0:0:0:0:
320,384,70509,1,0,0:0:0:0:
448,384,70509,1,0,0:0:0:0:
192,288,70634,1,0,0:0:0:0:
192,192,70759,1,0,0:0:0:0:
320,192,70759,1,0,0:0:0:0:
448,192,70759,1,0,0:0:0:0:
320,96,70884,1,0,0:0:0:0:
448,96,70884,1,0,0:0:0:0:
64,0,71009,1,0,0:0:0:0:
192,0,71009,1,0,0:0:0:0:
320,0,71009,1,0,0:0:0:0:
320,96,71134,1,0,0:0:0:0:
448,96,71134,1,0,0:0:0:0:
64,192,71259,1,0,0:0:0:0:
192,192,71259,1,0,0:0:0:0:
320,192,71259,1,0,0:0:0:0:
192,288,71384,1,0,0:0:0:0:
448,288,71384,1,0,0:0:0:0:
64,384,71509,1,0,0:0:0:0:
320,384,71509,1,0,0:0:0:0:
448,384,71509,1,0,0:0:0:0:
64,288,71634,1,0,0:0:0:0:
192,288,71634,1,0,0:0:0:0:
192,192,71759,1,0,0:0:0:0:
320,192,71759,1,0,0:0:0:0:
448,192,71759,1,0,0:0:0:0:
320,96,71884,1,0,0:0:0:0:
448,96,71884,1,0,0:0:0:0:
192,0,72009,1,0,0:0:0:0:
448,0,72009,1,0,0:0:0:0:
64,192,72009,1,0,0:0:0:0:
64,96,72134,1,0,0:0:0:0:
64,192,72259,1,0,0:0:0:0:
192,192,72259,1,0,0:0:0:0:
448,192,72259,1,0,0:0:0:0:
448,192,72384,1,0,0:0:0:0:
192,384,72509,1,0,0:0:0:0:
320,192,72509,1,0,0:0:0:0:
448,288,72634,1,0,0:0:0:0:
320,288,72634,1,0,0:0:0:0:
192,239,72696,1,0,0:0:0:0:
64,239,72696,1,0,0:0:0:0:
448,192,72759,1,0,0:0:0:0:
320,192,72759,1,0,0:0:0:0:
64,96,72884,1,0,0:0:0:0:
320,96,72884,1,0,0:0:0:0:
192,0,73009,1,0,0:0:0:0:
448,0,73009,1,0,0:0:0:0:
64,96,73134,1,0,0:0:0:0:
192,96,73134,1,0,0:0:0:0:
448,144,73196,1,0,0:0:0:0:
320,144,73196,1,0,0:0:0:0:
64,192,73259,1,0,0:0:0:0:
192,192,73259,1,0,0:0:0:0:
192,288,73384,1,0,0:0:0:0:
448,288,73384,1,0,0:0:0:0:
64,384,73509,1,0,0:0:0:0:
320,384,73509,1,0,0:0:0:0:
320,288,73634,1,0,0:0:0:0:
448,288,73634,1,0,0:0:0:0:
64,239,73696,1,0,0:0:0:0:
192,239,73696,1,0,0:0:0:0:
320,192,73759,1,0,0:0:0:0:
448,192,73759,1,0,0:0:0:0:
192,96,73884,1,0,0:0:0:0:
320,96,73884,1,0,0:0:0:0:
64,0,74009,1,0,0:0:0:0:
320,0,74009,1,0,0:0:0:0:
64,96,74134,1,0,0:0:0:0:
192,96,74134,1,0,0:0:0:0:
320,144,74196,1,0,0:0:0:0:
448,144,74196,1,0,0:0:0:0:
64,192,74259,1,0,0:0:0:0:
192,192,74259,1,0,0:0:0:0:
192,288,74384,1,0,0:0:0:0:
448,288,74384,1,0,0:0:0:0:
448,192,74509,1,0,0:0:0:0:
320,192,74509,1,0,0:0:0:0:
192,335,74571,1,0,0:0:0:0:
64,192,74571,1,0,0:0:0:0:
320,288,74634,1,0,0:0:0:0:
448,192,74634,1,0,0:0:0:0:
192,239,74696,1,0,0:0:0:0:
64,192,74696,1,0,0:0:0:0:
320,192,74759,1,0,0:0:0:0:
448,192,74759,1,0,0:0:0:0:
64,96,74884,1,0,0:0:0:0:
448,96,74884,1,0,0:0:0:0:
192,0,75009,1,0,0:0:0:0:
448,0,75009,1,0,0:0:0:0:
64,96,75134,1,0,0:0:0:0:
448,96,75134,1,0,0:0:0:0:
192,144,75196,1,0,0:0:0:0:
320,144,75196,1,0,0:0:0:0:
64,192,75259,1,0,0:0:0:0:
448,192,75259,1,0,0:0:0:0:
192,288,75384,1,0,0:0:0:0:
320,288,75384,1,0,0:0:0:0:
64,384,75509,1,0,0:0:0:0:
320,384,75509,1,0,0:0:0:0:
192,288,75634,1,0,0:0:0:0:
448,288,75634,1,0,0:0:0:0:
64,239,75696,1,0,0:0:0:0:
320,239,75696,1,0,0:0:0:0:
192,192,75759,1,0,0:0:0:0:
448,192,75759,1,0,0:0:0:0:
64,96,75884,1,0,0:0:0:0:
320,96,75884,1,0,0:0:0:0:
192,0,76009,1,0,0:0:0:0:
64,192,76009,1,0,0:0:0:0:
320,48,76071,1,0,0:0:0:0:
448,192,76071,1,0,0:0:0:0:
192,96,76134,1,0,0:0:0:0:
64,192,76134,1,0,0:0:0:0:
320,144,76196,1,0,0:0:0:0:
448,192,76196,1,0,0:0:0:0:
192,192,76259,1,0,0:0:0:0:
64,192,76259,1,0,0:0:0:0:
64,288,76384,1,0,0:0:0:0:
320,288,76384,1,0,0:0:0:0:
448,384,76509,1,0,0:0:0:0:
320,360,76540,1,0,0:0:0:0:
192,335,76571,1,0,0:0:0:0:
64,312,76602,1,0,0:0:0:0:
448,288,76634,1,0,0:0:0:0:
320,264,76665,1,0,0:0:0:0:
192,239,76696,1,0,0:0:0:0:
64,216,76727,1,0,0:0:0:0:
448,192,76759,1,0,0:0:0:0:
320,168,76790,1,0,0:0:0:0:
192,143,76821,1,0,0:0:0:0:
64,120,76852,1,0,0:0:0:0:
448,96,76884,1,0,0:0:0:0:
320,72,76915,1,0,0:0:0:0:
192,47,76946,1,0,0:0:0:0:
64,24,76977,1,0,0:0:0:0:
320,192,77009,1,0,0:0:0:0:
448,192,77009,1,0,0:0:0:0:
64,384,77509,1,0,0:0:0:0:
448,192,78259,1,0,0:0:0:0:
320,384,78509,1,0,0:0:0:0:
192,192,78759,1,0,0:0:0:0:
64,0,79009,1,0,0:0:0:0:
192,192,79759,1,0,0:0:0:0:
448,0,80009,1,0,0:0:0:0:
320,0,81009,1,0,0:0:0:0:
64,384,81509,1,0,0:0:0:0:
64,192,82259,1,0,0:0:0:0:
192,384,82509,1,0,0:0:0:0:
448,192,82759,1,0,0:0:0:0:
320,0,83009,1,0,0:0:0:0:
192,0,85009,1,0,0:0:0:0:
320,0,85009,1,0,0:0:0:0:
320,192,85259,1,0,0:0:0:0:
64,384,85509,1,0,0:0:0:0:
192,384,85509,1,0,0:0:0:0:
448,384,85509,1,0,0:0:0:0:
320,192,85759,1,0,0:0:0:0:
320,96,85884,1,0,0:0:0:0:
192,0,86009,1,0,0:0:0:0:
448,0,86009,1,0,0:0:0:0:
192,192,86259,1,0,0:0:0:0:
448,192,86259,1,0,0:0:0:0:
64,384,86509,1,0,0:0:0:0:
320,384,86509,1,0,0:0:0:0:
448,384,86509,1,0,0:0:0:0:
192,192,86759,1,0,0:0:0:0:
192,96,86884,1,0,0:0:0:0:
64,0,87009,1,0,0:0:0:0:
320,0,87009,1,0,0:0:0:0:
192,192,87259,1,0,0:0:0:0:
448,192,87259,1,0,0:0:0:0:
64,384,87509,1,0,0:0:0:0:
192,384,87509,1,0,0:0:0:0:
320,384,87509,1,0,0:0:0:0:
192,192,87759,1,0,0:0:0:0:
192,96,87884,1,0,0:0:0:0:
320,0,88009,1,0,0:0:0:0:
448,0,88009,1,0,0:0:0:0:
64,192,88259,1,0,0:0:0:0:
192,192,88259,1,0,0:0:0:0:
192,384,88509,1,0,0:0:0:0:
320,384,88509,1,0,0:0:0:0:
448,384,88509,1,0,0:0:0:0:
192,192,88759,1,0,0:0:0:0:
320,192,88759,1,0,0:0:0:0:
64,96,88884,1,0,0:0:0:0:
192,96,88884,1,0,0:0:0:0:
448,96,88884,1,0,0:0:0:0:
64,0,89009,1,0,0:0:0:0:
320,0,89009,1,0,0:0:0:0:
448,0,89009,1,0,0:0:0:0:
192,192,89259,1,0,0:0:0:0:
448,192,89259,1,0,0:0:0:0:
192,384,89509,1,0,0:0:0:0:
320,384,89509,1,0,0:0:0:0:
448,384,89509,1,0,0:0:0:0:
192,192,89759,1,0,0:0:0:0:
192,96,89884,1,0,0:0:0:0:
64,0,90009,1,0,0:0:0:0:
320,0,90009,1,0,0:0:0:0:
192,192,90259,1,0,0:0:0:0:
320,192,90259,1,0,0:0:0:0:
448,192,90259,1,0,0:0:0:0:
64,384,90509,1,0,0:0:0:0:
192,384,90509,1,0,0:0:0:0:
448,384,90509,1,0,0:0:0:0:
320,192,90759,1,0,0:0:0:0:
320,96,90884,1,0,0:0:0:0:
64,0,91009,1,0,0:0:0:0:
192,0,91009,1,0,0:0:0:0:
448,0,91009,1,0,0:0:0:0:
64,192,91259,1,0,0:0:0:0:
320,192,91259,1,0,0:0:0:0:
192,384,91509,1,0,0:0:0:0:
320,384,91509,1,0,0:0:0:0:
448,384,91509,1,0,0:0:0:0:
64,192,91759,1,0,0:0:0:0:
64,96,91884,1,0,0:0:0:0:
192,0,92009,1,0,0:0:0:0:
448,0,92009,1,0,0:0:0:0:
64,192,92259,1,0,0:0:0:0:
320,192,92259,1,0,0:0:0:0:
192,384,92509,1,0,0:0:0:0:
320,384,92509,1,0,0:0:0:0:
448,384,92509,1,0,0:0:0:0:
192,192,92759,1,0,0:0:0:0:
320,192,92759,1,0,0:0:0:0:
64,96,92884,1,0,0:0:0:0:
192,96,92884,1,0,0:0:0:0:
448,96,92884,1,0,0:0:0:0:
192,0,93009,1,0,0:0:0:0:
320,0,93009,1,0,0:0:0:0:
448,0,93009,1,0,0:0:0:0:
64,192,94759,128,0,94884:0:0:0:0:
192,192,94884,128,0,95009:0:0:0:0:
448,192,95009,1,0,0:0:0:0:
320,192,95009,128,0,95259:0:0:0:0:
64,192,95009,1,0,0:0:0:0:
448,192,95134,1,0,0:0:0:0:
192,192,95259,128,0,95509:0:0:0:0:
64,192,95384,1,0,0:0:0:0:
320,192,95509,128,0,95634:0:0:0:0:
448,192,95634,128,0,95884:0:0:0:0:
64,192,95759,1,0,0:0:0:0:
320,192,95884,128,0,96134:0:0:0:0:
64,192,96009,1,0,0:0:0:0:
192,192,96134,128,0,96259:0:0:0:0:
64,192,96259,128,0,96384:0:0:0:0:
448,192,96384,1,0,0:0:0:0:
320,192,96509,128,0,96634:0:0:0:0:
192,192,96634,1,0,0:0:0:0:
64,192,96759,128,0,96884:0:0:0:0:
192,192,96884,128,0,97009:0:0:0:0:
320,192,97009,128,0,97259:0:0:0:0:
448,192,97134,1,0,0:0:0:0:
192,192,97259,128,0,97509:0:0:0:0:
64,192,97384,1,0,0:0:0:0:
320,192,97509,128,0,97634:0:0:0:0:
448,192,97634,128,0,97884:0:0:0:0:
64,192,97759,1,0,0:0:0:0:
192,192,97884,128,0,98009:0:0:0:0:
448,192,98009,1,0,0:0:0:0:
320,192,98134,128,0,98259:0:0:0:0:
192,192,98259,128,0,98384:0:0:0:0:
448,192,98384,1,0,0:0:0:0:
320,192,98509,128,0,98634:0:0:0:0:
192,192,98634,1,0,0:0:0:0:
64,192,98759,128,0,98884:0:0:0:0:
192,192,98884,128,0,99009:0:0:0:0:
320,192,99009,128,0,99259:0:0:0:0:
448,192,99134,1,0,0:0:0:0:
192,192,99259,128,0,99384:0:0:0:0:
64,192,99384,1,0,0:0:0:0:
320,192,99509,128,0,99634:0:0:0:0:
448,192,99634,128,0,99884:0:0:0:0:
192,192,99759,1,0,0:0:0:0:
320,192,99884,128,0,100009:0:0:0:0:
64,192,100009,1,0,0:0:0:0:
192,192,100134,128,0,100259:0:0:0:0:
64,192,100259,128,0,100384:0:0:0:0:
448,192,100384,1,0,0:0:0:0:
320,192,100509,128,0,100634:0:0:0:0:
64,192,100634,1,0,0:0:0:0:
192,192,100759,128,0,100884:0:0:0:0:
448,192,100884,1,0,0:0:0:0:
64,192,101009,128,0,101259:0:0:0:0:
320,192,101009,1,0,0:0:0:0:
64,192,101384,128,0,101634:0:0:0:0:
320,192,101384,1,0,0:0:0:0:
64,192,101759,128,0,102009:0:0:0:0:
320,192,101759,1,0,0:0:0:0:
64,192,102134,128,0,102384:0:0:0:0:
320,192,102134,1,0,0:0:0:0:
64,192,102509,128,0,102759:0:0:0:0:
320,192,102509,1,0,0:0:0:0:
192,192,102759,128,0,102884:0:0:0:0:
320,192,102884,128,0,103009:0:0:0:0:
448,0,103009,1,0,0:0:0:0:
64,192,103009,1,0,0:0:0:0:
192,192,103009,1,0,0:0:0:0:
448,96,103134,1,0,0:0:0:0:
64,192,103259,1,0,0:0:0:0:
192,192,103259,1,0,0:0:0:0:
320,192,103259,1,0,0:0:0:0:
64,288,103384,1,0,0:0:0:0:
192,384,103509,1,0,0:0:0:0:
320,384,103509,1,0,0:0:0:0:
448,384,103509,1,0,0:0:0:0:
320,288,103634,1,0,0:0:0:0:
448,288,103634,1,0,0:0:0:0:
64,192,103759,1,0,0:0:0:0:
192,192,103759,1,0,0:0:0:0:
64,96,103884,1,0,0:0:0:0:
448,192,103884,1,0,0:0:0:0:
320,0,104009,1,0,0:0:0:0:
448,0,104009,1,0,0:0:0:0:
64,96,104134,1,0,0:0:0:0:
320,96,104134,1,0,0:0:0:0:
64,192,104259,1,0,0:0:0:0:
192,192,104259,1,0,0:0:0:0:
448,192,104259,1,0,0:0:0:0:
192,288,104384,1,0,0:0:0:0:
64,384,104509,1,0,0:0:0:0:
320,384,104509,1,0,0:0:0:0:
448,384,104509,1,0,0:0:0:0:
320,288,104634,1,0,0:0:0:0:
64,192,104759,1,0,0:0:0:0:
320,192,104759,1,0,0:0:0:0:
448,192,104759,1,0,0:0:0:0:
192,96,104884,1,0,0:0:0:0:
448,96,104884,1,0,0:0:0:0:
64,0,105009,1,0,0:0:0:0:
320,0,105009,1,0,0:0:0:0:
448,0,105009,1,0,0:0:0:0:
192,96,105134,1,0,0:0:0:0:
64,192,105259,1,0,0:0:0:0:
192,192,105259,1,0,0:0:0:0:
448,192,105259,1,0,0:0:0:0:
320,288,105384,1,0,0:0:0:0:
64,384,105509,1,0,0:0:0:0:
320,384,105509,1,0,0:0:0:0:
448,384,105509,1,0,0:0:0:0:
192,288,105634,1,0,0:0:0:0:
320,288,105634,1,0,0:0:0:0:
64,192,105759,1,0,0:0:0:0:
448,192,105759,1,0,0:0:0:0:
320,96,105884,1,0,0:0:0:0:
192,192,105884,1,0,0:0:0:0:
448,0,106009,1,0,0:0:0:0:
64,192,106009,1,0,0:0:0:0:
192,96,106134,1,0,0:0:0:0:
320,192,106134,1,0,0:0:0:0:
64,192,106259,1,0,0:0:0:0:
320,192,106259,1,0,0:0:0:0:
448,192,106259,1,0,0:0:0:0:
448,288,106384,1,0,0:0:0:0:
64,384,106509,1,0,0:0:0:0:
192,192,106509,1,0,0:0:0:0:
320,288,106634,1,0,0:0:0:0:
448,288,106634,1,0,0:0:0:0:
64,239,106696,1,0,0:0:0:0:
192,239,106696,1,0,0:0:0:0:
320,192,106759,1,0,0:0:0:0:
448,192,106759,1,0,0:0:0:0:
64,96,106884,1,0,0:0:0:0:
320,96,106884,1,0,0:0:0:0:
64,0,107009,1,0,0:0:0:0:
448,0,107009,1,0,0:0:0:0:
192,192,107009,1,0,0:0:0:0:
192,96,107134,1,0,0:0:0:0:
64,96,107134,1,0,0:0:0:0:
448,144,107196,1,0,0:0:0:0:
320,144,107196,1,0,0:0:0:0:
64,192,107259,1,0,0:0:0:0:
192,192,107259,1,0,0:0:0:0:
192,288,107384,1,0,0:0:0:0:
448,288,107384,1,0,0:0:0:0:
64,384,107509,1,0,0:0:0:0:
320,384,107509,1,0,0:0:0:0:
448,288,107634,1,0,0:0:0:0:
320,288,107634,1,0,0:0:0:0:
192,239,107696,1,0,0:0:0:0:
64,239,107696,1,0,0:0:0:0:
448,192,107759,1,0,0:0:0:0:
320,192,107759,1,0,0:0:0:0:
192,96,107884,1,0,0:0:0:0:
448,96,107884,1,0,0:0:0:0:
192,0,108009,1,0,0:0:0:0:
320,0,108009,1,0,0:0:0:0:
64,96,108134,1,0,0:0:0:0:
448,96,108134,1,0,0:0:0:0:
320,144,108196,1,0,0:0:0:0:
192,144,108196,1,0,0:0:0:0:
64,192,108259,1,0,0:0:0:0:
448,192,108259,1,0,0:0:0:0:
192,288,108384,1,0,0:0:0:0:
320,288,108384,1,0,0:0:0:0:
320,384,108509,1,0,0:0:0:0:
448,384,108509,1,0,0:0:0:0:
64,335,108571,1,0,0:0:0:0:
192,335,108571,1,0,0:0:0:0:
448,288,108634,1,0,0:0:0:0:
320,288,108634,1,0,0:0:0:0:
192,239,108696,1,0,0:0:0:0:
64,239,108696,1,0,0:0:0:0:
320,192,108759,1,0,0:0:0:0:
448,192,108759,1,0,0:0:0:0:
320,96,108884,1,0,0:0:0:0:
448,96,108884,1,0,0:0:0:0:
64,0,109009,1,0,0:0:0:0:
192,0,109009,1,0,0:0:0:0:
448,48,109071,1,0,0:0:0:0:
320,48,109071,1,0,0:0:0:0:
64,96,109134,1,0,0:0:0:0:
192,96,109134,1,0,0:0:0:0:
320,144,109196,1,0,0:0:0:0:
448,144,109196,1,0,0:0:0:0:
64,192,109259,1,0,0:0:0:0:
192,192,109259,1,0,0:0:0:0:
320,288,109384,1,0,0:0:0:0:
448,288,109384,1,0,0:0:0:0:
64,336,109446,1,0,0:0:0:0:
192,336,109446,1,0,0:0:0:0:
320,384,109509,1,0,0:0:0:0:
448,384,109509,1,0,0:0:0:0:
64,335,109571,1,0,0:0:0:0:
192,335,109571,1,0,0:0:0:0:
320,288,109634,1,0,0:0:0:0:
448,288,109634,1,0,0:0:0:0:
64,192,109759,1,0,0:0:0:0:
320,192,109759,1,0,0:0:0:0:
64,96,109884,1,0,0:0:0:0:
192,96,109884,1,0,0:0:0:0:
320,47,109946,1,0,0:0:0:0:
448,47,109946,1,0,0:0:0:0:
64,0,110009,1,0,0:0:0:0:
192,0,110009,1,0,0:0:0:0:
320,48,110071,1,0,0:0:0:0:
448,48,110071,1,0,0:0:0:0:
64,96,110134,1,0,0:0:0:0:
192,96,110134,1,0,0:0:0:0:
320,144,110196,1,0,0:0:0:0:
448,144,110196,1,0,0:0:0:0:
64,192,110259,1,0,0:0:0:0:
192,192,110259,1,0,0:0:0:0:
320,240,110321,1,0,0:0:0:0:
448,240,110321,1,0,0:0:0:0:
64,288,110384,1,0,0:0:0:0:
192,288,110384,1,0,0:0:0:0:
448,311,110446,1,0,0:0:0:0:
320,336,110477,1,0,0:0:0:0:
192,359,110509,1,0,0:0:0:0:
64,384,110540,1,0,0:0:0:0:
448,360,110571,1,0,0:0:0:0:
320,335,110602,1,0,0:0:0:0:
192,312,110634,1,0,0:0:0:0:
64,288,110665,1,0,0:0:0:0:
448,264,110696,1,0,0:0:0:0:
320,239,110727,1,0,0:0:0:0:
192,216,110759,1,0,0:0:0:0:
64,192,110790,1,0,0:0:0:0:
448,168,110821,1,0,0:0:0:0:
320,143,110852,1,0,0:0:0:0:
192,120,110884,1,0,0:0:0:0:
64,96,110915,1,0,0:0:0:0:
64,0,111009,1,0,0:0:0:0:
192,0,111009,1,0,0:0:0:0:
320,0,111009,1,0,0:0:0:0:
448,0,111009,1,0,0:0:0:0:
192,96,111134,1,0,0:0:0:0:
448,96,111134,1,0,0:0:0:0:
64,192,111259,1,0,0:0:0:0:
192,192,111259,1,0,0:0:0:0:
320,192,111259,1,0,0:0:0:0:
192,288,111384,1,0,0:0:0:0:
320,288,111384,1,0,0:0:0:0:
192,384,111509,1,0,0:0:0:0:
320,384,111509,1,0,0:0:0:0:
448,384,111509,1,0,0:0:0:0:
64,288,111634,1,0,0:0:0:0:
192,288,111634,1,0,0:0:0:0:
320,288,111634,1,0,0:0:0:0:
64,192,111759,128,0,111946:0:0:0:0:
192,192,111759,128,0,111946:0:0:0:0:
320,192,111759,128,0,111946:0:0:0:0:
448,192,111759,128,0,111946:0:0:0:0:
64,0,112009,1,0,0:0:0:0:
192,0,112009,1,0,0:0:0:0:
320,0,112009,1,0,0:0:0:0:
448,0,112009,1,0,0:0:0:0:
64,96,112134,1,0,0:0:0:0:
320,96,112134,1,0,0:0:0:0:
192,192,112259,1,0,0:0:0:0:
320,192,112259,1,0,0:0:0:0:
448,192,112259,1,0,0:0:0:0:
64,288,112384,1,0,0:0:0:0:
192,288,112384,1,0,0:0:0:0:
192,384,112509,1,0,0:0:0:0:
320,384,112509,1,0,0:0:0:0:
448,384,112509,1,0,0:0:0:0:
64,288,112634,1,0,0:0:0:0:
192,288,112634,1,0,0:0:0:0:
320,288,112634,1,0,0:0:0:0:
192,192,112759,128,0,112946:0:0:0:0:
320,192,112759,128,0,112946:0:0:0:0:
64,96,112884,128,0,112946:0:0:0:0:
448,96,112884,128,0,112946:0:0:0:0:
64,0,113009,1,0,0:0:0:0:
192,0,113009,1,0,0:0:0:0:
320,0,113009,1,0,0:0:0:0:
448,0,113009,1,0,0:0:0:0:
192,96,113134,1,0,0:0:0:0:
320,96,113134,1,0,0:0:0:0:
192,192,113259,1,0,0:0:0:0:
320,192,113259,1,0,0:0:0:0:
448,192,113259,1,0,0:0:0:0:
64,288,113384,1,0,0:0:0:0:
320,288,113384,1,0,0:0:0:0:
192,384,113509,1,0,0:0:0:0:
320,384,113509,1,0,0:0:0:0:
448,384,113509,1,0,0:0:0:0:
192,288,113634,1,0,0:0:0:0:
320,288,113634,1,0,0:0:0:0:
64,192,113759,128,0,113884:0:0:0:0:
448,192,113759,128,0,113884:0:0:0:0:
192,96,113884,1,0,0:0:0:0:
320,96,113884,1,0,0:0:0:0:
64,0,114009,1,0,0:0:0:0:
192,0,114009,1,0,0:0:0:0:
320,0,114009,1,0,0:0:0:0:
448,0,114009,1,0,0:0:0:0:
320,96,114134,1,0,0:0:0:0:
448,96,114134,1,0,0:0:0:0:
64,192,114259,1,0,0:0:0:0:
320,192,114259,1,0,0:0:0:0:
448,192,114259,1,0,0:0:0:0:
192,288,114384,1,0,0:0:0:0:
320,288,114384,1,0,0:0:0:0:
64,384,114509,1,0,0:0:0:0:
448,384,114509,1,0,0:0:0:0:
192,192,114509,1,0,0:0:0:0:
320,192,114509,1,0,0:0:0:0:
192,288,114634,1,0,0:0:0:0:
192,192,114759,1,0,0:0:0:0:
448,192,114759,1,0,0:0:0:0:
320,192,114759,1,0,0:0:0:0:
64,192,114759,1,0,0:0:0:0:
448,192,114884,1,0,0:0:0:0:
192,0,115009,1,0,0:0:0:0:
448,0,115009,1,0,0:0:0:0:
64,192,115009,1,0,0:0:0:0:
320,192,115009,1,0,0:0:0:0:
192,96,115134,1,0,0:0:0:0:
320,96,115134,1,0,0:0:0:0:
64,192,115259,1,0,0:0:0:0:
192,192,115259,1,0,0:0:0:0:
320,192,115259,1,0,0:0:0:0:
64,288,115384,1,0,0:0:0:0:
192,288,115384,1,0,0:0:0:0:
320,288,115384,1,0,0:0:0:0:
448,288,115384,1,0,0:0:0:0:
192,384,115509,1,0,0:0:0:0:
320,384,115509,1,0,0:0:0:0:
192,288,115634,1,0,0:0:0:0:
320,288,115634,1,0,0:0:0:0:
448,288,115634,1,0,0:0:0:0:
64,192,115759,1,0,0:0:0:0:
192,192,115759,1,0,0:0:0:0:
320,192,115759,1,0,0:0:0:0:
448,192,115759,1,0,0:0:0:0:
192,96,115884,1,0,0:0:0:0:
320,96,115884,1,0,0:0:0:0:
64,0,116009,1,0,0:0:0:0:
192,0,116009,1,0,0:0:0:0:
320,0,116009,1,0,0:0:0:0:
64,96,116134,1,0,0:0:0:0:
192,96,116134,1,0,0:0:0:0:
320,96,116134,1,0,0:0:0:0:
448,96,116134,1,0,0:0:0:0:
192,192,116259,1,0,0:0:0:0:
320,192,116259,1,0,0:0:0:0:
64,288,116384,1,0,0:0:0:0:
192,288,116384,1,0,0:0:0:0:
320,288,116384,1,0,0:0:0:0:
64,384,116509,1,0,0:0:0:0:
320,384,116509,1,0,0:0:0:0:
448,384,116509,1,0,0:0:0:0:
192,288,116634,1,0,0:0:0:0:
320,288,116634,1,0,0:0:0:0:
64,192,116759,1,0,0:0:0:0:
320,192,116759,1,0,0:0:0:0:
448,192,116759,1,0,0:0:0:0:
192,96,116884,1,0,0:0:0:0:
320,96,116884,1,0,0:0:0:0:
64,0,117009,1,0,0:0:0:0:
192,0,117009,1,0,0:0:0:0:
320,0,117009,1,0,0:0:0:0:
448,0,117009,1,0,0:0:0:0:
64,96,117134,1,0,0:0:0:0:
448,96,117134,1,0,0:0:0:0:
64,192,117259,1,0,0:0:0:0:
192,192,117259,1,0,0:0:0:0:
320,192,117259,1,0,0:0:0:0:
448,192,117259,1,0,0:0:0:0:
320,288,117384,1,0,0:0:0:0:
448,288,117384,1,0,0:0:0:0:
64,384,117509,1,0,0:0:0:0:
192,384,117509,1,0,0:0:0:0:
320,384,117509,1,0,0:0:0:0:
448,384,117509,1,0,0:0:0:0:
64,288,117634,1,0,0:0:0:0:
192,288,117634,1,0,0:0:0:0:
64,192,117759,1,0,0:0:0:0:
192,192,117759,1,0,0:0:0:0:
320,192,117759,1,0,0:0:0:0:
448,192,117759,1,0,0:0:0:0:
192,96,117884,1,0,0:0:0:0:
320,96,117884,1,0,0:0:0:0:
64,0,118009,1,0,0:0:0:0:
192,0,118009,1,0,0:0:0:0:
320,0,118009,1,0,0:0:0:0:
448,0,118009,1,0,0:0:0:0:
64,96,118134,1,0,0:0:0:0:
192,96,118134,1,0,0:0:0:0:
320,96,118134,1,0,0:0:0:0:
448,96,118134,1,0,0:0:0:0:
64,192,118259,1,0,0:0:0:0:
192,192,118259,1,0,0:0:0:0:
320,192,118259,1,0,0:0:0:0:
448,192,118259,1,0,0:0:0:0:
64,288,118384,1,0,0:0:0:0:
192,288,118384,1,0,0:0:0:0:
320,288,118384,1,0,0:0:0:0:
448,288,118384,1,0,0:0:0:0:
64,384,118509,1,0,0:0:0:0:
192,384,118509,1,0,0:0:0:0:
320,384,118509,1,0,0:0:0:0:
448,384,118509,1,0,0:0:0:0:
320,192,118759,1,0,0:0:0:0:
192,96,118884,1,0,0:0:0:0:
64,0,119009,1,0,0:0:0:0:
192,23,119040,1,0,0:0:0:0:
320,48,119071,1,0,0:0:0:0:
448,71,119102,1,0,0:0:0:0:
64,96,119134,1,0,0:0:0:0:
192,119,119165,1,0,0:0:0:0:
320,144,119196,1,0,0:0:0:0:
448,167,119227,1,0,0:0:0:0:
64,192,119259,1,0,0:0:0:0:
192,215,119290,1,0,0:0:0:0:
320,240,119321,1,0,0:0:0:0:
448,263,119352,1,0,0:0:0:0:
64,288,119384,1,0,0:0:0:0:
192,311,119415,1,0,0:0:0:0:
320,336,119446,1,0,0:0:0:0:
448,359,119477,1,0,0:0:0:0:
64,384,119509,1,0,0:0:0:0:
192,360,119540,1,0,0:0:0:0:
320,335,119571,1,0,0:0:0:0:
448,312,119602,1,0,0:0:0:0:
64,288,119634,1,0,0:0:0:0:
192,264,119665,1,0,0:0:0:0:
320,239,119696,1,0,0:0:0:0:
448,216,119727,1,0,0:0:0:0:
64,192,119759,1,0,0:0:0:0:
192,192,119790,1,0,0:0:0:0:
320,192,119821,1,0,0:0:0:0:
448,192,119852,1,0,0:0:0:0:
64,96,119884,1,0,0:0:0:0:
192,96,119884,1,0,0:0:0:0:
192,96,120134,1,0,0:0:0:0:
320,192,120259,1,0,0:0:0:0:
448,384,120509,1,0,0:0:0:0:
64,192,120759,1,0,0:0:0:0:
192,168,120790,1,0,0:0:0:0:
320,143,120821,1,0,0:0:0:0:
448,120,120852,1,0,0:0:0:0:
64,192,120884,1,0,0:0:0:0:
192,192,120915,1,0,0:0:0:0:
320,192,120946,1,0,0:0:0:0:
448,192,120977,1,0,0:0:0:0:
192,192,121009,1,0,0:0:0:0:
64,192,121040,1,0,0:0:0:0:
448,192,121071,1,0,0:0:0:0:
320,192,121102,1,0,0:0:0:0:
192,192,121134,1,0,0:0:0:0:
64,192,121165,1,0,0:0:0:0:
448,192,121196,1,0,0:0:0:0:
320,192,121227,1,0,0:0:0:0:
192,192,121259,1,0,0:0:0:0:
64,192,121290,1,0,0:0:0:0:
448,192,121321,1,0,0:0:0:0:
320,192,121352,1,0,0:0:0:0:
192,192,121384,1,0,0:0:0:0:
64,192,121415,1,0,0:0:0:0:
448,192,121446,1,0,0:0:0:0:
320,192,121477,1,0,0:0:0:0:
192,192,121509,1,0,0:0:0:0:
64,192,121540,1,0,0:0:0:0:
448,192,121571,1,0,0:0:0:0:
320,192,121602,1,0,0:0:0:0:
192,192,121634,1,0,0:0:0:0:
64,192,121665,1,0,0:0:0:0:
448,192,121696,1,0,0:0:0:0:
320,192,121727,1,0,0:0:0:0:
192,192,121759,1,0,0:0:0:0:
64,192,121790,1,0,0:0:0:0:
448,192,121821,1,0,0:0:0:0:
320,192,121852,1,0,0:0:0:0:
64,192,121884,1,0,0:0:0:0:
192,192,121915,1,0,0:0:0:0:
320,192,121946,1,0,0:0:0:0:
448,192,121977,1,0,0:0:0:0:
64,192,122009,1,0,0:0:0:0:
192,192,122040,1,0,0:0:0:0:
320,192,122071,1,0,0:0:0:0:
448,192,122102,1,0,0:0:0:0:
64,192,122134,1,0,0:0:0:0:
192,192,122165,1,0,0:0:0:0:
320,192,122196,1,0,0:0:0:0:
448,192,122227,1,0,0:0:0:0:
192,192,122259,1,0,0:0:0:0:
64,192,122259,1,0,0:0:0:0:
64,192,122509,1,0,0:0:0:0:
448,192,122509,1,0,0:0:0:0:
448,192,122759,1,0,0:0:0:0:
320,192,122759,1,0,0:0:0:0:
320,192,122884,1,0,0:0:0:0:
448,192,122884,1,0,0:0:0:0:
192,0,123009,1,0,0:0:0:0:
320,0,123009,1,0,0:0:0:0:
64,192,123009,1,0,0:0:0:0:
320,96,123134,1,0,0:0:0:0:
448,96,123134,1,0,0:0:0:0:
64,144,123196,1,0,0:0:0:0:
192,144,123196,1,0,0:0:0:0:
320,192,123259,1,0,0:0:0:0:
448,192,123259,1,0,0:0:0:0:
192,288,123384,1,0,0:0:0:0:
64,192,123384,1,0,0:0:0:0:
320,336,123446,1,0,0:0:0:0:
448,192,123446,1,0,0:0:0:0:
192,384,123509,1,0,0:0:0:0:
64,192,123509,1,0,0:0:0:0:
320,335,123571,1,0,0:0:0:0:
448,192,123571,1,0,0:0:0:0:
192,288,123634,1,0,0:0:0:0:
64,192,123634,1,0,0:0:0:0:
192,192,123759,1,0,0:0:0:0:
320,192,123759,1,0,0:0:0:0:
320,96,123884,1,0,0:0:0:0:
448,96,123884,1,0,0:0:0:0:
64,47,123946,1,0,0:0:0:0:
192,47,123946,1,0,0:0:0:0:
320,0,124009,1,0,0:0:0:0:
448,0,124009,1,0,0:0:0:0:
64,48,124071,1,0,0:0:0:0:
192,48,124071,1,0,0:0:0:0:
320,96,124134,1,0,0:0:0:0:
448,96,124134,1,0,0:0:0:0:
64,144,124196,1,0,0:0:0:0:
192,144,124196,1,0,0:0:0:0:
320,192,124259,1,0,0:0:0:0:
448,192,124259,1,0,0:0:0:0:
64,240,124321,1,0,0:0:0:0:
192,240,124321,1,0,0:0:0:0:
320,288,124384,1,0,0:0:0:0:
448,288,124384,1,0,0:0:0:0:
64,336,124446,1,0,0:0:0:0:
192,336,124446,1,0,0:0:0:0:
320,384,124509,1,0,0:0:0:0:
448,384,124509,1,0,0:0:0:0:
64,335,124571,1,0,0:0:0:0:
192,335,124571,1,0,0:0:0:0:
320,288,124634,1,0,0:0:0:0:
448,288,124634,1,0,0:0:0:0:
64,239,124696,1,0,0:0:0:0:
192,239,124696,1,0,0:0:0:0:
448,192,124759,1,0,0:0:0:0:
320,168,124790,1,0,0:0:0:0:
192,143,124821,1,0,0:0:0:0:
64,120,124852,1,0,0:0:0:0:
448,96,124884,1,0,0:0:0:0:
320,72,124915,1,0,0:0:0:0:
192,47,124946,1,0,0:0:0:0:
64,24,124977,1,0,0:0:0:0:
448,0,125009,1,0,0:0:0:0:
320,192,125009,1,0,0:0:0:0:
64,0,126009,1,0,0:0:0:0:
192,0,126009,1,0,0:0:0:0:
448,0,126009,1,0,0:0:0:0:
192,96,126134,1,0,0:0:0:0:
64,192,126259,1,0,0:0:0:0:
320,192,126259,1,0,0:0:0:0:
448,192,126259,1,0,0:0:0:0:
320,288,126384,1,0,0:0:0:0:
64,384,126509,1,0,0:0:0:0:
448,384,126509,1,0,0:0:0:0:
192,335,126571,1,0,0:0:0:0:
320,335,126571,1,0,0:0:0:0:
64,288,126634,1,0,0:0:0:0:
448,288,126634,1,0,0:0:0:0:
192,192,126759,1,0,0:0:0:0:
448,192,126759,1,0,0:0:0:0:
192,96,126884,1,0,0:0:0:0:
320,96,126884,1,0,0:0:0:0:
320,0,127009,1,0,0:0:0:0:
448,0,127009,1,0,0:0:0:0:
64,192,127009,1,0,0:0:0:0:
192,48,127071,1,0,0:0:0:0:
320,192,127134,1,0,0:0:0:0:
192,144,127196,1,0,0:0:0:0:
64,192,127259,1,0,0:0:0:0:
320,192,127259,1,0,0:0:0:0:
448,192,127259,1,0,0:0:0:0:
192,192,127321,1,0,0:0:0:0:
64,192,127384,1,0,0:0:0:0:
320,192,127446,1,0,0:0:0:0:
448,384,127509,1,0,0:0:0:0:
192,192,127509,1,0,0:0:0:0:
64,192,127509,1,0,0:0:0:0:
320,192,127571,1,0,0:0:0:0:
192,288,127634,1,0,0:0:0:0:
448,288,127634,1,0,0:0:0:0:
64,192,127634,1,0,0:0:0:0:
320,192,127696,1,0,0:0:0:0:
192,192,127759,1,0,0:0:0:0:
64,192,127821,1,0,0:0:0:0:
320,96,127884,1,0,0:0:0:0:
192,192,127884,1,0,0:0:0:0:
448,192,127884,1,0,0:0:0:0:
64,192,127946,1,0,0:0:0:0:
448,192,128009,1,0,0:0:0:0:
192,192,128071,1,0,0:0:0:0:
64,192,128134,1,0,0:0:0:0:
448,192,128134,1,0,0:0:0:0:
320,192,128134,1,0,0:0:0:0:
192,192,128196,1,0,0:0:0:0:
448,192,128259,1,0,0:0:0:0:
320,192,128259,1,0,0:0:0:0:
64,192,128259,1,0,0:0:0:0:
192,192,128321,1,0,0:0:0:0:
320,192,128384,1,0,0:0:0:0:
64,192,128446,1,0,0:0:0:0:
192,384,128509,1,0,0:0:0:0:
320,192,128509,1,0,0:0:0:0:
448,192,128509,1,0,0:0:0:0:
64,192,128571,1,0,0:0:0:0:
192,192,128634,1,0,0:0:0:0:
320,192,128696,1,0,0:0:0:0:
448,192,128759,1,0,0:0:0:0:
64,192,128759,1,0,0:0:0:0:
192,192,128759,1,0,0:0:0:0:
320,192,128821,1,0,0:0:0:0:
448,96,128884,1,0,0:0:0:0:
192,192,128884,1,0,0:0:0:0:
64,192,128884,1,0,0:0:0:0:
320,192,128946,1,0,0:0:0:0:
448,0,129009,1,0,0:0:0:0:
192,192,129009,1,0,0:0:0:0:
64,192,129009,1,0,0:0:0:0:
320,192,129071,1,0,0:0:0:0:
64,192,129134,1,0,0:0:0:0:
192,192,129196,1,0,0:0:0:0:
64,192,129259,1,0,0:0:0:0:
320,192,129259,1,0,0:0:0:0:
448,192,129259,1,0,0:0:0:0:
192,192,129321,1,0,0:0:0:0:
320,288,129384,1,0,0:0:0:0:
64,192,129446,1,0,0:0:0:0:
320,384,129509,1,0,0:0:0:0:
448,192,129509,1,0,0:0:0:0:
192,192,129509,1,0,0:0:0:0:
64,192,129571,1,0,0:0:0:0:
448,288,129634,1,0,0:0:0:0:
320,192,129634,1,0,0:0:0:0:
192,192,129634,1,0,0:0:0:0:
64,192,129696,1,0,0:0:0:0:
320,192,129759,1,0,0:0:0:0:
192,143,129821,1,0,0:0:0:0:
64,96,129884,1,0,0:0:0:0:
320,192,129884,1,0,0:0:0:0:
448,192,129884,1,0,0:0:0:0:
192,192,129946,1,0,0:0:0:0:
448,192,130009,1,0,0:0:0:0:
320,192,130071,1,0,0:0:0:0:
64,96,130134,1,0,0:0:0:0:
192,192,130134,1,0,0:0:0:0:
448,192,130134,1,0,0:0:0:0:
320,192,130196,1,0,0:0:0:0:
192,192,130259,1,0,0:0:0:0:
448,192,130259,1,0,0:0:0:0:
64,192,130259,1,0,0:0:0:0:
320,192,130321,1,0,0:0:0:0:
64,192,130384,1,0,0:0:0:0:
448,192,130384,1,0,0:0:0:0:
192,192,130446,1,0,0:0:0:0:
320,384,130509,1,0,0:0:0:0:
448,384,130509,1,0,0:0:0:0:
64,192,130509,1,0,0:0:0:0:
192,192,130571,1,0,0:0:0:0:
320,288,130634,1,0,0:0:0:0:
448,288,130634,1,0,0:0:0:0:
64,239,130696,1,0,0:0:0:0:
192,239,130696,1,0,0:0:0:0:
320,192,130759,1,0,0:0:0:0:
448,192,130759,1,0,0:0:0:0:
64,143,130821,1,0,0:0:0:0:
192,96,130884,1,0,0:0:0:0:
320,96,130884,1,0,0:0:0:0:
448,192,130884,1,0,0:0:0:0:
64,47,130946,1,0,0:0:0:0:
192,0,131009,1,0,0:0:0:0:
320,0,131009,1,0,0:0:0:0:
448,192,131009,1,0,0:0:0:0:
64,192,131071,1,0,0:0:0:0:
320,192,131134,1,0,0:0:0:0:
192,144,131196,1,0,0:0:0:0:
448,192,131259,1,0,0:0:0:0:
64,192,131259,1,0,0:0:0:0:
320,192,131259,1,0,0:0:0:0:
192,192,131321,1,0,0:0:0:0:
64,192,131384,1,0,0:0:0:0:
320,192,131415,1,0,0:0:0:0:
64,384,131509,1,0,0:0:0:0:
192,384,131509,1,0,0:0:0:0:
448,192,131509,1,0,0:0:0:0:
320,192,131571,1,0,0:0:0:0:
64,288,131634,1,0,0:0:0:0:
192,192,131634,1,0,0:0:0:0:
448,192,131634,1,0,0:0:0:0:
320,192,131696,1,0,0:0:0:0:
192,192,131759,1,0,0:0:0:0:
64,143,131821,1,0,0:0:0:0:
192,96,131884,1,0,0:0:0:0:
448,96,131884,1,0,0:0:0:0:
320,192,131884,1,0,0:0:0:0:
64,192,131946,1,0,0:0:0:0:
448,192,132009,1,0,0:0:0:0:
320,192,132071,1,0,0:0:0:0:
192,96,132134,1,0,0:0:0:0:
448,192,132134,1,0,0:0:0:0:
64,192,132134,1,0,0:0:0:0:
320,192,132196,1,0,0:0:0:0:
448,192,132259,1,0,0:0:0:0:
64,192,132259,1,0,0:0:0:0:
192,192,132259,1,0,0:0:0:0:
320,192,132321,1,0,0:0:0:0:
64,288,132384,1,0,0:0:0:0:
192,192,132446,1,0,0:0:0:0:
448,192,132509,1,0,0:0:0:0:
320,192,132509,1,0,0:0:0:0:
64,192,132509,1,0,0:0:0:0:
192,192,132571,1,0,0:0:0:0:
320,288,132634,1,0,0:0:0:0:
64,192,132696,1,0,0:0:0:0:
192,192,132759,1,0,0:0:0:0:
320,192,132759,1,0,0:0:0:0:
448,192,132759,1,0,0:0:0:0:
64,143,132821,1,0,0:0:0:0:
448,192,132884,1,0,0:0:0:0:
320,192,132946,1,0,0:0:0:0:
192,0,133009,1,0,0:0:0:0:
448,0,133009,1,0,0:0:0:0:
64,192,133009,1,0,0:0:0:0:
192,96,133134,1,0,0:0:0:0:
320,96,133134,1,0,0:0:0:0:
64,192,133259,1,0,0:0:0:0:
448,192,133259,1,0,0:0:0:0:
192,288,133384,1,0,0:0:0:0:
320,288,133384,1,0,0:0:0:0:
448,288,133384,1,0,0:0:0:0:
64,192,133384,1,0,0:0:0:0:
192,384,133509,1,0,0:0:0:0:
320,384,133509,1,0,0:0:0:0:
64,288,133634,1,0,0:0:0:0:
320,288,133634,1,0,0:0:0:0:
64,192,133759,1,0,0:0:0:0:
192,192,133759,1,0,0:0:0:0:
448,192,133759,1,0,0:0:0:0:
320,192,133759,1,0,0:0:0:0:
192,96,133884,1,0,0:0:0:0:
320,96,133884,1,0,0:0:0:0:
64,0,134009,1,0,0:0:0:0:
320,0,134009,1,0,0:0:0:0:
448,0,134009,1,0,0:0:0:0:
192,192,134009,1,0,0:0:0:0:
64,96,134134,1,0,0:0:0:0:
192,96,134134,1,0,0:0:0:0:
320,192,134259,1,0,0:0:0:0:
448,192,134259,1,0,0:0:0:0:
448,288,134384,1,0,0:0:0:0:
320,192,134384,1,0,0:0:0:0:
64,384,134509,1,0,0:0:0:0:
448,384,134509,1,0,0:0:0:0:
192,288,134634,1,0,0:0:0:0:
320,288,134634,1,0,0:0:0:0:
64,192,134759,1,0,0:0:0:0:
448,192,134759,1,0,0:0:0:0:
192,192,134759,1,0,0:0:0:0:
320,96,134884,1,0,0:0:0:0:
448,96,134884,1,0,0:0:0:0:
64,192,134884,1,0,0:0:0:0:
192,0,135009,1,0,0:0:0:0:
64,0,135009,1,0,0:0:0:0:
448,192,135009,1,0,0:0:0:0:
320,48,135071,1,0,0:0:0:0:
192,192,135134,1,0,0:0:0:0:
320,144,135196,1,0,0:0:0:0:
448,192,135259,1,0,0:0:0:0:
192,192,135259,1,0,0:0:0:0:
64,192,135259,1,0,0:0:0:0:
320,192,135321,1,0,0:0:0:0:
448,192,135384,1,0,0:0:0:0:
192,192,135446,1,0,0:0:0:0:
64,384,135509,1,0,0:0:0:0:
320,192,135509,1,0,0:0:0:0:
448,192,135509,1,0,0:0:0:0:
192,192,135571,1,0,0:0:0:0:
320,288,135634,1,0,0:0:0:0:
64,288,135634,1,0,0:0:0:0:
448,192,135634,1,0,0:0:0:0:
192,192,135696,1,0,0:0:0:0:
320,192,135759,1,0,0:0:0:0:
448,192,135821,1,0,0:0:0:0:
192,96,135884,1,0,0:0:0:0:
320,192,135884,1,0,0:0:0:0:
64,192,135884,1,0,0:0:0:0:
448,192,135946,1,0,0:0:0:0:
64,192,136009,1,0,0:0:0:0:
320,192,136071,1,0,0:0:0:0:
448,192,136134,1,0,0:0:0:0:
64,192,136134,1,0,0:0:0:0:
192,192,136134,1,0,0:0:0:0:
320,192,136196,1,0,0:0:0:0:
64,192,136259,1,0,0:0:0:0:
192,192,136259,1,0,0:0:0:0:
448,192,136259,1,0,0:0:0:0:
320,192,136321,1,0,0:0:0:0:
192,192,136384,1,0,0:0:0:0:
448,192,136446,1,0,0:0:0:0:
320,384,136509,1,0,0:0:0:0:
192,192,136509,1,0,0:0:0:0:
64,192,136509,1,0,0:0:0:0:
448,192,136571,1,0,0:0:0:0:
320,192,136634,1,0,0:0:0:0:
192,192,136696,1,0,0:0:0:0:
64,192,136759,1,0,0:0:0:0:
448,192,136759,1,0,0:0:0:0:
320,192,136759,1,0,0:0:0:0:
192,192,136821,1,0,0:0:0:0:
64,96,136884,1,0,0:0:0:0:
320,192,136884,1,0,0:0:0:0:
448,192,136884,1,0,0:0:0:0:
192,192,136946,1,0,0:0:0:0:
64,0,137009,1,0,0:0:0:0:
320,192,137009,1,0,0:0:0:0:
448,192,137009,1,0,0:0:0:0:
192,192,137071,1,0,0:0:0:0:
448,192,137134,1,0,0:0:0:0:
320,192,137196,1,0,0:0:0:0:
448,192,137259,1,0,0:0:0:0:
192,192,137259,1,0,0:0:0:0:
64,192,137259,1,0,0:0:0:0:
320,192,137321,1,0,0:0:0:0:
192,288,137384,1,0,0:0:0:0:
448,192,137446,1,0,0:0:0:0:
192,384,137509,1,0,0:0:0:0:
64,192,137509,1,0,0:0:0:0:
320,192,137509,1,0,0:0:0:0:
448,192,137571,1,0,0:0:0:0:
64,288,137634,1,0,0:0:0:0:
192,192,137634,1,0,0:0:0:0:
320,192,137634,1,0,0:0:0:0:
448,192,137696,1,0,0:0:0:0:
192,192,137759,1,0,0:0:0:0:
320,143,137821,1,0,0:0:0:0:
448,96,137884,1,0,0:0:0:0:
192,192,137884,1,0,0:0:0:0:
64,192,137884,1,0,0:0:0:0:
320,192,137946,1,0,0:0:0:0:
64,192,138009,1,0,0:0:0:0:
192,192,138071,1,0,0:0:0:0:
448,96,138134,1,0,0:0:0:0:
320,192,138134,1,0,0:0:0:0:
64,192,138134,1,0,0:0:0:0:
192,192,138196,1,0,0:0:0:0:
320,192,138259,1,0,0:0:0:0:
64,192,138259,1,0,0:0:0:0:
448,192,138259,1,0,0:0:0:0:
192,192,138321,1,0,0:0:0:0:
64,288,138384,1,0,0:0:0:0:
448,192,138384,1,0,0:0:0:0:
320,192,138446,1,0,0:0:0:0:
192,384,138509,1,0,0:0:0:0:
64,384,138509,1,0,0:0:0:0:
448,192,138509,1,0,0:0:0:0:
320,192,138571,1,0,0:0:0:0:
192,288,138634,1,0,0:0:0:0:
64,288,138634,1,0,0:0:0:0:
448,239,138696,1,0,0:0:0:0:
320,239,138696,1,0,0:0:0:0:
192,192,138759,1,0,0:0:0:0:
64,192,138759,1,0,0:0:0:0:
448,143,138821,1,0,0:0:0:0:
320,96,138884,1,0,0:0:0:0:
192,96,138884,1,0,0:0:0:0:
64,192,138884,1,0,0:0:0:0:
448,47,138946,1,0,0:0:0:0:
320,0,139009,1,0,0:0:0:0:
192,0,139009,1,0,0:0:0:0:
64,192,139009,1,0,0:0:0:0:
448,192,139071,1,0,0:0:0:0:
192,192,139134,1,0,0:0:0:0:
320,144,139196,1,0,0:0:0:0:
64,192,139259,1,0,0:0:0:0:
448,192,139259,1,0,0:0:0:0:
192,192,139259,1,0,0:0:0:0:
320,192,139321,1,0,0:0:0:0:
448,192,139384,1,0,0:0:0:0:
192,192,139415,1,0,0:0:0:0:
448,384,139509,1,0,0:0:0:0:
320,384,139509,1,0,0:0:0:0:
64,192,139509,1,0,0:0:0:0:
192,192,139571,1,0,0:0:0:0:
448,288,139634,1,0,0:0:0:0:
320,192,139634,1,0,0:0:0:0:
64,192,139634,1,0,0:0:0:0:
192,192,139696,1,0,0:0:0:0:
320,192,139759,1,0,0:0:0:0:
448,143,139821,1,0,0:0:0:0:
320,96,139884,1,0,0:0:0:0:
64,96,139884,1,0,0:0:0:0:
192,192,139884,1,0,0:0:0:0:
448,192,139946,1,0,0:0:0:0:
64,192,140009,1,0,0:0:0:0:
192,192,140071,1,0,0:0:0:0:
320,96,140134,1,0,0:0:0:0:
64,192,140134,1,0,0:0:0:0:
448,192,140134,1,0,0:0:0:0:
192,192,140196,1,0,0:0:0:0:
64,192,140259,1,0,0:0:0:0:
448,192,140259,1,0,0:0:0:0:
320,192,140259,1,0,0:0:0:0:
192,192,140321,1,0,0:0:0:0:
448,288,140384,1,0,0:0:0:0:
320,192,140446,1,0,0:0:0:0:
64,192,140509,1,0,0:0:0:0:
192,192,140509,1,0,0:0:0:0:
448,192,140509,1,0,0:0:0:0:
320,192,140571,1,0,0:0:0:0:
192,288,140634,1,0,0:0:0:0:
448,192,140696,1,0,0:0:0:0:
320,192,140759,1,0,0:0:0:0:
192,192,140759,1,0,0:0:0:0:
64,192,140759,1,0,0:0:0:0:
448,143,140821,1,0,0:0:0:0:
64,192,140884,1,0,0:0:0:0:
192,192,140946,1,0,0:0:0:0:
320,0,141009,1,0,0:0:0:0:
64,0,141009,1,0,0:0:0:0:
448,192,141009,1,0,0:0:0:0:
320,96,141134,1,0,0:0:0:0:
192,96,141134,1,0,0:0:0:0:
448,192,141259,1,0,0:0:0:0:
64,192,141259,1,0,0:0:0:0:
320,288,141384,1,0,0:0:0:0:
192,288,141384,1,0,0:0:0:0:
64,288,141384,1,0,0:0:0:0:
448,192,141384,1,0,0:0:0:0:
320,384,141509,1,0,0:0:0:0:
192,384,141509,1,0,0:0:0:0:
448,288,141634,1,0,0:0:0:0:
64,192,141634,1,0,0:0:0:0:
448,192,141759,1,0,0:0:0:0:
320,192,141759,1,0,0:0:0:0:
64,192,141759,1,0,0:0:0:0:
192,192,141759,1,0,0:0:0:0:
320,96,141884,1,0,0:0:0:0:
192,96,141884,1,0,0:0:0:0:
448,0,142009,1,0,0:0:0:0:
64,0,142009,1,0,0:0:0:0:
448,96,142134,1,0,0:0:0:0:
320,96,142134,1,0,0:0:0:0:
64,192,142134,1,0,0:0:0:0:
192,192,142134,1,0,0:0:0:0:
320,192,142259,1,0,0:0:0:0:
192,192,142259,1,0,0:0:0:0:
320,288,142384,1,0,0:0:0:0:
192,192,142384,1,0,0:0:0:0:
448,384,142509,1,0,0:0:0:0:
64,384,142509,1,0,0:0:0:0:
192,192,142509,1,0,0:0:0:0:
320,192,142509,1,0,0:0:0:0:
320,288,142634,1,0,0:0:0:0:
192,288,142634,1,0,0:0:0:0:
448,192,142759,1,0,0:0:0:0:
64,192,142759,1,0,0:0:0:0:
320,192,142759,1,0,0:0:0:0:
192,96,142884,1,0,0:0:0:0:
64,96,142884,1,0,0:0:0:0:
448,192,142884,1,0,0:0:0:0:
448,192,143009,1,0,0:0:0:0:
64,0,143009,1,0,0:0:0:0:
320,192,143009,1,0,0:0:0:0:
192,48,143071,1,0,0:0:0:0:
320,192,143134,1,0,0:0:0:0:
192,144,143196,1,0,0:0:0:0:
448,192,143259,1,0,0:0:0:0:
320,192,143259,1,0,0:0:0:0:
64,192,143259,1,0,0:0:0:0:
192,192,143321,1,0,0:0:0:0:
64,192,143384,1,0,0:0:0:0:
320,192,143446,1,0,0:0:0:0:
64,192,143509,1,0,0:0:0:0:
192,192,143509,1,0,0:0:0:0:
448,384,143509,1,0,0:0:0:0:
320,192,143571,1,0,0:0:0:0:
64,192,143634,1,0,0:0:0:0:
448,288,143634,1,0,0:0:0:0:
192,288,143634,1,0,0:0:0:0:
320,192,143696,1,0,0:0:0:0:
192,192,143759,1,0,0:0:0:0:
64,192,143821,1,0,0:0:0:0:
448,192,143884,1,0,0:0:0:0:
192,192,143884,1,0,0:0:0:0:
320,96,143884,1,0,0:0:0:0:
64,192,143946,1,0,0:0:0:0:
448,192,144009,1,0,0:0:0:0:
192,192,144071,1,0,0:0:0:0:
320,192,144134,1,0,0:0:0:0:
448,192,144134,1,0,0:0:0:0:
64,192,144134,1,0,0:0:0:0:
192,192,144196,1,0,0:0:0:0:
64,192,144259,1,0,0:0:0:0:
320,192,144259,1,0,0:0:0:0:
448,192,144259,1,0,0:0:0:0:
192,192,144321,1,0,0:0:0:0:
320,192,144384,1,0,0:0:0:0:
64,192,144446,1,0,0:0:0:0:
448,192,144509,1,0,0:0:0:0:
320,192,144509,1,0,0:0:0:0:
192,384,144509,1,0,0:0:0:0:
64,192,144571,1,0,0:0:0:0:
192,192,144634,1,0,0:0:0:0:
320,192,144696,1,0,0:0:0:0:
192,192,144759,1,0,0:0:0:0:
64,192,144759,1,0,0:0:0:0:
448,192,144759,1,0,0:0:0:0:
320,192,144821,1,0,0:0:0:0:
64,192,144884,1,0,0:0:0:0:
192,192,144884,1,0,0:0:0:0:
448,96,144884,1,0,0:0:0:0:
320,192,144946,1,0,0:0:0:0:
64,192,145009,1,0,0:0:0:0:
192,192,145009,1,0,0:0:0:0:
448,0,145009,1,0,0:0:0:0:
320,192,145071,1,0,0:0:0:0:
64,192,145134,1,0,0:0:0:0:
192,192,145196,1,0,0:0:0:0:
448,192,145259,1,0,0:0:0:0:
320,192,145259,1,0,0:0:0:0:
64,192,145259,1,0,0:0:0:0:
192,192,145321,1,0,0:0:0:0:
320,288,145384,1,0,0:0:0:0:
64,192,145446,1,0,0:0:0:0:
192,192,145509,1,0,0:0:0:0:
448,192,145509,1,0,0:0:0:0:
320,384,145509,1,0,0:0:0:0:
64,192,145571,1,0,0:0:0:0:
192,192,145634,1,0,0:0:0:0:
320,192,145634,1,0,0:0:0:0:
448,288,145634,1,0,0:0:0:0:
64,192,145696,1,0,0:0:0:0:
320,192,145759,1,0,0:0:0:0:
192,143,145821,1,0,0:0:0:0:
448,192,145884,1,0,0:0:0:0:
320,192,145884,1,0,0:0:0:0:
64,96,145884,1,0,0:0:0:0:
192,192,145946,1,0,0:0:0:0:
448,192,146009,1,0,0:0:0:0:
320,192,146071,1,0,0:0:0:0:
448,192,146134,1,0,0:0:0:0:
192,192,146134,1,0,0:0:0:0:
64,96,146134,1,0,0:0:0:0:
320,192,146196,1,0,0:0:0:0:
64,192,146259,1,0,0:0:0:0:
448,192,146259,1,0,0:0:0:0:
192,192,146259,1,0,0:0:0:0:
320,192,146321,1,0,0:0:0:0:
64,192,146384,1,0,0:0:0:0:
448,288,146384,1,0,0:0:0:0:
192,192,146446,1,0,0:0:0:0:
64,192,146509,1,0,0:0:0:0:
448,384,146509,1,0,0:0:0:0:
320,384,146509,1,0,0:0:0:0:
192,192,146571,1,0,0:0:0:0:
448,288,146634,1,0,0:0:0:0:
320,288,146634,1,0,0:0:0:0:
192,239,146696,1,0,0:0:0:0:
64,239,146696,1,0,0:0:0:0:
448,192,146759,1,0,0:0:0:0:
320,192,146759,1,0,0:0:0:0:
64,143,146821,1,0,0:0:0:0:
448,192,146884,1,0,0:0:0:0:
320,96,146884,1,0,0:0:0:0:
192,96,146884,1,0,0:0:0:0:
64,47,146946,1,0,0:0:0:0:
448,192,147009,1,0,0:0:0:0:
320,0,147009,1,0,0:0:0:0:
192,0,147009,1,0,0:0:0:0:
64,192,147071,1,0,0:0:0:0:
320,192,147134,1,0,0:0:0:0:
192,144,147196,1,0,0:0:0:0:
320,192,147259,1,0,0:0:0:0:
64,192,147259,1,0,0:0:0:0:
448,192,147259,1,0,0:0:0:0:
192,192,147321,1,0,0:0:0:0:
64,192,147384,1,0,0:0:0:0:
320,192,147415,1,0,0:0:0:0:
448,192,147509,1,0,0:0:0:0:
192,384,147509,1,0,0:0:0:0:
64,384,147509,1,0,0:0:0:0:
320,192,147571,1,0,0:0:0:0:
448,192,147634,1,0,0:0:0:0:
192,192,147634,1,0,0:0:0:0:
64,288,147634,1,0,0:0:0:0:
320,192,147696,1,0,0:0:0:0:
192,192,147759,1,0,0:0:0:0:
64,143,147821,1,0,0:0:0:0:
320,192,147884,1,0,0:0:0:0:
448,96,147884,1,0,0:0:0:0:
192,96,147884,1,0,0:0:0:0:
64,192,147946,1,0,0:0:0:0:
448,192,148009,1,0,0:0:0:0:
320,192,148071,1,0,0:0:0:0:
64,192,148134,1,0,0:0:0:0:
448,192,148134,1,0,0:0:0:0:
192,96,148134,1,0,0:0:0:0:
320,192,148196,1,0,0:0:0:0:
192,192,148259,1,0,0:0:0:0:
64,192,148259,1,0,0:0:0:0:
448,192,148259,1,0,0:0:0:0:
320,192,148321,1,0,0:0:0:0:
64,288,148384,1,0,0:0:0:0:
192,192,148446,1,0,0:0:0:0:
64,192,148509,1,0,0:0:0:0:
320,192,148509,1,0,0:0:0:0:
448,192,148509,1,0,0:0:0:0:
192,192,148571,1,0,0:0:0:0:
320,288,148634,1,0,0:0:0:0:
64,192,148696,1,0,0:0:0:0:
448,192,148759,1,0,0:0:0:0:
320,192,148759,1,0,0:0:0:0:
192,192,148759,1,0,0:0:0:0:
64,143,148821,1,0,0:0:0:0:
448,192,148884,1,0,0:0:0:0:
320,192,148946,1,0,0:0:0:0:
64,192,149009,1,0,0:0:0:0:
448,0,149009,1,0,0:0:0:0:
192,0,149009,1,0,0:0:0:0:
320,96,149134,1,0,0:0:0:0:
192,96,149134,1,0,0:0:0:0:
448,192,149259,1,0,0:0:0:0:
64,192,149259,1,0,0:0:0:0:
448,288,149384,1,0,0:0:0:0:
320,288,149384,1,0,0:0:0:0:
192,288,149384,1,0,0:0:0:0:
64,192,149384,1,0,0:0:0:0:
320,384,149509,1,0,0:0:0:0:
192,384,149509,1,0,0:0:0:0:
320,288,149634,1,0,0:0:0:0:
64,288,149634,1,0,0:0:0:0:
448,192,149759,1,0,0:0:0:0:
192,192,149759,1,0,0:0:0:0:
64,192,149759,1,0,0:0:0:0:
320,192,149759,1,0,0:0:0:0:
320,96,149884,1,0,0:0:0:0:
192,96,149884,1,0,0:0:0:0:
448,0,150009,1,0,0:0:0:0:
320,0,150009,1,0,0:0:0:0:
64,0,150009,1,0,0:0:0:0:
192,192,150009,1,0,0:0:0:0:
448,192,150134,1,0,0:0:0:0:
320,192,150134,1,0,0:0:0:0:
192,192,150259,1,0,0:0:0:0:
64,192,150259,1,0,0:0:0:0:
192,192,150384,1,0,0:0:0:0:
64,192,150384,1,0,0:0:0:0:
448,384,150509,1,0,0:0:0:0:
64,384,150509,1,0,0:0:0:0:
320,288,150634,1,0,0:0:0:0:
192,288,150634,1,0,0:0:0:0:
192,192,150759,1,0,0:0:0:0:
448,192,150759,1,0,0:0:0:0:
64,192,150759,1,0,0:0:0:0:
64,192,150884,1,0,0:0:0:0:
448,96,150884,1,0,0:0:0:0:
320,96,150884,1,0,0:0:0:0:
320,0,151009,1,0,0:0:0:0:
448,0,151009,1,0,0:0:0:0:
64,192,151009,1,0,0:0:0:0:
192,48,151071,1,0,0:0:0:0:
320,192,151134,1,0,0:0:0:0:
192,144,151196,1,0,0:0:0:0:
64,192,151259,1,0,0:0:0:0:
320,192,151259,1,0,0:0:0:0:
448,192,151259,1,0,0:0:0:0:
192,192,151321,1,0,0:0:0:0:
64,192,151384,1,0,0:0:0:0:
320,192,151446,1,0,0:0:0:0:
448,384,151509,1,0,0:0:0:0:
192,192,151509,1,0,0:0:0:0:
64,192,151509,1,0,0:0:0:0:
320,192,151571,1,0,0:0:0:0:
192,288,151634,1,0,0:0:0:0:
448,288,151634,1,0,0:0:0:0:
64,192,151634,1,0,0:0:0:0:
320,192,151696,1,0,0:0:0:0:
192,192,151759,1,0,0:0:0:0:
64,192,151821,1,0,0:0:0:0:
320,96,151884,1,0,0:0:0:0:
192,192,151884,1,0,0:0:0:0:
448,192,151884,1,0,0:0:0:0:
64,192,151946,1,0,0:0:0:0:
448,192,152009,1,0,0:0:0:0:
192,192,152071,1,0,0:0:0:0:
64,192,152134,1,0,0:0:0:0:
448,192,152134,1,0,0:0:0:0:
320,192,152134,1,0,0:0:0:0:
192,192,152196,1,0,0:0:0:0:
448,192,152259,1,0,0:0:0:0:
320,192,152259,1,0,0:0:0:0:
64,192,152259,1,0,0:0:0:0:
192,192,152321,1,0,0:0:0:0:
320,192,152384,1,0,0:0:0:0:
64,192,152446,1,0,0:0:0:0:
192,384,152509,1,0,0:0:0:0:
320,192,152509,1,0,0:0:0:0:
448,192,152509,1,0,0:0:0:0:
64,192,152571,1,0,0:0:0:0:
192,192,152634,1,0,0:0:0:0:
320,192,152696,1,0,0:0:0:0:
448,192,152759,1,0,0:0:0:0:
64,192,152759,1,0,0:0:0:0:
192,192,152759,1,0,0:0:0:0:
320,192,152821,1,0,0:0:0:0:
448,96,152884,1,0,0:0:0:0:
192,192,152884,1,0,0:0:0:0:
64,192,152884,1,0,0:0:0:0:
320,192,152946,1,0,0:0:0:0:
448,0,153009,1,0,0:0:0:0:
192,192,153009,1,0,0:0:0:0:
64,192,153009,1,0,0:0:0:0:
320,192,153071,1,0,0:0:0:0:
64,192,153134,1,0,0:0:0:0:
192,192,153196,1,0,0:0:0:0:
64,192,153259,1,0,0:0:0:0:
320,192,153259,1,0,0:0:0:0:
448,192,153259,1,0,0:0:0:0:
192,192,153321,1,0,0:0:0:0:
320,288,153384,1,0,0:0:0:0:
64,192,153446,1,0,0:0:0:0:
320,384,153509,1,0,0:0:0:0:
448,192,153509,1,0,0:0:0:0:
192,192,153509,1,0,0:0:0:0:
64,192,153571,1,0,0:0:0:0:
448,288,153634,1,0,0:0:0:0:
320,192,153634,1,0,0:0:0:0:
192,192,153634,1,0,0:0:0:0:
64,192,153696,1,0,0:0:0:0:
320,192,153759,1,0,0:0:0:0:
192,143,153821,1,0,0:0:0:0:
64,96,153884,1,0,0:0:0:0:
320,192,153884,1,0,0:0:0:0:
448,192,153884,1,0,0:0:0:0:
192,192,153946,1,0,0:0:0:0:
448,192,154009,1,0,0:0:0:0:
320,192,154071,1,0,0:0:0:0:
64,96,154134,1,0,0:0:0:0:
192,192,154134,1,0,0:0:0:0:
448,192,154134,1,0,0:0:0:0:
320,192,154196,1,0,0:0:0:0:
192,192,154259,1,0,0:0:0:0:
448,192,154259,1,0,0:0:0:0:
64,192,154259,1,0,0:0:0:0:
320,192,154321,1,0,0:0:0:0:
448,288,154384,1,0,0:0:0:0:
64,192,154384,1,0,0:0:0:0:
192,192,154446,1,0,0:0:0:0:
320,384,154509,1,0,0:0:0:0:
448,384,154509,1,0,0:0:0:0:
64,192,154509,1,0,0:0:0:0:
192,192,154571,1,0,0:0:0:0:
320,288,154634,1,0,0:0:0:0:
448,288,154634,1,0,0:0:0:0:
64,239,154696,1,0,0:0:0:0:
192,239,154696,1,0,0:0:0:0:
320,192,154759,1,0,0:0:0:0:
448,192,154759,1,0,0:0:0:0:
64,143,154821,1,0,0:0:0:0:
192,96,154884,1,0,0:0:0:0:
320,96,154884,1,0,0:0:0:0:
448,192,154884,1,0,0:0:0:0:
64,47,154946,1,0,0:0:0:0:
192,0,155009,1,0,0:0:0:0:
320,0,155009,1,0,0:0:0:0:
448,192,155009,1,0,0:0:0:0:
64,192,155071,1,0,0:0:0:0:
320,192,155134,1,0,0:0:0:0:
192,144,155196,1,0,0:0:0:0:
448,192,155259,1,0,0:0:0:0:
64,192,155259,1,0,0:0:0:0:
320,192,155259,1,0,0:0:0:0:
192,192,155321,1,0,0:0:0:0:
64,192,155384,1,0,0:0:0:0:
320,192,155415,1,0,0:0:0:0:
64,384,155509,1,0,0:0:0:0:
192,384,155509,1,0,0:0:0:0:
448,192,155509,1,0,0:0:0:0:
320,192,155571,1,0,0:0:0:0:
64,288,155634,1,0,0:0:0:0:
192,192,155634,1,0,0:0:0:0:
448,192,155634,1,0,0:0:0:0:
320,192,155696,1,0,0:0:0:0:
192,192,155759,1,0,0:0:0:0:
64,192,155759,1,0,0:0:0:0:
320,192,155821,1,0,0:0:0:0:
192,96,155884,1,0,0:0:0:0:
448,96,155884,1,0,0:0:0:0:
64,192,155884,1,0,0:0:0:0:
320,192,155946,1,0,0:0:0:0:
64,192,156009,1,0,0:0:0:0:
192,192,156009,1,0,0:0:0:0:
448,192,156071,1,0,0:0:0:0:
192,96,156134,1,0,0:0:0:0:
64,192,156134,1,0,0:0:0:0:
320,192,156134,1,0,0:0:0:0:
448,192,156196,1,0,0:0:0:0:
64,192,156259,1,0,0:0:0:0:
192,192,156259,1,0,0:0:0:0:
320,192,156259,1,0,0:0:0:0:
448,192,156321,1,0,0:0:0:0:
64,288,156384,1,0,0:0:0:0:
192,192,156446,1,0,0:0:0:0:
448,192,156509,1,0,0:0:0:0:
320,192,156509,1,0,0:0:0:0:
64,192,156509,1,0,0:0:0:0:
192,192,156571,1,0,0:0:0:0:
320,288,156634,1,0,0:0:0:0:
448,192,156634,1,0,0:0:0:0:
64,192,156696,1,0,0:0:0:0:
192,192,156696,1,0,0:0:0:0:
320,192,156759,1,0,0:0:0:0:
448,192,156759,1,0,0:0:0:0:
64,143,156821,1,0,0:0:0:0:
448,192,156884,1,0,0:0:0:0:
320,192,156884,1,0,0:0:0:0:
192,192,156946,1,0,0:0:0:0:
448,0,157009,1,0,0:0:0:0:
64,192,157009,1,0,0:0:0:0:
320,192,157009,1,0,0:0:0:0:
192,96,157134,5,0,0:0:0:0:
320,96,157134,1,0,0:0:0:0:
64,192,157259,1,0,0:0:0:0:
448,192,157259,1,0,0:0:0:0:
192,288,157384,1,0,0:0:0:0:
320,288,157384,1,0,0:0:0:0:
448,288,157384,1,0,0:0:0:0:
64,192,157384,1,0,0:0:0:0:
192,384,157509,1,0,0:0:0:0:
320,384,157509,1,0,0:0:0:0:
64,288,157634,1,0,0:0:0:0:
320,288,157634,1,0,0:0:0:0:
64,192,157759,1,0,0:0:0:0:
192,192,157759,1,0,0:0:0:0:
448,192,157759,1,0,0:0:0:0:
320,192,157759,1,0,0:0:0:0:
320,96,157884,1,0,0:0:0:0:
448,192,157884,1,0,0:0:0:0:
64,0,158009,1,0,0:0:0:0:
320,0,158009,1,0,0:0:0:0:
448,0,158009,1,0,0:0:0:0:
192,192,158009,1,0,0:0:0:0:
64,96,158134,1,0,0:0:0:0:
192,96,158134,1,0,0:0:0:0:
320,192,158134,1,0,0:0:0:0:
448,192,158134,1,0,0:0:0:0:
192,192,158259,1,0,0:0:0:0:
320,192,158259,1,0,0:0:0:0:
448,192,158259,1,0,0:0:0:0:
64,192,158259,1,0,0:0:0:0:
192,288,158384,1,0,0:0:0:0:
448,288,158384,1,0,0:0:0:0:
320,192,158384,1,0,0:0:0:0:
64,192,158384,1,0,0:0:0:0:
192,384,158509,1,0,0:0:0:0:
320,384,158509,1,0,0:0:0:0:
64,384,158509,1,0,0:0:0:0:
448,384,158509,1,0,0:0:0:0:
64,288,158634,1,0,0:0:0:0:
192,288,158634,1,0,0:0:0:0:
448,239,158696,1,0,0:0:0:0:
320,192,158696,1,0,0:0:0:0:
64,192,158759,1,0,0:0:0:0:
192,192,158790,1,0,0:0:0:0:
320,143,158821,1,0,0:0:0:0:
448,120,158852,1,0,0:0:0:0:
64,192,158884,1,0,0:0:0:0:
192,72,158915,1,0,0:0:0:0:
320,47,158946,1,0,0:0:0:0:
448,24,158977,1,0,0:0:0:0:
64,0,159009,1,0,0:0:0:0:
192,192,159009,1,0,0:0:0:0:
320,192,159259,1,0,0:0:0:0:
448,192,159259,1,0,0:0:0:0:
192,288,159384,1,0,0:0:0:0:
64,336,159446,1,0,0:0:0:0:
320,384,159509,1,0,0:0:0:0:
192,384,159509,1,0,0:0:0:0:
448,384,159509,1,0,0:0:0:0:
320,288,159634,1,0,0:0:0:0:
448,239,159696,1,0,0:0:0:0:
64,192,159759,1,0,0:0:0:0:
192,192,159759,1,0,0:0:0:0:
320,192,159759,1,0,0:0:0:0:
192,96,159884,1,0,0:0:0:0:
64,47,159946,1,0,0:0:0:0:
192,0,160009,1,0,0:0:0:0:
320,0,160009,1,0,0:0:0:0:
448,0,160009,1,0,0:0:0:0:
320,96,160134,1,0,0:0:0:0:
64,144,160196,1,0,0:0:0:0:
192,192,160259,1,0,0:0:0:0:
320,192,160259,1,0,0:0:0:0:
448,192,160259,1,0,0:0:0:0:
64,288,160384,1,0,0:0:0:0:
320,336,160446,1,0,0:0:0:0:
192,384,160509,1,0,0:0:0:0:
64,384,160509,1,0,0:0:0:0:
448,384,160509,1,0,0:0:0:0:
448,288,160634,1,0,0:0:0:0:
320,239,160696,1,0,0:0:0:0:
64,192,160759,1,0,0:0:0:0:
192,192,160759,1,0,0:0:0:0:
448,192,160759,1,0,0:0:0:0:
320,96,160884,1,0,0:0:0:0:
64,47,160946,1,0,0:0:0:0:
320,0,161009,1,0,0:0:0:0:
192,0,161009,1,0,0:0:0:0:
448,0,161009,1,0,0:0:0:0:
64,96,161134,1,0,0:0:0:0:
192,144,161196,1,0,0:0:0:0:
320,192,161259,1,0,0:0:0:0:
448,192,161259,1,0,0:0:0:0:
320,288,161384,1,0,0:0:0:0:
448,336,161446,1,0,0:0:0:0:
64,384,161509,1,0,0:0:0:0:
192,384,161509,1,0,0:0:0:0:
64,288,161634,1,0,0:0:0:0:
320,239,161696,1,0,0:0:0:0:
64,192,161759,1,0,0:0:0:0:
192,192,161759,1,0,0:0:0:0:
448,192,161759,1,0,0:0:0:0:
448,96,161884,1,0,0:0:0:0:
192,47,161946,1,0,0:0:0:0:
64,0,162009,1,0,0:0:0:0:
320,0,162009,1,0,0:0:0:0:
448,0,162009,1,0,0:0:0:0:
192,96,162134,1,0,0:0:0:0:
64,144,162196,1,0,0:0:0:0:
320,192,162259,1,0,0:0:0:0:
448,192,162259,1,0,0:0:0:0:
192,288,162384,1,0,0:0:0:0:
320,336,162446,1,0,0:0:0:0:
64,384,162509,1,0,0:0:0:0:
448,384,162509,1,0,0:0:0:0:
192,288,162634,1,0,0:0:0:0:
64,239,162696,1,0,0:0:0:0:
192,192,162759,1,0,0:0:0:0:
448,192,162759,1,0,0:0:0:0:
64,96,162884,1,0,0:0:0:0:
448,96,162884,1,0,0:0:0:0:
320,47,162946,1,0,0:0:0:0:
64,0,163009,1,0,0:0:0:0:
192,0,163009,1,0,0:0:0:0:
448,0,163009,1,0,0:0:0:0:
448,96,163134,1,0,0:0:0:0:
192,144,163196,1,0,0:0:0:0:
64,192,163259,1,0,0:0:0:0:
320,192,163259,1,0,0:0:0:0:
64,288,163384,1,0,0:0:0:0:
192,336,163446,1,0,0:0:0:0:
64,384,163509,1,0,0:0:0:0:
320,384,163509,1,0,0:0:0:0:
448,384,163509,1,0,0:0:0:0:
448,288,163634,1,0,0:0:0:0:
192,239,163696,1,0,0:0:0:0:
64,192,163759,1,0,0:0:0:0:
320,192,163759,1,0,0:0:0:0:
448,192,163759,1,0,0:0:0:0:
320,96,163884,1,0,0:0:0:0:
64,47,163946,1,0,0:0:0:0:
192,0,164009,1,0,0:0:0:0:
320,0,164009,1,0,0:0:0:0:
448,0,164009,1,0,0:0:0:0:
64,96,164134,1,0,0:0:0:0:
320,144,164196,1,0,0:0:0:0:
192,192,164259,1,0,0:0:0:0:
448,192,164259,1,0,0:0:0:0:
64,192,164259,1,0,0:0:0:0:
192,192,164384,1,0,0:0:0:0:
448,336,164446,1,0,0:0:0:0:
64,384,164509,1,0,0:0:0:0:
192,384,164509,1,0,0:0:0:0:
320,384,164509,1,0,0:0:0:0:
320,288,164634,1,0,0:0:0:0:
64,239,164696,1,0,0:0:0:0:
192,192,164759,1,0,0:0:0:0:
320,192,164759,1,0,0:0:0:0:
448,192,164759,1,0,0:0:0:0:
448,96,164884,1,0,0:0:0:0:
320,47,164946,1,0,0:0:0:0:
64,0,165009,1,0,0:0:0:0:
448,0,165009,1,0,0:0:0:0:
192,192,165009,1,0,0:0:0:0:
64,96,165134,1,0,0:0:0:0:
320,144,165196,1,0,0:0:0:0:
192,192,165259,1,0,0:0:0:0:
448,192,165259,1,0,0:0:0:0:
448,288,165384,1,0,0:0:0:0:
192,336,165446,1,0,0:0:0:0:
64,384,165509,1,0,0:0:0:0:
320,384,165509,1,0,0:0:0:0:
320,288,165634,1,0,0:0:0:0:
64,239,165696,1,0,0:0:0:0:
192,192,165759,1,0,0:0:0:0:
320,192,165759,1,0,0:0:0:0:
448,192,165759,1,0,0:0:0:0:
448,96,165884,1,0,0:0:0:0:
320,47,165946,1,0,0:0:0:0:
64,0,166009,1,0,0:0:0:0:
192,0,166009,1,0,0:0:0:0:
448,0,166009,1,0,0:0:0:0:
64,96,166134,1,0,0:0:0:0:
192,144,166196,1,0,0:0:0:0:
320,192,166259,1,0,0:0:0:0:
448,192,166259,1,0,0:0:0:0:
192,288,166384,1,0,0:0:0:0:
320,336,166446,1,0,0:0:0:0:
64,384,166509,1,0,0:0:0:0:
448,384,166509,1,0,0:0:0:0:
448,288,166634,1,0,0:0:0:0:
192,239,166696,1,0,0:0:0:0:
64,192,166759,1,0,0:0:0:0:
320,192,166759,1,0,0:0:0:0:
192,96,166884,1,0,0:0:0:0:
448,96,166884,1,0,0:0:0:0:
320,192,167009,128,0,167509:0:0:0:0:
192,384,167509,128,0,168259:0:0:0:0:
448,192,168259,128,0,168509:0:0:0:0:
192,384,168509,128,0,168759:0:0:0:0:
320,192,168759,128,0,169009:0:0:0:0:
64,0,169009,128,0,169759:0:0:0:0:
320,192,169759,128,0,170009:0:0:0:0:
192,0,170009,128,0,171009:0:0:0:0:
64,0,171009,128,0,171509:0:0:0:0:
320,384,171509,128,0,172259:0:0:0:0:
64,192,172259,128,0,172509:0:0:0:0:
192,384,172509,128,0,172759:0:0:0:0:
320,192,172759,128,0,173009:0:0:0:0:
448,0,173009,128,0,174884:0:0:0:0:
192,96,174134,1,0,0:0:0:0:
192,288,174384,1,0,0:0:0:0:
192,288,174634,1,0,0:0:0:0:
192,192,174759,1,0,0:0:0:0:
192,96,174884,1,0,0:0:0:0:
64,192,175009,1,0,0:0:0:0:
192,192,175009,1,0,0:0:0:0:
448,192,175009,1,0,0:0:0:0:
320,192,175071,1,0,0:0:0:0:
64,96,175134,1,0,0:0:0:0:
192,192,175134,1,0,0:0:0:0:
448,144,175196,1,0,0:0:0:0:
320,192,175259,1,0,0:0:0:0:
192,192,175259,1,0,0:0:0:0:
64,192,175321,1,0,0:0:0:0:
192,288,175384,1,0,0:0:0:0:
320,192,175384,1,0,0:0:0:0:
64,192,175446,1,0,0:0:0:0:
320,384,175509,1,0,0:0:0:0:
448,192,175509,1,0,0:0:0:0:
192,192,175571,1,0,0:0:0:0:
448,288,175634,1,0,0:0:0:0:
320,192,175634,1,0,0:0:0:0:
64,239,175696,1,0,0:0:0:0:
320,192,175759,1,0,0:0:0:0:
192,192,175759,1,0,0:0:0:0:
448,143,175821,1,0,0:0:0:0:
320,96,175884,1,0,0:0:0:0:
192,192,175884,1,0,0:0:0:0:
448,47,175946,1,0,0:0:0:0:
192,0,176009,1,0,0:0:0:0:
64,0,176009,1,0,0:0:0:0:
320,48,176071,1,0,0:0:0:0:
192,96,176134,1,0,0:0:0:0:
64,192,176134,1,0,0:0:0:0:
320,192,176196,1,0,0:0:0:0:
192,192,176259,1,0,0:0:0:0:
448,192,176259,1,0,0:0:0:0:
64,240,176321,1,0,0:0:0:0:
448,288,176384,1,0,0:0:0:0:
192,288,176384,1,0,0:0:0:0:
320,192,176446,1,0,0:0:0:0:
64,192,176509,1,0,0:0:0:0:
448,192,176509,1,0,0:0:0:0:
192,192,176509,1,0,0:0:0:0:
320,192,176571,1,0,0:0:0:0:
192,192,176634,1,0,0:0:0:0:
448,192,176696,1,0,0:0:0:0:
320,192,176759,1,0,0:0:0:0:
192,192,176759,1,0,0:0:0:0:
64,192,176759,1,0,0:0:0:0:
448,192,176821,1,0,0:0:0:0:
320,192,176884,1,0,0:0:0:0:
192,192,176884,1,0,0:0:0:0:
64,192,176946,1,0,0:0:0:0:
448,192,177009,1,0,0:0:0:0:
320,192,177009,1,0,0:0:0:0:
192,192,177071,1,0,0:0:0:0:
320,96,177134,1,0,0:0:0:0:
448,192,177134,1,0,0:0:0:0:
64,192,177196,1,0,0:0:0:0:
320,192,177259,1,0,0:0:0:0:
192,192,177259,1,0,0:0:0:0:
448,192,177321,1,0,0:0:0:0:
192,288,177384,1,0,0:0:0:0:
320,192,177384,1,0,0:0:0:0:
448,192,177446,1,0,0:0:0:0:
192,192,177509,1,0,0:0:0:0:
64,192,177509,1,0,0:0:0:0:
320,192,177571,1,0,0:0:0:0:
64,288,177634,1,0,0:0:0:0:
192,192,177634,1,0,0:0:0:0:
320,192,177696,1,0,0:0:0:0:
64,192,177759,1,0,0:0:0:0:
448,192,177759,1,0,0:0:0:0:
192,192,177821,1,0,0:0:0:0:
448,96,177884,1,0,0:0:0:0:
64,192,177884,1,0,0:0:0:0:
320,47,177946,1,0,0:0:0:0:
64,0,178009,1,0,0:0:0:0:
192,192,178009,1,0,0:0:0:0:
448,192,178071,1,0,0:0:0:0:
320,192,178134,1,0,0:0:0:0:
64,192,178134,1,0,0:0:0:0:
448,192,178196,1,0,0:0:0:0:
192,192,178196,1,0,0:0:0:0:
320,192,178259,1,0,0:0:0:0:
64,192,178259,1,0,0:0:0:0:
448,192,178321,1,0,0:0:0:0:
64,192,178384,1,0,0:0:0:0:
192,192,178384,1,0,0:0:0:0:
320,192,178446,1,0,0:0:0:0:
448,384,178509,1,0,0:0:0:0:
192,192,178509,1,0,0:0:0:0:
64,335,178571,1,0,0:0:0:0:
448,288,178634,1,0,0:0:0:0:
320,288,178634,1,0,0:0:0:0:
192,239,178696,1,0,0:0:0:0:
64,239,178696,1,0,0:0:0:0:
448,192,178759,1,0,0:0:0:0:
320,192,178759,1,0,0:0:0:0:
64,143,178821,1,0,0:0:0:0:
320,96,178884,1,0,0:0:0:0:
192,96,178884,1,0,0:0:0:0:
448,47,178946,1,0,0:0:0:0:
192,0,179009,1,0,0:0:0:0:
64,0,179009,1,0,0:0:0:0:
320,192,179071,1,0,0:0:0:0:
192,96,179134,1,0,0:0:0:0:
64,192,179134,1,0,0:0:0:0:
320,192,179196,1,0,0:0:0:0:
448,192,179259,1,0,0:0:0:0:
192,192,179259,1,0,0:0:0:0:
64,240,179321,1,0,0:0:0:0:
448,288,179384,1,0,0:0:0:0:
192,288,179384,1,0,0:0:0:0:
64,192,179446,1,0,0:0:0:0:
192,384,179509,1,0,0:0:0:0:
320,192,179509,1,0,0:0:0:0:
448,192,179571,1,0,0:0:0:0:
192,288,179634,1,0,0:0:0:0:
320,192,179634,1,0,0:0:0:0:
64,239,179696,1,0,0:0:0:0:
448,192,179759,1,0,0:0:0:0:
320,192,179759,1,0,0:0:0:0:
192,192,179821,1,0,0:0:0:0:
448,96,179884,1,0,0:0:0:0:
320,192,179884,1,0,0:0:0:0:
64,47,179946,1,0,0:0:0:0:
320,0,180009,1,0,0:0:0:0:
192,0,180009,1,0,0:0:0:0:
448,48,180071,1,0,0:0:0:0:
320,96,180134,1,0,0:0:0:0:
192,192,180134,1,0,0:0:0:0:
448,144,180196,1,0,0:0:0:0:
192,192,180259,1,0,0:0:0:0:
64,192,180259,1,0,0:0:0:0:
320,240,180321,1,0,0:0:0:0:
192,288,180384,1,0,0:0:0:0:
64,192,180384,1,0,0:0:0:0:
320,336,180446,1,0,0:0:0:0:
448,384,180509,1,0,0:0:0:0:
64,384,180509,1,0,0:0:0:0:
192,192,180509,1,0,0:0:0:0:
320,192,180571,1,0,0:0:0:0:
448,192,180634,1,0,0:0:0:0:
192,192,180696,1,0,0:0:0:0:
64,192,180759,1,0,0:0:0:0:
320,192,180759,1,0,0:0:0:0:
448,192,180759,1,0,0:0:0:0:
192,192,180821,1,0,0:0:0:0:
320,96,180884,1,0,0:0:0:0:
448,192,180884,1,0,0:0:0:0:
192,192,180946,1,0,0:0:0:0:
320,0,181009,1,0,0:0:0:0:
64,0,181009,1,0,0:0:0:0:
448,192,181009,1,0,0:0:0:0:
64,96,181134,1,0,0:0:0:0:
192,192,181134,1,0,0:0:0:0:
448,192,181259,1,0,0:0:0:0:
192,192,181259,1,0,0:0:0:0:
448,288,181384,1,0,0:0:0:0:
320,288,181384,1,0,0:0:0:0:
64,288,181384,1,0,0:0:0:0:
192,192,181384,1,0,0:0:0:0:
320,384,181509,1,0,0:0:0:0:
64,192,181509,1,0,0:0:0:0:
448,288,181634,1,0,0:0:0:0:
192,288,181634,1,0,0:0:0:0:
448,192,181759,1,0,0:0:0:0:
64,192,181759,1,0,0:0:0:0:
192,192,181759,1,0,0:0:0:0:
320,192,181759,1,0,0:0:0:0:
320,96,181884,1,0,0:0:0:0:
64,96,181884,1,0,0:0:0:0:
448,0,182009,1,0,0:0:0:0:
320,0,182009,1,0,0:0:0:0:
64,0,182009,1,0,0:0:0:0:
192,192,182009,1,0,0:0:0:0:
448,96,182134,1,0,0:0:0:0:
320,192,182134,1,0,0:0:0:0:
448,192,182259,1,0,0:0:0:0:
192,192,182259,1,0,0:0:0:0:
64,192,182259,1,0,0:0:0:0:
320,288,182384,1,0,0:0:0:0:
64,288,182384,1,0,0:0:0:0:
320,384,182509,1,0,0:0:0:0:
64,384,182509,1,0,0:0:0:0:
448,192,182759,1,0,0:0:0:0:
320,192,182759,1,0,0:0:0:0:
192,192,182759,1,0,0:0:0:0:
64,192,182759,1,0,0:0:0:0:
448,192,183009,1,0,0:0:0:0:
320,192,183009,1,0,0:0:0:0:
64,192,183009,1,0,0:0:0:0:
192,192,183071,1,0,0:0:0:0:
448,96,183134,1,0,0:0:0:0:
320,192,183134,1,0,0:0:0:0:
64,144,183196,1,0,0:0:0:0:
192,192,183259,1,0,0:0:0:0:
320,192,183259,1,0,0:0:0:0:
448,192,183321,1,0,0:0:0:0:
320,288,183384,1,0,0:0:0:0:
192,192,183384,1,0,0:0:0:0:
448,192,183446,1,0,0:0:0:0:
192,384,183509,1,0,0:0:0:0:
64,192,183509,1,0,0:0:0:0:
320,192,183571,1,0,0:0:0:0:
64,288,183634,1,0,0:0:0:0:
192,192,183634,1,0,0:0:0:0:
448,239,183696,1,0,0:0:0:0:
192,192,183759,1,0,0:0:0:0:
320,192,183759,1,0,0:0:0:0:
64,143,183821,1,0,0:0:0:0:
192,96,183884,1,0,0:0:0:0:
320,192,183884,1,0,0:0:0:0:
64,47,183946,1,0,0:0:0:0:
320,0,184009,1,0,0:0:0:0:
448,0,184009,1,0,0:0:0:0:
192,48,184071,1,0,0:0:0:0:
320,96,184134,1,0,0:0:0:0:
448,192,184134,1,0,0:0:0:0:
192,192,184196,1,0,0:0:0:0:
320,192,184259,1,0,0:0:0:0:
64,192,184259,1,0,0:0:0:0:
448,240,184321,1,0,0:0:0:0:
64,288,184384,1,0,0:0:0:0:
320,288,184384,1,0,0:0:0:0:
192,192,184446,1,0,0:0:0:0:
448,192,184509,1,0,0:0:0:0:
64,192,184509,1,0,0:0:0:0:
320,192,184509,1,0,0:0:0:0:
192,192,184571,1,0,0:0:0:0:
320,192,184634,1,0,0:0:0:0:
64,192,184696,1,0,0:0:0:0:
192,192,184759,1,0,0:0:0:0:
320,192,184759,1,0,0:0:0:0:
448,192,184759,1,0,0:0:0:0:
64,192,184821,1,0,0:0:0:0:
192,192,184884,1,0,0:0:0:0:
320,192,184884,1,0,0:0:0:0:
448,192,184946,1,0,0:0:0:0:
64,192,185009,1,0,0:0:0:0:
192,192,185009,1,0,0:0:0:0:
320,192,185071,1,0,0:0:0:0:
192,96,185134,1,0,0:0:0:0:
64,192,185134,1,0,0:0:0:0:
448,192,185196,1,0,0:0:0:0:
192,192,185259,1,0,0:0:0:0:
320,192,185259,1,0,0:0:0:0:
64,192,185321,1,0,0:0:0:0:
320,288,185384,1,0,0:0:0:0:
192,192,185384,1,0,0:0:0:0:
64,192,185446,1,0,0:0:0:0:
320,192,185509,1,0,0:0:0:0:
448,192,185509,1,0,0:0:0:0:
192,192,185571,1,0,0:0:0:0:
448,288,185634,1,0,0:0:0:0:
320,192,185634,1,0,0:0:0:0:
192,192,185696,1,0,0:0:0:0:
448,192,185759,1,0,0:0:0:0:
64,192,185759,1,0,0:0:0:0:
320,192,185821,1,0,0:0:0:0:
64,96,185884,1,0,0:0:0:0:
448,192,185884,1,0,0:0:0:0:
192,47,185946,1,0,0:0:0:0:
448,0,186009,1,0,0:0:0:0:
320,192,186009,1,0,0:0:0:0:
64,192,186071,1,0,0:0:0:0:
192,192,186134,1,0,0:0:0:0:
448,192,186134,1,0,0:0:0:0:
64,192,186196,1,0,0:0:0:0:
320,192,186196,1,0,0:0:0:0:
192,192,186259,1,0,0:0:0:0:
448,192,186259,1,0,0:0:0:0:
64,192,186321,1,0,0:0:0:0:
448,192,186384,1,0,0:0:0:0:
320,192,186384,1,0,0:0:0:0:
192,192,186446,1,0,0:0:0:0:
64,384,186509,1,0,0:0:0:0:
320,192,186509,1,0,0:0:0:0:
448,335,186571,1,0,0:0:0:0:
64,288,186634,1,0,0:0:0:0:
192,288,186634,1,0,0:0:0:0:
320,239,186696,1,0,0:0:0:0:
448,239,186696,1,0,0:0:0:0:
64,192,186759,1,0,0:0:0:0:
192,192,186759,1,0,0:0:0:0:
448,143,186821,1,0,0:0:0:0:
192,96,186884,1,0,0:0:0:0:
320,96,186884,1,0,0:0:0:0:
64,47,186946,1,0,0:0:0:0:
320,0,187009,1,0,0:0:0:0:
448,0,187009,1,0,0:0:0:0:
192,192,187071,1,0,0:0:0:0:
320,96,187134,1,0,0:0:0:0:
448,192,187134,1,0,0:0:0:0:
192,192,187196,1,0,0:0:0:0:
64,192,187259,1,0,0:0:0:0:
320,192,187259,1,0,0:0:0:0:
448,240,187321,1,0,0:0:0:0:
64,288,187384,1,0,0:0:0:0:
320,288,187384,1,0,0:0:0:0:
448,192,187446,1,0,0:0:0:0:
192,192,187509,1,0,0:0:0:0:
64,192,187509,1,0,0:0:0:0:
448,192,187571,1,0,0:0:0:0:
320,192,187571,1,0,0:0:0:0:
192,192,187634,1,0,0:0:0:0:
64,192,187634,1,0,0:0:0:0:
448,239,187696,1,0,0:0:0:0:
320,192,187696,1,0,0:0:0:0:
64,192,187759,1,0,0:0:0:0:
192,192,187759,1,0,0:0:0:0:
320,192,187821,1,0,0:0:0:0:
64,96,187884,1,0,0:0:0:0:
192,192,187884,1,0,0:0:0:0:
448,47,187946,1,0,0:0:0:0:
192,0,188009,1,0,0:0:0:0:
320,0,188009,1,0,0:0:0:0:
64,48,188071,1,0,0:0:0:0:
320,192,188134,1,0,0:0:0:0:
448,192,188134,1,0,0:0:0:0:
64,144,188196,1,0,0:0:0:0:
192,192,188196,1,0,0:0:0:0:
320,192,188259,1,0,0:0:0:0:
448,192,188259,1,0,0:0:0:0:
192,240,188321,1,0,0:0:0:0:
448,192,188384,1,0,0:0:0:0:
64,192,188384,1,0,0:0:0:0:
192,336,188446,1,0,0:0:0:0:
320,192,188509,1,0,0:0:0:0:
64,192,188509,1,0,0:0:0:0:
448,192,188571,1,0,0:0:0:0:
192,192,188634,1,0,0:0:0:0:
64,192,188634,1,0,0:0:0:0:
320,192,188696,1,0,0:0:0:0:
448,192,188696,1,0,0:0:0:0:
192,192,188759,1,0,0:0:0:0:
64,192,188759,1,0,0:0:0:0:
448,192,188821,1,0,0:0:0:0:
64,192,188884,1,0,0:0:0:0:
320,192,188884,1,0,0:0:0:0:
192,192,188946,1,0,0:0:0:0:
448,192,188946,1,0,0:0:0:0:
64,192,189009,1,0,0:0:0:0:
320,192,189009,1,0,0:0:0:0:
192,192,189071,1,0,0:0:0:0:
448,96,189134,1,0,0:0:0:0:
320,192,189134,1,0,0:0:0:0:
64,192,189196,1,0,0:0:0:0:
320,192,189259,1,0,0:0:0:0:
192,192,189259,1,0,0:0:0:0:
64,192,189321,5,0,0:0:0:0:
448,288,189384,1,0,0:0:0:0:
320,192,189384,1,0,0:0:0:0:
192,192,189446,1,0,0:0:0:0:
320,384,189509,1,0,0:0:0:0:
448,192,189509,1,0,0:0:0:0:
192,192,189571,1,0,0:0:0:0:
64,192,189571,1,0,0:0:0:0:
320,288,189634,1,0,0:0:0:0:
448,192,189634,1,0,0:0:0:0:
192,192,189696,1,0,0:0:0:0:
64,192,189696,1,0,0:0:0:0:
448,192,189759,1,0,0:0:0:0:
320,192,189759,1,0,0:0:0:0:
192,192,189821,1,0,0:0:0:0:
64,192,189821,1,0,0:0:0:0:
448,96,189884,1,0,0:0:0:0:
320,192,189884,1,0,0:0:0:0:
64,192,189946,1,0,0:0:0:0:
192,192,189946,1,0,0:0:0:0:
448,0,190009,1,0,0:0:0:0:
320,192,190009,1,0,0:0:0:0:
64,96,190134,1,0,0:0:0:0:
320,96,190134,1,0,0:0:0:0:
64,192,190259,1,0,0:0:0:0:
320,192,190259,1,0,0:0:0:0:
448,192,190259,1,0,0:0:0:0:
192,288,190384,1,0,0:0:0:0:
448,288,190384,1,0,0:0:0:0:
192,384,190509,1,0,0:0:0:0:
448,384,190509,1,0,0:0:0:0:
64,192,190759,128,0,190884:0:0:0:0:
192,192,190884,128,0,191009:0:0:0:0:
448,192,191009,1,0,0:0:0:0:
320,192,191009,128,0,191259:0:0:0:0:
64,192,191009,1,0,0:0:0:0:
448,192,191134,1,0,0:0:0:0:
192,192,191259,128,0,191509:0:0:0:0:
64,192,191384,1,0,0:0:0:0:
320,192,191509,128,0,191634:0:0:0:0:
448,192,191634,128,0,191884:0:0:0:0:
64,192,191759,1,0,0:0:0:0:
320,192,191884,128,0,192134:0:0:0:0:
64,192,192009,1,0,0:0:0:0:
192,192,192134,128,0,192259:0:0:0:0:
64,192,192259,128,0,192384:0:0:0:0:
448,192,192384,1,0,0:0:0:0:
320,192,192509,128,0,192634:0:0:0:0:
192,192,192634,1,0,0:0:0:0:
64,192,192759,128,0,192884:0:0:0:0:
192,192,192884,128,0,193009:0:0:0:0:
320,192,193009,128,0,193259:0:0:0:0:
448,192,193134,1,0,0:0:0:0:
192,192,193259,128,0,193509:0:0:0:0:
64,192,193384,1,0,0:0:0:0:
320,192,193509,128,0,193634:0:0:0:0:
448,192,193634,128,0,193884:0:0:0:0:
64,192,193759,1,0,0:0:0:0:
192,192,193884,128,0,194009:0:0:0:0:
448,192,194009,1,0,0:0:0:0:
320,192,194134,128,0,194259:0:0:0:0:
192,192,194259,128,0,194384:0:0:0:0:
448,192,194384,1,0,0:0:0:0:
320,192,194509,128,0,194634:0:0:0:0:
192,192,194634,1,0,0:0:0:0:
64,192,194759,128,0,194884:0:0:0:0:
192,192,194884,128,0,195009:0:0:0:0:
320,192,195009,128,0,195259:0:0:0:0:
448,192,195134,1,0,0:0:0:0:
192,192,195259,128,0,195384:0:0:0:0:
64,192,195384,1,0,0:0:0:0:
320,192,195509,128,0,195634:0:0:0:0:
448,192,195634,128,0,195884:0:0:0:0:
192,192,195759,1,0,0:0:0:0:
320,192,195884,128,0,196009:0:0:0:0:
64,192,196009,1,0,0:0:0:0:
192,192,196134,128,0,196259:0:0:0:0:
64,192,196259,128,0,196384:0:0:0:0:
448,192,196384,1,0,0:0:0:0:
320,192,196509,128,0,196634:0:0:0:0:
64,192,196634,1,0,0:0:0:0:
192,192,196759,128,0,196884:0:0:0:0:
448,192,196884,1,0,0:0:0:0:
64,192,197009,128,0,197259:0:0:0:0:
320,192,197009,1,0,0:0:0:0:
64,192,197384,128,0,197634:0:0:0:0:
320,192,197384,1,0,0:0:0:0:
64,192,197759,128,0,198009:0:0:0:0:
320,192,197759,1,0,0:0:0:0:
64,192,198134,128,0,198384:0:0:0:0:
320,192,198134,1,0,0:0:0:0:
64,192,198509,128,0,198759:0:0:0:0:
320,192,198509,1,0,0:0:0:0:
192,192,198759,128,0,198884:0:0:0:0:
320,192,198884,128,0,199009:0:0:0:0:
64,0,199009,1,0,0:0:0:0:
192,0,199009,1,0,0:0:0:0:
448,192,199009,1,0,0:0:0:0:
64,96,199134,1,0,0:0:0:0:
448,192,199259,1,0,0:0:0:0:
320,192,199259,1,0,0:0:0:0:
192,192,199259,1,0,0:0:0:0:
448,288,199384,1,0,0:0:0:0:
320,384,199509,1,0,0:0:0:0:
192,384,199509,1,0,0:0:0:0:
64,384,199509,1,0,0:0:0:0:
192,288,199634,1,0,0:0:0:0:
64,288,199634,1,0,0:0:0:0:
448,192,199759,1,0,0:0:0:0:
320,192,199759,1,0,0:0:0:0:
448,96,199884,1,0,0:0:0:0:
64,192,199884,1,0,0:0:0:0:
192,0,200009,1,0,0:0:0:0:
64,0,200009,1,0,0:0:0:0:
448,96,200134,1,0,0:0:0:0:
192,96,200134,1,0,0:0:0:0:
448,192,200259,1,0,0:0:0:0:
320,192,200259,1,0,0:0:0:0:
64,192,200259,1,0,0:0:0:0:
320,288,200384,1,0,0:0:0:0:
448,384,200509,1,0,0:0:0:0:
192,384,200509,1,0,0:0:0:0:
64,384,200509,1,0,0:0:0:0:
192,288,200634,1,0,0:0:0:0:
448,192,200759,1,0,0:0:0:0:
192,192,200759,1,0,0:0:0:0:
64,192,200759,1,0,0:0:0:0:
320,96,200884,1,0,0:0:0:0:
64,96,200884,1,0,0:0:0:0:
448,0,201009,1,0,0:0:0:0:
192,0,201009,1,0,0:0:0:0:
64,0,201009,1,0,0:0:0:0:
320,96,201134,1,0,0:0:0:0:
448,192,201259,1,0,0:0:0:0:
320,192,201259,1,0,0:0:0:0:
64,192,201259,1,0,0:0:0:0:
192,288,201384,1,0,0:0:0:0:
448,384,201509,1,0,0:0:0:0:
192,384,201509,1,0,0:0:0:0:
64,384,201509,1,0,0:0:0:0:
320,288,201634,1,0,0:0:0:0:
192,288,201634,1,0,0:0:0:0:
448,192,201759,1,0,0:0:0:0:
64,192,201759,1,0,0:0:0:0:
192,96,201884,1,0,0:0:0:0:
320,192,201884,1,0,0:0:0:0:
64,0,202009,1,0,0:0:0:0:
448,192,202009,1,0,0:0:0:0:
320,96,202134,1,0,0:0:0:0:
192,192,202134,1,0,0:0:0:0:
448,192,202259,1,0,0:0:0:0:
192,192,202259,1,0,0:0:0:0:
64,192,202259,1,0,0:0:0:0:
64,288,202384,1,0,0:0:0:0:
448,384,202509,1,0,0:0:0:0:
320,192,202509,1,0,0:0:0:0:
192,288,202634,1,0,0:0:0:0:
64,288,202634,1,0,0:0:0:0:
448,239,202696,1,0,0:0:0:0:
320,239,202696,1,0,0:0:0:0:
192,192,202759,1,0,0:0:0:0:
64,192,202759,1,0,0:0:0:0:
448,96,202884,1,0,0:0:0:0:
192,96,202884,1,0,0:0:0:0:
448,0,203009,1,0,0:0:0:0:
64,0,203009,1,0,0:0:0:0:
320,192,203009,1,0,0:0:0:0:
320,96,203134,1,0,0:0:0:0:
448,96,203134,1,0,0:0:0:0:
64,144,203196,1,0,0:0:0:0:
192,144,203196,1,0,0:0:0:0:
448,192,203259,1,0,0:0:0:0:
320,192,203259,1,0,0:0:0:0:
320,288,203384,1,0,0:0:0:0:
64,288,203384,1,0,0:0:0:0:
448,384,203509,1,0,0:0:0:0:
192,384,203509,1,0,0:0:0:0:
64,288,203634,1,0,0:0:0:0:
192,288,203634,1,0,0:0:0:0:
320,239,203696,1,0,0:0:0:0:
448,239,203696,1,0,0:0:0:0:
64,192,203759,1,0,0:0:0:0:
192,192,203759,1,0,0:0:0:0:
320,96,203884,1,0,0:0:0:0:
64,96,203884,1,0,0:0:0:0:
320,0,204009,1,0,0:0:0:0:
192,0,204009,1,0,0:0:0:0:
192,96,204134,1,0,0:0:0:0:
64,96,204134,1,0,0:0:0:0:
448,144,204196,1,0,0:0:0:0:
320,144,204196,1,0,0:0:0:0:
192,192,204259,1,0,0:0:0:0:
64,192,204259,1,0,0:0:0:0:
448,288,204384,1,0,0:0:0:0:
64,288,204384,1,0,0:0:0:0:
448,384,204509,1,0,0:0:0:0:
320,384,204509,1,0,0:0:0:0:
192,335,204571,1,0,0:0:0:0:
64,335,204571,1,0,0:0:0:0:
448,288,204634,1,0,0:0:0:0:
320,288,204634,1,0,0:0:0:0:
192,239,204696,1,0,0:0:0:0:
64,239,204696,1,0,0:0:0:0:
448,192,204759,1,0,0:0:0:0:
320,192,204759,1,0,0:0:0:0:
192,96,204884,1,0,0:0:0:0:
64,96,204884,1,0,0:0:0:0:
448,0,205009,1,0,0:0:0:0:
320,0,205009,1,0,0:0:0:0:
192,48,205071,1,0,0:0:0:0:
64,48,205071,1,0,0:0:0:0:
448,96,205134,1,0,0:0:0:0:
320,96,205134,1,0,0:0:0:0:
192,144,205196,1,0,0:0:0:0:
64,144,205196,1,0,0:0:0:0:
448,192,205259,1,0,0:0:0:0:
320,192,205259,1,0,0:0:0:0:
192,288,205384,1,0,0:0:0:0:
64,288,205384,1,0,0:0:0:0:
448,336,205446,1,0,0:0:0:0:
320,336,205446,1,0,0:0:0:0:
192,384,205509,1,0,0:0:0:0:
64,384,205509,1,0,0:0:0:0:
448,335,205571,1,0,0:0:0:0:
320,335,205571,1,0,0:0:0:0:
192,288,205634,1,0,0:0:0:0:
64,288,205634,1,0,0:0:0:0:
448,192,205759,1,0,0:0:0:0:
192,192,205759,1,0,0:0:0:0:
448,96,205884,1,0,0:0:0:0:
320,96,205884,1,0,0:0:0:0:
192,47,205946,1,0,0:0:0:0:
64,47,205946,1,0,0:0:0:0:
448,0,206009,1,0,0:0:0:0:
320,0,206009,1,0,0:0:0:0:
192,48,206071,1,0,0:0:0:0:
64,48,206071,1,0,0:0:0:0:
448,96,206134,1,0,0:0:0:0:
320,96,206134,1,0,0:0:0:0:
192,144,206196,1,0,0:0:0:0:
64,144,206196,1,0,0:0:0:0:
448,192,206259,1,0,0:0:0:0:
320,192,206259,1,0,0:0:0:0:
192,240,206321,1,0,0:0:0:0:
64,240,206321,1,0,0:0:0:0:
448,288,206384,1,0,0:0:0:0:
320,288,206384,1,0,0:0:0:0:
64,311,206446,1,0,0:0:0:0:
192,336,206446,1,0,0:0:0:0:
448,384,206509,1,0,0:0:0:0:
320,359,206509,1,0,0:0:0:0:
192,192,206571,1,0,0:0:0:0:
320,312,206634,1,0,0:0:0:0:
192,192,206696,1,0,0:0:0:0:
64,264,206759,1,0,0:0:0:0:
320,216,206759,1,0,0:0:0:0:
448,192,206759,1,0,0:0:0:0:
192,143,206884,1,0,0:0:0:0:
320,120,206884,1,0,0:0:0:0:
448,96,206884,1,0,0:0:0:0:
320,0,207009,1,0,0:0:0:0:
448,0,207009,1,0,0:0:0:0:
64,192,207009,1,0,0:0:0:0:
192,48,207071,1,0,0:0:0:0:
320,192,207134,1,0,0:0:0:0:
192,144,207196,1,0,0:0:0:0:
64,192,207259,1,0,0:0:0:0:
320,192,207259,1,0,0:0:0:0:
448,192,207259,1,0,0:0:0:0:
192,192,207321,1,0,0:0:0:0:
64,192,207384,1,0,0:0:0:0:
320,192,207446,1,0,0:0:0:0:
448,384,207509,1,0,0:0:0:0:
192,192,207509,1,0,0:0:0:0:
64,192,207509,1,0,0:0:0:0:
320,192,207571,1,0,0:0:0:0:
192,288,207634,1,0,0:0:0:0:
448,288,207634,1,0,0:0:0:0:
64,192,207634,1,0,0:0:0:0:
320,192,207696,1,0,0:0:0:0:
192,192,207759,1,0,0:0:0:0:
64,192,207821,1,0,0:0:0:0:
320,96,207884,1,0,0:0:0:0:
192,192,207884,1,0,0:0:0:0:
448,192,207884,1,0,0:0:0:0:
64,192,207946,1,0,0:0:0:0:
448,192,208009,1,0,0:0:0:0:
192,192,208071,1,0,0:0:0:0:
64,192,208134,1,0,0:0:0:0:
448,192,208134,1,0,0:0:0:0:
320,192,208134,1,0,0:0:0:0:
192,192,208196,1,0,0:0:0:0:
448,192,208259,1,0,0:0:0:0:
320,192,208259,1,0,0:0:0:0:
64,192,208259,1,0,0:0:0:0:
192,192,208321,1,0,0:0:0:0:
320,192,208384,1,0,0:0:0:0:
64,192,208446,1,0,0:0:0:0:
192,384,208509,1,0,0:0:0:0:
320,192,208509,1,0,0:0:0:0:
448,192,208509,1,0,0:0:0:0:
64,192,208571,1,0,0:0:0:0:
192,192,208634,1,0,0:0:0:0:
320,192,208696,1,0,0:0:0:0:
448,192,208759,1,0,0:0:0:0:
64,192,208759,1,0,0:0:0:0:
192,192,208759,1,0,0:0:0:0:
320,192,208821,1,0,0:0:0:0:
448,96,208884,1,0,0:0:0:0:
192,192,208884,1,0,0:0:0:0:
64,192,208884,1,0,0:0:0:0:
320,192,208946,1,0,0:0:0:0:
448,0,209009,1,0,0:0:0:0:
192,192,209009,1,0,0:0:0:0:
64,192,209009,1,0,0:0:0:0:
320,192,209071,1,0,0:0:0:0:
64,192,209134,1,0,0:0:0:0:
192,192,209196,1,0,0:0:0:0:
64,192,209259,1,0,0:0:0:0:
320,192,209259,1,0,0:0:0:0:
448,192,209259,1,0,0:0:0:0:
192,192,209321,1,0,0:0:0:0:
320,288,209384,1,0,0:0:0:0:
64,192,209446,1,0,0:0:0:0:
320,384,209509,1,0,0:0:0:0:
448,192,209509,1,0,0:0:0:0:
192,192,209509,1,0,0:0:0:0:
64,192,209571,1,0,0:0:0:0:
448,288,209634,1,0,0:0:0:0:
320,192,209634,1,0,0:0:0:0:
192,192,209634,1,0,0:0:0:0:
64,192,209696,1,0,0:0:0:0:
320,192,209759,1,0,0:0:0:0:
192,143,209821,1,0,0:0:0:0:
64,96,209884,1,0,0:0:0:0:
320,192,209884,1,0,0:0:0:0:
448,192,209884,1,0,0:0:0:0:
192,192,209946,1,0,0:0:0:0:
448,192,210009,1,0,0:0:0:0:
320,192,210071,1,0,0:0:0:0:
64,96,210134,1,0,0:0:0:0:
192,192,210134,1,0,0:0:0:0:
448,192,210134,1,0,0:0:0:0:
320,192,210196,1,0,0:0:0:0:
192,192,210259,1,0,0:0:0:0:
448,192,210259,1,0,0:0:0:0:
64,192,210259,1,0,0:0:0:0:
320,192,210321,1,0,0:0:0:0:
448,288,210384,1,0,0:0:0:0:
64,192,210384,1,0,0:0:0:0:
192,192,210446,1,0,0:0:0:0:
320,384,210509,1,0,0:0:0:0:
448,384,210509,1,0,0:0:0:0:
64,192,210509,1,0,0:0:0:0:
192,192,210571,1,0,0:0:0:0:
320,288,210634,1,0,0:0:0:0:
448,288,210634,1,0,0:0:0:0:
64,239,210696,1,0,0:0:0:0:
192,239,210696,1,0,0:0:0:0:
320,192,210759,1,0,0:0:0:0:
448,192,210759,1,0,0:0:0:0:
64,143,210821,1,0,0:0:0:0:
192,96,210884,1,0,0:0:0:0:
320,96,210884,1,0,0:0:0:0:
448,192,210884,1,0,0:0:0:0:
64,47,210946,1,0,0:0:0:0:
192,0,211009,1,0,0:0:0:0:
320,0,211009,1,0,0:0:0:0:
448,192,211009,1,0,0:0:0:0:
64,192,211071,1,0,0:0:0:0:
320,192,211134,1,0,0:0:0:0:
192,144,211196,1,0,0:0:0:0:
448,192,211259,1,0,0:0:0:0:
64,192,211259,1,0,0:0:0:0:
320,192,211259,1,0,0:0:0:0:
192,192,211321,1,0,0:0:0:0:
64,192,211384,1,0,0:0:0:0:
320,192,211415,1,0,0:0:0:0:
64,384,211509,1,0,0:0:0:0:
192,384,211509,1,0,0:0:0:0:
448,192,211509,1,0,0:0:0:0:
320,192,211571,1,0,0:0:0:0:
64,288,211634,1,0,0:0:0:0:
192,192,211634,1,0,0:0:0:0:
448,192,211634,1,0,0:0:0:0:
320,192,211696,1,0,0:0:0:0:
192,192,211759,1,0,0:0:0:0:
64,143,211821,1,0,0:0:0:0:
192,96,211884,1,0,0:0:0:0:
448,96,211884,1,0,0:0:0:0:
320,192,211884,1,0,0:0:0:0:
64,192,211946,1,0,0:0:0:0:
448,192,212009,1,0,0:0:0:0:
320,192,212071,1,0,0:0:0:0:
192,96,212134,1,0,0:0:0:0:
448,192,212134,1,0,0:0:0:0:
64,192,212134,1,0,0:0:0:0:
320,192,212196,1,0,0:0:0:0:
448,192,212259,1,0,0:0:0:0:
64,192,212259,1,0,0:0:0:0:
192,192,212259,1,0,0:0:0:0:
320,192,212321,1,0,0:0:0:0:
64,288,212384,1,0,0:0:0:0:
192,192,212446,1,0,0:0:0:0:
448,192,212509,1,0,0:0:0:0:
320,192,212509,1,0,0:0:0:0:
64,192,212509,1,0,0:0:0:0:
192,192,212571,1,0,0:0:0:0:
320,288,212634,1,0,0:0:0:0:
64,192,212696,1,0,0:0:0:0:
192,192,212759,1,0,0:0:0:0:
320,192,212759,1,0,0:0:0:0:
448,192,212759,1,0,0:0:0:0:
64,143,212821,1,0,0:0:0:0:
448,192,212884,1,0,0:0:0:0:
320,192,212946,1,0,0:0:0:0:
192,0,213009,1,0,0:0:0:0:
448,0,213009,1,0,0:0:0:0:
64,192,213009,1,0,0:0:0:0:
192,96,213134,1,0,0:0:0:0:
320,96,213134,1,0,0:0:0:0:
64,192,213259,1,0,0:0:0:0:
448,192,213259,1,0,0:0:0:0:
192,288,213384,1,0,0:0:0:0:
320,288,213384,1,0,0:0:0:0:
448,288,213384,1,0,0:0:0:0:
64,192,213384,1,0,0:0:0:0:
192,384,213509,1,0,0:0:0:0:
320,384,213509,1,0,0:0:0:0:
64,288,213634,1,0,0:0:0:0:
320,288,213634,1,0,0:0:0:0:
64,192,213759,1,0,0:0:0:0:
192,192,213759,1,0,0:0:0:0:
448,192,213759,1,0,0:0:0:0:
320,192,213759,1,0,0:0:0:0:
192,96,213884,1,0,0:0:0:0:
320,96,213884,1,0,0:0:0:0:
64,0,214009,1,0,0:0:0:0:
448,0,214009,1,0,0:0:0:0:
192,192,214009,1,0,0:0:0:0:
320,192,214009,1,0,0:0:0:0:
64,96,214134,1,0,0:0:0:0:
192,96,214134,1,0,0:0:0:0:
192,192,214259,1,0,0:0:0:0:
320,192,214259,1,0,0:0:0:0:
192,288,214384,1,0,0:0:0:0:
320,192,214384,1,0,0:0:0:0:
64,384,214509,1,0,0:0:0:0:
448,384,214509,1,0,0:0:0:0:
192,288,214634,1,0,0:0:0:0:
320,288,214634,1,0,0:0:0:0:
64,192,214759,1,0,0:0:0:0:
448,192,214759,1,0,0:0:0:0:
192,192,214759,1,0,0:0:0:0:
320,96,214884,1,0,0:0:0:0:
448,96,214884,1,0,0:0:0:0:
64,192,214884,1,0,0:0:0:0:
192,0,215009,1,0,0:0:0:0:
64,0,215009,1,0,0:0:0:0:
448,192,215009,1,0,0:0:0:0:
320,48,215071,1,0,0:0:0:0:
192,192,215134,1,0,0:0:0:0:
320,144,215196,1,0,0:0:0:0:
448,192,215259,1,0,0:0:0:0:
192,192,215259,1,0,0:0:0:0:
64,192,215259,1,0,0:0:0:0:
320,192,215321,1,0,0:0:0:0:
448,192,215384,1,0,0:0:0:0:
192,192,215446,1,0,0:0:0:0:
64,384,215509,1,0,0:0:0:0:
320,192,215509,1,0,0:0:0:0:
448,192,215509,1,0,0:0:0:0:
192,192,215571,1,0,0:0:0:0:
320,288,215634,1,0,0:0:0:0:
64,288,215634,1,0,0:0:0:0:
448,192,215634,1,0,0:0:0:0:
192,192,215696,1,0,0:0:0:0:
320,192,215759,1,0,0:0:0:0:
448,192,215821,1,0,0:0:0:0:
192,96,215884,1,0,0:0:0:0:
320,192,215884,1,0,0:0:0:0:
64,192,215884,1,0,0:0:0:0:
448,192,215946,1,0,0:0:0:0:
64,192,216009,1,0,0:0:0:0:
320,192,216071,1,0,0:0:0:0:
448,192,216134,1,0,0:0:0:0:
64,192,216134,1,0,0:0:0:0:
192,192,216134,1,0,0:0:0:0:
320,192,216196,1,0,0:0:0:0:
64,192,216259,1,0,0:0:0:0:
192,192,216259,1,0,0:0:0:0:
448,192,216259,1,0,0:0:0:0:
320,192,216321,1,0,0:0:0:0:
192,192,216384,1,0,0:0:0:0:
448,192,216446,1,0,0:0:0:0:
320,384,216509,1,0,0:0:0:0:
192,192,216509,1,0,0:0:0:0:
64,192,216509,1,0,0:0:0:0:
448,192,216571,1,0,0:0:0:0:
320,192,216634,1,0,0:0:0:0:
192,192,216696,1,0,0:0:0:0:
64,192,216759,1,0,0:0:0:0:
448,192,216759,1,0,0:0:0:0:
320,192,216759,1,0,0:0:0:0:
192,192,216821,1,0,0:0:0:0:
64,96,216884,1,0,0:0:0:0:
320,192,216884,1,0,0:0:0:0:
448,192,216884,1,0,0:0:0:0:
192,192,216946,1,0,0:0:0:0:
64,0,217009,1,0,0:0:0:0:
320,192,217009,1,0,0:0:0:0:
448,192,217009,1,0,0:0:0:0:
192,192,217071,1,0,0:0:0:0:
448,192,217134,1,0,0:0:0:0:
320,192,217196,1,0,0:0:0:0:
448,192,217259,1,0,0:0:0:0:
192,192,217259,1,0,0:0:0:0:
64,192,217259,1,0,0:0:0:0:
320,192,217321,1,0,0:0:0:0:
192,288,217384,1,0,0:0:0:0:
448,192,217446,1,0,0:0:0:0:
192,384,217509,1,0,0:0:0:0:
64,192,217509,1,0,0:0:0:0:
320,192,217509,1,0,0:0:0:0:
448,192,217571,1,0,0:0:0:0:
64,288,217634,1,0,0:0:0:0:
192,192,217634,1,0,0:0:0:0:
320,192,217634,1,0,0:0:0:0:
448,192,217696,1,0,0:0:0:0:
192,192,217759,1,0,0:0:0:0:
320,143,217821,1,0,0:0:0:0:
448,96,217884,1,0,0:0:0:0:
192,192,217884,1,0,0:0:0:0:
64,192,217884,1,0,0:0:0:0:
320,192,217946,1,0,0:0:0:0:
64,192,218009,1,0,0:0:0:0:
192,192,218071,1,0,0:0:0:0:
448,96,218134,1,0,0:0:0:0:
320,192,218134,1,0,0:0:0:0:
64,192,218134,1,0,0:0:0:0:
192,192,218196,1,0,0:0:0:0:
320,192,218259,1,0,0:0:0:0:
64,192,218259,1,0,0:0:0:0:
448,192,218259,1,0,0:0:0:0:
192,192,218321,1,0,0:0:0:0:
64,288,218384,1,0,0:0:0:0:
448,192,218384,1,0,0:0:0:0:
320,192,218446,1,0,0:0:0:0:
192,384,218509,1,0,0:0:0:0:
64,384,218509,1,0,0:0:0:0:
448,192,218509,1,0,0:0:0:0:
320,192,218571,1,0,0:0:0:0:
192,288,218634,1,0,0:0:0:0:
64,288,218634,1,0,0:0:0:0:
448,239,218696,1,0,0:0:0:0:
320,239,218696,1,0,0:0:0:0:
192,192,218759,1,0,0:0:0:0:
64,192,218759,1,0,0:0:0:0:
448,143,218821,1,0,0:0:0:0:
320,96,218884,1,0,0:0:0:0:
192,96,218884,1,0,0:0:0:0:
64,192,218884,1,0,0:0:0:0:
448,47,218946,1,0,0:0:0:0:
320,0,219009,1,0,0:0:0:0:
192,0,219009,1,0,0:0:0:0:
64,192,219009,1,0,0:0:0:0:
448,192,219071,1,0,0:0:0:0:
192,192,219134,1,0,0:0:0:0:
320,144,219196,1,0,0:0:0:0:
64,192,219259,1,0,0:0:0:0:
448,192,219259,1,0,0:0:0:0:
192,192,219259,1,0,0:0:0:0:
320,192,219321,1,0,0:0:0:0:
448,192,219384,1,0,0:0:0:0:
192,192,219415,1,0,0:0:0:0:
448,384,219509,1,0,0:0:0:0:
320,384,219509,1,0,0:0:0:0:
64,192,219509,1,0,0:0:0:0:
192,192,219571,1,0,0:0:0:0:
448,288,219634,1,0,0:0:0:0:
320,192,219634,1,0,0:0:0:0:
64,192,219634,1,0,0:0:0:0:
192,192,219696,1,0,0:0:0:0:
320,192,219759,1,0,0:0:0:0:
448,143,219821,1,0,0:0:0:0:
320,96,219884,1,0,0:0:0:0:
64,96,219884,1,0,0:0:0:0:
192,192,219884,1,0,0:0:0:0:
448,192,219946,1,0,0:0:0:0:
64,192,220009,1,0,0:0:0:0:
192,192,220071,1,0,0:0:0:0:
320,96,220134,1,0,0:0:0:0:
64,192,220134,1,0,0:0:0:0:
448,192,220134,1,0,0:0:0:0:
192,192,220196,1,0,0:0:0:0:
64,192,220259,1,0,0:0:0:0:
448,192,220259,1,0,0:0:0:0:
320,192,220259,1,0,0:0:0:0:
192,192,220321,1,0,0:0:0:0:
448,288,220384,1,0,0:0:0:0:
320,192,220446,1,0,0:0:0:0:
64,192,220509,1,0,0:0:0:0:
192,192,220509,1,0,0:0:0:0:
448,192,220509,1,0,0:0:0:0:
320,192,220571,1,0,0:0:0:0:
192,288,220634,1,0,0:0:0:0:
448,192,220696,1,0,0:0:0:0:
320,192,220759,1,0,0:0:0:0:
192,192,220759,1,0,0:0:0:0:
64,192,220759,1,0,0:0:0:0:
448,143,220821,1,0,0:0:0:0:
64,192,220884,1,0,0:0:0:0:
192,192,220946,1,0,0:0:0:0:
320,192,221009,1,0,0:0:0:0:
448,192,221009,1,0,0:0:0:0:
64,192,221009,1,0,0:0:0:0:
320,192,221134,1,0,0:0:0:0:
192,192,221259,1,0,0:0:0:0:
192,192,221384,1,0,0:0:0:0:
64,192,221384,1,0,0:0:0:0:
320,192,221384,1,0,0:0:0:0:
448,192,221384,1,0,0:0:0:0:
64,192,221509,1,0,0:0:0:0:
320,192,221634,1,0,0:0:0:0:
448,192,221634,1,0,0:0:0:0:
64,192,221759,1,0,0:0:0:0:
320,192,221759,1,0,0:0:0:0:
448,192,221759,1,0,0:0:0:0:
192,192,221759,1,0,0:0:0:0:
192,192,221884,1,0,0:0:0:0:
448,192,221884,1,0,0:0:0:0:
64,0,222009,1,0,0:0:0:0:
192,0,222009,1,0,0:0:0:0:
320,0,222009,128,0,222071:0:0:0:0:
448,48,222071,128,0,222134:0:0:0:0:
320,96,222134,128,0,222196:0:0:0:0:
448,144,222196,128,0,222259:0:0:0:0:
192,192,222259,1,0,0:0:0:0:
320,192,222259,128,0,222321:0:0:0:0:
448,240,222321,128,0,222384:0:0:0:0:
64,288,222384,1,0,0:0:0:0:
320,288,222384,128,0,222446:0:0:0:0:
448,336,222446,128,0,222509:0:0:0:0:
320,384,222509,128,0,222759:0:0:0:0:
64,192,222759,1,0,0:0:0:0:
192,192,222759,1,0,0:0:0:0:
64,96,222884,1,0,0:0:0:0:
192,96,222884,1,0,0:0:0:0:
448,96,222884,1,0,0:0:0:0:
64,0,223009,1,0,0:0:0:0:
192,0,223009,1,0,0:0:0:0:
320,0,223009,1,0,0:0:0:0:
448,0,223009,1,0,0:0:0:0:
192,96,223134,1,0,0:0:0:0:
448,96,223134,1,0,0:0:0:0:
64,192,223259,1,0,0:0:0:0:
192,192,223259,1,0,0:0:0:0:
320,192,223259,1,0,0:0:0:0:
64,288,223384,1,0,0:0:0:0:
448,288,223384,1,0,0:0:0:0:
192,384,223509,1,0,0:0:0:0:
320,384,223509,1,0,0:0:0:0:
448,384,223509,1,0,0:0:0:0:
64,288,223634,1,0,0:0:0:0:
192,288,223634,1,0,0:0:0:0:
320,288,223634,1,0,0:0:0:0:
448,288,223634,1,0,0:0:0:0:
64,192,223759,1,0,0:0:0:0:
192,192,223759,1,0,0:0:0:0:
320,192,223759,1,0,0:0:0:0:
448,192,223759,1,0,0:0:0:0:
64,96,223884,1,0,0:0:0:0:
192,96,223884,1,0,0:0:0:0:
320,96,223884,1,0,0:0:0:0:
448,96,223884,1,0,0:0:0:0:
192,0,224009,1,0,0:0:0:0:
320,0,224009,1,0,0:0:0:0:
64,96,224134,1,0,0:0:0:0:
192,96,224134,1,0,0:0:0:0:
320,96,224134,1,0,0:0:0:0:
448,96,224134,1,0,0:0:0:0:
192,192,224259,1,0,0:0:0:0:
320,192,224259,1,0,0:0:0:0:
448,192,224259,1,0,0:0:0:0:
64,288,224384,1,0,0:0:0:0:
320,288,224384,1,0,0:0:0:0:
64,384,224509,1,0,0:0:0:0:
192,384,224509,1,0,0:0:0:0:
320,384,224509,1,0,0:0:0:0:
448,384,224509,1,0,0:0:0:0:
192,288,224634,1,0,0:0:0:0:
448,288,224634,1,0,0:0:0:0:
64,192,224759,1,0,0:0:0:0:
192,192,224759,1,0,0:0:0:0:
320,192,224759,1,0,0:0:0:0:
192,96,224884,1,0,0:0:0:0:
320,96,224884,1,0,0:0:0:0:
448,96,224884,1,0,0:0:0:0:
64,0,225009,1,0,0:0:0:0:
192,0,225009,1,0,0:0:0:0:
320,0,225009,1,0,0:0:0:0:
448,0,225009,1,0,0:0:0:0:
64,96,225134,1,0,0:0:0:0:
320,96,225134,1,0,0:0:0:0:
192,192,225259,1,0,0:0:0:0:
320,192,225259,1,0,0:0:0:0:
448,192,225259,1,0,0:0:0:0:
64,288,225384,1,0,0:0:0:0:
320,288,225384,1,0,0:0:0:0:
64,384,225509,1,0,0:0:0:0:
192,384,225509,1,0,0:0:0:0:
448,384,225509,1,0,0:0:0:0:
448,288,225634,1,0,0:0:0:0:
320,264,225665,1,0,0:0:0:0:
192,239,225696,1,0,0:0:0:0:
64,216,225727,1,0,0:0:0:0:
448,192,225759,1,0,0:0:0:0:
320,168,225790,1,0,0:0:0:0:
192,143,225821,1,0,0:0:0:0:
64,120,225852,1,0,0:0:0:0:
448,96,225884,1,0,0:0:0:0:
320,72,225915,1,0,0:0:0:0:
192,47,225946,1,0,0:0:0:0:
64,24,225977,1,0,0:0:0:0:
64,96,226134,1,0,0:0:0:0:
192,96,226134,1,0,0:0:0:0:
320,96,226134,1,0,0:0:0:0:
448,96,226134,1,0,0:0:0:0:
192,192,226259,1,0,0:0:0:0:
320,192,226259,1,0,0:0:0:0:
448,192,226259,1,0,0:0:0:0:
64,288,226384,1,0,0:0:0:0:
320,288,226384,1,0,0:0:0:0:
64,384,226509,1,0,0:0:0:0:
192,384,226509,1,0,0:0:0:0:
320,384,226509,1,0,0:0:0:0:
448,384,226509,1,0,0:0:0:0:
192,288,226634,1,0,0:0:0:0:
320,288,226634,1,0,0:0:0:0:
64,192,226759,1,0,0:0:0:0:
192,192,226759,1,0,0:0:0:0:
320,192,226759,1,0,0:0:0:0:
448,192,226759,1,0,0:0:0:0:
64,96,226884,1,0,0:0:0:0:
192,96,226884,1,0,0:0:0:0:
320,96,226884,1,0,0:0:0:0:
448,96,226884,1,0,0:0:0:0:
64,0,227009,1,0,0:0:0:0:
192,0,227009,1,0,0:0:0:0:
320,0,227009,1,0,0:0:0:0:
448,0,227009,1,0,0:0:0:0:
192,96,227134,1,0,0:0:0:0:
448,96,227134,1,0,0:0:0:0:
64,192,227259,1,0,0:0:0:0:
192,192,227259,1,0,0:0:0:0:
320,192,227259,1,0,0:0:0:0:
192,288,227384,1,0,0:0:0:0:
448,288,227384,1,0,0:0:0:0:
64,384,227509,1,0,0:0:0:0:
192,384,227509,1,0,0:0:0:0:
320,384,227509,1,0,0:0:0:0:
448,384,227509,1,0,0:0:0:0:
64,288,227634,1,0,0:0:0:0:
320,288,227634,1,0,0:0:0:0:
192,192,227759,1,0,0:0:0:0:
448,192,227759,1,0,0:0:0:0:
192,96,227884,1,0,0:0:0:0:
320,96,227884,1,0,0:0:0:0:
448,96,227884,1,0,0:0:0:0:
64,0,228009,1,0,0:0:0:0:
192,0,228009,1,0,0:0:0:0:
320,0,228009,1,0,0:0:0:0:
448,0,228009,1,0,0:0:0:0:
64,96,228134,1,0,0:0:0:0:
192,96,228134,1,0,0:0:0:0:
320,96,228134,1,0,0:0:0:0:
192,192,228259,1,0,0:0:0:0:
320,192,228259,1,0,0:0:0:0:
448,192,228259,1,0,0:0:0:0:
64,288,228384,1,0,0:0:0:0:
320,288,228384,1,0,0:0:0:0:
64,384,228509,1,0,0:0:0:0:
192,384,228509,1,0,0:0:0:0:
320,384,228509,1,0,0:0:0:0:
448,384,228509,1,0,0:0:0:0:
64,288,228634,1,0,0:0:0:0:
448,288,228634,1,0,0:0:0:0:
64,192,228759,1,0,0:0:0:0:
192,192,228759,1,0,0:0:0:0:
320,192,228759,1,0,0:0:0:0:
448,192,228759,1,0,0:0:0:0:
320,96,228884,1,0,0:0:0:0:
448,96,228884,1,0,0:0:0:0:
64,0,229009,1,0,0:0:0:0:
192,0,229009,1,0,0:0:0:0:
320,0,229009,1,0,0:0:0:0:
448,0,229009,1,0,0:0:0:0:
192,96,229134,1,0,0:0:0:0:
320,96,229134,1,0,0:0:0:0:
64,192,229259,1,0,0:0:0:0:
448,192,229259,1,0,0:0:0:0:
64,288,229384,1,0,0:0:0:0:
192,288,229384,1,0,0:0:0:0:
320,288,229384,1,0,0:0:0:0:
448,288,229384,1,0,0:0:0:0:
192,384,229509,1,0,0:0:0:0:
320,384,229509,1,0,0:0:0:0:
64,288,229634,1,0,0:0:0:0:
320,288,229634,1,0,0:0:0:0:
64,192,229759,1,0,0:0:0:0:
192,192,229759,1,0,0:0:0:0:
320,192,229759,1,0,0:0:0:0:
448,192,229759,1,0,0:0:0:0:
192,96,229884,1,0,0:0:0:0:
448,96,229884,1,0,0:0:0:0:
64,0,230009,1,0,0:0:0:0:
320,0,230009,1,0,0:0:0:0:
64,96,230134,1,0,0:0:0:0:
192,96,230134,1,0,0:0:0:0:
320,96,230134,1,0,0:0:0:0:
448,96,230134,1,0,0:0:0:0:
320,192,230259,1,0,0:0:0:0:
448,192,230259,1,0,0:0:0:0:
192,288,230384,1,0,0:0:0:0:
320,288,230384,1,0,0:0:0:0:
64,384,230509,1,0,0:0:0:0:
192,384,230509,1,0,0:0:0:0:
320,384,230509,1,0,0:0:0:0:
448,384,230509,1,0,0:0:0:0:
64,288,230634,1,0,0:0:0:0:
320,288,230634,1,0,0:0:0:0:
192,192,230759,1,0,0:0:0:0:
320,192,230759,1,0,0:0:0:0:
448,192,230759,1,0,0:0:0:0:
64,96,230884,1,0,0:0:0:0:
192,96,230884,1,0,0:0:0:0:
320,96,230884,1,0,0:0:0:0:
320,0,231009,1,0,0:0:0:0:
448,0,231009,1,0,0:0:0:0:
64,192,231009,1,0,0:0:0:0:
192,48,231071,1,0,0:0:0:0:
320,192,231134,1,0,0:0:0:0:
192,144,231196,1,0,0:0:0:0:
64,192,231259,1,0,0:0:0:0:
320,192,231259,1,0,0:0:0:0:
448,192,231259,1,0,0:0:0:0:
192,192,231321,1,0,0:0:0:0:
64,192,231384,1,0,0:0:0:0:
320,192,231446,1,0,0:0:0:0:
448,384,231509,1,0,0:0:0:0:
192,192,231509,1,0,0:0:0:0:
64,192,231509,1,0,0:0:0:0:
320,192,231571,1,0,0:0:0:0:
192,288,231634,1,0,0:0:0:0:
448,288,231634,1,0,0:0:0:0:
64,192,231634,1,0,0:0:0:0:
320,192,231696,1,0,0:0:0:0:
192,192,231759,1,0,0:0:0:0:
64,192,231821,1,0,0:0:0:0:
320,96,231884,1,0,0:0:0:0:
192,192,231884,1,0,0:0:0:0:
448,192,231884,1,0,0:0:0:0:
64,192,231946,1,0,0:0:0:0:
448,192,232009,1,0,0:0:0:0:
192,192,232071,1,0,0:0:0:0:
64,192,232134,1,0,0:0:0:0:
448,192,232134,1,0,0:0:0:0:
320,192,232134,1,0,0:0:0:0:
192,192,232196,1,0,0:0:0:0:
448,192,232259,1,0,0:0:0:0:
320,192,232259,1,0,0:0:0:0:
64,192,232259,1,0,0:0:0:0:
192,192,232321,1,0,0:0:0:0:
320,192,232384,1,0,0:0:0:0:
64,192,232446,1,0,0:0:0:0:
192,384,232509,1,0,0:0:0:0:
320,192,232509,1,0,0:0:0:0:
448,192,232509,1,0,0:0:0:0:
64,192,232571,1,0,0:0:0:0:
192,192,232634,1,0,0:0:0:0:
320,192,232696,1,0,0:0:0:0:
448,192,232759,1,0,0:0:0:0:
64,192,232759,1,0,0:0:0:0:
192,192,232759,1,0,0:0:0:0:
320,192,232821,1,0,0:0:0:0:
448,96,232884,1,0,0:0:0:0:
192,192,232884,1,0,0:0:0:0:
64,192,232884,1,0,0:0:0:0:
320,192,232946,1,0,0:0:0:0:
448,0,233009,1,0,0:0:0:0:
192,192,233009,1,0,0:0:0:0:
64,192,233009,1,0,0:0:0:0:
320,192,233071,1,0,0:0:0:0:
64,192,233134,1,0,0:0:0:0:
192,192,233196,1,0,0:0:0:0:
64,192,233259,1,0,0:0:0:0:
320,192,233259,1,0,0:0:0:0:
448,192,233259,1,0,0:0:0:0:
192,192,233321,1,0,0:0:0:0:
320,288,233384,1,0,0:0:0:0:
64,192,233446,1,0,0:0:0:0:
320,384,233509,1,0,0:0:0:0:
448,192,233509,1,0,0:0:0:0:
192,192,233509,1,0,0:0:0:0:
64,192,233571,1,0,0:0:0:0:
448,288,233634,1,0,0:0:0:0:
320,192,233634,1,0,0:0:0:0:
192,192,233634,1,0,0:0:0:0:
64,192,233696,1,0,0:0:0:0:
320,192,233759,1,0,0:0:0:0:
192,143,233821,1,0,0:0:0:0:
64,96,233884,1,0,0:0:0:0:
320,192,233884,1,0,0:0:0:0:
448,192,233884,1,0,0:0:0:0:
192,192,233946,1,0,0:0:0:0:
448,192,234009,1,0,0:0:0:0:
320,192,234071,1,0,0:0:0:0:
64,96,234134,1,0,0:0:0:0:
192,192,234134,1,0,0:0:0:0:
448,192,234134,1,0,0:0:0:0:
320,192,234196,1,0,0:0:0:0:
192,192,234259,1,0,0:0:0:0:
448,192,234259,1,0,0:0:0:0:
64,192,234259,1,0,0:0:0:0:
320,192,234321,1,0,0:0:0:0:
448,288,234384,1,0,0:0:0:0:
64,192,234384,1,0,0:0:0:0:
192,192,234446,1,0,0:0:0:0:
320,384,234509,1,0,0:0:0:0:
448,384,234509,1,0,0:0:0:0:
64,192,234509,1,0,0:0:0:0:
192,192,234571,1,0,0:0:0:0:
320,288,234634,1,0,0:0:0:0:
448,288,234634,1,0,0:0:0:0:
64,239,234696,1,0,0:0:0:0:
192,239,234696,1,0,0:0:0:0:
320,192,234759,1,0,0:0:0:0:
448,192,234759,1,0,0:0:0:0:
64,143,234821,1,0,0:0:0:0:
192,96,234884,1,0,0:0:0:0:
320,96,234884,1,0,0:0:0:0:
448,192,234884,1,0,0:0:0:0:
64,47,234946,1,0,0:0:0:0:
192,0,235009,1,0,0:0:0:0:
320,0,235009,1,0,0:0:0:0:
448,192,235009,1,0,0:0:0:0:
64,192,235071,1,0,0:0:0:0:
320,192,235134,1,0,0:0:0:0:
192,192,235134,1,0,0:0:0:0:
448,192,235196,1,0,0:0:0:0:
192,192,235259,1,0,0:0:0:0:
64,192,235259,1,0,0:0:0:0:
320,192,235259,1,0,0:0:0:0:
448,192,235321,1,0,0:0:0:0:
192,192,235384,1,0,0:0:0:0:
64,192,235384,1,0,0:0:0:0:
320,192,235446,1,0,0:0:0:0:
64,192,235509,1,0,0:0:0:0:
448,192,235509,1,0,0:0:0:0:
192,192,235509,1,0,0:0:0:0:
320,192,235571,1,0,0:0:0:0:
192,192,235634,1,0,0:0:0:0:
64,192,235634,1,0,0:0:0:0:
448,192,235634,1,0,0:0:0:0:
320,192,235696,1,0,0:0:0:0:
64,192,235759,1,0,0:0:0:0:
192,192,235759,1,0,0:0:0:0:
448,192,235821,1,0,0:0:0:0:
64,192,235884,1,0,0:0:0:0:
320,192,235884,1,0,0:0:0:0:
192,192,235884,1,0,0:0:0:0:
448,192,235946,1,0,0:0:0:0:
64,192,236009,1,0,0:0:0:0:
192,192,236009,1,0,0:0:0:0:
320,192,236071,1,0,0:0:0:0:
448,192,236071,1,0,0:0:0:0:
192,192,236134,1,0,0:0:0:0:
64,192,236134,1,0,0:0:0:0:
320,192,236196,1,0,0:0:0:0:
448,192,236196,1,0,0:0:0:0:
192,192,236259,1,0,0:0:0:0:
64,192,236259,1,0,0:0:0:0:
320,192,236321,1,0,0:0:0:0:
448,192,236321,1,0,0:0:0:0:
192,192,236384,1,0,0:0:0:0:
64,192,236384,1,0,0:0:0:0:
320,192,236446,1,0,0:0:0:0:
448,192,236446,1,0,0:0:0:0:
64,192,236509,1,0,0:0:0:0:
192,192,236540,1,0,0:0:0:0:
320,192,236571,1,0,0:0:0:0:
448,192,236602,1,0,0:0:0:0:
64,192,236634,1,0,0:0:0:0:
192,192,236665,1,0,0:0:0:0:
320,192,236696,1,0,0:0:0:0:
448,192,236727,1,0,0:0:0:0:
64,192,236759,1,0,0:0:0:0:
192,192,236790,1,0,0:0:0:0:
320,192,236821,1,0,0:0:0:0:
448,192,236852,1,0,0:0:0:0:
64,192,236884,1,0,0:0:0:0:
192,192,236915,1,0,0:0:0:0:
320,192,236946,1,0,0:0:0:0:
448,192,236977,1,0,0:0:0:0:
192,0,237009,1,0,0:0:0:0:
64,192,237009,1,0,0:0:0:0:
64,96,237134,1,0,0:0:0:0:
320,192,237259,1,0,0:0:0:0:
448,192,237259,1,0,0:0:0:0:
64,288,237384,1,0,0:0:0:0:
320,288,237384,1,0,0:0:0:0:
448,288,237384,1,0,0:0:0:0:
192,192,237384,1,0,0:0:0:0:
64,384,237509,1,0,0:0:0:0:
448,288,237634,1,0,0:0:0:0:
192,192,237634,1,0,0:0:0:0:
64,192,237759,1,0,0:0:0:0:
320,192,237759,1,0,0:0:0:0:
448,192,237759,1,0,0:0:0:0:
192,192,237759,1,0,0:0:0:0:
64,96,237884,1,0,0:0:0:0:
192,0,237884,1,0,0:0:0:0:
320,96,238009,1,0,0:0:0:0:
448,0,238009,1,0,0:0:0:0:
64,96,238134,1,0,0:0:0:0:
320,96,238134,1,0,0:0:0:0:
448,96,238134,1,0,0:0:0:0:
192,192,238134,1,0,0:0:0:0:
64,192,238259,1,0,0:0:0:0:
192,192,238259,1,0,0:0:0:0:
448,288,238384,1,0,0:0:0:0:
320,192,238384,1,0,0:0:0:0:
64,384,238509,1,0,0:0:0:0:
320,384,238509,1,0,0:0:0:0:
448,384,238509,1,0,0:0:0:0:
192,192,238509,1,0,0:0:0:0:
192,288,238634,1,0,0:0:0:0:
64,192,238759,1,0,0:0:0:0:
320,192,238759,1,0,0:0:0:0:
448,192,238759,1,0,0:0:0:0:
192,96,238884,1,0,0:0:0:0:
320,0,239009,1,0,0:0:0:0:
448,0,239009,1,0,0:0:0:0:
64,192,239009,1,0,0:0:0:0:
192,48,239071,1,0,0:0:0:0:
64,96,239134,1,0,0:0:0:0:
320,96,239134,1,0,0:0:0:0:
192,192,239196,1,0,0:0:0:0:
320,192,239259,1,0,0:0:0:0:
448,192,239259,1,0,0:0:0:0:
192,192,239321,1,0,0:0:0:0:
64,192,239384,1,0,0:0:0:0:
448,192,239384,1,0,0:0:0:0:
192,192,239446,1,0,0:0:0:0:
320,192,239509,1,0,0:0:0:0:
448,192,239509,1,0,0:0:0:0:
64,192,239571,1,0,0:0:0:0:
192,288,239634,1,0,0:0:0:0:
448,192,239634,1,0,0:0:0:0:
64,239,239696,1,0,0:0:0:0:
320,192,239759,1,0,0:0:0:0:
448,192,239759,1,0,0:0:0:0:
192,143,239821,1,0,0:0:0:0:
64,96,239884,1,0,0:0:0:0:
320,96,239884,1,0,0:0:0:0:
448,47,239946,1,0,0:0:0:0:
192,0,240009,1,0,0:0:0:0:
64,192,240009,1,0,0:0:0:0:
320,192,240009,1,0,0:0:0:0:
448,192,240071,1,0,0:0:0:0:
192,96,240134,1,0,0:0:0:0:
64,192,240134,1,0,0:0:0:0:
320,144,240196,1,0,0:0:0:0:
64,192,240259,1,0,0:0:0:0:
192,192,240259,1,0,0:0:0:0:
320,240,240321,1,0,0:0:0:0:
192,288,240384,1,0,0:0:0:0:
448,288,240384,1,0,0:0:0:0:
320,192,240446,1,0,0:0:0:0:
64,192,240509,1,0,0:0:0:0:
192,192,240509,1,0,0:0:0:0:
448,192,240571,1,0,0:0:0:0:
64,288,240634,1,0,0:0:0:0:
320,288,240634,1,0,0:0:0:0:
448,192,240696,1,0,0:0:0:0:
64,192,240759,1,0,0:0:0:0:
192,192,240759,1,0,0:0:0:0:
320,143,240821,1,0,0:0:0:0:
192,96,240884,1,0,0:0:0:0:
448,192,240884,1,0,0:0:0:0:
320,192,240946,1,0,0:0:0:0:
64,0,241009,1,0,0:0:0:0:
192,0,241009,1,0,0:0:0:0:
448,192,241071,1,0,0:0:0:0:
64,96,241134,1,0,0:0:0:0:
320,192,241134,1,0,0:0:0:0:
448,192,241196,1,0,0:0:0:0:
192,192,241259,1,0,0:0:0:0:
64,192,241259,1,0,0:0:0:0:
320,192,241321,1,0,0:0:0:0:
192,288,241384,1,0,0:0:0:0:
448,192,241384,1,0,0:0:0:0:
320,192,241446,1,0,0:0:0:0:
64,192,241509,1,0,0:0:0:0:
192,192,241509,1,0,0:0:0:0:
448,192,241571,1,0,0:0:0:0:
320,288,241634,1,0,0:0:0:0:
64,192,241634,1,0,0:0:0:0:
448,239,241696,1,0,0:0:0:0:
192,192,241759,1,0,0:0:0:0:
64,192,241759,1,0,0:0:0:0:
448,143,241821,1,0,0:0:0:0:
320,96,241884,1,0,0:0:0:0:
192,192,241884,1,0,0:0:0:0:
448,47,241946,1,0,0:0:0:0:
64,0,242009,1,0,0:0:0:0:
192,0,242009,1,0,0:0:0:0:
320,48,242071,1,0,0:0:0:0:
192,96,242134,1,0,0:0:0:0:
448,192,242134,1,0,0:0:0:0:
64,144,242196,1,0,0:0:0:0:
320,192,242196,1,0,0:0:0:0:
192,192,242259,1,0,0:0:0:0:
448,192,242259,1,0,0:0:0:0:
64,192,242321,1,0,0:0:0:0:
320,192,242384,1,0,0:0:0:0:
448,192,242384,1,0,0:0:0:0:
192,192,242446,1,0,0:0:0:0:
448,384,242509,1,0,0:0:0:0:
64,192,242509,1,0,0:0:0:0:
192,335,242571,1,0,0:0:0:0:
320,288,242634,1,0,0:0:0:0:
448,288,242634,1,0,0:0:0:0:
64,239,242696,1,0,0:0:0:0:
192,239,242696,1,0,0:0:0:0:
320,192,242759,1,0,0:0:0:0:
448,192,242759,1,0,0:0:0:0:
64,143,242821,1,0,0:0:0:0:
192,96,242884,1,0,0:0:0:0:
320,96,242884,1,0,0:0:0:0:
448,47,242946,1,0,0:0:0:0:
64,0,243009,1,0,0:0:0:0:
192,0,243009,1,0,0:0:0:0:
320,192,243009,1,0,0:0:0:0:
448,192,243071,1,0,0:0:0:0:
192,96,243134,1,0,0:0:0:0:
320,192,243134,1,0,0:0:0:0:
448,192,243196,1,0,0:0:0:0:
192,192,243259,1,0,0:0:0:0:
64,192,243259,1,0,0:0:0:0:
448,240,243321,1,0,0:0:0:0:
64,288,243384,1,0,0:0:0:0:
320,288,243384,1,0,0:0:0:0:
448,336,243446,1,0,0:0:0:0:
64,384,243509,1,0,0:0:0:0:
192,384,243509,1,0,0:0:0:0:
320,335,243571,1,0,0:0:0:0:
192,288,243634,1,0,0:0:0:0:
448,288,243634,1,0,0:0:0:0:
320,192,243696,1,0,0:0:0:0:
192,192,243759,1,0,0:0:0:0:
64,192,243759,1,0,0:0:0:0:
448,192,243821,1,0,0:0:0:0:
192,96,243884,1,0,0:0:0:0:
320,192,243884,1,0,0:0:0:0:
64,47,243946,1,0,0:0:0:0:
320,0,244009,1,0,0:0:0:0:
448,192,244009,1,0,0:0:0:0:
192,192,244009,1,0,0:0:0:0:
64,192,244071,1,0,0:0:0:0:
320,96,244134,1,0,0:0:0:0:
448,192,244134,1,0,0:0:0:0:
192,192,244196,1,0,0:0:0:0:
320,192,244259,1,0,0:0:0:0:
448,192,244259,1,0,0:0:0:0:
192,192,244321,1,0,0:0:0:0:
64,288,244384,1,0,0:0:0:0:
320,288,244384,1,0,0:0:0:0:
192,192,244446,1,0,0:0:0:0:
320,384,244509,1,0,0:0:0:0:
448,192,244509,1,0,0:0:0:0:
64,335,244571,1,0,0:0:0:0:
192,288,244634,1,0,0:0:0:0:
448,288,244634,1,0,0:0:0:0:
64,192,244696,1,0,0:0:0:0:
320,192,244759,1,0,0:0:0:0:
448,192,244759,1,0,0:0:0:0:
192,192,244821,1,0,0:0:0:0:
64,96,244884,1,0,0:0:0:0:
320,192,244884,1,0,0:0:0:0:
192,47,244946,1,0,0:0:0:0:
64,0,245009,1,0,0:0:0:0:
320,0,245009,1,0,0:0:0:0:
448,0,245009,1,0,0:0:0:0:
192,96,245134,1,0,0:0:0:0:
448,96,245134,1,0,0:0:0:0:
64,192,245259,1,0,0:0:0:0:
192,192,245259,1,0,0:0:0:0:
64,288,245384,1,0,0:0:0:0:
320,288,245384,1,0,0:0:0:0:
448,288,245384,1,0,0:0:0:0:
192,192,245384,1,0,0:0:0:0:
320,384,245509,1,0,0:0:0:0:
448,384,245509,1,0,0:0:0:0:
64,288,245634,1,0,0:0:0:0:
320,288,245634,1,0,0:0:0:0:
64,192,245759,1,0,0:0:0:0:
192,192,245759,1,0,0:0:0:0:
448,192,245759,1,0,0:0:0:0:
320,192,245759,1,0,0:0:0:0:
448,96,245884,1,0,0:0:0:0:
192,192,245884,1,0,0:0:0:0:
64,0,246009,1,0,0:0:0:0:
320,0,246009,1,0,0:0:0:0:
192,96,246134,1,0,0:0:0:0:
320,96,246134,1,0,0:0:0:0:
448,96,246134,1,0,0:0:0:0:
64,192,246134,1,0,0:0:0:0:
192,192,246259,1,0,0:0:0:0:
448,192,246259,1,0,0:0:0:0:
64,288,246384,1,0,0:0:0:0:
320,288,246384,1,0,0:0:0:0:
64,384,246509,1,0,0:0:0:0:
320,384,246509,1,0,0:0:0:0:
448,384,246509,1,0,0:0:0:0:
192,192,246509,1,0,0:0:0:0:
320,192,246759,1,0,0:0:0:0:
64,0,247009,1,0,0:0:0:0:
192,0,247009,1,0,0:0:0:0:
320,0,247009,1,0,0:0:0:0:
448,0,247009,1,0,0:0:0:0:
192,96,247134,1,0,0:0:0:0:
320,96,247134,1,0,0:0:0:0:
64,192,247259,1,0,0:0:0:0:
320,192,247259,1,0,0:0:0:0:
448,192,247259,1,0,0:0:0:0:
192,288,247384,1,0,0:0:0:0:
320,288,247384,1,0,0:0:0:0:
64,384,247509,1,0,0:0:0:0:
320,384,247509,1,0,0:0:0:0:
448,384,247509,1,0,0:0:0:0:
192,288,247634,1,0,0:0:0:0:
448,288,247634,1,0,0:0:0:0:
64,192,247759,1,0,0:0:0:0:
320,192,247759,1,0,0:0:0:0:
448,192,247759,1,0,0:0:0:0:
64,96,247884,1,0,0:0:0:0:
320,96,247884,1,0,0:0:0:0:
192,0,248009,1,0,0:0:0:0:
320,0,248009,1,0,0:0:0:0:
448,0,248009,1,0,0:0:0:0:
192,96,248134,1,0,0:0:0:0:
448,96,248134,1,0,0:0:0:0:
192,192,248259,1,0,0:0:0:0:
320,192,248259,1,0,0:0:0:0:
448,192,248259,1,0,0:0:0:0:
64,288,248384,1,0,0:0:0:0:
320,288,248384,1,0,0:0:0:0:
64,384,248509,1,0,0:0:0:0:
192,384,248509,1,0,0:0:0:0:
448,384,248509,1,0,0:0:0:0:
192,288,248634,1,0,0:0:0:0:
320,288,248634,1,0,0:0:0:0:
64,192,248759,1,0,0:0:0:0:
320,192,248759,1,0,0:0:0:0:
448,192,248759,1,0,0:0:0:0:
192,96,248884,1,0,0:0:0:0:
64,192,248884,1,0,0:0:0:0:
64,0,249009,1,0,0:0:0:0:
320,0,249009,1,0,0:0:0:0:
448,0,249009,1,0,0:0:0:0:
192,96,249134,1,0,0:0:0:0:
448,96,249134,1,0,0:0:0:0:
64,192,249259,1,0,0:0:0:0:
192,192,249259,1,0,0:0:0:0:
320,192,249259,1,0,0:0:0:0:
192,288,249384,1,0,0:0:0:0:
448,288,249384,1,0,0:0:0:0:
64,384,249509,1,0,0:0:0:0:
320,384,249509,1,0,0:0:0:0:
448,384,249509,1,0,0:0:0:0:
192,288,249634,1,0,0:0:0:0:
320,288,249634,1,0,0:0:0:0:
64,192,249759,1,0,0:0:0:0:
192,192,249759,1,0,0:0:0:0:
320,192,249759,1,0,0:0:0:0:
192,96,249884,1,0,0:0:0:0:
448,96,249884,1,0,0:0:0:0:
64,0,250009,1,0,0:0:0:0:
320,0,250009,1,0,0:0:0:0:
448,0,250009,1,0,0:0:0:0:
192,96,250134,1,0,0:0:0:0:
320,96,250134,1,0,0:0:0:0:
64,192,250259,1,0,0:0:0:0:
320,192,250259,1,0,0:0:0:0:
448,192,250259,1,0,0:0:0:0:
64,288,250384,1,0,0:0:0:0:
320,288,250384,1,0,0:0:0:0:
320,384,250509,1,0,0:0:0:0:
448,384,250509,1,0,0:0:0:0:
64,288,250634,1,0,0:0:0:0:
192,288,250634,1,0,0:0:0:0:
320,239,250696,1,0,0:0:0:0:
448,239,250696,1,0,0:0:0:0:
64,192,250759,1,0,0:0:0:0:
192,192,250759,1,0,0:0:0:0:
192,96,250884,1,0,0:0:0:0:
448,96,250884,1,0,0:0:0:0:
64,0,251009,1,0,0:0:0:0:
448,0,251009,1,0,0:0:0:0:
192,96,251134,1,0,0:0:0:0:
320,96,251134,1,0,0:0:0:0:
64,144,251196,1,0,0:0:0:0:
448,144,251196,1,0,0:0:0:0:
192,192,251259,1,0,0:0:0:0:
320,192,251259,1,0,0:0:0:0:
192,288,251384,1,0,0:0:0:0:
448,288,251384,1,0,0:0:0:0:
64,384,251509,1,0,0:0:0:0:
448,384,251509,1,0,0:0:0:0:
192,288,251634,1,0,0:0:0:0:
448,288,251634,1,0,0:0:0:0:
64,239,251696,1,0,0:0:0:0:
320,239,251696,1,0,0:0:0:0:
192,192,251759,1,0,0:0:0:0:
448,192,251759,1,0,0:0:0:0:
64,96,251884,1,0,0:0:0:0:
320,96,251884,1,0,0:0:0:0:
64,0,252009,1,0,0:0:0:0:
448,0,252009,1,0,0:0:0:0:
64,96,252134,1,0,0:0:0:0:
320,96,252134,1,0,0:0:0:0:
192,144,252196,1,0,0:0:0:0:
448,144,252196,1,0,0:0:0:0:
64,192,252259,1,0,0:0:0:0:
320,192,252259,1,0,0:0:0:0:
192,288,252384,1,0,0:0:0:0:
320,288,252384,1,0,0:0:0:0:
320,384,252509,1,0,0:0:0:0:
448,384,252509,1,0,0:0:0:0:
64,335,252571,1,0,0:0:0:0:
192,335,252571,1,0,0:0:0:0:
320,288,252634,1,0,0:0:0:0:
448,288,252634,1,0,0:0:0:0:
64,239,252696,1,0,0:0:0:0:
192,239,252696,1,0,0:0:0:0:
320,192,252759,1,0,0:0:0:0:
448,192,252759,1,0,0:0:0:0:
64,96,252884,1,0,0:0:0:0:
320,96,252884,1,0,0:0:0:0:
192,0,253009,1,0,0:0:0:0:
448,0,253009,1,0,0:0:0:0:
192,96,253134,1,0,0:0:0:0:
320,96,253134,1,0,0:0:0:0:
64,144,253196,1,0,0:0:0:0:
448,144,253196,1,0,0:0:0:0:
192,192,253259,1,0,0:0:0:0:
320,192,253259,1,0,0:0:0:0:
64,288,253384,1,0,0:0:0:0:
192,288,253384,1,0,0:0:0:0:
320,336,253446,1,0,0:0:0:0:
448,336,253446,1,0,0:0:0:0:
64,384,253509,1,0,0:0:0:0:
192,384,253509,1,0,0:0:0:0:
320,335,253571,1,0,0:0:0:0:
448,335,253571,1,0,0:0:0:0:
192,288,253634,1,0,0:0:0:0:
64,288,253634,1,0,0:0:0:0:
192,192,253759,1,0,0:0:0:0:
320,192,253759,1,0,0:0:0:0:
320,96,253884,1,0,0:0:0:0:
448,96,253884,1,0,0:0:0:0:
64,47,253946,1,0,0:0:0:0:
192,47,253946,1,0,0:0:0:0:
320,0,254009,1,0,0:0:0:0:
448,0,254009,1,0,0:0:0:0:
64,48,254071,1,0,0:0:0:0:
192,48,254071,1,0,0:0:0:0:
320,96,254134,1,0,0:0:0:0:
448,96,254134,1,0,0:0:0:0:
64,144,254196,1,0,0:0:0:0:
192,144,254196,1,0,0:0:0:0:
320,192,254259,1,0,0:0:0:0:
448,192,254259,1,0,0:0:0:0:
64,240,254321,1,0,0:0:0:0:
192,240,254321,1,0,0:0:0:0:
320,288,254384,1,0,0:0:0:0:
448,288,254384,1,0,0:0:0:0:
64,336,254446,1,0,0:0:0:0:
192,336,254446,1,0,0:0:0:0:
448,360,254509,1,0,0:0:0:0:
320,335,254540,1,0,0:0:0:0:
192,312,254571,1,0,0:0:0:0:
64,288,254602,1,0,0:0:0:0:
448,264,254634,1,0,0:0:0:0:
320,239,254665,1,0,0:0:0:0:
192,216,254696,1,0,0:0:0:0:
64,192,254727,1,0,0:0:0:0:
448,168,254759,1,0,0:0:0:0:
320,143,254790,1,0,0:0:0:0:
192,120,254821,1,0,0:0:0:0:
64,96,254852,1,0,0:0:0:0:
448,72,254884,1,0,0:0:0:0:
320,47,254915,1,0,0:0:0:0:
192,24,254946,1,0,0:0:0:0:
64,192,254977,1,0,0:0:0:0:
320,192,255009,1,0,0:0:0:0:
448,192,255009,128,0,255509:0:0:0:0:
64,384,255509,1,0,0:0:0:0:
192,384,255509,128,0,256509:0:0:0:0:
64,192,255759,1,0,0:0:0:0:
320,0,256009,1,0,0:0:0:0:
320,192,256259,1,0,0:0:0:0:
320,384,256509,1,0,0:0:0:0:
64,0,257009,1,0,0:0:0:0:
448,0,257009,128,0,258634:0:0:0:0:
64,0,258009,128,0,259009:0:0:0:0:
192,288,258384,128,0,258884:0:0:0:0:
448,192,258759,128,0,259009:0:0:0:0:
320,96,258884,128,0,259009:0:0:0:0:
192,0,259009,128,0,259509:0:0:0:0:
320,384,259509,128,0,260509:0:0:0:0:
448,384,259509,1,0,0:0:0:0:
448,192,259759,1,0,0:0:0:0:
64,0,260009,1,0,0:0:0:0:
64,192,260259,1,0,0:0:0:0:
64,384,260509,1,0,0:0:0:0:
192,0,261009,128,0,262634:0:0:0:0:
448,0,261009,1,0,0:0:0:0:
64,0,262009,128,0,263009:0:0:0:0:
448,288,262384,128,0,262884:0:0:0:0:
192,192,262759,128,0,263009:0:0:0:0:
320,96,262884,128,0,263009:0:0:0:0:
448,0,263009,128,0,263509:0:0:0:0:
192,384,263509,1,0,0:0:0:0:
320,384,263509,128,0,264509:0:0:0:0:
192,192,263759,1,0,0:0:0:0:
448,0,264009,1,0,0:0:0:0:
448,192,264259,1,0,0:0:0:0:
448,384,264509,1,0,0:0:0:0:
192,0,265009,128,0,266259:0:0:0:0:
448,0,265009,1,0,0:0:0:0:
64,0,266009,128,0,266884:0:0:0:0:
192,263,266384,128,0,267009:0:0:0:0:
448,192,266759,128,0,267009:0:0:0:0:
320,96,266884,128,0,267009:0:0:0:0:
64,0,267009,128,0,267509:0:0:0:0:
192,384,267509,128,0,268509:0:0:0:0:
448,384,267509,1,0,0:0:0:0:
448,192,267759,1,0,0:0:0:0:
320,0,268009,1,0,0:0:0:0:
320,192,268259,1,0,0:0:0:0:
320,384,268509,1,0,0:0:0:0:
64,0,269009,128,0,271009:0:0:0:0:
320,0,269009,1,0,0:0:0:0:
448,0,270009,128,0,270884:0:0:0:0:
320,288,270384,128,0,270759:0:0:0:0:
192,192,270759,128,0,271009:0:0:0:0:
320,96,270884,128,0,271009:0:0:0:0:
448,0,271009,128,0,271509:0:0:0:0:
64,384,271509,128,0,272259:0:0:0:0:
320,384,271509,1,0,0:0:0:0:
448,192,272259,1,0,0:0:0:0:
320,384,272509,1,0,0:0:0:0:
192,192,272759,1,0,0:0:0:0:
64,0,273009,1,0,0:0:0:0:
448,192,273509,1,0,0:0:0:0:
320,384,274509,1,0,0:0:0:0:
64,0,275009,1,0,0:0:0:0:
192,0,275009,1,0,0:0:0:0:
320,0,275009,1,0,0:0:0:0:
448,0,275009,1,0,0:0:0:0:
64,0,276009,1,0,0:0:0:0:
192,0,276009,1,0,0:0:0:0:
320,0,276009,1,0,0:0:0:0:
448,0,276009,1,0,0:0:0:0:
64,192,276759,1,0,0:0:0:0:
192,192,276759,1,0,0:0:0:0:
320,192,276759,1,0,0:0:0:0:
448,192,276759,1,0,0:0:0:0:
64,288,277384,1,0,0:0:0:0:
192,288,277384,1,0,0:0:0:0:
320,288,277384,1,0,0:0:0:0:
448,288,277384,1,0,0:0:0:0:
64,96,277884,1,0,0:0:0:0:
192,96,277884,1,0,0:0:0:0:
320,96,277884,1,0,0:0:0:0:
448,96,277884,1,0,0:0:0:0:
64,240,278321,1,0,0:0:0:0:
192,240,278321,1,0,0:0:0:0:
320,240,278321,1,0,0:0:0:0:
448,240,278321,1,0,0:0:0:0:
64,239,278696,1,0,0:0:0:0:
192,239,278696,1,0,0:0:0:0:
320,239,278696,1,0,0:0:0:0:
448,239,278696,1,0,0:0:0:0:
64,0,279009,1,0,0:0:0:0:
192,0,279009,1,0,0:0:0:0:
320,0,279009,1,0,0:0:0:0:
448,0,279009,1,0,0:0:0:0:
64,192,279259,1,0,0:0:0:0:
192,192,279259,1,0,0:0:0:0:
320,192,279259,1,0,0:0:0:0:
448,192,279259,1,0,0:0:0:0:
64,336,279446,1,0,0:0:0:0:
192,336,279446,1,0,0:0:0:0:
320,336,279446,1,0,0:0:0:0:
448,336,279446,1,0,0:0:0:0:
320,335,279571,1,0,0:0:0:0:
448,335,279571,1,0,0:0:0:0:
64,288,279634,1,0,0:0:0:0:
192,288,279634,1,0,0:0:0:0:
320,239,279696,1,0,0:0:0:0:
448,239,279696,1,0,0:0:0:0:
64,216,279727,1,0,0:0:0:0:
192,192,279759,1,0,0:0:0:0:
320,168,279790,1,0,0:0:0:0:
448,143,279821,1,0,0:0:0:0:
64,120,279852,1,0,0:0:0:0:
192,96,279884,1,0,0:0:0:0:
320,72,279915,1,0,0:0:0:0:
448,47,279946,1,0,0:0:0:0:
64,24,279977,1,0,0:0:0:0:
192,0,280009,1,0,0:0:0:0:
320,23,280040,1,0,0:0:0:0:
448,48,280071,1,0,0:0:0:0:
64,71,280102,1,0,0:0:0:0:
192,96,280134,1,0,0:0:0:0:
320,119,280165,1,0,0:0:0:0:
448,144,280196,1,0,0:0:0:0:
64,167,280227,1,0,0:0:0:0:
192,192,280259,1,0,0:0:0:0:
320,215,280290,1,0,0:0:0:0:
448,240,280321,1,0,0:0:0:0:
64,263,280352,1,0,0:0:0:0:
192,288,280384,1,0,0:0:0:0:
320,311,280415,1,0,0:0:0:0:
448,336,280446,1,0,0:0:0:0:
64,359,280477,1,0,0:0:0:0:
192,384,280509,1,0,0:0:0:0:
320,360,280540,1,0,0:0:0:0:
448,335,280571,1,0,0:0:0:0:
64,312,280602,1,0,0:0:0:0:
192,288,280634,1,0,0:0:0:0:
320,264,280665,1,0,0:0:0:0:
448,239,280696,1,0,0:0:0:0:
64,216,280727,1,0,0:0:0:0:
192,192,280759,1,0,0:0:0:0:
320,168,280790,1,0,0:0:0:0:
448,143,280821,1,0,0:0:0:0:
64,120,280852,1,0,0:0:0:0:
192,96,280884,1,0,0:0:0:0:
320,72,280915,1,0,0:0:0:0:
448,47,280946,1,0,0:0:0:0:
64,24,280977,1,0,0:0:0:0:
192,0,281009,1,0,0:0:0:0:
320,23,281040,1,0,0:0:0:0:
448,48,281071,1,0,0:0:0:0:
64,71,281102,1,0,0:0:0:0:
192,96,281134,1,0,0:0:0:0:
320,119,281165,1,0,0:0:0:0:
448,144,281196,1,0,0:0:0:0:
64,167,281227,1,0,0:0:0:0:
192,192,281259,1,0,0:0:0:0:
320,215,281290,1,0,0:0:0:0:
448,240,281321,1,0,0:0:0:0:
64,263,281352,1,0,0:0:0:0:
192,288,281384,1,0,0:0:0:0:
320,311,281415,1,0,0:0:0:0:
448,336,281446,128,0,281634:0:0:0:0:
64,239,281696,1,0,0:0:0:0:
192,239,281696,1,0,0:0:0:0:
320,239,281696,1,0,0:0:0:0:
448,239,281696,1,0,0:0:0:0:
64,192,281759,1,0,0:0:0:0:
192,192,281759,1,0,0:0:0:0:
320,192,281759,1,0,0:0:0:0:
448,192,281759,1,0,0:0:0:0:
64,96,281884,1,0,0:0:0:0:
192,96,281884,1,0,0:0:0:0:
320,96,281884,1,0,0:0:0:0:
448,96,281884,1,0,0:0:0:0:
64,96,282134,1,0,0:0:0:0:
192,96,282134,1,0,0:0:0:0:
320,96,282134,1,0,0:0:0:0:
448,96,282134,1,0,0:0:0:0:
64,384,282509,1,0,0:0:0:0:
192,384,282509,1,0,0:0:0:0:
320,384,282509,1,0,0:0:0:0:
448,384,282509,1,0,0:0:0:0:
64,0,282946,1,0,0:0:0:0:
192,0,282946,1,0,0:0:0:0:
320,0,282946,1,0,0:0:0:0:
448,0,282946,1,0,0:0:0:0:
64,0,284009,1,0,0:0:0:0:
192,0,284009,1,0,0:0:0:0:
320,0,284009,1,0,0:0:0:0:
448,0,284009,1,0,0:0:0:0:
