osu file format v14

[General]
AudioFilename: szak - .mp3
AudioLeadIn: 0
PreviewTime: -1
Countdown: 1
SampleSet: Normal
StackLeniency: 0.7
Mode: 0
LetterboxInBreaks: 1
WidescreenStoryboard: 1

[Editor]
DistanceSpacing: 1.4
BeatDivisor: 4
GridSize: 8
TimelineZoom: 3.399999

[Metadata]
Title:koro yami dance
TitleUnicode:黒い翼の舞
Artist:
ArtistUnicode:
Creator:Aira Siritori
Version:cankao
Source:
Tags:
BeatmapID:1531392
BeatmapSetID:725285

[Difficulty]
HPDrainRate:5
CircleSize:5
OverallDifficulty:5
ApproachRate:10
SliderMultiplier:1.4
SliderTickRate:1

[Events]
//Background and Video events
0,0,"BG.jpg",0,0
//Break Periods
//Storyboard Layer 0 (Background)
//Storyboard Layer 1 (Fail)
//Storyboard Layer 2 (Pass)
//Storyboard Layer 3 (Foreground)
//Storyboard Sound Samples

[TimingPoints]
383,344.827586206897,4,1,0,100,1,0
383,-100,4,1,0,5,0,0
45210,-100,4,1,0,5,0,0

[HitObjects]
40,192,383,5,0,2:0:0:0:
48,168,469,1,0,2:0:0:0:
64,136,555,1,0,2:0:0:0:
80,112,641,1,0,2:0:0:0:
104,96,727,1,0,2:0:0:0:
128,88,814,1,0,2:0:0:0:
152,80,900,1,0,2:0:0:0:
208,80,1072,6,0,P|240:80|272:88,2,35,0|0|0,2:0|2:0|2:0,2:0:0:0:
166,118,1417,2,0,L|134:174,2,35
271,79,1762,5,0,0:0:0:0:
351,104,1934,1,0,0:0:0:0:
412,160,2107,1,0,0:0:0:0:
445,237,2279,1,0,0:0:0:0:
278,261,2451,2,0,L|218:295,2,35
205,172,2796,2,0,L|165:146,2,35
311,117,3141,2,0,L|331:64,2,35
333,225,3486,2,0,L|388:205,2,35
80,91,3831,5,0,0:0:0:0:
182,51,4003,1,0,0:0:0:0:
216,45,4089,1,0,0:0:0:0:
251,43,4176,1,0,0:0:0:0:
334,59,4348,1,0,0:0:0:0:
270,114,4520,1,0,0:0:0:0:
252,117,4607,1,0,0:0:0:0:
235,119,4693,1,0,0:0:0:0:
217,119,4779,1,0,0:0:0:0:
200,119,4865,1,0,0:0:0:0:
229,55,5038,5,0,0:0:0:0:
184,96,5210,2,0,P|127:91|60:40,1,140
169,212,5727,1,0,0:0:0:0:
256,176,5900,1,0,0:0:0:0:
249,171,5986,1,0,0:0:0:0:
241,165,6072,1,0,0:0:0:0:
234,160,6158,1,0,0:0:0:0:
224,152,6245,2,0,P|264:128|312:128,1,70
304,304,6589,6,0,P|272:304|240:296,2,35,0|0|0,2:0|2:0|2:0,2:0:0:0:
346,266,6934,2,0,L|378:210,2,35
241,305,7279,5,0,0:0:0:0:
161,280,7451,1,0,0:0:0:0:
100,224,7624,1,0,0:0:0:0:
62,148,7796,1,0,0:0:0:0:
234,123,7969,2,0,L|294:89,2,35
307,212,8314,2,0,L|347:238,2,35
201,267,8658,2,0,L|181:320,2,35
179,159,9003,2,0,L|124:179,2,35
432,293,9348,5,0,0:0:0:0:
330,333,9520,1,0,0:0:0:0:
296,339,9607,1,0,0:0:0:0:
261,341,9693,1,0,0:0:0:0:
178,325,9865,1,0,0:0:0:0:
242,270,10038,1,0,0:0:0:0:
260,267,10124,1,0,0:0:0:0:
277,265,10210,1,0,0:0:0:0:
295,265,10296,1,0,0:0:0:0:
312,265,10383,1,0,0:0:0:0:
283,329,10555,5,0,0:0:0:0:
328,288,10727,2,0,P|385:293|452:344,1,140
343,172,11245,1,0,0:0:0:0:
256,208,11417,1,0,0:0:0:0:
263,213,11503,1,0,0:0:0:0:
271,219,11589,1,0,0:0:0:0:
278,224,11676,1,0,0:0:0:0:
288,232,11762,2,0,P|248:256|200:256,1,70
95,120,12107,5,0,0:0:0:0:
124,90,12193,1,0,0:0:0:0:
163,77,12279,1,0,0:0:0:0:
155,138,12451,5,0,0:0:0:0:
196,128,12538,1,0,0:0:0:0:
237,128,12624,1,0,0:0:0:0:
183,192,12796,5,0,0:0:0:0:
266,203,12969,1,0,0:0:0:0:
335,249,13141,1,0,0:0:0:0:
383,317,13314,1,0,0:0:0:0:
146,303,13486,2,0,L|100:284,2,35
132,174,13831,2,0,L|154:120,2,35
277,146,14176,2,0,L|331:168,2,35
308,276,14520,2,0,L|286:330,2,35
401,82,14865,1,0,0:0:0:0:
326,73,15038,1,0,0:0:0:0:
285,63,15124,1,0,0:0:0:0:
243,60,15210,1,0,0:0:0:0:
201,68,15296,1,0,0:0:0:0:
165,91,15383,1,0,0:0:0:0:
125,105,15469,1,0,0:0:0:0:
83,98,15555,1,0,0:0:0:0:
42,109,15641,1,0,0:0:0:0:
32,150,15727,1,0,0:0:0:0:
37,191,15814,1,0,0:0:0:0:
54,229,15900,1,0,0:0:0:0:
93,242,15986,1,0,0:0:0:0:
134,250,16072,1,0,0:0:0:0:
175,256,16158,1,0,0:0:0:0:
215,268,16245,2,0,L|275:274,2,35
403,151,16589,2,0,L|354:122,2,35
259,115,16934,2,0,L|216:148,2,35
381,283,17279,2,0,L|359:229,2,35
208,80,17624,6,0,P|240:80|272:88,2,35,0|0|0,2:0|2:0|2:0,2:0:0:0:
166,118,17969,2,0,L|134:174,2,35
271,79,18314,5,0,0:0:0:0:
351,104,18486,1,0,0:0:0:0:
412,160,18658,1,0,0:0:0:0:
445,237,18831,1,0,0:0:0:0:
278,261,19003,2,0,L|218:295,2,35
205,172,19348,2,0,L|165:146,2,35
311,117,19693,2,0,L|331:64,2,35
333,225,20038,2,0,L|388:205,2,35
80,91,20383,5,0,0:0:0:0:
182,51,20555,1,0,0:0:0:0:
216,45,20641,1,0,0:0:0:0:
251,43,20727,1,0,0:0:0:0:
334,59,20900,1,0,0:0:0:0:
270,114,21072,1,0,0:0:0:0:
256,128,21158,1,0,0:0:0:0:
240,152,21245,1,0,0:0:0:0:
240,184,21331,1,0,0:0:0:0:
248,216,21417,1,0,0:0:0:0:
229,55,21589,5,0,0:0:0:0:
160,80,21762,2,0,P|133:130|139:214,1,140
169,212,22279,1,0,0:0:0:0:
256,176,22451,1,0,0:0:0:0:
249,171,22538,1,0,0:0:0:0:
241,165,22624,1,0,0:0:0:0:
234,160,22710,1,0,0:0:0:0:
224,152,22796,2,0,P|264:128|312:128,1,70
208,80,23141,6,0,P|240:80|272:88,2,35,0|0|0,2:0|2:0|2:0,2:0:0:0:
166,118,23486,2,0,L|134:174,2,35
271,79,23831,5,0,0:0:0:0:
351,104,24003,1,0,0:0:0:0:
412,160,24176,1,0,0:0:0:0:
445,237,24348,1,0,0:0:0:0:
278,261,24520,2,0,L|218:295,2,35
205,172,24865,2,0,L|165:146,2,35
311,117,25210,2,0,L|331:64,2,35
333,225,25555,2,0,L|388:205,2,35
80,91,25900,5,0,0:0:0:0:
182,51,26072,1,0,0:0:0:0:
216,45,26158,1,0,0:0:0:0:
251,43,26245,1,0,0:0:0:0:
334,59,26417,1,0,0:0:0:0:
270,114,26589,1,0,0:0:0:0:
252,117,26676,1,0,0:0:0:0:
235,119,26762,1,0,0:0:0:0:
217,119,26848,1,0,0:0:0:0:
200,119,26934,1,0,0:0:0:0:
229,55,27107,5,0,0:0:0:0:
184,96,27279,2,0,P|127:91|60:40,1,140
169,212,27796,1,0,0:0:0:0:
256,176,27969,1,0,0:0:0:0:
249,171,28055,1,0,0:0:0:0:
241,165,28141,1,0,0:0:0:0:
234,160,28227,1,0,0:0:0:0:
224,152,28314,2,0,P|264:128|312:128,1,70
208,80,28658,6,0,P|240:80|272:88,2,35,0|0|0,2:0|2:0|2:0,2:0:0:0:
166,118,29003,2,0,L|134:174,2,35
271,79,29348,5,0,0:0:0:0:
351,104,29520,1,0,0:0:0:0:
412,160,29693,1,0,0:0:0:0:
445,237,29865,1,0,0:0:0:0:
278,261,30037,2,0,L|218:295,2,35
205,172,30382,2,0,L|165:146,2,35
311,117,30727,2,0,L|331:64,2,35
333,225,31072,2,0,L|388:205,2,35
80,91,31417,5,0,0:0:0:0:
182,51,31589,1,0,0:0:0:0:
216,45,31675,1,0,0:0:0:0:
251,43,31762,1,0,0:0:0:0:
334,59,31934,1,0,0:0:0:0:
270,114,32106,1,0,0:0:0:0:
252,117,32193,1,0,0:0:0:0:
235,119,32279,1,0,0:0:0:0:
217,119,32365,1,0,0:0:0:0:
200,119,32451,1,0,0:0:0:0:
229,55,32624,5,0,0:0:0:0:
184,96,32796,2,0,P|127:91|60:40,1,140
169,212,33313,1,0,0:0:0:0:
256,176,33486,1,0,0:0:0:0:
249,171,33572,1,0,0:0:0:0:
241,165,33658,1,0,0:0:0:0:
234,160,33744,1,0,0:0:0:0:
224,152,33831,2,0,P|264:128|312:128,1,70
208,80,34176,6,0,P|240:80|272:88,2,35,0|0|0,2:0|2:0|2:0,2:0:0:0:
166,118,34521,2,0,L|134:174,2,35
271,79,34866,5,0,0:0:0:0:
351,104,35038,1,0,0:0:0:0:
412,160,35211,1,0,0:0:0:0:
445,237,35383,1,0,0:0:0:0:
278,261,35555,2,0,L|218:295,2,35
205,172,35900,2,0,L|165:146,2,35
311,117,36245,2,0,L|331:64,2,35
333,225,36590,2,0,L|388:205,2,35
80,91,36935,5,0,0:0:0:0:
182,51,37107,1,0,0:0:0:0:
216,45,37193,1,0,0:0:0:0:
251,43,37280,1,0,0:0:0:0:
334,59,37452,1,0,0:0:0:0:
270,114,37624,1,0,0:0:0:0:
252,117,37711,1,0,0:0:0:0:
235,119,37797,1,0,0:0:0:0:
217,119,37883,1,0,0:0:0:0:
200,119,37969,1,0,0:0:0:0:
229,55,38142,5,0,0:0:0:0:
184,96,38314,2,0,P|127:91|60:40,1,140
169,212,38831,1,0,0:0:0:0:
256,176,39004,1,0,0:0:0:0:
249,171,39090,1,0,0:0:0:0:
241,165,39176,1,0,0:0:0:0:
234,160,39262,1,0,0:0:0:0:
224,152,39349,2,0,P|264:128|312:128,1,70
208,80,39693,6,0,P|240:80|272:88,2,35,0|0|0,2:0|2:0|2:0,2:0:0:0:
166,118,40038,2,0,L|134:174,2,35
271,79,40383,5,0,0:0:0:0:
351,104,40555,1,0,0:0:0:0:
412,160,40728,1,0,0:0:0:0:
445,237,40900,1,0,0:0:0:0:
278,261,41072,2,0,L|218:295,2,35
205,172,41417,2,0,L|165:146,2,35
311,117,41762,2,0,L|331:64,2,35
333,225,42107,2,0,L|388:205,2,35
80,91,42452,5,0,0:0:0:0:
182,51,42624,1,0,0:0:0:0:
216,45,42710,1,0,0:0:0:0:
251,43,42797,1,0,0:0:0:0:
334,59,42969,1,0,0:0:0:0:
270,114,43141,1,0,0:0:0:0:
252,117,43228,1,0,0:0:0:0:
235,119,43314,1,0,0:0:0:0:
217,119,43400,1,0,0:0:0:0:
200,119,43486,1,0,0:0:0:0:
229,55,43659,5,0,0:0:0:0:
184,96,43831,2,0,P|127:91|60:40,1,140
169,212,44348,1,0,0:0:0:0:
256,176,44521,1,0,0:0:0:0:
249,171,44607,1,0,0:0:0:0:
241,165,44693,1,0,0:0:0:0:
234,160,44779,1,0,0:0:0:0:
224,152,44866,2,0,P|264:128|312:128,1,70
456,296,45210,6,0,P|464:264|464:240,2,35
415,285,45469,1,0,0:0:0:0:
374,270,45555,1,0,0:0:0:0:
331,294,45641,1,0,0:0:0:0:
288,281,45727,1,0,0:0:0:0:
244,307,45814,1,0,0:0:0:0:
196,290,45900,1,0,0:0:0:0:
151,321,45986,1,0,0:0:0:0:
105,300,46072,1,0,0:0:0:0:
