osu file format v14

[General]
AudioFilename: SDVX_III_Never_Ending_NOFX.mp3
AudioLeadIn: 0
PreviewTime: 63620
Countdown: 0
SampleSet: Soft
StackLeniency: 0.7
Mode: 3
LetterboxInBreaks: 0
SpecialStyle: 0
WidescreenStoryboard: 0

[Editor]
Bookmarks: 62800
DistanceSpacing: 0.8
BeatDivisor: 4
GridSize: 4
TimelineZoom: 2.5

[Metadata]
Title:Never Ending
TitleUnicode:Never Ending
Artist:syzfonics
ArtistUnicode:syzfonics
Creator:SpectorDG
Version:GRAVITY
Source:SOUND VOLTEX III GRAVITY WARS
Tags:KONAMI BEMANI The 4th KACオリジナル楽曲コンテスト RASIS Tsumabuki Voltenizer Maxima SHION SDVX 3
BeatmapID:996296
BeatmapSetID:414856

[Difficulty]
HPDrainRate:8.5
CircleSize:4
OverallDifficulty:8
ApproachRate:5
SliderMultiplier:1.4
SliderTickRate:1

[Events]
//Background and Video events
0,0,"BG.jpg",0,0
//Break Periods
//Storyboard Layer 0 (Background)
//Storyboard Layer 1 (Fail)
//Storyboard Layer 2 (Pass)
//Storyboard Layer 3 (Foreground)
//Storyboard Sound Samples

[TimingPoints]
635,333.333333333333,4,2,1,50,1,0
635,-94.3396226415094,4,2,1,50,0,0
21968,324.324324324324,4,2,1,50,1,0
21968,-97.0873786407767,4,2,1,50,0,0
23233,315.789473684211,4,2,1,50,1,0
62390,307.692307692308,4,2,1,50,1,0
62390,-103.092783505155,4,2,1,50,0,0
63620,300,4,2,1,50,1,0
63620,-105.263157894737,4,2,1,50,0,1
82820,-105.263157894737,4,2,1,50,0,0
98420,292.682926829268,4,2,1,50,1,0
98420,-107.52688172043,4,2,1,50,0,0
99590,285.714285714286,4,2,1,50,1,0
99590,-111.111111111111,4,2,1,50,0,0
100732,279.06976744186,4,2,1,50,1,0
100732,-113.636363636364,4,2,1,50,0,0
101848,272.727272727273,4,2,1,50,1,0
101848,-116.279069767442,4,2,1,50,0,0

[HitObjects]
448,192,635,5,0,0:0:0:0:
64,192,635,128,0,1968:0:0:0:0:
192,192,635,1,0,0:0:0:0:
320,192,1301,1,0,0:0:0:0:
192,192,1468,1,0,0:0:0:0:
448,192,1634,1,0,0:0:0:0:
320,192,1801,1,0,0:0:0:0:
192,192,1968,128,0,2301:0:0:0:0:
448,192,1968,1,0,0:0:0:0:
448,192,2301,128,0,2968:0:0:0:0:
320,192,2301,1,0,0:0:0:0:
192,192,2468,128,0,2968:0:0:0:0:
64,192,2468,1,0,0:0:0:0:
320,192,2968,1,0,0:0:0:0:
64,192,2968,128,0,3301:0:0:0:0:
192,192,3134,128,0,3301:0:0:0:0:
320,192,3301,128,0,4634:0:0:0:0:
448,192,3301,1,0,0:0:0:0:
192,192,3968,1,0,0:0:0:0:
448,192,4134,1,0,0:0:0:0:
64,192,4301,1,0,0:0:0:0:
192,192,4468,1,0,0:0:0:0:
448,192,4634,128,0,4968:0:0:0:0:
64,192,4634,1,0,0:0:0:0:
64,192,4968,128,0,5634:0:0:0:0:
192,192,4968,1,0,0:0:0:0:
448,192,5134,128,0,5634:0:0:0:0:
320,192,5134,1,0,0:0:0:0:
320,192,5634,128,0,5968:0:0:0:0:
192,192,5634,1,0,0:0:0:0:
448,192,5801,128,0,5968:0:0:0:0:
192,192,5968,1,0,0:0:0:0:
64,192,5968,128,0,7301:0:0:0:0:
448,192,6301,1,0,0:0:0:0:
192,192,6634,1,0,0:0:0:0:
320,192,6634,1,0,0:0:0:0:
448,192,6801,1,0,0:0:0:0:
192,192,6968,1,0,0:0:0:0:
320,192,7134,1,0,0:0:0:0:
448,192,7301,128,0,7634:0:0:0:0:
192,192,7301,1,0,0:0:0:0:
192,192,7634,1,0,0:0:0:0:
64,192,7634,128,0,8134:0:0:0:0:
320,192,7801,1,0,0:0:0:0:
448,192,7801,128,0,8134:0:0:0:0:
192,192,8134,1,8,0:0:0:0:
320,192,8218,1,8,0:0:0:0:
192,192,8301,1,8,0:0:0:0:
64,192,8468,1,2,0:0:0:0:
448,192,8468,1,0,0:0:0:0:
320,192,8551,1,2,0:0:0:0:
192,192,8551,1,0,0:0:0:0:
64,192,8634,128,2,9134:0:0:0:0:
448,192,8634,128,0,9134:0:0:0:0:
192,192,9134,1,0,0:0:0:0:
320,192,9218,1,0,0:0:0:0:
448,192,9301,128,0,9801:0:0:0:0:
192,192,9301,128,0,9468:0:0:0:0:
64,192,9468,128,0,9801:0:0:0:0:
192,192,9634,128,0,9968:0:0:0:0:
320,192,9801,128,0,9968:0:0:0:0:
64,192,9968,128,2,10301:0:0:0:0:
448,192,9968,128,0,10301:0:0:0:0:
192,192,10301,1,0,0:0:0:0:
320,192,10384,1,0,0:0:0:0:
448,192,10468,128,2,10968:0:0:0:0:
64,192,10468,128,0,10968:0:0:0:0:
192,192,10468,1,0,0:0:0:0:
448,192,11301,1,2,0:0:0:0:
64,192,11301,1,0,0:0:0:0:
192,192,11301,1,0,0:0:0:0:
320,192,11634,1,2,0:0:0:0:
448,192,11634,1,0,0:0:0:0:
192,192,11801,1,0,0:0:0:0:
64,192,11968,1,2,0:0:0:0:
448,192,11968,1,0,0:0:0:0:
64,192,12134,1,0,0:0:0:0:
320,192,12134,1,0,0:0:0:0:
448,192,12301,1,2,0:0:0:0:
192,192,12301,1,0,0:0:0:0:
320,192,12468,1,0,0:0:0:0:
64,192,12468,1,0,0:0:0:0:
192,192,12634,1,2,0:0:0:0:
448,192,12634,1,0,0:0:0:0:
64,192,12634,1,0,0:0:0:0:
320,192,12801,1,0,0:0:0:0:
64,192,12968,1,2,0:0:0:0:
448,192,12968,1,0,0:0:0:0:
192,192,12968,1,0,0:0:0:0:
448,192,13134,1,0,0:0:0:0:
320,192,13134,1,0,0:0:0:0:
64,192,13134,1,0,0:0:0:0:
192,192,13301,1,2,0:0:0:0:
320,192,13301,1,0,0:0:0:0:
192,192,13468,1,0,0:0:0:0:
64,192,13634,1,2,0:0:0:0:
320,192,13634,1,0,0:0:0:0:
448,192,13634,1,0,0:0:0:0:
192,192,13801,1,0,0:0:0:0:
448,192,13968,1,2,0:0:0:0:
320,192,13968,1,0,0:0:0:0:
64,192,13968,1,0,0:0:0:0:
192,192,14134,1,0,0:0:0:0:
320,192,14301,1,2,0:0:0:0:
64,192,14301,1,0,0:0:0:0:
192,192,14468,1,0,0:0:0:0:
448,192,14634,1,2,0:0:0:0:
64,192,14634,1,0,0:0:0:0:
64,192,14801,1,0,0:0:0:0:
320,192,14801,1,0,0:0:0:0:
192,192,14968,1,2,0:0:0:0:
448,192,14968,1,0,0:0:0:0:
320,192,15134,1,0,0:0:0:0:
64,192,15134,1,0,0:0:0:0:
192,192,15301,1,2,0:0:0:0:
448,192,15301,1,0,0:0:0:0:
64,192,15301,1,0,0:0:0:0:
320,192,15468,1,0,0:0:0:0:
192,192,15634,1,2,0:0:0:0:
448,192,15634,1,0,0:0:0:0:
64,192,15634,1,0,0:0:0:0:
64,192,15801,1,0,0:0:0:0:
320,192,15801,1,0,0:0:0:0:
448,192,15801,1,0,0:0:0:0:
192,192,15968,1,2,0:0:0:0:
320,192,15968,1,0,0:0:0:0:
192,192,16134,1,0,0:0:0:0:
448,192,16301,1,2,0:0:0:0:
320,192,16301,1,0,0:0:0:0:
64,192,16301,1,0,0:0:0:0:
192,192,16468,1,0,0:0:0:0:
448,192,16634,1,2,0:0:0:0:
320,192,16634,1,0,0:0:0:0:
64,192,16634,1,0,0:0:0:0:
192,192,16801,1,0,0:0:0:0:
64,192,16968,1,2,0:0:0:0:
448,192,16968,1,0,0:0:0:0:
192,192,17134,1,0,0:0:0:0:
448,192,17301,1,2,0:0:0:0:
64,192,17301,1,0,0:0:0:0:
64,192,17468,1,0,0:0:0:0:
320,192,17468,1,0,0:0:0:0:
192,192,17634,1,2,0:0:0:0:
448,192,17634,1,0,0:0:0:0:
320,192,17801,1,0,0:0:0:0:
64,192,17801,1,0,0:0:0:0:
192,192,17968,1,2,0:0:0:0:
64,192,17968,1,0,0:0:0:0:
448,192,17968,1,0,0:0:0:0:
320,192,18134,1,0,0:0:0:0:
448,192,18301,1,2,0:0:0:0:
64,192,18301,1,0,0:0:0:0:
192,192,18301,1,0,0:0:0:0:
320,192,18468,1,0,0:0:0:0:
64,192,18468,1,0,0:0:0:0:
448,192,18468,1,0,0:0:0:0:
192,192,18634,1,2,0:0:0:0:
320,192,18634,1,0,0:0:0:0:
64,192,18801,1,8,0:0:0:0:
448,192,18801,1,0,0:0:0:0:
192,192,18884,1,8,0:0:0:0:
448,192,18968,1,2,0:0:0:0:
320,192,18968,1,0,0:0:0:0:
64,192,19009,1,0,0:0:0:0:
192,192,19051,1,0,0:0:0:0:
320,192,19093,1,0,0:0:0:0:
448,192,19134,1,2,0:0:0:0:
64,192,19134,1,0,0:0:0:0:
192,192,19218,1,2,0:0:0:0:
320,192,19218,1,0,0:0:0:0:
448,192,19301,128,2,19801:0:0:0:0:
64,192,19301,128,0,19801:0:0:0:0:
192,192,19801,1,0,0:0:0:0:
320,192,19884,1,0,0:0:0:0:
192,192,19968,128,0,20134:0:0:0:0:
64,192,19968,128,0,20468:0:0:0:0:
448,192,20134,128,0,20468:0:0:0:0:
320,192,20301,128,0,20634:0:0:0:0:
192,192,20468,128,0,20634:0:0:0:0:
448,192,20634,128,2,20968:0:0:0:0:
64,192,20634,128,0,20968:0:0:0:0:
192,192,20968,1,0,0:0:0:0:
320,192,21051,1,0,0:0:0:0:
64,192,21134,128,2,21634:0:0:0:0:
448,192,21134,128,0,21634:0:0:0:0:
192,192,21134,1,0,0:0:0:0:
320,192,21968,1,8,0:0:0:0:
448,192,21968,1,0,0:0:0:0:
64,192,22076,1,8,0:0:0:0:
320,192,22076,1,0,0:0:0:0:
192,192,22184,1,8,0:0:0:0:
64,192,22184,1,0,0:0:0:0:
320,192,22292,1,8,0:0:0:0:
448,192,22292,1,0,0:0:0:0:
448,192,22400,1,8,0:0:0:0:
192,192,22400,1,0,0:0:0:0:
64,192,22508,1,8,0:0:0:0:
192,192,22508,1,0,0:0:0:0:
320,192,22616,1,0,0:0:0:0:
448,192,22616,1,8,0:0:0:0:
320,192,22724,1,8,0:0:0:0:
64,192,22724,1,0,0:0:0:0:
192,192,22832,1,8,0:0:0:0:
64,192,22832,1,0,0:0:0:0:
320,192,22940,1,8,0:0:0:0:
448,192,22940,1,0,0:0:0:0:
448,192,23049,1,8,0:0:0:0:
192,192,23049,1,0,0:0:0:0:
192,192,23157,1,8,0:0:0:0:
64,192,23157,1,0,0:0:0:0:
448,192,23233,1,0,0:0:0:0:
320,192,23259,1,0,0:0:0:0:
448,192,24180,1,0,0:0:0:0:
320,192,24338,1,0,0:0:0:0:
64,192,24496,1,0,0:0:0:0:
192,192,24522,1,0,0:0:0:0:
320,192,24548,1,0,0:0:0:0:
448,192,24575,1,0,0:0:0:0:
192,192,25022,1,0,0:0:0:0:
64,192,25798,1,0,0:0:0:0:
192,192,25838,1,0,0:0:0:0:
448,192,25877,1,0,0:0:0:0:
64,192,26417,1,0,0:0:0:0:
192,192,26575,1,0,0:0:0:0:
320,192,26733,1,0,0:0:0:0:
448,192,26890,1,0,0:0:0:0:
64,192,27022,1,0,0:0:0:0:
192,192,27061,1,0,0:0:0:0:
320,192,27101,1,0,0:0:0:0:
192,192,27548,1,0,0:0:0:0:
320,192,27575,1,0,0:0:0:0:
448,192,27601,1,0,0:0:0:0:
448,192,28285,1,0,0:0:0:0:
320,192,28311,1,0,0:0:0:0:
192,192,28338,1,0,0:0:0:0:
64,192,28364,1,0,0:0:0:0:
320,192,28917,1,0,0:0:0:0:
64,192,28917,1,0,0:0:0:0:
192,192,29075,1,0,0:0:0:0:
448,192,29233,1,0,0:0:0:0:
320,192,29233,1,0,0:0:0:0:
64,192,29390,1,0,0:0:0:0:
192,192,29548,1,0,0:0:0:0:
448,192,29548,1,0,0:0:0:0:
448,192,29864,128,0,31443:0:0:0:0:
320,192,29864,1,0,0:0:0:0:
64,192,30022,1,0,0:0:0:0:
320,192,30180,128,0,31127:0:0:0:0:
192,192,30180,1,0,0:0:0:0:
192,192,30496,128,0,30811:0:0:0:0:
64,192,30496,1,0,0:0:0:0:
64,192,30811,128,0,32390:0:0:0:0:
192,192,31127,128,0,31759:0:0:0:0:
320,192,31443,128,0,31917:0:0:0:0:
448,192,31759,128,0,32390:0:0:0:0:
192,192,31917,128,0,32075:0:0:0:0:
320,192,32075,128,0,32706:0:0:0:0:
192,192,32390,128,0,33338:0:0:0:0:
64,192,32706,128,0,33022:0:0:0:0:
448,192,32706,128,0,33022:0:0:0:0:
320,192,33022,128,0,33338:0:0:0:0:
448,192,33338,128,2,34285:0:0:0:0:
64,192,33338,1,12,0:0:0:0:
192,192,33496,1,0,0:0:0:0:
320,192,33654,1,8,0:0:0:0:
64,192,33654,1,0,0:0:0:0:
192,192,33811,1,0,0:0:0:0:
320,192,33969,1,2,0:0:0:0:
64,192,33969,1,0,0:0:0:0:
192,192,34127,1,0,0:0:0:0:
64,192,34285,128,8,34601:0:0:0:0:
320,192,34285,1,0,0:0:0:0:
192,192,34443,128,0,34601:0:0:0:0:
448,192,34601,128,2,35075:0:0:0:0:
320,192,34601,1,0,0:0:0:0:
192,192,34759,1,0,0:0:0:0:
320,192,34917,1,8,0:0:0:0:
64,192,34917,1,0,0:0:0:0:
64,192,35075,128,0,35390:0:0:0:0:
192,192,35233,1,2,0:0:0:0:
448,192,35233,1,0,0:0:0:0:
320,192,35390,1,0,0:0:0:0:
448,192,35548,1,8,0:0:0:0:
64,192,35548,1,0,0:0:0:0:
192,192,35627,1,0,0:0:0:0:
320,192,35706,1,0,0:0:0:0:
192,192,35785,1,0,0:0:0:0:
448,192,35864,128,2,36338:0:0:0:0:
64,192,35864,1,0,0:0:0:0:
192,192,36022,1,0,0:0:0:0:
320,192,36180,1,8,0:0:0:0:
64,192,36180,1,0,0:0:0:0:
192,192,36338,1,0,0:0:0:0:
320,192,36417,1,0,0:0:0:0:
192,192,36496,1,2,0:0:0:0:
64,192,36496,128,0,36811:0:0:0:0:
448,192,36654,128,0,36811:0:0:0:0:
320,192,36811,128,0,37127:0:0:0:0:
192,192,36811,1,8,0:0:0:0:
64,192,36969,128,0,37127:0:0:0:0:
448,192,37127,128,2,37601:0:0:0:0:
192,192,37127,1,0,0:0:0:0:
64,192,37285,1,0,0:0:0:0:
320,192,37443,1,8,0:0:0:0:
192,192,37443,1,0,0:0:0:0:
64,192,37601,128,0,38075:0:0:0:0:
448,192,37759,1,2,0:0:0:0:
320,192,37759,1,0,0:0:0:0:
192,192,37917,1,0,0:0:0:0:
320,192,38075,1,8,0:0:0:0:
448,192,38075,1,0,0:0:0:0:
192,192,38154,1,0,0:0:0:0:
320,192,38233,1,0,0:0:0:0:
192,192,38311,1,0,0:0:0:0:
64,192,38390,1,2,0:0:0:0:
448,192,38390,128,0,38864:0:0:0:0:
192,192,38548,1,0,0:0:0:0:
320,192,38706,1,8,0:0:0:0:
64,192,38706,1,0,0:0:0:0:
192,192,38864,1,0,0:0:0:0:
320,192,38943,1,0,0:0:0:0:
448,192,39022,128,2,39233:0:0:0:0:
64,192,39022,1,0,0:0:0:0:
320,192,39127,128,0,39338:0:0:0:0:
192,192,39233,128,0,39443:0:0:0:0:
64,192,39338,128,8,39548:0:0:0:0:
448,192,39338,128,0,39548:0:0:0:0:
320,192,39443,128,0,39654:0:0:0:0:
192,192,39548,128,0,39654:0:0:0:0:
448,192,39654,1,2,0:0:0:0:
64,192,39654,128,0,40127:0:0:0:0:
320,192,39811,1,0,0:0:0:0:
192,192,39969,1,8,0:0:0:0:
448,192,39969,1,0,0:0:0:0:
448,192,40127,1,0,0:0:0:0:
320,192,40127,128,0,40601:0:0:0:0:
64,192,40285,1,2,0:0:0:0:
192,192,40285,1,0,0:0:0:0:
192,192,40443,1,0,0:0:0:0:
64,192,40601,1,8,0:0:0:0:
448,192,40601,1,0,0:0:0:0:
192,192,40680,1,0,0:0:0:0:
320,192,40759,1,0,0:0:0:0:
192,192,40838,1,0,0:0:0:0:
448,192,40917,1,2,0:0:0:0:
64,192,40917,128,0,41390:0:0:0:0:
320,192,41075,1,0,0:0:0:0:
448,192,41233,1,8,0:0:0:0:
192,192,41233,1,0,0:0:0:0:
320,192,41390,1,0,0:0:0:0:
192,192,41469,1,0,0:0:0:0:
64,192,41548,128,2,41759:0:0:0:0:
320,192,41548,1,0,0:0:0:0:
192,192,41654,128,0,41864:0:0:0:0:
320,192,41759,128,0,41969:0:0:0:0:
448,192,41864,128,8,42075:0:0:0:0:
64,192,41864,128,0,42075:0:0:0:0:
192,192,41969,128,0,42180:0:0:0:0:
320,192,42075,128,0,42180:0:0:0:0:
64,192,42180,1,2,0:0:0:0:
448,192,42180,128,0,42654:0:0:0:0:
192,192,42338,1,0,0:0:0:0:
320,192,42496,1,8,0:0:0:0:
64,192,42496,1,0,0:0:0:0:
192,192,42575,1,0,0:0:0:0:
320,192,42654,1,0,0:0:0:0:
192,192,42733,1,0,0:0:0:0:
64,192,42811,1,2,0:0:0:0:
320,192,42811,128,0,43127:0:0:0:0:
192,192,42969,128,2,43443:0:0:0:0:
448,192,43127,1,8,0:0:0:0:
64,192,43127,1,0,0:0:0:0:
320,192,43285,128,0,43443:0:0:0:0:
64,192,43443,1,2,0:0:0:0:
448,192,43443,128,2,44075:0:0:0:0:
320,192,43601,1,0,0:0:0:0:
192,192,43759,1,0,0:0:0:0:
320,192,43917,1,2,0:0:0:0:
64,192,43917,1,0,0:0:0:0:
320,192,44075,128,2,44390:0:0:0:0:
192,192,44075,1,8,0:0:0:0:
64,192,44233,1,0,0:0:0:0:
448,192,44390,128,0,44706:0:0:0:0:
192,192,44390,1,0,0:0:0:0:
64,192,44548,1,0,0:0:0:0:
192,192,44706,128,2,45338:0:0:0:0:
320,192,44706,1,0,0:0:0:0:
64,192,44864,1,0,0:0:0:0:
320,192,45022,1,2,0:0:0:0:
448,192,45022,1,0,0:0:0:0:
448,192,45180,1,2,0:0:0:0:
320,192,45180,1,0,0:0:0:0:
448,192,45338,128,2,45654:0:0:0:0:
64,192,45338,1,8,0:0:0:0:
320,192,45496,1,2,0:0:0:0:
64,192,45496,1,0,0:0:0:0:
320,192,45654,128,2,45969:0:0:0:0:
192,192,45654,1,0,0:0:0:0:
64,192,45811,1,0,0:0:0:0:
64,192,45969,128,2,46601:0:0:0:0:
448,192,45969,1,0,0:0:0:0:
192,192,46127,1,0,0:0:0:0:
320,192,46285,1,0,0:0:0:0:
448,192,46443,1,2,0:0:0:0:
192,192,46443,1,0,0:0:0:0:
448,192,46601,128,2,46917:0:0:0:0:
320,192,46601,1,8,0:0:0:0:
192,192,46759,1,0,0:0:0:0:
64,192,46917,128,0,47233:0:0:0:0:
320,192,46917,1,0,0:0:0:0:
192,192,47075,1,0,0:0:0:0:
320,192,47233,1,2,0:0:0:0:
448,192,47233,128,0,47864:0:0:0:0:
192,192,47390,1,0,0:0:0:0:
320,192,47548,1,2,0:0:0:0:
64,192,47548,1,0,0:0:0:0:
320,192,47706,1,2,0:0:0:0:
64,192,47706,1,0,0:0:0:0:
192,192,47864,128,2,48496:0:0:0:0:
64,192,47864,1,8,0:0:0:0:
320,192,48022,1,2,0:0:0:0:
448,192,48022,1,0,0:0:0:0:
320,192,48180,1,2,0:0:0:0:
64,192,48180,1,0,0:0:0:0:
448,192,48338,1,2,0:0:0:0:
64,192,48338,1,0,0:0:0:0:
320,192,48417,1,0,0:0:0:0:
448,192,48496,128,2,49127:0:0:0:0:
64,192,48496,1,0,0:0:0:0:
320,192,48654,1,0,0:0:0:0:
192,192,48811,1,0,0:0:0:0:
320,192,48969,1,2,0:0:0:0:
64,192,48969,1,0,0:0:0:0:
192,192,49127,1,2,0:0:0:0:
64,192,49127,128,8,49443:0:0:0:0:
320,192,49285,1,0,0:0:0:0:
192,192,49443,128,0,49759:0:0:0:0:
448,192,49443,1,0,0:0:0:0:
320,192,49601,1,0,0:0:0:0:
448,192,49759,128,2,50390:0:0:0:0:
64,192,49759,1,0,0:0:0:0:
320,192,49917,1,0,0:0:0:0:
192,192,50075,1,2,0:0:0:0:
64,192,50075,1,0,0:0:0:0:
192,192,50233,1,2,0:0:0:0:
64,192,50233,1,0,0:0:0:0:
320,192,50390,1,2,0:0:0:0:
64,192,50390,128,8,50706:0:0:0:0:
192,192,50548,1,2,0:0:0:0:
320,192,50548,1,0,0:0:0:0:
320,192,50706,128,2,51022:0:0:0:0:
448,192,50706,1,0,0:0:0:0:
192,192,50864,1,0,0:0:0:0:
448,192,51022,128,0,51654:0:0:0:0:
64,192,51022,1,2,0:0:0:0:
192,192,51180,1,0,0:0:0:0:
320,192,51338,1,0,0:0:0:0:
192,192,51496,1,2,0:0:0:0:
64,192,51496,1,0,0:0:0:0:
320,192,51654,1,2,0:0:0:0:
64,192,51654,128,8,51969:0:0:0:0:
192,192,51811,1,0,0:0:0:0:
448,192,51969,128,0,52285:0:0:0:0:
320,192,51969,1,0,0:0:0:0:
192,192,52127,1,0,0:0:0:0:
64,192,52285,1,2,0:0:0:0:
320,192,52285,1,0,0:0:0:0:
192,192,52364,1,0,0:0:0:0:
320,192,52443,1,0,0:0:0:0:
192,192,52522,1,0,0:0:0:0:
64,192,52601,1,2,0:0:0:0:
448,192,52601,1,0,0:0:0:0:
320,192,52680,1,0,0:0:0:0:
192,192,52759,1,2,0:0:0:0:
448,192,52759,1,0,0:0:0:0:
320,192,52838,1,0,0:0:0:0:
192,192,52917,1,2,0:0:0:0:
64,192,52917,1,8,0:0:0:0:
448,192,52996,1,0,0:0:0:0:
320,192,53075,1,0,0:0:0:0:
64,192,53075,1,2,0:0:0:0:
192,192,53154,1,0,0:0:0:0:
448,192,53233,1,2,0:0:0:0:
320,192,53233,1,0,0:0:0:0:
64,192,53311,1,2,0:0:0:0:
192,192,53311,1,0,0:0:0:0:
448,192,53390,1,2,0:0:0:0:
320,192,53390,1,0,0:0:0:0:
192,192,53469,1,2,0:0:0:0:
64,192,53469,1,0,0:0:0:0:
64,192,53548,128,2,53654:0:0:0:0:
320,192,53548,1,0,0:0:0:0:
448,192,53548,1,0,0:0:0:0:
192,192,53654,128,0,53759:0:0:0:0:
64,192,53759,128,0,54285:0:0:0:0:
320,192,53759,128,0,53864:0:0:0:0:
448,192,53864,128,10,53969:0:0:0:0:
192,192,53864,128,0,54180:0:0:0:0:
320,192,53969,128,0,54075:0:0:0:0:
448,192,54075,128,0,54180:0:0:0:0:
320,192,54180,128,2,54285:0:0:0:0:
192,192,54285,128,0,54390:0:0:0:0:
320,192,54390,1,2,0:0:0:0:
64,192,54390,128,0,54496:0:0:0:0:
448,192,54496,1,10,0:0:0:0:
192,192,54496,1,0,0:0:0:0:
320,192,54601,1,0,0:0:0:0:
192,192,54706,1,0,0:0:0:0:
320,192,54759,1,0,0:0:0:0:
64,192,54811,1,2,0:0:0:0:
448,192,54811,128,0,54917:0:0:0:0:
320,192,54917,128,0,55022:0:0:0:0:
192,192,55022,128,0,55127:0:0:0:0:
448,192,55022,128,0,55548:0:0:0:0:
64,192,55127,128,10,55233:0:0:0:0:
320,192,55127,128,0,55443:0:0:0:0:
192,192,55233,128,0,55338:0:0:0:0:
64,192,55338,128,0,55443:0:0:0:0:
192,192,55443,128,2,55548:0:0:0:0:
320,192,55548,128,0,55654:0:0:0:0:
192,192,55654,1,2,0:0:0:0:
448,192,55654,128,0,55759:0:0:0:0:
64,192,55759,1,8,0:0:0:0:
320,192,55759,1,2,0:0:0:0:
192,192,55864,1,0,0:0:0:0:
320,192,55969,1,0,0:0:0:0:
192,192,56022,1,0,0:0:0:0:
448,192,56075,1,2,0:0:0:0:
64,192,56075,128,0,56180:0:0:0:0:
192,192,56180,128,0,56285:0:0:0:0:
320,192,56285,128,0,56390:0:0:0:0:
64,192,56285,128,0,56811:0:0:0:0:
448,192,56390,128,10,56496:0:0:0:0:
192,192,56390,128,0,56706:0:0:0:0:
320,192,56496,128,0,56601:0:0:0:0:
448,192,56601,128,0,56706:0:0:0:0:
320,192,56706,128,2,56811:0:0:0:0:
192,192,56811,128,0,56917:0:0:0:0:
64,192,56917,128,2,57022:0:0:0:0:
320,192,56917,1,0,0:0:0:0:
448,192,57022,1,2,0:0:0:0:
192,192,57022,1,8,0:0:0:0:
320,192,57127,1,0,0:0:0:0:
192,192,57233,1,0,0:0:0:0:
320,192,57285,1,0,0:0:0:0:
64,192,57338,1,2,0:0:0:0:
448,192,57338,128,0,57548:0:0:0:0:
320,192,57443,128,0,57654:0:0:0:0:
192,192,57548,128,0,57759:0:0:0:0:
448,192,57654,128,10,57759:0:0:0:0:
64,192,57654,128,0,57864:0:0:0:0:
320,192,57759,128,0,57864:0:0:0:0:
192,192,57864,128,0,57969:0:0:0:0:
448,192,57969,1,2,0:0:0:0:
64,192,57969,1,0,0:0:0:0:
320,192,58075,1,2,0:0:0:0:
192,192,58075,1,0,0:0:0:0:
448,192,58180,1,2,0:0:0:0:
64,192,58180,1,0,0:0:0:0:
192,192,58285,1,10,0:0:0:0:
64,192,58285,1,0,0:0:0:0:
320,192,58285,1,0,0:0:0:0:
448,192,58390,1,2,0:0:0:0:
320,192,58390,1,0,0:0:0:0:
192,192,58496,1,2,0:0:0:0:
64,192,58496,1,0,0:0:0:0:
64,192,58601,1,2,0:0:0:0:
448,192,58601,128,0,59548:0:0:0:0:
320,192,58601,1,0,0:0:0:0:
64,192,59548,1,0,0:0:0:0:
192,192,59627,1,0,0:0:0:0:
320,192,59706,1,0,0:0:0:0:
448,192,59785,1,0,0:0:0:0:
64,192,59864,1,2,0:0:0:0:
192,192,59864,1,0,0:0:0:0:
320,192,59943,1,0,0:0:0:0:
448,192,60022,1,0,0:0:0:0:
64,192,60101,1,0,0:0:0:0:
192,192,60180,1,0,0:0:0:0:
448,192,60259,1,0,0:0:0:0:
320,192,60338,1,0,0:0:0:0:
192,192,60417,1,0,0:0:0:0:
64,192,60496,1,0,0:0:0:0:
320,192,60575,1,0,0:0:0:0:
448,192,60654,1,0,0:0:0:0:
192,192,60733,1,0,0:0:0:0:
64,192,60811,1,0,0:0:0:0:
448,192,60890,1,0,0:0:0:0:
320,192,60969,1,0,0:0:0:0:
192,192,61048,1,0,0:0:0:0:
64,192,61127,1,2,0:0:0:0:
448,192,61127,1,0,0:0:0:0:
192,192,61206,1,0,0:0:0:0:
320,192,61285,1,0,0:0:0:0:
64,192,61364,1,0,0:0:0:0:
320,192,61443,1,0,0:0:0:0:
192,192,61522,1,0,0:0:0:0:
448,192,61601,1,0,0:0:0:0:
192,192,61680,1,0,0:0:0:0:
320,192,61759,1,0,0:0:0:0:
64,192,61838,1,0,0:0:0:0:
320,192,61917,1,0,0:0:0:0:
192,192,61996,1,0,0:0:0:0:
448,192,62075,1,0,0:0:0:0:
192,192,62154,1,0,0:0:0:0:
320,192,62233,1,0,0:0:0:0:
64,192,62311,1,0,0:0:0:0:
448,192,62390,1,8,0:0:0:0:
320,192,62390,1,0,0:0:0:0:
320,192,62492,1,8,0:0:0:0:
64,192,62492,1,0,0:0:0:0:
64,192,62595,1,8,0:0:0:0:
192,192,62595,1,0,0:0:0:0:
448,192,62697,1,8,0:0:0:0:
320,192,62697,1,0,0:0:0:0:
192,192,62800,1,8,0:0:0:0:
448,192,62800,1,0,0:0:0:0:
192,192,62902,1,8,0:0:0:0:
64,192,62902,1,0,0:0:0:0:
320,192,63005,1,8,0:0:0:0:
448,192,63005,1,0,0:0:0:0:
320,192,63107,1,8,0:0:0:0:
64,192,63107,1,0,0:0:0:0:
64,192,63210,1,8,0:0:0:0:
192,192,63210,1,0,0:0:0:0:
448,192,63313,1,8,0:0:0:0:
320,192,63313,1,0,0:0:0:0:
192,192,63415,1,8,0:0:0:0:
448,192,63415,1,0,0:0:0:0:
192,192,63518,1,8,0:0:0:0:
64,192,63518,1,0,0:0:0:0:
320,192,63620,1,6,0:0:0:0:
448,192,63620,128,0,64070:0:0:0:0:
64,192,63620,1,8,0:0:0:0:
192,192,63770,1,0,0:0:0:0:
320,192,63920,1,8,0:0:0:0:
64,192,63920,1,0,0:0:0:0:
192,192,64070,1,0,0:0:0:0:
64,192,64220,128,2,64520:0:0:0:0:
320,192,64220,1,0,0:0:0:0:
320,192,64370,1,0,0:0:0:0:
448,192,64520,128,8,64820:0:0:0:0:
192,192,64520,1,0,0:0:0:0:
192,192,64670,1,0,0:0:0:0:
64,192,64820,128,2,65270:0:0:0:0:
320,192,64820,1,0,0:0:0:0:
192,192,64970,1,0,0:0:0:0:
448,192,65120,1,8,0:0:0:0:
320,192,65120,1,0,0:0:0:0:
192,192,65270,1,0,0:0:0:0:
320,192,65345,1,0,0:0:0:0:
448,192,65420,128,2,65570:0:0:0:0:
192,192,65420,1,0,0:0:0:0:
64,192,65570,1,0,0:0:0:0:
192,192,65645,1,0,0:0:0:0:
320,192,65720,128,8,65870:0:0:0:0:
448,192,65720,1,0,0:0:0:0:
192,192,65870,1,0,0:0:0:0:
64,192,66020,128,2,66170:0:0:0:0:
448,192,66020,1,0,0:0:0:0:
320,192,66170,1,0,0:0:0:0:
192,192,66245,1,0,0:0:0:0:
448,192,66320,128,8,66470:0:0:0:0:
320,192,66320,1,0,0:0:0:0:
192,192,66470,1,0,0:0:0:0:
320,192,66545,1,0,0:0:0:0:
64,192,66620,128,2,66770:0:0:0:0:
192,192,66620,1,0,0:0:0:0:
320,192,66770,1,0,0:0:0:0:
192,192,66920,128,8,67070:0:0:0:0:
448,192,66920,1,0,0:0:0:0:
320,192,67070,1,0,0:0:0:0:
448,192,67220,128,2,67820:0:0:0:0:
192,192,67220,1,0,0:0:0:0:
64,192,67220,1,0,0:0:0:0:
320,192,67370,1,0,0:0:0:0:
192,192,67520,1,8,0:0:0:0:
64,192,67520,1,0,0:0:0:0:
320,192,67670,1,0,0:0:0:0:
192,192,67820,1,2,0:0:0:0:
64,192,67820,1,0,0:0:0:0:
320,192,67970,128,0,68120:0:0:0:0:
448,192,68120,1,8,0:0:0:0:
192,192,68120,128,0,68270:0:0:0:0:
64,192,68270,128,0,68420:0:0:0:0:
448,192,68420,1,2,0:0:0:0:
320,192,68420,128,0,68720:0:0:0:0:
192,192,68570,1,0,0:0:0:0:
448,192,68720,128,8,69020:0:0:0:0:
64,192,68720,1,0,0:0:0:0:
192,192,68870,1,0,0:0:0:0:
320,192,69020,1,2,0:0:0:0:
64,192,69020,128,0,69320:0:0:0:0:
192,192,69170,1,0,0:0:0:0:
320,192,69320,1,8,0:0:0:0:
448,192,69320,128,0,69620:0:0:0:0:
192,192,69470,1,0,0:0:0:0:
320,192,69620,128,2,69920:0:0:0:0:
64,192,69620,1,0,0:0:0:0:
192,192,69770,1,0,0:0:0:0:
64,192,69920,128,8,70220:0:0:0:0:
448,192,69920,1,0,0:0:0:0:
192,192,70070,1,0,0:0:0:0:
320,192,70220,1,2,0:0:0:0:
448,192,70220,128,0,70520:0:0:0:0:
192,192,70370,1,0,0:0:0:0:
64,192,70520,128,8,70820:0:0:0:0:
320,192,70520,1,0,0:0:0:0:
192,192,70670,1,0,0:0:0:0:
320,192,70820,128,2,71120:0:0:0:0:
448,192,70820,1,0,0:0:0:0:
64,192,70970,1,0,0:0:0:0:
448,192,71120,128,8,71420:0:0:0:0:
192,192,71120,1,0,0:0:0:0:
64,192,71270,1,0,0:0:0:0:
320,192,71420,1,2,0:0:0:0:
192,192,71420,128,0,71720:0:0:0:0:
448,192,71570,1,0,0:0:0:0:
64,192,71720,128,8,72020:0:0:0:0:
320,192,71720,1,0,0:0:0:0:
448,192,71870,1,0,0:0:0:0:
192,192,72020,1,2,0:0:0:0:
320,192,72020,128,0,72320:0:0:0:0:
64,192,72170,1,0,0:0:0:0:
448,192,72320,128,8,72620:0:0:0:0:
192,192,72320,1,0,0:0:0:0:
64,192,72470,1,0,0:0:0:0:
192,192,72620,1,2,0:0:0:0:
320,192,72620,1,0,0:0:0:0:
64,192,72695,1,0,0:0:0:0:
192,192,72770,1,0,0:0:0:0:
320,192,72845,1,0,0:0:0:0:
64,192,72920,1,8,0:0:0:0:
192,192,72920,1,0,0:0:0:0:
448,192,72995,1,0,0:0:0:0:
320,192,73070,1,0,0:0:0:0:
192,192,73145,1,0,0:0:0:0:
448,192,73220,1,14,0:0:0:0:
64,192,73220,128,0,73670:0:0:0:0:
320,192,73220,1,0,0:0:0:0:
320,192,73370,1,0,0:0:0:0:
448,192,73520,1,8,0:0:0:0:
192,192,73520,1,0,0:0:0:0:
320,192,73670,1,0,0:0:0:0:
192,192,73820,128,2,74120:0:0:0:0:
448,192,73820,1,0,0:0:0:0:
448,192,73970,1,0,0:0:0:0:
320,192,74120,128,8,74420:0:0:0:0:
64,192,74120,1,0,0:0:0:0:
64,192,74270,1,0,0:0:0:0:
448,192,74420,128,2,74870:0:0:0:0:
192,192,74420,1,0,0:0:0:0:
64,192,74570,1,0,0:0:0:0:
320,192,74720,1,8,0:0:0:0:
192,192,74720,1,0,0:0:0:0:
64,192,74870,1,0,0:0:0:0:
192,192,74945,1,0,0:0:0:0:
320,192,75020,128,2,75170:0:0:0:0:
448,192,75020,1,0,0:0:0:0:
64,192,75170,1,0,0:0:0:0:
192,192,75320,128,8,75470:0:0:0:0:
448,192,75320,1,0,0:0:0:0:
64,192,75470,1,0,0:0:0:0:
448,192,75620,128,2,75770:0:0:0:0:
320,192,75620,1,0,0:0:0:0:
192,192,75770,1,0,0:0:0:0:
320,192,75845,1,0,0:0:0:0:
64,192,75920,128,8,76070:0:0:0:0:
192,192,75920,1,0,0:0:0:0:
448,192,76070,1,0,0:0:0:0:
320,192,76145,1,0,0:0:0:0:
64,192,76220,1,2,0:0:0:0:
192,192,76220,128,0,76370:0:0:0:0:
320,192,76370,1,0,0:0:0:0:
448,192,76520,128,8,76670:0:0:0:0:
64,192,76520,1,0,0:0:0:0:
320,192,76670,1,0,0:0:0:0:
64,192,76820,128,2,77420:0:0:0:0:
192,192,76820,1,0,0:0:0:0:
448,192,76820,1,0,0:0:0:0:
320,192,76970,1,0,0:0:0:0:
448,192,77120,1,8,0:0:0:0:
192,192,77120,1,0,0:0:0:0:
320,192,77270,1,0,0:0:0:0:
192,192,77420,1,2,0:0:0:0:
448,192,77420,1,0,0:0:0:0:
320,192,77570,128,0,77720:0:0:0:0:
192,192,77720,128,8,77870:0:0:0:0:
448,192,77720,1,0,0:0:0:0:
64,192,77870,128,0,78020:0:0:0:0:
448,192,78020,128,2,78470:0:0:0:0:
320,192,78020,1,0,0:0:0:0:
192,192,78170,1,0,0:0:0:0:
320,192,78320,1,8,0:0:0:0:
64,192,78320,1,0,0:0:0:0:
192,192,78470,1,0,0:0:0:0:
64,192,78620,128,2,78920:0:0:0:0:
320,192,78620,1,0,0:0:0:0:
448,192,78770,1,0,0:0:0:0:
320,192,78920,128,8,79220:0:0:0:0:
192,192,78920,1,0,0:0:0:0:
64,192,79070,1,0,0:0:0:0:
448,192,79220,128,2,79670:0:0:0:0:
192,192,79220,1,0,0:0:0:0:
64,192,79370,1,0,0:0:0:0:
320,192,79520,1,8,0:0:0:0:
192,192,79520,1,0,0:0:0:0:
64,192,79670,128,0,80420:0:0:0:0:
320,192,79670,1,0,0:0:0:0:
448,192,79820,1,2,0:0:0:0:
192,192,79820,1,0,0:0:0:0:
320,192,79970,1,0,0:0:0:0:
192,192,80120,1,8,0:0:0:0:
448,192,80120,1,0,0:0:0:0:
320,192,80270,1,0,0:0:0:0:
448,192,80420,1,2,0:0:0:0:
192,192,80420,128,0,80720:0:0:0:0:
320,192,80570,128,0,80870:0:0:0:0:
448,192,80720,128,8,81020:0:0:0:0:
64,192,80720,1,0,0:0:0:0:
192,192,80870,128,0,81170:0:0:0:0:
320,192,81020,128,2,81320:0:0:0:0:
64,192,81020,1,0,0:0:0:0:
448,192,81170,128,0,81470:0:0:0:0:
192,192,81320,128,8,81620:0:0:0:0:
64,192,81320,1,0,0:0:0:0:
320,192,81470,128,0,81620:0:0:0:0:
64,192,81620,128,2,81920:0:0:0:0:
448,192,81620,1,0,0:0:0:0:
320,192,81770,1,0,0:0:0:0:
448,192,81920,128,8,82220:0:0:0:0:
192,192,81920,1,0,0:0:0:0:
192,192,82070,1,0,0:0:0:0:
64,192,82220,128,2,82520:0:0:0:0:
320,192,82220,1,0,0:0:0:0:
192,192,82370,1,2,0:0:0:0:
448,192,82370,1,0,0:0:0:0:
448,192,82520,1,2,0:0:0:0:
320,192,82520,1,0,0:0:0:0:
192,192,82595,1,2,0:0:0:0:
64,192,82595,1,0,0:0:0:0:
320,192,82670,1,2,0:0:0:0:
448,192,82670,1,0,0:0:0:0:
192,192,82745,1,2,0:0:0:0:
64,192,82745,1,0,0:0:0:0:
448,192,82820,1,2,0:0:0:0:
320,192,82820,1,0,0:0:0:0:
64,192,82895,1,0,0:0:0:0:
192,192,82970,1,0,0:0:0:0:
320,192,83045,1,0,0:0:0:0:
448,192,83120,1,8,0:0:0:0:
64,192,83195,1,0,0:0:0:0:
192,192,83270,1,0,0:0:0:0:
448,192,83345,1,0,0:0:0:0:
320,192,83420,1,0,0:0:0:0:
192,192,83495,1,0,0:0:0:0:
64,192,83570,1,0,0:0:0:0:
320,192,83645,1,0,0:0:0:0:
448,192,83720,1,8,0:0:0:0:
64,192,83795,1,0,0:0:0:0:
192,192,83870,1,0,0:0:0:0:
320,192,83945,1,0,0:0:0:0:
448,192,84020,1,0,0:0:0:0:
192,192,84095,1,0,0:0:0:0:
64,192,84170,1,0,0:0:0:0:
448,192,84245,1,0,0:0:0:0:
320,192,84320,1,8,0:0:0:0:
192,192,84395,1,0,0:0:0:0:
64,192,84470,1,0,0:0:0:0:
448,192,84545,1,0,0:0:0:0:
320,192,84620,1,0,0:0:0:0:
64,192,84695,1,0,0:0:0:0:
192,192,84770,1,0,0:0:0:0:
320,192,84845,1,0,0:0:0:0:
448,192,84920,1,8,0:0:0:0:
192,192,84995,1,0,0:0:0:0:
64,192,85070,1,0,0:0:0:0:
192,192,85145,1,0,0:0:0:0:
320,192,85182,1,0,0:0:0:0:
448,192,85220,1,0,0:0:0:0:
320,192,85295,1,0,0:0:0:0:
192,192,85370,1,0,0:0:0:0:
64,192,85445,1,0,0:0:0:0:
448,192,85520,1,8,0:0:0:0:
320,192,85595,1,0,0:0:0:0:
192,192,85670,1,0,0:0:0:0:
64,192,85745,1,0,0:0:0:0:
448,192,85820,1,0,0:0:0:0:
320,192,85895,1,0,0:0:0:0:
64,192,85970,1,0,0:0:0:0:
192,192,86045,1,0,0:0:0:0:
320,192,86120,1,8,0:0:0:0:
448,192,86195,1,0,0:0:0:0:
64,192,86270,1,0,0:0:0:0:
192,192,86345,1,0,0:0:0:0:
64,192,86420,128,2,86870:0:0:0:0:
448,192,86420,128,0,86870:0:0:0:0:
320,192,86420,1,0,0:0:0:0:
64,192,87020,128,2,87470:0:0:0:0:
448,192,87020,1,0,0:0:0:0:
192,192,87020,1,0,0:0:0:0:
448,192,87470,1,0,0:0:0:0:
320,192,87507,1,0,0:0:0:0:
192,192,87545,1,0,0:0:0:0:
64,192,87582,1,0,0:0:0:0:
448,192,87620,128,2,88220:0:0:0:0:
320,192,87620,1,0,0:0:0:0:
192,192,88220,128,0,88520:0:0:0:0:
448,192,88370,128,0,88520:0:0:0:0:
320,192,88520,128,0,88670:0:0:0:0:
192,192,88670,128,0,88820:0:0:0:0:
448,192,88820,1,2,0:0:0:0:
64,192,88820,128,0,89120:0:0:0:0:
320,192,89120,1,0,0:0:0:0:
64,192,89270,1,2,0:0:0:0:
448,192,89270,128,0,89570:0:0:0:0:
320,192,89720,1,0,0:0:0:0:
192,192,89870,1,0,0:0:0:0:
448,192,89920,1,0,0:0:0:0:
320,192,89970,1,0,0:0:0:0:
64,192,90020,128,2,90620:0:0:0:0:
192,192,90020,1,0,0:0:0:0:
320,192,90620,128,0,90920:0:0:0:0:
64,192,90770,128,0,90920:0:0:0:0:
192,192,90920,128,0,91070:0:0:0:0:
320,192,91070,128,0,91220:0:0:0:0:
64,192,91220,1,2,0:0:0:0:
448,192,91220,128,0,91520:0:0:0:0:
192,192,91520,1,0,0:0:0:0:
320,192,91670,1,2,0:0:0:0:
64,192,91670,128,0,91970:0:0:0:0:
448,192,92120,1,0,0:0:0:0:
192,192,92270,1,0,0:0:0:0:
448,192,92320,1,0,0:0:0:0:
320,192,92370,1,0,0:0:0:0:
192,192,92420,1,2,0:0:0:0:
64,192,92420,128,0,92870:0:0:0:0:
320,192,92870,1,0,0:0:0:0:
192,192,92945,1,0,0:0:0:0:
64,192,93020,1,2,0:0:0:0:
448,192,93020,1,0,0:0:0:0:
192,192,93170,1,0,0:0:0:0:
320,192,93320,1,0,0:0:0:0:
192,192,93470,1,0,0:0:0:0:
448,192,93620,128,2,93920:0:0:0:0:
320,192,93620,1,0,0:0:0:0:
192,192,93920,1,0,0:0:0:0:
320,192,94070,1,2,0:0:0:0:
64,192,94070,128,0,94520:0:0:0:0:
192,192,94595,1,0,0:0:0:0:
320,192,94670,1,0,0:0:0:0:
192,192,94745,1,0,0:0:0:0:
448,192,94820,128,2,95420:0:0:0:0:
320,192,94820,1,0,0:0:0:0:
64,192,95270,1,0,0:0:0:0:
192,192,95345,1,0,0:0:0:0:
320,192,95420,128,0,95720:0:0:0:0:
64,192,95570,128,0,95720:0:0:0:0:
192,192,95720,128,0,95870:0:0:0:0:
320,192,95870,128,0,96020:0:0:0:0:
448,192,96020,128,2,96320:0:0:0:0:
64,192,96020,1,0,0:0:0:0:
192,192,96320,5,0,0:0:0:0:
320,192,96395,1,0,0:0:0:0:
64,192,96470,128,2,96920:0:0:0:0:
192,192,96470,1,0,0:0:0:0:
192,192,97220,5,2,0:0:0:0:
64,192,97220,1,0,0:0:0:0:
64,192,97320,1,2,0:0:0:0:
192,192,97320,1,0,0:0:0:0:
192,192,97420,1,2,0:0:0:0:
64,192,97420,1,0,0:0:0:0:
448,192,97520,1,2,0:0:0:0:
320,192,97520,1,0,0:0:0:0:
448,192,97620,1,2,0:0:0:0:
320,192,97620,1,0,0:0:0:0:
448,192,97720,1,2,0:0:0:0:
320,192,97720,1,0,0:0:0:0:
64,192,97820,1,2,0:0:0:0:
192,192,97820,1,0,0:0:0:0:
192,192,97920,1,2,0:0:0:0:
64,192,97920,1,0,0:0:0:0:
192,192,98020,1,2,0:0:0:0:
64,192,98020,1,0,0:0:0:0:
320,192,98120,1,2,0:0:0:0:
448,192,98120,1,0,0:0:0:0:
448,192,98220,1,2,0:0:0:0:
320,192,98220,1,0,0:0:0:0:
448,192,98320,1,2,0:0:0:0:
320,192,98320,1,0,0:0:0:0:
64,192,98420,1,2,0:0:0:0:
192,192,98420,1,0,0:0:0:0:
192,192,98517,1,2,0:0:0:0:
64,192,98517,1,0,0:0:0:0:
64,192,98615,1,2,0:0:0:0:
192,192,98615,1,0,0:0:0:0:
448,192,98712,1,2,0:0:0:0:
320,192,98712,1,0,0:0:0:0:
448,192,98810,1,2,0:0:0:0:
320,192,98810,1,0,0:0:0:0:
320,192,98907,1,2,0:0:0:0:
448,192,98907,1,0,0:0:0:0:
64,192,99005,1,2,0:0:0:0:
192,192,99005,1,0,0:0:0:0:
192,192,99102,1,2,0:0:0:0:
64,192,99102,1,0,0:0:0:0:
64,192,99200,1,2,0:0:0:0:
192,192,99200,1,0,0:0:0:0:
320,192,99298,1,2,0:0:0:0:
448,192,99298,1,0,0:0:0:0:
448,192,99395,1,2,0:0:0:0:
320,192,99395,1,0,0:0:0:0:
320,192,99493,1,2,0:0:0:0:
448,192,99493,1,0,0:0:0:0:
192,192,99590,1,2,0:0:0:0:
64,192,99590,1,0,0:0:0:0:
320,192,99685,1,2,0:0:0:0:
448,192,99685,1,0,0:0:0:0:
448,192,99780,1,2,0:0:0:0:
64,192,99780,1,0,0:0:0:0:
320,192,99875,1,2,0:0:0:0:
192,192,99875,1,0,0:0:0:0:
448,192,99970,1,2,0:0:0:0:
192,192,99970,1,0,0:0:0:0:
320,192,100066,1,2,0:0:0:0:
64,192,100066,1,0,0:0:0:0:
320,192,100161,1,0,0:0:0:0:
448,192,100161,1,2,0:0:0:0:
192,192,100256,1,2,0:0:0:0:
64,192,100256,1,0,0:0:0:0:
320,192,100351,1,2,0:0:0:0:
64,192,100351,1,0,0:0:0:0:
448,192,100447,1,2,0:0:0:0:
192,192,100447,1,0,0:0:0:0:
64,192,100542,1,2,0:0:0:0:
448,192,100542,1,0,0:0:0:0:
192,192,100637,1,0,0:0:0:0:
320,192,100637,1,2,0:0:0:0:
192,192,100732,1,2,0:0:0:0:
64,192,100732,1,0,0:0:0:0:
320,192,100825,1,2,0:0:0:0:
448,192,100825,1,0,0:0:0:0:
192,192,100918,1,2,0:0:0:0:
320,192,100918,1,0,0:0:0:0:
448,192,101011,1,2,0:0:0:0:
64,192,101011,1,0,0:0:0:0:
320,192,101104,1,0,0:0:0:0:
64,192,101104,1,2,0:0:0:0:
192,192,101197,1,2,0:0:0:0:
448,192,101197,1,0,0:0:0:0:
64,192,101290,1,0,0:0:0:0:
448,192,101290,1,2,0:0:0:0:
320,192,101383,1,0,0:0:0:0:
192,192,101383,1,2,0:0:0:0:
192,192,101476,1,0,0:0:0:0:
448,192,101476,1,2,0:0:0:0:
320,192,101569,1,2,0:0:0:0:
64,192,101569,1,0,0:0:0:0:
192,192,101662,1,0,0:0:0:0:
64,192,101662,1,2,0:0:0:0:
320,192,101755,1,2,0:0:0:0:
448,192,101755,1,0,0:0:0:0:
192,192,101848,1,2,0:0:0:0:
64,192,101848,1,0,0:0:0:0:
320,192,101916,1,2,0:0:0:0:
448,192,101916,1,0,0:0:0:0:
192,192,101984,1,2,0:0:0:0:
64,192,101984,1,0,0:0:0:0:
448,192,102052,1,2,0:0:0:0:
320,192,102052,1,0,0:0:0:0:
192,192,102120,1,2,0:0:0:0:
64,192,102120,1,0,0:0:0:0:
320,192,102188,1,2,0:0:0:0:
448,192,102188,1,0,0:0:0:0:
192,192,102257,1,2,0:0:0:0:
64,192,102257,1,0,0:0:0:0:
320,192,102325,1,2,0:0:0:0:
448,192,102325,1,0,0:0:0:0:
192,192,102393,1,2,0:0:0:0:
64,192,102393,1,0,0:0:0:0:
448,192,102461,1,2,0:0:0:0:
320,192,102461,1,0,0:0:0:0:
192,192,102529,1,2,0:0:0:0:
64,192,102529,1,0,0:0:0:0:
320,192,102598,1,2,0:0:0:0:
448,192,102598,1,0,0:0:0:0:
192,192,102666,1,2,0:0:0:0:
64,192,102666,1,0,0:0:0:0:
320,192,102734,1,2,0:0:0:0:
448,192,102734,1,0,0:0:0:0:
192,192,102802,1,2,0:0:0:0:
64,192,102802,1,0,0:0:0:0:
448,192,102870,1,2,0:0:0:0:
320,192,102870,1,0,0:0:0:0:
192,192,102938,1,2,0:0:0:0:
64,192,102938,1,0,0:0:0:0:
320,192,103007,1,2,0:0:0:0:
448,192,103007,1,0,0:0:0:0:
64,192,103075,1,2,0:0:0:0:
192,192,103075,1,0,0:0:0:0:
448,192,103143,1,2,0:0:0:0:
320,192,103143,1,0,0:0:0:0:
192,192,103211,1,2,0:0:0:0:
64,192,103211,1,0,0:0:0:0:
320,192,103279,1,2,0:0:0:0:
448,192,103279,1,0,0:0:0:0:
192,192,103348,1,2,0:0:0:0:
64,192,103348,1,0,0:0:0:0:
320,192,103416,1,2,0:0:0:0:
64,192,103484,1,2,0:0:0:0:
448,192,103484,1,0,0:0:0:0:
192,192,103552,1,2,0:0:0:0:
320,192,103552,1,0,0:0:0:0:
448,192,103620,1,2,0:0:0:0:
64,192,103620,1,0,0:0:0:0:
192,192,103688,1,2,0:0:0:0:
320,192,103688,1,0,0:0:0:0:
64,192,103757,1,0,0:0:0:0:
448,192,103757,1,2,0:0:0:0:
320,192,103825,1,2,0:0:0:0:
192,192,103825,1,0,0:0:0:0:
64,192,103893,1,2,0:0:0:0:
448,192,103893,1,0,0:0:0:0:
320,192,103961,1,2,0:0:0:0:
192,192,103961,1,0,0:0:0:0:
64,192,104029,1,2,0:0:0:0:
448,192,104029,1,0,0:0:0:0:
64,192,105938,1,0,0:0:0:0:
192,192,105973,1,0,0:0:0:0:
448,192,106007,1,0,0:0:0:0:
320,192,106041,1,0,0:0:0:0:
64,192,106075,1,0,0:0:0:0:
192,192,106109,1,0,0:0:0:0:
448,192,106143,1,0,0:0:0:0:
320,192,106177,1,0,0:0:0:0:
192,192,106211,1,0,0:0:0:0:
64,192,106211,1,0,0:0:0:0:
64,192,106348,1,0,0:0:0:0:
320,192,106348,1,0,0:0:0:0:
448,192,106348,1,0,0:0:0:0:
