osu file format v14

[General]
AudioFilename: SDVX_III_Never_Ending_NOFX.mp3
AudioLeadIn: 0
PreviewTime: 63620
Countdown: 0
SampleSet: Soft
StackLeniency: 0.7
Mode: 3
LetterboxInBreaks: 0
SpecialStyle: 0
WidescreenStoryboard: 0

[Editor]
DistanceSpacing: 0.8
BeatDivisor: 4
GridSize: 4
TimelineZoom: 2.299999

[Metadata]
Title:Never Ending
TitleUnicode:Never Ending
Artist:syzfonics
ArtistUnicode:syzfonics
Creator:SpectorDG
Version:BASIC
Source:SOUND VOLTEX III GRAVITY WARS
Tags:KONAMI BEMANI The 4th KACオリジナル楽曲コンテスト RASIS Tsumabuki Voltenizer Maxima SHION SDVX 3
BeatmapID:902755
BeatmapSetID:414856

[Difficulty]
HPDrainRate:7
CircleSize:4
OverallDifficulty:7
ApproachRate:5
SliderMultiplier:1.4
SliderTickRate:1

[Events]
//Background and Video events
0,0,"BG.jpg",0,0
//Break Periods
//Storyboard Layer 0 (Background)
//Storyboard Layer 1 (Fail)
//Storyboard Layer 2 (Pass)
//Storyboard Layer 3 (Foreground)
//Storyboard Sound Samples

[TimingPoints]
635,333.333333333333,4,2,1,50,1,0
635,-94.3396226415094,4,2,1,50,0,0
21968,324.324324324324,4,2,1,50,1,0
21968,-97.0873786407767,4,2,1,50,0,0
23233,315.789473684211,4,2,1,50,1,0
62390,307.692307692308,4,2,1,50,1,0
62390,-103.092783505155,4,2,1,50,0,0
63620,300,4,2,1,50,1,0
63620,-105.263157894737,4,2,1,50,0,1
82820,-105.263157894737,4,2,1,50,0,0
98420,292.682926829268,4,2,1,50,1,0
98420,-107.52688172043,4,2,1,50,0,0
99590,285.714285714286,4,2,1,50,1,0
99590,-111.111111111111,4,2,1,50,0,0
100732,279.06976744186,4,2,1,50,1,0
100732,-113.636363636364,4,2,1,50,0,0
101848,272.727272727273,4,2,1,50,1,0
101848,-116.279069767442,4,2,1,50,0,0

[HitObjects]
320,192,635,5,0,0:0:0:0:
64,192,1301,1,0,0:0:0:0:
192,192,1468,1,0,0:0:0:0:
320,192,1634,1,0,0:0:0:0:
448,192,1801,1,0,0:0:0:0:
320,192,1968,1,0,0:0:0:0:
64,192,1968,1,0,0:0:0:0:
192,192,2301,1,0,0:0:0:0:
448,192,2468,1,0,0:0:0:0:
320,192,2968,1,0,0:0:0:0:
64,192,3301,1,0,0:0:0:0:
448,192,3968,1,0,0:0:0:0:
320,192,4134,1,0,0:0:0:0:
192,192,4301,1,0,0:0:0:0:
64,192,4468,1,0,0:0:0:0:
448,192,4634,1,0,0:0:0:0:
192,192,4634,1,0,0:0:0:0:
320,192,4968,1,0,0:0:0:0:
64,192,5134,1,0,0:0:0:0:
192,192,5634,1,0,0:0:0:0:
448,192,5968,1,0,0:0:0:0:
64,192,6634,1,0,0:0:0:0:
192,192,6801,1,0,0:0:0:0:
320,192,6968,1,0,0:0:0:0:
448,192,7134,1,0,0:0:0:0:
64,192,7301,1,0,0:0:0:0:
192,192,7301,1,0,0:0:0:0:
320,192,7634,1,0,0:0:0:0:
64,192,7801,1,0,0:0:0:0:
320,192,8134,1,8,0:0:0:0:
192,192,8301,1,8,0:0:0:0:
320,192,8468,1,2,0:0:0:0:
64,192,8634,128,2,9134:0:0:0:0:
320,192,9301,1,0,0:0:0:0:
192,192,9468,1,0,0:0:0:0:
64,192,9634,1,0,0:0:0:0:
192,192,9801,1,0,0:0:0:0:
320,192,9968,128,2,10301:0:0:0:0:
448,192,10468,128,2,10968:0:0:0:0:
192,192,11301,1,2,0:0:0:0:
448,192,11968,1,2,0:0:0:0:
192,192,12134,1,0,0:0:0:0:
320,192,12301,1,2,0:0:0:0:
192,192,12468,1,0,0:0:0:0:
64,192,12634,1,2,0:0:0:0:
448,192,12634,1,0,0:0:0:0:
192,192,12968,1,2,0:0:0:0:
320,192,13134,1,0,0:0:0:0:
64,192,13634,1,2,0:0:0:0:
448,192,13968,1,2,0:0:0:0:
192,192,14634,1,2,0:0:0:0:
448,192,14801,1,0,0:0:0:0:
320,192,14968,1,2,0:0:0:0:
192,192,15134,1,0,0:0:0:0:
448,192,15301,1,2,0:0:0:0:
64,192,15301,1,0,0:0:0:0:
320,192,15634,1,2,0:0:0:0:
192,192,15801,1,0,0:0:0:0:
448,192,16301,1,2,0:0:0:0:
64,192,16634,1,2,0:0:0:0:
192,192,17301,1,2,0:0:0:0:
320,192,17468,1,0,0:0:0:0:
192,192,17634,1,2,0:0:0:0:
448,192,17801,1,0,0:0:0:0:
64,192,17968,1,2,0:0:0:0:
192,192,17968,1,0,0:0:0:0:
320,192,18301,1,2,0:0:0:0:
64,192,18468,1,0,0:0:0:0:
320,192,18801,1,8,0:0:0:0:
192,192,18968,1,2,0:0:0:0:
320,192,19134,1,2,0:0:0:0:
192,192,19301,128,2,19801:0:0:0:0:
448,192,19801,1,0,0:0:0:0:
320,192,19968,1,0,0:0:0:0:
64,192,20134,1,0,0:0:0:0:
192,192,20301,1,0,0:0:0:0:
320,192,20468,1,0,0:0:0:0:
448,192,20634,128,2,20968:0:0:0:0:
64,192,21134,128,2,21634:0:0:0:0:
448,192,21968,128,8,22292:0:0:0:0:
320,192,22292,128,8,22616:0:0:0:0:
192,192,22616,128,8,22940:0:0:0:0:
64,192,22940,128,8,23233:0:0:0:0:
320,192,23233,1,0,0:0:0:0:
64,192,24180,1,0,0:0:0:0:
192,192,24338,1,0,0:0:0:0:
448,192,24496,1,0,0:0:0:0:
320,192,25022,1,0,0:0:0:0:
192,192,25798,1,0,0:0:0:0:
64,192,26417,1,0,0:0:0:0:
448,192,26575,1,0,0:0:0:0:
192,192,26733,1,0,0:0:0:0:
320,192,26890,1,0,0:0:0:0:
64,192,27022,1,0,0:0:0:0:
192,192,27548,1,0,0:0:0:0:
320,192,28285,1,0,0:0:0:0:
64,192,28917,1,0,0:0:0:0:
320,192,29075,1,0,0:0:0:0:
192,192,29233,1,0,0:0:0:0:
448,192,29390,1,0,0:0:0:0:
64,192,29548,1,0,0:0:0:0:
448,192,29864,1,0,0:0:0:0:
320,192,30180,1,0,0:0:0:0:
192,192,30496,1,0,0:0:0:0:
64,192,30811,1,0,0:0:0:0:
192,192,31127,1,0,0:0:0:0:
320,192,31443,1,0,0:0:0:0:
448,192,31759,1,0,0:0:0:0:
320,192,31917,1,0,0:0:0:0:
192,192,32075,1,0,0:0:0:0:
64,192,32390,1,0,0:0:0:0:
192,192,32706,1,0,0:0:0:0:
320,192,33022,1,0,0:0:0:0:
64,192,33338,1,2,0:0:0:0:
448,192,33338,1,12,0:0:0:0:
320,192,33654,1,8,0:0:0:0:
64,192,33969,1,2,0:0:0:0:
448,192,34285,1,8,0:0:0:0:
192,192,34601,1,2,0:0:0:0:
448,192,34917,1,8,0:0:0:0:
64,192,35075,128,0,35390:0:0:0:0:
192,192,35548,1,8,0:0:0:0:
320,192,35864,1,2,0:0:0:0:
64,192,36180,1,8,0:0:0:0:
448,192,36496,128,2,36811:0:0:0:0:
192,192,36811,128,8,37127:0:0:0:0:
448,192,37127,1,2,0:0:0:0:
64,192,37443,1,8,0:0:0:0:
320,192,37601,128,0,37917:0:0:0:0:
64,192,38075,1,8,0:0:0:0:
448,192,38390,1,2,0:0:0:0:
192,192,38706,1,8,0:0:0:0:
320,192,39022,128,2,39338:0:0:0:0:
64,192,39338,128,8,39654:0:0:0:0:
448,192,39654,1,2,0:0:0:0:
192,192,39969,1,8,0:0:0:0:
320,192,40127,128,0,40443:0:0:0:0:
64,192,40601,1,8,0:0:0:0:
448,192,40917,1,2,0:0:0:0:
192,192,41233,1,8,0:0:0:0:
64,192,41548,128,2,41864:0:0:0:0:
448,192,41864,128,8,42180:0:0:0:0:
192,192,42180,1,2,0:0:0:0:
320,192,42496,1,8,0:0:0:0:
64,192,42811,1,2,0:0:0:0:
192,192,43127,1,8,0:0:0:0:
448,192,43443,128,2,44075:0:0:0:0:
320,192,44075,128,2,44390:0:0:0:0:
192,192,44390,128,0,44706:0:0:0:0:
64,192,44706,128,2,45338:0:0:0:0:
320,192,45338,128,2,45654:0:0:0:0:
64,192,45654,128,2,45969:0:0:0:0:
448,192,45969,128,2,46601:0:0:0:0:
64,192,46601,128,2,46917:0:0:0:0:
320,192,46917,128,0,47233:0:0:0:0:
64,192,47233,128,2,47864:0:0:0:0:
448,192,47864,128,2,48496:0:0:0:0:
192,192,48496,128,2,49127:0:0:0:0:
320,192,49127,128,2,49443:0:0:0:0:
192,192,49443,128,0,49759:0:0:0:0:
64,192,49759,128,2,50390:0:0:0:0:
320,192,50390,128,2,50706:0:0:0:0:
192,192,50706,128,2,51022:0:0:0:0:
320,192,51022,128,2,51654:0:0:0:0:
64,192,51654,128,2,51969:0:0:0:0:
192,192,51969,128,0,52285:0:0:0:0:
320,192,52285,128,2,52917:0:0:0:0:
64,192,52917,128,2,53233:0:0:0:0:
320,192,53233,128,2,53548:0:0:0:0:
64,192,53548,128,2,53864:0:0:0:0:
448,192,53864,128,10,54180:0:0:0:0:
64,192,54180,128,2,54496:0:0:0:0:
448,192,54496,128,10,54811:0:0:0:0:
192,192,54811,128,2,55127:0:0:0:0:
320,192,55127,128,10,55443:0:0:0:0:
192,192,55443,128,2,55759:0:0:0:0:
320,192,55759,128,8,56075:0:0:0:0:
64,192,56075,128,2,56390:0:0:0:0:
448,192,56390,128,10,56706:0:0:0:0:
64,192,56706,128,2,57022:0:0:0:0:
448,192,57022,128,2,57338:0:0:0:0:
192,192,57338,128,2,57654:0:0:0:0:
320,192,57654,128,10,57969:0:0:0:0:
64,192,57969,128,2,58601:0:0:0:0:
448,192,58285,128,10,58601:0:0:0:0:
192,192,58601,128,2,59548:0:0:0:0:
320,192,59548,128,0,59864:0:0:0:0:
448,192,59864,128,2,60496:0:0:0:0:
192,192,60496,128,0,60811:0:0:0:0:
320,192,60811,128,0,61127:0:0:0:0:
64,192,61127,128,2,62390:0:0:0:0:
448,192,62390,128,8,62697:0:0:0:0:
320,192,62697,128,8,63005:0:0:0:0:
192,192,63005,128,8,63313:0:0:0:0:
64,192,63313,128,8,63620:0:0:0:0:
448,192,63620,1,6,0:0:0:0:
192,192,63620,1,8,0:0:0:0:
320,192,63920,1,8,0:0:0:0:
64,192,64220,1,2,0:0:0:0:
448,192,64520,1,8,0:0:0:0:
64,192,64820,128,2,65270:0:0:0:0:
320,192,65420,1,2,0:0:0:0:
64,192,65720,1,8,0:0:0:0:
448,192,66020,1,2,0:0:0:0:
64,192,66320,1,8,0:0:0:0:
320,192,66620,1,2,0:0:0:0:
64,192,66920,1,8,0:0:0:0:
448,192,67220,128,2,67820:0:0:0:0:
64,192,67970,1,0,0:0:0:0:
192,192,68120,1,8,0:0:0:0:
320,192,68270,1,0,0:0:0:0:
448,192,68420,128,2,68720:0:0:0:0:
192,192,68720,128,8,69020:0:0:0:0:
64,192,69020,128,2,69320:0:0:0:0:
320,192,69320,128,8,69620:0:0:0:0:
448,192,69620,128,2,69920:0:0:0:0:
64,192,69920,128,8,70220:0:0:0:0:
192,192,70220,128,2,70520:0:0:0:0:
448,192,70520,128,8,70820:0:0:0:0:
64,192,70820,128,2,71120:0:0:0:0:
448,192,71120,128,8,71420:0:0:0:0:
192,192,71420,128,2,71720:0:0:0:0:
320,192,71720,128,8,72020:0:0:0:0:
64,192,72020,128,2,72320:0:0:0:0:
448,192,72320,128,8,72620:0:0:0:0:
192,192,72620,128,2,72920:0:0:0:0:
64,192,72920,128,8,73220:0:0:0:0:
448,192,73220,1,14,0:0:0:0:
192,192,73520,1,8,0:0:0:0:
320,192,73820,1,2,0:0:0:0:
64,192,74120,1,8,0:0:0:0:
320,192,74420,128,2,74870:0:0:0:0:
64,192,75020,1,2,0:0:0:0:
448,192,75320,1,8,0:0:0:0:
320,192,75620,1,2,0:0:0:0:
64,192,75920,1,8,0:0:0:0:
448,192,76220,1,2,0:0:0:0:
192,192,76520,1,8,0:0:0:0:
320,192,76820,128,2,77420:0:0:0:0:
64,192,77570,1,0,0:0:0:0:
192,192,77720,1,8,0:0:0:0:
320,192,77870,1,0,0:0:0:0:
448,192,78020,128,2,78620:0:0:0:0:
64,192,78620,128,2,78920:0:0:0:0:
192,192,78920,128,8,79220:0:0:0:0:
448,192,79220,128,2,79670:0:0:0:0:
64,192,79670,128,0,80420:0:0:0:0:
320,192,80420,128,2,80720:0:0:0:0:
192,192,80720,128,8,81020:0:0:0:0:
448,192,81020,128,2,81320:0:0:0:0:
64,192,81320,128,8,81620:0:0:0:0:
448,192,81620,128,2,82220:0:0:0:0:
320,192,82220,1,2,0:0:0:0:
192,192,82370,1,2,0:0:0:0:
64,192,82520,128,2,82820:0:0:0:0:
448,192,82820,1,2,0:0:0:0:
192,192,83120,1,8,0:0:0:0:
320,192,83720,1,8,0:0:0:0:
64,192,84020,1,0,0:0:0:0:
448,192,84320,1,8,0:0:0:0:
192,192,84920,1,8,0:0:0:0:
448,192,85220,1,0,0:0:0:0:
64,192,85520,1,8,0:0:0:0:
320,192,85970,1,0,0:0:0:0:
192,192,86120,1,8,0:0:0:0:
448,192,86420,1,2,0:0:0:0:
64,192,86420,128,0,86870:0:0:0:0:
192,192,87020,1,2,0:0:0:0:
448,192,87020,128,0,87470:0:0:0:0:
64,192,87620,1,2,0:0:0:0:
320,192,87620,1,0,0:0:0:0:
448,192,88220,1,0,0:0:0:0:
320,192,88370,1,0,0:0:0:0:
192,192,88520,1,0,0:0:0:0:
64,192,88670,1,0,0:0:0:0:
192,192,88820,1,2,0:0:0:0:
448,192,88820,1,0,0:0:0:0:
320,192,89120,1,0,0:0:0:0:
64,192,89270,1,2,0:0:0:0:
448,192,89720,1,0,0:0:0:0:
320,192,89870,1,0,0:0:0:0:
64,192,90020,1,2,0:0:0:0:
192,192,90020,1,0,0:0:0:0:
320,192,90620,1,0,0:0:0:0:
192,192,90770,1,0,0:0:0:0:
320,192,90920,1,0,0:0:0:0:
64,192,91070,1,0,0:0:0:0:
192,192,91220,1,2,0:0:0:0:
448,192,91220,1,0,0:0:0:0:
320,192,91520,1,0,0:0:0:0:
64,192,91670,1,2,0:0:0:0:
192,192,92120,1,0,0:0:0:0:
320,192,92270,1,0,0:0:0:0:
448,192,92420,1,2,0:0:0:0:
64,192,92420,1,0,0:0:0:0:
64,192,93020,1,2,0:0:0:0:
192,192,93020,1,0,0:0:0:0:
320,192,93170,1,0,0:0:0:0:
192,192,93320,1,0,0:0:0:0:
320,192,93470,1,0,0:0:0:0:
448,192,93620,1,2,0:0:0:0:
64,192,93620,1,0,0:0:0:0:
192,192,93920,1,0,0:0:0:0:
320,192,94070,128,2,94520:0:0:0:0:
448,192,94820,1,2,0:0:0:0:
192,192,94820,1,0,0:0:0:0:
64,192,95420,1,0,0:0:0:0:
192,192,95570,1,0,0:0:0:0:
320,192,95720,1,0,0:0:0:0:
64,192,95870,1,0,0:0:0:0:
192,192,96020,1,2,0:0:0:0:
448,192,96020,1,0,0:0:0:0:
320,192,96470,1,2,0:0:0:0:
192,192,97220,128,2,99590:0:0:0:0:
448,192,99590,128,2,101848:0:0:0:0:
64,192,101848,128,2,103484:0:0:0:0:
320,192,103484,128,2,104029:0:0:0:0:
64,192,104029,1,2,0:0:0:0:
448,192,104029,1,0,0:0:0:0:
448,192,105938,128,0,106211:0:0:0:0:
64,192,106211,1,0,0:0:0:0:
320,192,106348,1,0,0:0:0:0:
