osu file format v14

[General]
AudioFilename: audio.mp3
AudioLeadIn: 0
PreviewTime: 54775
Countdown: 0
SampleSet: Soft
StackLeniency: 0.4
Mode: 0
LetterboxInBreaks: 0
EpilepsyWarning: 1
WidescreenStoryboard: 0

[Editor]
DistanceSpacing: 1
BeatDivisor: 4
GridSize: 16
TimelineZoom: 3.499999

[Metadata]
Title:Gambling
TitleUnicode:ギャンブル
Artist:syudou
ArtistUnicode:syudou
Creator:Nevo
Version:Ketamine
Source:月が導く異世界道中
Tags:Gamble japanese rock jrock j-rock ツキミチ Tsukimichi: Tsukimichi Moonlit Fantasy -Moonlit Fantasy- りゅうせー anime op opening male vocal tachibana_ dolon doion kayineo killian oku o_k_u ketamine kyouren kittyadventure gokugohan12468 -Nenu- 3 -Nenu-_3 DT Best Mod DT_Best_Mod Rokotsu 露骨 りゅうせー Kuboty 長島涼平 Moon-led Journey Across Another World Moonlight -Moonlight
BeatmapID:4227250
BeatmapSetID:2028625

[Difficulty]
HPDrainRate:6
CircleSize:4
OverallDifficulty:9
ApproachRate:9.3
SliderMultiplier:1.7
SliderTickRate:1

[Events]
//Background and Video events
Video,-350,"gamble.mp4"
0,0,"BG.jpg",0,0
//Break Periods
2,86903,95945
//Storyboard Layer 0 (Background)
//Storyboard Layer 1 (Fail)
//Storyboard Layer 2 (Pass)
//Storyboard Layer 3 (Foreground)
//Storyboard Layer 4 (Overlay)
//Storyboard Sound Samples

[TimingPoints]
989,306.122448979592,4,2,1,50,1,0
8642,-100,4,2,1,60,0,0
9254,-100,4,2,1,70,0,0
9713,-100,4,2,1,40,0,0
10325,-100,4,2,1,80,0,0
10478,-64.5161290322581,4,2,1,80,0,0
10784,-80,4,2,1,70,0,0
14458,-68.9655172413793,4,2,1,70,0,1
14687,-68.9655172413793,4,2,1,5,0,0
14764,-60.6060606060606,4,2,1,70,0,1
14994,-68.9655172413793,4,2,1,5,0,0
15070,-54.054054054054,4,2,1,70,0,1
15300,-68.9655172413793,4,2,1,5,0,0
15376,-48.780487804878,4,2,1,70,0,1
15606,-68.9655172413793,4,2,1,5,0,0
15682,-48.780487804878,4,2,1,70,0,0
16907,-74.0740740740741,4,2,1,70,0,0
19356,-60.6060606060606,4,2,1,70,0,1
19585,-68.9655172413793,4,2,1,5,0,0
19662,-48.780487804878,4,2,1,70,0,1
19892,-68.9655172413793,4,2,1,5,0,0
19968,-40.8163265306122,4,2,1,70,0,1
20198,-68.9655172413793,4,2,1,5,0,0
20274,-35.0877192982456,4,2,1,70,0,1
20504,-68.9655172413793,4,2,1,5,0,0
20580,-83.3333333333333,4,2,1,60,0,0
20886,-100,4,2,1,60,0,0
30376,-100,4,2,1,70,0,0
33131,-83.3333333333333,4,2,1,70,0,0
38029,-71.4285714285714,4,2,1,70,0,0
38335,-62.5,4,2,1,70,0,0
38642,-55.5555555555556,4,2,1,70,0,0
38948,-100,4,2,1,70,0,0
40019,-125,4,2,1,50,0,0
44917,-100,4,2,1,60,0,0
49968,-100,4,2,1,70,0,0
51193,-83.3333333333333,4,2,1,70,0,0
51422,-62.5,4,2,1,5,0,0
51499,-71.4285714285714,4,2,1,70,0,0
51728,-62.5,4,2,1,5,0,0
51805,-71.4285714285714,4,2,1,70,0,0
52034,-62.5,4,2,1,5,0,0
52111,-62.5,4,2,1,70,0,0
52341,-62.5,4,2,1,5,0,0
52417,-62.5,4,2,1,70,0,0
54866,-76.9230769230769,4,2,1,80,0,1
86703,-76.9230769230769,4,2,1,70,0,0
96499,-125,4,2,1,60,0,0
103846,-100,4,2,1,60,0,0
105070,-125,4,2,1,60,0,0
106295,-100,4,2,1,70,0,0
118540,-62.5,4,2,1,70,0,0
118769,-62.5,4,2,1,5,0,0
118846,-55.5555555555556,4,2,1,70,0,0
119075,-62.5,4,2,1,5,0,0
119152,-55.5555555555556,4,2,1,70,0,0
119381,-62.5,4,2,1,5,0,0
119458,-45.4545454545455,4,2,1,70,0,0
119687,-62.5,4,2,1,5,0,0
119764,-45.4545454545455,4,2,1,70,0,0
119841,-45.4545454545455,4,2,1,5,0,0
120529,-45.4545454545455,4,2,1,70,0,0
120682,-55.5555555555556,4,2,1,70,0,0
120989,-71.4285714285714,4,2,1,80,0,1
147927,-71.4285714285714,4,2,1,80,0,0
155070,-100,4,2,1,80,0,0
157570,-133.333333333333,4,2,1,60,0,0
162468,-133.333333333333,4,2,1,70,0,0
163386,-117.647058823529,4,2,1,70,0,0
163693,-105.263157894737,4,2,1,70,0,0
167519,-86.9565217391306,4,2,1,70,0,0
169968,-62.5,4,2,1,70,0,0
170198,-62.5,4,2,1,5,0,0
170274,-55.5555555555556,4,2,1,70,0,0
170504,-62.5,4,2,1,5,0,0
170580,-50,4,2,1,70,0,0
170810,-62.5,4,2,1,5,0,0
170885,-45.4545454545455,4,2,1,70,0,0
171499,-45.4545454545455,4,2,1,50,0,0
171805,-250,4,2,1,50,0,0
172417,-125,4,2,1,60,0,0
173029,-125,4,2,1,70,0,0
173642,-66.6666666666667,4,2,1,85,0,1
204866,-66.6666666666667,4,2,1,60,0,1
205172,-142.857142857143,4,2,1,60,0,0
206244,-142.857142857143,4,2,1,70,0,0
206703,-142.857142857143,4,2,1,60,0,0
206856,-142.857142857143,4,2,1,50,0,0
214357,-142.857142857143,4,2,1,60,0,0
214969,-142.857142857143,4,2,1,70,0,0
215428,-142.857142857143,4,2,1,40,0,0

[Colours]
Combo1 : 192,192,192
Combo2 : 255,255,147
Combo3 : 137,254,107

[HitObjects]
97,318,989,6,0,L|286:295,1,170,4|8,1:0|0:3,0:0:0:0:
445,146,1448,1,2,0:0:0:0:
351,154,1601,2,0,L|333:243,1,85,8|0,0:3|1:0,0:0:0:0:
334,237,1830,1,0,1:0:0:0:
334,237,1907,1,2,1:2:0:0:
397,72,2060,1,2,0:0:0:0:
227,108,2213,6,0,P|278:99|316:65,1,85,2|0,1:2|0:0,0:0:0:0:
160,174,2519,2,0,P|202:203|253:206,1,85,8|0,0:3|0:0,0:0:0:0:
51,158,2825,2,0,P|62:215|142:303,1,170,2|8,1:2|0:3,0:0:0:0:
133,298,3208,1,0,0:0:0:0:
133,298,3284,1,2,0:0:0:0:
118,92,3437,5,2,1:2:0:0:
309,173,3591,1,2,0:0:0:0:
233,19,3744,1,8,0:3:0:0:
227,108,3897,1,2,0:0:0:0:
396,214,4050,6,0,B|406:190|406:190|388:94,1,85,2|2,0:0|1:2,0:0:0:0:
395,132,4279,1,0,1:0:0:0:
395,132,4356,1,8,0:3:0:0:
319,266,4509,1,2,0:0:0:0:
469,340,4662,6,0,L|380:324,1,85,2|0,1:2|1:0,0:0:0:0:
321,369,4892,1,0,1:0:0:0:
310,375,4968,2,0,L|221:359,1,85,2|0,1:2|1:0,0:0:0:0:
196,283,5198,1,0,1:0:0:0:
189,270,5274,2,0,L|30:240,1,127.5,8|0,0:3|1:0,0:0:0:0:
63,246,5580,1,0,1:0:0:0:
244,190,5733,1,2,1:2:0:0:
55,72,5886,6,0,P|81:124|188:137,1,170,2|8,1:2|0:3,0:0:0:0:
287,69,6346,2,0,L|299:6,1,42.5,2|0,0:0|0:0,0:0:0:0:
139,66,6499,2,0,L|159:225,1,127.5,8|0,0:3|1:0,0:0:0:0:
154,192,6805,1,2,1:2:0:0:
429,180,6958,1,2,0:0:0:0:
316,348,7111,6,0,B|301:248|301:248|318:206,1,127.5,2|0,1:2|0:0,0:0:0:0:
385,253,7417,2,0,P|425:265|466:257,1,85,8|0,0:3|0:0,0:0:0:0:
464,98,7723,2,0,P|422:89|382:102,1,85,2|0,1:2|1:0,0:0:0:0:
382,102,7953,1,0,1:0:0:0:
382,102,8029,1,8,0:3:0:0:
199,57,8182,1,2,0:0:0:0:
154,179,8335,6,0,L|145:137,1,42.5,2|0,1:2|1:0,0:0:0:0:
252,205,8489,2,0,L|239:267,1,42.5,2|0,1:2|1:0,0:0:0:0:
174,306,8642,5,10,1:2:0:0:
163,313,8718,1,8,1:2:0:0:
152,319,8795,1,10,1:2:0:0:
140,324,8871,1,0,1:0:0:0:
108,350,8948,5,2,1:2:0:0:
92,349,9024,1,0,1:0:0:0:
76,349,9101,1,2,1:2:0:0:
62,345,9177,1,0,1:0:0:0:
46,341,9254,1,10,1:2:0:0:
34,333,9330,1,8,1:2:0:0:
20,325,9407,1,10,1:2:0:0:
344,218,9560,5,6,1:2:0:0:
406,315,10325,5,2,1:2:0:0:
406,315,10402,1,0,1:0:0:0:
406,315,10478,2,0,B|373:353|373:353|312:299|351:194,1,197.625001507759,10|0,1:2|0:0,0:0:0:0:
399,136,10784,5,6,1:2:0:0:
221,234,10937,1,2,0:0:0:0:
169,88,11091,1,8,1:2:0:0:
302,269,11244,5,2,1:2:0:0:
302,269,11320,1,0,1:0:0:0:
302,269,11397,2,0,L|273:373,1,106.25,2|2,1:2|1:2,0:0:0:0:
147,313,11626,1,0,1:0:0:0:
147,313,11703,2,0,L|118:210,1,106.25,10|2,1:2|1:2,0:0:0:0:
74,145,11932,5,0,1:0:0:0:
74,145,12009,1,6,1:2:0:0:
249,195,12162,1,2,1:2:0:0:
249,195,12239,1,0,1:0:0:0:
249,195,12315,1,10,1:2:0:0:
163,79,12468,5,2,1:2:0:0:
163,79,12545,1,0,1:0:0:0:
163,79,12621,2,0,P|217:55|287:60,1,106.25,2|2,1:2|1:2,0:0:0:0:
340,130,12851,1,0,1:0:0:0:
340,130,12927,2,0,P|392:127|440:105,1,106.25,10|2,1:2|1:2,0:0:0:0:
502,46,13157,5,0,1:0:0:0:
502,46,13233,1,6,1:2:0:0:
361,230,13386,1,2,1:2:0:0:
361,230,13463,1,0,1:0:0:0:
361,230,13540,1,10,1:2:0:0:
378,46,13693,1,2,1:2:0:0:
511,218,13846,5,2,1:2:0:0:
298,373,13998,1,2,1:2:0:0:
266,370,14075,1,0,1:0:0:0:
234,367,14151,1,10,1:2:0:0:
203,364,14228,1,0,1:0:0:0:
171,361,14304,1,2,1:2:0:0:
139,359,14381,1,0,1:0:0:0:
108,357,14458,6,0,P|105:268|171:328,1,184.875005641937,6|0,1:2|0:0,0:0:0:0:
168,289,14764,6,0,P|257:303|247:212,1,210.375002006292,6|0,1:2|0:0,0:0:0:0:
247,212,15070,6,0,P|235:108|337:124,1,235.874999100208,6|0,1:2|0:0,0:0:0:0:
334,120,15376,6,0,P|448:132|433:18,1,261.375003988266,6|0,1:2|0:0,0:0:0:0:
435,19,15682,5,6,1:2:0:0:
352,260,15835,1,2,0:0:0:0:
182,76,15989,1,8,1:2:0:0:
247,212,16142,1,2,1:2:0:0:
284,30,16295,5,2,1:2:0:0:
65,118,16448,1,2,1:2:0:0:
65,118,16524,1,0,1:0:0:0:
65,118,16601,1,10,1:2:0:0:
224,324,16754,5,2,1:2:0:0:
224,324,16830,1,0,1:0:0:0:
224,324,16907,2,0,L|248:203,1,114.750000437737,6|2,1:2|1:2,0:0:0:0:
404,184,17136,1,0,1:0:0:0:
404,184,17213,2,0,L|380:63,1,114.750000437737,10|2,1:2|1:2,0:0:0:0:
284,30,17443,5,0,1:0:0:0:
284,30,17519,1,2,1:2:0:0:
494,114,17672,1,2,1:2:0:0:
494,114,17749,1,0,1:0:0:0:
494,114,17825,1,10,1:2:0:0:
305,156,17978,1,2,1:2:0:0:
493,298,18131,6,0,P|413:267|370:272,1,114.750000437737,6|2,1:2|1:2,0:0:0:0:
304,329,18361,1,0,1:0:0:0:
304,329,18437,2,0,P|224:360|181:355,1,114.750000437737,10|2,1:2|1:2,0:0:0:0:
302,239,18744,5,2,1:2:0:0:
69,338,18897,1,2,1:2:0:0:
53,295,18973,1,0,1:0:0:0:
49,249,19050,1,10,1:2:0:0:
58,204,19126,1,0,1:0:0:0:
79,164,19203,1,2,1:2:0:0:
111,131,19279,1,0,1:0:0:0:
152,107,19356,6,0,L|194:347,1,210.375002006292,6|0,1:2|0:0,0:0:0:0:
188,314,19662,6,0,L|255:40,1,261.375003988266,6|0,1:2|0:0,0:0:0:0:
250,60,19968,6,0,L|340:400,1,312.37500297904,6|0,1:2|0:0,0:0:0:0:
330,361,20274,6,0,L|421:-11,1,363.375003465414,6|0,1:2|0:0,0:0:0:0:
416,8,20580,6,0,P|486:51|474:177,1,203.999993774414,6|8,1:2|0:3,0:0:0:0:
352,255,21040,1,2,0:0:0:0:
284,202,21193,2,0,P|234:196|165:213,1,85,2|0,1:2|1:0,0:0:0:0:
20,258,21499,1,8,0:3:0:0:
87,314,21652,1,2,1:2:0:0:
122,144,21805,6,0,L|102:252,1,85,2|0,1:2|1:0,0:0:0:0:
18,29,22111,2,0,L|38:137,1,85,8|0,0:3|1:0,0:0:0:0:
41,118,22341,1,0,1:0:0:0:
41,118,22417,2,0,P|78:71|190:88,1,170,2|8,1:2|0:3,0:0:0:0:
240,133,22876,1,2,1:2:0:0:
419,84,23029,6,0,L|441:-28,1,85,2|2,1:2|1:2,0:0:0:0:
334,112,23335,1,8,0:3:0:0:
485,147,23489,1,2,1:2:0:0:
485,147,23565,1,0,1:0:0:0:
485,147,23642,1,2,1:2:0:0:
434,259,23795,1,2,1:2:0:0:
396,170,23948,1,8,0:3:0:0:
251,210,24101,5,2,1:2:0:0:
251,210,24177,1,0,0:0:0:0:
251,210,24254,2,0,P|244:276|271:316,1,85,2|2,1:2|1:2,0:0:0:0:
361,326,24560,2,0,P|309:367|300:415,1,85,8|0,0:3|1:0,0:0:0:0:
303,383,24790,1,0,1:0:0:0:
303,383,24866,1,2,1:2:0:0:
93,357,25019,1,8,1:0:0:0:
185,384,25172,2,0,L|165:290,1,85,8|2,1:0|0:0,0:0:0:0:
98,242,25402,5,2,0:0:0:0:
98,242,25478,2,0,P|145:215|119:97,1,170,6|8,1:2|0:3,0:0:0:0:
25,178,25937,2,0,L|88:164,1,42.5,2|0,0:0|0:0,0:0:0:0:
205,55,26091,2,0,L|313:74,1,85,2|0,1:2|1:0,0:0:0:0:
457,208,26397,1,8,0:3:0:0:
498,56,26550,5,2,1:2:0:0:
498,56,26626,1,0,1:0:0:0:
498,56,26703,1,2,1:2:0:0:
412,113,26856,1,0,1:0:0:0:
322,67,27009,2,0,P|313:128|341:176,1,85,8|0,0:3|1:0,0:0:0:0:
247,247,27239,1,0,1:0:0:0:
247,247,27315,2,0,P|239:185|200:146,1,85,2|0,1:2|1:0,0:0:0:0:
106,109,27621,2,0,L|-6:96,1,85,8|2,0:3|1:2,0:0:0:0:
21,99,27851,5,0,1:0:0:0:
21,99,27927,1,2,1:2:0:0:
161,228,28080,1,2,1:2:0:0:
199,71,28233,1,8,0:3:0:0:
157,242,28386,1,2,1:2:0:0:
320,148,28540,2,0,P|368:133|423:150,1,85,2|2,1:2|1:2,0:0:0:0:
429,281,28846,1,8,0:3:0:0:
369,219,28999,1,2,1:2:0:0:
512,260,29152,5,2,1:2:0:0:
361,380,29305,1,2,1:2:0:0:
300,323,29458,1,8,0:3:0:0:
270,320,29534,1,2,0:0:0:0:
240,317,29611,1,0,1:0:0:0:
211,314,29687,1,2,0:0:0:0:
175,330,29764,6,0,B|162:268|162:268|183:217,1,85,2|8,1:2|1:0,0:0:0:0:
240,92,30070,1,8,1:0:0:0:
76,261,30223,1,2,1:2:0:0:
274,172,30376,6,0,B|219:177|219:177|203:168|203:168|131:161,1,127.5,6|0,1:2|0:0,0:0:0:0:
337,225,30682,2,0,P|356:190|350:139,1,85,10|2,0:0|1:2,0:0:0:0:
177,39,30989,6,0,B|122:44|122:44|106:35|106:35|34:28,1,127.5,2|0,1:2|0:0,0:0:0:0:
240,92,31295,2,0,P|259:57|253:6,1,85,10|2,0:0|1:2,0:0:0:0:
158,127,31601,5,2,1:2:0:0:
191,216,31754,1,2,0:0:0:0:
111,280,31907,1,10,0:0:0:0:
57,185,32060,2,0,L|108:195,1,42.5,2|10,1:2|1:2,0:0:0:0:
288,246,32213,5,2,1:2:0:0:
482,213,32366,1,2,0:0:0:0:
363,93,32519,1,10,0:0:0:0:
381,192,32672,1,2,1:2:0:0:
348,321,32825,6,0,P|391:286|468:309,1,127.5,2|0,1:2|0:0,0:0:0:0:
290,384,33131,6,0,P|219:355|141:342,1,152.999995330811,10|0,0:0|0:0,0:0:0:0:
144,342,33437,2,0,P|116:303|133:247,1,101.999996887207,2|0,1:2|0:0,0:0:0:0:
243,173,33744,1,10,0:0:0:0:
222,256,33897,1,2,1:2:0:0:
39,113,34050,5,10,1:2:0:0:
74,109,34126,1,8,1:2:0:0:
110,106,34203,1,8,1:2:0:0:
145,103,34279,1,0,1:0:0:0:
177,64,34356,6,0,L|245:76,2,50.9999984436036,10|8|8,1:2|1:2|1:2,0:0:0:0:
383,239,34662,5,10,1:2:0:0:
408,242,34738,1,8,1:2:0:0:
433,238,34815,1,8,1:2:0:0:
455,225,34891,1,8,1:2:0:0:
471,206,34968,1,10,1:2:0:0:
481,183,35044,1,8,1:2:0:0:
482,157,35121,1,10,1:2:0:0:
474,133,35197,1,8,1:2:0:0:
459,113,35274,6,0,L|349:124,1,101.999996887207,6|0,1:2|0:0,0:0:0:0:
201,236,35580,1,10,0:0:0:0:
112,222,35733,1,2,1:2:0:0:
380,81,35886,6,0,L|270:92,1,101.999996887207,2|0,1:2|0:0,0:0:0:0:
143,301,36192,1,10,0:0:0:0:
25,283,36345,1,2,1:2:0:0:
294,175,36499,5,2,1:2:0:0:
346,371,36652,1,2,0:0:0:0:
366,226,36805,1,10,0:0:0:0:
287,308,36958,1,2,1:2:0:0:
207,131,37111,5,2,1:2:0:0:
454,178,37264,1,2,0:0:0:0:
294,175,37417,1,10,0:0:0:0:
374,117,37570,1,2,1:2:0:0:
133,283,37723,6,0,P|69:331|-36:301,1,152.999995330811,4|0,1:0|1:0,0:0:0:0:
250,314,38029,2,0,P|175:310|84:363,1,178.499994552612,10|0,1:2|0:0,0:0:0:0:
396,241,38335,2,0,P|332:289|215:253,1,204,4|0,1:0|0:0,0:0:0:0:
502,334,38642,2,0,L|343:313,1,152.999995330811,8|0,1:2|1:0,0:0:0:0:
43,245,38948,5,4,1:0:0:0:
43,245,39024,1,8,1:2:0:0:
43,245,39101,1,8,1:2:0:0:
311,197,39254,1,8,1:2:0:0:
138,80,39407,5,0,1:0:0:0:
138,80,39483,1,0,0:0:0:0:
138,80,39560,1,10,1:2:0:0:
186,382,39713,1,10,1:2:0:0:
413,40,40019,6,0,P|391:93|387:193,1,136,4|0,1:0|1:0,0:0:0:0:
394,282,40478,2,0,L|414:358,2,45.3333333333333,2|2|2,1:2|0:0|0:0,0:0:0:0:
322,229,40784,6,0,P|294:211|235:218,1,90.6666666666667,8|0,0:3|0:0,0:0:0:0:
193,295,41091,2,0,L|213:371,2,45.3333333333333,2|2|2,1:2|0:0|0:0,0:0:0:0:
134,221,41397,5,2,1:2:0:0:
134,221,41499,2,0,L|70:211,1,45.3333333333333,2|2,0:0|0:0,0:0:0:0:
44,124,41703,2,0,L|0:131,2,45.3333333333333,2|0|0,1:2|0:0|0:0,0:0:0:0:
108,51,42009,5,8,0:3:0:0:
108,51,42111,2,0,P|140:39|170:35,1,45.3333333333333,2|2,0:0|0:0,0:0:0:0:
233,44,42315,1,2,1:2:0:0:
397,116,42468,6,0,P|333:139|282:184,1,136,2|0,1:2|1:0,0:0:0:0:
232,255,42927,2,0,L|190:270,2,45.3333333333333,2|2|2,1:2|0:0|0:0,0:0:0:0:
310,277,43233,6,0,P|377:281|427:306,1,90.6666666666667,8|0,0:3|0:0,0:0:0:0:
465,336,43540,2,0,L|507:321,2,45.3333333333333,2|2|2,1:2|0:0|0:0,0:0:0:0:
388,384,43846,5,2,1:2:0:0:
388,384,43948,2,0,L|333:377,1,45.3333333333333,2|2,0:0|0:0,0:0:0:0:
254,382,44152,1,2,1:2:0:0:
254,382,44254,2,0,L|209:376,1,45.3333333333333,2|2,0:0|0:0,0:0:0:0:
121,384,44458,1,8,0:3:0:0:
8,264,44611,1,2,0:0:0:0:
103,191,44764,1,2,1:2:0:0:
51,335,44917,6,0,L|63:160,1,170,4|2,1:0|1:2,0:0:0:0:
275,137,45376,1,10,0:0:0:0:
97,84,45529,1,2,1:2:0:0:
192,191,45682,2,0,L|180:106,1,85,2|0,1:2|1:0,0:0:0:0:
395,98,45989,1,10,0:0:0:0:
338,253,46142,6,0,L|349:168,1,85,2|2,1:2|0:0,0:0:0:0:
268,320,46448,1,2,1:2:0:0:
423,279,46601,1,10,0:0:0:0:
251,238,46754,1,2,1:2:0:0:
382,348,46907,1,2,1:2:0:0:
422,360,46983,1,0,1:0:0:0:
462,350,47060,1,0,1:0:0:0:
492,320,47136,1,0,1:0:0:0:
502,279,47213,1,10,0:0:0:0:
336,143,47366,6,0,B|305:128|305:128|189:150,1,127.5,4|0,1:0|0:0,0:0:0:0:
214,146,47672,1,2,1:2:0:0:
349,59,47825,1,10,0:0:0:0:
138,94,47978,1,2,1:2:0:0:
411,192,48131,2,0,P|423:152|416:111,1,85,2|0,1:2|1:0,0:0:0:0:
251,238,48437,1,10,0:0:0:0:
442,304,48591,6,0,L|329:291,1,85,2|2,0:0|1:2,0:0:0:0:
98,282,48897,1,2,0:0:0:0:
124,365,49050,1,10,0:0:0:0:
251,238,49203,1,2,1:2:0:0:
146,95,49356,2,0,L|162:228,1,127.5,2|0,1:2|0:0,0:0:0:0:
205,304,49662,2,0,L|200:346,1,42.5,14|2,0:0|0:0,0:0:0:0:
438,269,49815,1,2,0:0:0:0:
309,159,49968,6,0,P|355:184|474:129,1,170,4|8,1:0|0:0,0:0:0:0:
467,54,50427,1,2,1:2:0:0:
296,259,50580,2,0,P|250:284|131:229,1,170,10|8,0:0|0:0,0:0:0:0:
90,145,51040,1,2,1:2:0:0:
383,384,51193,6,0,B|375:328|375:328|385:310|385:310|395:208,1,152.999995330811,10|0,0:0|0:0,0:0:0:0:
392,234,51499,6,0,P|370:173|271:186,1,178.499994552612,10|0,0:0|0:0,0:0:0:0:
272,185,51805,6,0,B|280:129|280:129|270:111|270:111|260:9,1,178.499994552612,10|0,0:0|1:0,0:0:0:0:
260,10,52111,6,0,P|128:24|135:124,1,204,10|0,0:0|1:0,0:0:0:0:
115,72,52417,6,0,L|136:219,1,136,4|0,1:0|1:0,0:0:0:0:
435,122,52723,2,0,L|415:256,1,136,8|0,0:0|1:0,0:0:0:0:
37,145,53029,2,0,L|57:291,1,136,8|0,0:0|1:0,0:0:0:0:
512,201,53335,2,0,L|492:335,1,136,8|0,0:0|1:0,0:0:0:0:
492,335,53565,5,0,1:0:0:0:
492,335,53642,1,4,1:0:0:0:
37,259,54407,6,0,L|133:244,1,68,0|0,1:0|1:0,0:0:0:0:
495,242,54560,6,0,B|440:255|440:255|411:273|411:273|273:247,1,204,14|0,1:2|0:0,0:0:0:0:
199,209,54866,6,0,P|182:170|202:75,1,110.499994941712,4|0,1:0|0:0,0:0:0:0:
391,113,55172,2,0,B|345:121|345:121|327:135|327:135|265:149,1,110.499994941712,10|0,0:0|0:0,0:0:0:0:
201,308,55478,2,0,B|159:316|159:316|141:330|141:330|79:344,1,110.499994941712,2|0,1:2|0:0,0:0:0:0:
93,167,55784,1,10,0:0:0:0:
314,260,55937,1,2,0:0:0:0:
205,58,56091,5,2,1:2:0:0:
97,250,56244,1,0,0:0:0:0:
22,117,56397,2,0,P|70:81|135:85,1,110.499994941712,10|0,0:0|0:0,0:0:0:0:
314,260,56703,5,2,1:2:0:0:
351,9,56856,1,2,0:0:0:0:
224,190,57009,2,0,B|321:171|321:171|353:176|353:176|419:161,1,165.749992412568,10|0,0:0|0:0,0:0:0:0:
489,16,57315,6,0,P|478:51|464:160,1,110.499994941712,2|0,1:2|0:0,0:0:0:0:
373,352,57621,2,0,P|340:307|313:259,1,110.499994941712,10|2,0:0|0:0,0:0:0:0:
226,84,57927,1,2,1:2:0:0:
374,144,58080,1,0,0:0:0:0:
187,202,58233,1,10,0:0:0:0:
103,17,58386,1,2,0:0:0:0:
138,286,58540,6,0,P|214:294|281:212,1,165.749992412568,2|0,1:2|0:0,0:0:0:0:
275,236,58846,1,10,0:0:0:0:
66,195,58999,1,2,0:0:0:0:
235,332,59152,2,0,L|356:318,1,110.499994941712,2|0,1:2|0:0,0:0:0:0:
485,227,59458,1,10,0:0:0:0:
504,176,59534,1,8,0:0:0:0:
488,124,59611,1,0,1:0:0:0:
444,92,59687,1,0,1:0:0:0:
390,94,59764,5,4,1:0:0:0:
310,207,59917,1,0,0:0:0:0:
124,106,60070,2,0,L|-3:86,1,110.499994941712,10|2,0:0|0:0,0:0:0:0:
160,300,60376,2,0,P|194:246|184:187,1,110.499994941712,2|0,1:2|0:0,0:0:0:0:
0,231,60682,2,0,B|25:244|25:244|118:228,1,110.499994941712,10|2,0:0|0:0,0:0:0:0:
315,104,60989,6,0,P|295:156|313:212,1,110.499994941712,2|0,1:2|0:0,0:0:0:0:
467,335,61295,2,0,P|431:291|374:279,1,110.499994941712,10|0,0:0|0:0,0:0:0:0:
229,336,61601,1,2,1:2:0:0:
401,183,61754,1,2,0:0:0:0:
99,135,61907,2,0,L|225:153,1,110.499994941712,10|0,0:0|0:0,0:0:0:0:
503,216,62213,5,4,1:0:0:0:
301,64,62366,1,0,1:0:0:0:
380,278,62519,1,8,0:0:0:0:
424,75,62672,2,0,L|396:203,1,110.499994941712,4|0,1:0|0:0,0:0:0:0:
229,336,62978,1,0,1:0:0:0:
229,336,63055,1,0,0:0:0:0:
229,336,63131,1,10,0:0:0:0:
98,222,63284,6,0,B|143:230|143:230|163:249|163:249|277:232,1,165.749992412568,4|0,1:0|0:0,0:0:0:0:
321,178,63591,2,0,P|333:155|339:110,1,55.2499974708558,2|0,1:2|0:0,0:0:0:0:
157,104,63744,2,0,P|170:125|206:153,1,55.2499974708558,10|0,0:0|0:0,0:0:0:0:
296,0,63897,2,0,P|270:1|228:18,1,55.2499974708558,4|0,1:0|0:0,0:0:0:0:
254,235,64050,1,2,0:0:0:0:
512,280,64203,5,0,1:0:0:0:
480,249,64279,1,0,1:0:0:0:
439,234,64356,1,8,1:2:0:0:
395,237,64432,1,8,1:2:0:0:
356,257,64509,1,8,0:0:0:0:
329,292,64585,1,8,0:0:0:0:
315,335,64662,6,0,P|247:353|160:310,1,165.749992412568,4|0,1:0|0:0,0:0:0:0:
80,232,64968,2,0,L|66:110,1,110.499994941712,10|0,0:0|0:0,0:0:0:0:
225,4,65274,2,0,P|274:1|352:39,1,110.499994941712,2|0,1:2|0:0,0:0:0:0:
460,159,65580,1,10,0:0:0:0:
412,330,65733,1,2,0:0:0:0:
273,134,65886,5,2,1:2:0:0:
512,74,66040,1,0,0:0:0:0:
326,229,66193,2,0,B|286:248|286:248|151:227,1,165.749992412568,10|0,0:0|0:0,0:0:0:0:
368,136,66499,6,0,P|417:185|424:249,1,110.499994941712,2|2,1:2|0:0,0:0:0:0:
273,134,66805,2,0,L|249:-27,1,110.499994941712,10|0,0:0|0:0,0:0:0:0:
8,246,67111,6,0,B|84:257|84:257|116:234|116:234|212:224,1,165.749992412568,2|0,1:2|0:0,0:0:0:0:
217,296,67417,2,0,L|347:311,1,110.499994941712,10|2,0:0|0:0,0:0:0:0:
491,255,67723,2,0,P|513:197|502:130,1,110.499994941712,2|0,1:2|0:0,0:0:0:0:
273,134,68029,1,10,0:0:0:0:
405,187,68182,1,2,0:0:0:0:
512,33,68335,6,0,L|401:57,1,110.499994941712,2|0,1:2|0:0,0:0:0:0:
311,227,68642,2,0,L|200:203,1,110.499994941712,10|2,0:0|0:0,0:0:0:0:
126,112,68948,2,0,L|15:136,1,110.499994941712,2|0,1:2|0:0,0:0:0:0:
53,330,69254,1,10,0:0:0:0:
88,344,69330,1,8,0:0:0:0:
127,347,69407,1,0,1:0:0:0:
164,338,69483,1,0,1:0:0:0:
198,319,69560,6,0,P|262:298|315:313,1,110.499994941712,4|0,1:0|0:0,0:0:0:0:
116,249,69866,1,10,0:0:0:0:
256,384,70019,1,2,0:0:0:0:
366,196,70172,2,0,L|250:217,1,110.499994941712,2|0,1:2|0:0,0:0:0:0:
110,47,70478,2,0,L|218:66,1,110.499994941712,10|2,0:0|0:0,0:0:0:0:
425,123,70784,6,0,P|462:179|428:265,1,165.749992412568,2|0,1:2|0:0,0:0:0:0:
337,108,71091,2,0,P|368:48|421:32,1,110.499994941712,10|0,0:0|0:0,0:0:0:0:
512,297,71397,6,0,B|435:290|435:290|411:300|411:300|315:295,1,165.749992412568,2|0,1:2|0:0,0:0:0:0:
241,254,71703,1,10,0:0:0:0:
42,341,71856,1,0,0:0:0:0:
317,312,72009,5,4,1:0:0:0:
108,267,72162,1,0,1:0:0:0:
139,132,72315,1,8,0:0:0:0:
130,380,72468,2,0,L|238:338,1,110.499994941712,4|0,1:0|0:0,0:0:0:0:
416,252,72774,1,0,1:0:0:0:
416,252,72851,1,0,1:0:0:0:
416,252,72927,1,10,0:0:0:0:
239,96,73080,6,0,L|347:138,1,110.499994941712,4|0,1:0|0:0,0:0:0:0:
170,241,73386,1,2,1:2:0:0:
108,30,73540,1,10,0:0:0:0:
95,304,73693,5,4,1:0:0:0:
135,329,73769,1,0,1:0:0:0:
183,332,73846,1,2,0:0:0:0:
227,313,73922,1,0,1:0:0:0:
256,275,73999,1,0,1:0:0:0:
299,253,74075,1,0,1:0:0:0:
347,249,74152,1,8,1:2:0:0:
391,268,74228,1,8,1:2:0:0:
421,306,74305,2,0,L|403:370,1,55.2499974708558,8|8,0:0|0:0,0:0:0:0:
170,241,74458,6,0,L|143:123,1,110.499994941712,4|0,1:0|0:0,0:0:0:0:
298,149,74764,2,0,L|325:31,1,110.499994941712,10|0,0:0|0:0,0:0:0:0:
437,144,75070,2,0,L|519:55,1,110.499994941712,2|0,1:2|0:0,0:0:0:0:
327,369,75376,5,10,0:0:0:0:
230,310,75529,2,0,P|150:285|79:285,1,110.499994941712,2|0,0:0|1:0,0:0:0:0:
338,382,75835,1,2,0:0:0:0:
425,210,75989,1,10,0:0:0:0:
327,281,76142,1,2,0:0:0:0:
248,128,76295,2,0,L|361:111,1,110.499994941712,2|0,1:2|0:0,0:0:0:0:
198,213,76601,2,0,P|153:152|188:52,1,165.749992412568,10|0,0:0|0:0,0:0:0:0:
286,211,76907,6,0,P|262:285|221:306,1,110.499994941712,2|0,1:2|0:0,0:0:0:0:
108,384,77213,2,0,P|55:326|58:280,1,110.499994941712,10|2,0:0|0:0,0:0:0:0:
47,143,77519,2,0,P|123:126|161:151,1,110.499994941712,2|0,1:2|0:0,0:0:0:0:
316,353,77825,5,10,0:0:0:0:
421,271,77978,2,0,L|430:148,1,110.499994941712,2|0,0:0|1:0,0:0:0:0:
192,43,78284,1,2,0:0:0:0:
351,113,78437,1,10,0:0:0:0:
445,21,78591,1,2,0:0:0:0:
271,84,78744,2,0,P|276:161|312:195,1,110.499994941712,2|0,1:2|0:0,0:0:0:0:
413,367,79050,1,10,0:0:0:0:
372,338,79126,1,8,0:0:0:0:
325,320,79203,1,0,1:0:0:0:
276,313,79279,1,0,1:0:0:0:
227,318,79356,6,0,P|142:343|59:305,1,165.749992412568,4|0,1:0|0:0,0:0:0:0:
88,299,79662,2,0,P|53:235|57:181,1,110.499994941712,10|2,0:0|0:0,0:0:0:0:
191,70,79968,2,0,L|154:244,1,165.749992412568,2|0,1:2|0:0,0:0:0:0:
152,146,80274,2,0,L|131:17,1,110.499994941712,10|2,0:0|0:0,0:0:0:0:
449,69,80580,5,2,1:2:0:0:
426,183,80733,1,2,0:0:0:0:
259,163,80886,1,10,0:0:0:0:
505,138,81040,1,2,0:0:0:0:
359,312,81193,2,0,L|337:185,1,110.499994941712,2|2,1:2|0:0,0:0:0:0:
321,113,81422,1,0,0:0:0:0:
321,113,81499,2,0,B|271:119|271:119|249:137|249:137|152:122,1,165.749992412568,10|0,0:0|0:0,0:0:0:0:
91,66,81805,5,4,1:0:0:0:
340,203,81958,1,0,1:0:0:0:
0,163,82111,1,8,0:0:0:0:
257,213,82264,1,0,1:0:0:0:
13,303,82417,1,8,0:0:0:0:
181,245,82570,1,0,1:0:0:0:
129,384,82723,1,8,0:0:0:0:
114,302,82876,1,0,1:0:0:0:
285,67,83029,5,12,0:0:0:0:
208,329,83182,1,0,1:0:0:0:
343,121,83335,1,8,0:0:0:0:
307,317,83489,1,0,1:0:0:0:
401,189,83642,1,8,0:0:0:0:
398,293,83795,1,0,1:0:0:0:
398,293,83871,1,0,1:0:0:0:
398,293,83948,1,8,0:0:0:0:
493,247,84101,1,2,0:0:0:0:
260,153,84254,6,0,B|217:160|217:160|195:153|195:153|79:171,1,165.749992412568,4|0,1:0|0:0,0:0:0:0:
13,227,84560,1,8,0:0:0:0:
190,351,84713,1,2,1:2:0:0:
190,351,84790,1,0,1:0:0:0:
190,351,84866,2,0,P|207:299|194:246,1,110.499994941712,6|2,1:2|0:0,0:0:0:0:
1,52,85172,1,8,0:0:0:0:
17,93,85248,1,8,0:0:0:0:
48,123,85325,1,2,1:2:0:0:
89,138,85401,1,0,1:0:0:0:
133,134,85478,5,14,1:2:0:0:
335,79,85631,1,14,1:2:0:0:
114,35,85784,1,14,1:2:0:0:
416,33,85937,1,2,0:0:0:0:
142,220,86091,6,0,B|122:252|122:252|157:333,1,110.499994941712,2|0,0:0|1:0,0:0:0:0:
223,373,86320,1,0,1:0:0:0:
223,373,86397,2,0,P|322:335|410:327,1,165.749992412568,14|0,1:2|0:0,0:0:0:0:
489,356,86703,5,6,1:2:0:0:
110,339,96499,6,0,P|179:341|226:296,1,136,6|8,1:2|0:3,0:0:0:0:
129,195,96958,1,2,0:0:0:0:
129,195,97111,2,0,L|151:283,1,68,2|0,1:2|1:0,0:0:0:0:
204,144,97417,1,8,0:3:0:0:
61,128,97570,1,2,1:2:0:0:
270,86,97723,6,0,P|322:73|367:72,1,68,2|0,1:2|1:0,0:0:0:0:
392,0,98029,2,0,P|421:16|448:36,1,68,8|0,0:3|1:0,0:0:0:0:
356,165,98335,2,0,P|408:130|490:129,1,136,2|8,1:2|0:3,0:0:0:0:
512,231,98795,5,2,1:2:0:0:
512,231,98948,2,0,L|419:217,1,68,2|2,1:2|1:2,0:0:0:0:
358,283,99254,2,0,L|265:269,1,68,8|2,0:3|1:2,0:0:0:0:
158,384,99560,2,0,P|201:353|183:276,1,136,2|8,1:2|0:3,0:0:0:0:
137,216,100019,1,2,1:2:0:0:
31,288,100172,6,0,P|76:293|104:284,1,68,2|2,1:2|1:2,0:0:0:0:
172,134,100478,2,0,P|138:128|105:134,1,68,8|0,0:3|1:0,0:0:0:0:
29,191,100784,2,0,L|8:100,1,68,2|8,1:2|1:0,0:0:0:0:
13,124,101014,1,0,1:0:0:0:
13,124,101091,2,0,L|34:33,1,68,8|2,1:0|1:2,0:0:0:0:
240,81,101397,6,0,P|280:94|363:52,1,136,6|8,1:2|0:3,0:0:0:0:
467,66,101856,1,2,0:0:0:0:
467,66,102009,2,0,P|434:93|415:130,1,68,2|0,1:2|1:0,0:0:0:0:
442,230,102315,1,8,0:3:0:0:
508,179,102468,1,2,1:2:0:0:
354,212,102621,6,0,L|370:307,1,68,2|0,1:2|1:0,0:0:0:0:
273,276,102927,2,0,L|257:371,1,68,8|0,0:3|1:0,0:0:0:0:
180,297,103233,2,0,L|138:383,1,68,2|0,1:2|1:0,0:0:0:0:
150,358,103463,1,0,1:0:0:0:
150,358,103540,1,8,0:3:0:0:
92,256,103693,1,2,1:2:0:0:
239,203,103846,6,0,B|215:215|215:215|148:208,1,85,2|2,1:2|1:2,0:0:0:0:
312,160,104152,1,8,0:3:0:0:
324,244,104305,1,2,1:2:0:0:
234,120,104458,1,2,1:2:0:0:
393,127,104611,1,2,1:2:0:0:
334,13,104764,1,8,0:3:0:0:
239,203,104917,1,2,1:2:0:0:
156,98,105070,6,0,L|72:81,2,68,2|2|2,1:2|0:0|0:0,0:0:0:0:
471,158,105682,1,2,0:0:0:0:
418,224,105835,5,8,1:0:0:0:
359,167,105989,1,8,1:0:0:0:
317,309,106142,1,2,1:2:0:0:
165,206,106295,6,0,P|243:211|291:227,1,127.5,6|0,1:2|0:0,0:0:0:0:
119,274,106601,2,0,P|88:240|85:190,1,85,10|2,0:0|1:2,0:0:0:0:
185,57,106907,6,0,P|259:82|301:110,1,127.5,2|0,1:2|0:0,0:0:0:0:
122,110,107213,2,0,P|100:69|110:20,1,85,10|2,0:0|1:2,0:0:0:0:
381,12,107519,5,2,1:2:0:0:
468,24,107672,1,2,0:0:0:0:
498,112,107825,1,10,0:0:0:0:
380,129,107978,2,0,L|406:95,1,42.5,2|10,1:2|1:2,0:0:0:0:
373,262,108131,5,2,1:2:0:0:
247,158,108284,1,2,0:0:0:0:
266,262,108437,1,10,0:0:0:0:
322,196,108591,1,2,1:2:0:0:
188,364,108744,6,0,P|170:240|173:220,1,127.5,2|0,1:2|0:0,0:0:0:0:
132,276,109050,2,0,P|133:207|118:152,1,85,10|2,0:0|0:0,0:0:0:0:
2,113,109356,2,0,P|18:46|47:-3,1,85,2|0,1:2|0:0,0:0:0:0:
203,49,109662,1,10,0:0:0:0:
109,97,109815,1,2,1:2:0:0:
266,144,109968,6,0,L|358:133,1,85,10|8,1:2|1:2,0:0:0:0:
350,133,110198,1,0,1:0:0:0:
350,133,110274,2,0,L|442:122,1,85,10|8,1:2|1:2,0:0:0:0:
434,122,110504,1,0,1:0:0:0:
434,122,110580,1,10,1:2:0:0:
324,242,110733,1,10,1:2:0:0:
476,328,110886,1,10,1:2:0:0:
461,247,111040,6,0,P|413:266|393:298,1,85,4|0,1:0|0:0,0:0:0:0:
332,365,111346,1,2,1:2:0:0:
332,365,111499,2,0,P|284:344|247:352,1,85,10|2,0:0|0:0,0:0:0:0:
157,383,111805,2,0,P|138:335|106:315,1,85,2|0,1:2|1:0,0:0:0:0:
21,318,112111,1,10,0:0:0:0:
174,241,112264,6,0,L|313:250,1,127.5,4|0,1:0|0:0,0:0:0:0:
301,249,112570,1,2,1:2:0:0:
125,174,112723,1,10,0:0:0:0:
343,151,112876,1,2,0:0:0:0:
203,111,113029,1,2,1:2:0:0:
404,80,113182,1,0,1:0:0:0:
263,170,113335,5,10,0:0:0:0:
135,46,113489,2,0,P|168:20|210:15,1,85,4|0,1:0|0:0,0:0:0:0:
62,101,113795,1,2,1:2:0:0:
295,0,113948,2,0,L|285:99,1,85,10|2,0:0|0:0,0:0:0:0:
452,247,114254,2,0,L|442:148,1,85,2|0,1:2|1:0,0:0:0:0:
304,255,114560,1,10,0:0:0:0:
511,344,114713,6,0,B|494:333|494:333|460:349|460:349|377:341,1,127.5,4|0,1:0|0:0,0:0:0:0:
316,373,115019,2,0,L|210:385,1,85,2|10,1:2|0:0,0:0:0:0:
205,190,115325,1,2,0:0:0:0:
166,305,115478,1,14,1:2:0:0:
73,138,115631,2,0,L|116:133,1,42.5,14|0,1:2|1:0,0:0:0:0:
36,215,115784,2,0,P|-8:163|9:86,1,127.5,14|0,1:2|0:0,0:0:0:0:
160,30,116091,5,4,1:0:0:0:
62,39,116244,2,0,L|8:29,1,42.5,2|0,1:2|0:0,0:0:0:0:
235,75,116397,2,0,P|257:136|249:181,1,85,10|2,0:0|1:2,0:0:0:0:
226,303,116703,5,2,1:2:0:0:
133,294,116856,2,0,L|77:312,1,42.5,2|2,1:2|0:0,0:0:0:0:
305,261,117009,2,0,P|348:212|357:167,1,85,10|2,0:0|1:2,0:0:0:0:
328,107,117239,5,2,1:2:0:0:
328,107,117315,1,2,1:2:0:0:
467,131,117468,1,2,1:2:0:0:
512,26,117621,2,0,L|419:45,1,85,10|2,0:0|1:2,0:0:0:0:
349,17,117851,5,2,1:2:0:0:
349,17,117927,1,2,1:2:0:0:
393,177,118080,1,2,1:2:0:0:
512,234,118233,2,0,L|418:252,1,85,10|0,0:0|1:0,0:0:0:0:
73,309,118540,6,0,P|113:347|108:248,1,204,4|0,1:0|0:0,0:0:0:0:
145,251,118846,6,0,B|109:223|109:223|91:91|91:91|128:39,1,229.499992996216,8|0,0:0|1:0,0:0:0:0:
119,50,119152,6,0,P|220:48|164:130,1,229.499992996216,8|8,0:0|1:2,0:0:0:0:
181,129,119458,6,0,L|471:108,1,280.500008560181,8|8,1:2|1:2,0:0:0:0:
460,108,119764,6,0,P|482:159|450:215,1,93.5000028533936,4|0,1:0|0:0,0:0:0:0:
107,326,120529,5,0,1:0:0:0:
58,203,120682,6,0,P|90:271|238:285,1,229.499992996216,14|0,1:2|0:0,0:0:0:0:
409,211,120989,6,0,B|437:179|437:179|417:74,1,118.999996368408,4|0,1:0|0:0,0:0:0:0:
194,74,121295,2,0,L|221:198,1,118.999996368408,10|0,0:0|0:0,0:0:0:0:
334,308,121601,2,0,L|308:191,1,118.999996368408,2|0,1:2|0:0,0:0:0:0:
123,147,121907,1,10,0:0:0:0:
409,211,122060,1,2,0:0:0:0:
158,368,122213,6,0,P|124:301|132:249,1,118.999996368408,2|0,1:2|0:0,0:0:0:0:
334,308,122519,2,0,L|205:289,1,118.999996368408,10|0,0:0|0:0,0:0:0:0:
486,101,122825,1,2,1:2:0:0:
437,300,122978,1,2,0:0:0:0:
284,209,123131,2,0,B|339:195|339:195|363:201|363:201|474:180,1,178.499994552612,10|0,0:0|0:0,0:0:0:0:
486,101,123437,6,0,P|422:51|383:43,1,118.999996368408,2|0,1:2|0:0,0:0:0:0:
100,30,123744,2,0,L|124:160,1,118.999996368408,10|2,0:0|0:0,0:0:0:0:
303,210,124050,2,0,L|279:340,1,118.999996368408,2|0,1:2|0:0,0:0:0:0:
197,75,124356,2,0,B|228:57|228:57|323:79,1,118.999996368408,10|2,0:0|0:0,0:0:0:0:
199,253,124662,5,2,1:2:0:0:
31,197,124815,1,0,0:0:0:0:
174,352,124968,1,10,0:0:0:0:
281,327,125121,1,2,0:0:0:0:
172,168,125274,2,0,P|114:219|118:289,1,118.999996368408,2|0,1:2|0:0,0:0:0:0:
349,380,125580,5,10,0:0:0:0:
389,369,125656,1,8,0:0:0:0:
429,358,125733,1,0,1:0:0:0:
469,348,125809,1,0,1:0:0:0:
494,312,125886,6,0,L|507:173,1,118.999996368408,4|0,1:0|0:0,0:0:0:0:
309,75,126193,1,10,0:0:0:0:
497,19,126346,1,2,0:0:0:0:
373,142,126499,2,0,P|332:164|256:150,1,118.999996368408,2|0,1:2|0:0,0:0:0:0:
195,326,126805,2,0,P|150:312|106:248,1,118.999996368408,10|2,0:0|0:0,0:0:0:0:
186,54,127111,6,0,L|158:185,1,118.999996368408,2|0,1:2|0:0,0:0:0:0:
35,346,127417,2,0,L|10:229,1,118.999996368408,10|0,0:0|0:0,0:0:0:0:
271,136,127723,1,2,1:2:0:0:
248,252,127876,1,2,0:0:0:0:
468,240,128029,2,0,P|419:211|336:212,1,118.999996368408,10|0,0:0|0:0,0:0:0:0:
223,366,128335,5,4,1:0:0:0:
391,296,128489,1,0,1:0:0:0:
155,290,128642,1,8,0:0:0:0:
488,349,128795,6,0,L|516:143,1,178.499994552612,4|0,1:0|0:0,0:0:0:0:
483,67,129101,1,0,1:0:0:0:
391,296,129254,1,10,0:0:0:0:
209,161,129407,6,0,B|246:155|246:155|288:159|288:159|400:139,1,178.499994552612,4|0,1:0|0:0,0:0:0:0:
291,71,129713,1,2,1:2:0:0:
236,255,129866,1,10,0:0:0:0:
196,17,130019,1,4,1:0:0:0:
126,244,130172,2,0,P|129:302|181:353,1,118.999996368408,2|0,0:0|1:0,0:0:0:0:
168,347,130402,5,0,1:0:0:0:
168,347,130478,1,8,1:2:0:0:
227,342,130554,1,8,1:2:0:0:
286,337,130631,1,8,0:0:0:0:
345,332,130707,1,8,0:0:0:0:
401,354,130784,6,0,L|434:164,1,178.499994552612,4|0,1:0|0:0,0:0:0:0:
506,137,131091,2,0,L|493:5,1,118.999996368408,10|0,0:0|0:0,0:0:0:0:
312,186,131397,2,0,P|225:210|180:178,1,118.999996368408,2|0,1:2|0:0,0:0:0:0:
101,58,131703,1,10,0:0:0:0:
251,124,131856,1,2,0:0:0:0:
62,187,132009,5,2,1:2:0:0:
11,14,132162,1,2,0:0:0:0:
198,54,132315,1,10,0:0:0:0:
20,108,132468,1,2,0:0:0:0:
141,261,132621,2,0,L|176:136,1,118.999996368408,2|2,1:2|0:0,0:0:0:0:
385,257,132927,2,0,L|420:382,1,118.999996368408,10|0,0:0|0:0,0:0:0:0:
263,209,133233,6,0,B|304:233|304:233|446:202,1,178.499994552612,2|0,1:2|0:0,0:0:0:0:
416,113,133540,1,10,0:0:0:0:
318,311,133693,1,2,0:0:0:0:
501,257,133846,2,0,P|517:188|485:139,1,118.999996368408,2|0,1:2|0:0,0:0:0:0:
423,21,134152,2,0,P|355:41|328:93,1,118.999996368408,10|2,0:0|0:0,0:0:0:0:
398,330,134458,6,0,B|347:320|347:320|328:325|328:325|268:314,1,118.999996368408,2|0,1:2|0:0,0:0:0:0:
250,119,134764,2,0,B|199:109|199:109|180:114|180:114|120:103,1,118.999996368408,10|2,0:0|0:0,0:0:0:0:
124,285,135070,2,0,P|196:250|216:199,1,118.999996368408,2|0,1:2|0:0,0:0:0:0:
42,246,135376,1,10,0:0:0:0:
30,277,135452,1,8,0:0:0:0:
29,311,135529,1,0,1:0:0:0:
38,344,135605,1,0,1:0:0:0:
57,372,135682,6,0,L|269:347,1,178.499994552612,4|0,1:0|0:0,0:0:0:0:
300,301,135989,2,0,L|451:324,1,118.999996368408,10|2,0:0|0:0,0:0:0:0:
124,285,136295,1,2,1:2:0:0:
275,222,136448,1,0,0:0:0:0:
194,156,136601,1,10,0:0:0:0:
234,351,136754,1,2,0:0:0:0:
284,128,136907,6,0,L|91:109,1,178.499994552612,2|0,1:2|0:0,0:0:0:0:
324,53,137213,2,0,P|359:81|368:153,1,118.999996368408,10|0,0:0|0:0,0:0:0:0:
213,273,137519,2,0,L|191:143,1,118.999996368408,2|2,1:2|0:0,0:0:0:0:
452,148,137825,1,10,0:0:0:0:
304,209,137978,1,0,0:0:0:0:
501,255,138131,5,4,1:0:0:0:
512,78,138284,1,0,1:0:0:0:
396,218,138437,1,8,0:0:0:0:
512,354,138591,6,0,B|436:335|436:335|414:357|414:357|286:374,1,237.999992736817,4|0,1:0|1:0,0:0:0:0:
286,373,138973,1,0,1:0:0:0:
286,373,139050,1,10,0:0:0:0:
63,287,139203,2,0,P|25:214|34:170,1,118.999996368408,4|0,1:0|0:0,0:0:0:0:
288,89,139509,5,2,1:2:0:0:
105,41,139662,1,10,0:0:0:0:
373,31,139815,1,4,1:0:0:0:
173,228,139968,5,2,0:0:0:0:
170,245,140044,1,0,0:0:0:0:
168,263,140121,1,0,1:0:0:0:
166,280,140197,1,0,1:0:0:0:
164,301,140274,5,8,1:2:0:0:
221,298,140350,1,8,1:2:0:0:
262,256,140427,1,8,0:0:0:0:
266,199,140503,1,8,0:0:0:0:
230,153,140580,6,0,L|112:126,1,118.999996368408,4|0,1:0|0:0,0:0:0:0:
347,3,140886,2,0,L|229:30,1,118.999996368408,10|0,0:0|0:0,0:0:0:0:
494,55,141193,2,0,L|405:137,1,118.999996368408,2|0,1:2|0:0,0:0:0:0:
401,322,141499,1,10,0:0:0:0:
478,262,141652,6,0,P|397:224|348:236,1,118.999996368408,2|0,0:0|1:0,0:0:0:0:
163,343,141958,1,2,0:0:0:0:
102,178,142111,1,10,0:0:0:0:
253,305,142264,1,2,0:0:0:0:
66,369,142417,1,2,1:2:0:0:
185,235,142570,1,0,0:0:0:0:
30,115,142723,2,0,P|9:170|24:227,1,118.999996368408,10|0,0:0|0:0,0:0:0:0:
235,122,143029,6,0,B|189:124|189:124|125:76,1,118.999996368408,2|0,1:2|0:0,0:0:0:0:
401,7,143335,2,0,B|334:36|334:36|313:77,1,118.999996368408,10|2,0:0|0:0,0:0:0:0:
329,277,143642,2,0,B|337:204|337:204|313:166,1,118.999996368408,2|0,1:2|0:0,0:0:0:0:
187,242,143948,5,10,0:0:0:0:
377,357,144101,2,0,P|418:306|416:238,1,118.999996368408,2|0,0:0|1:0,0:0:0:0:
398,127,144407,1,2,0:0:0:0:
233,331,144560,2,0,L|61:313,1,118.999996368408,10|2,0:0|0:0,0:0:0:0:
13,118,144866,2,0,P|46:176|124:194,1,118.999996368408,2|0,1:2|0:0,0:0:0:0:
313,35,145172,1,10,0:0:0:0:
350,17,145248,1,8,0:0:0:0:
391,7,145325,1,0,1:0:0:0:
432,4,145401,1,0,1:0:0:0:
473,9,145478,6,0,L|434:191,1,178.499994552612,4|0,1:0|0:0,0:0:0:0:
373,240,145784,2,0,L|400:370,1,118.999996368408,10|2,0:0|0:0,0:0:0:0:
313,35,146091,2,0,L|274:217,1,178.499994552612,2|0,1:2|0:0,0:0:0:0:
213,266,146397,2,0,L|240:396,1,118.999996368408,10|2,0:0|0:0,0:0:0:0:
0,126,146703,5,14,1:2:0:0:
188,180,146856,1,14,1:2:0:0:
227,56,147009,1,14,1:2:0:0:
101,270,147162,1,2,0:0:0:0:
321,382,147315,5,2,1:2:0:0:
326,350,147391,1,0,1:0:0:0:
331,319,147468,1,0,1:0:0:0:
337,288,147544,1,0,1:0:0:0:
379,258,147621,5,10,1:2:0:0:
371,198,147697,1,8,1:2:0:0:
364,139,147774,1,8,1:2:0:0:
357,80,147850,1,8,1:2:0:0:
349,22,147927,6,0,P|283:6|173:40,1,178.499994552612,4|0,1:0|0:0,0:0:0:0:
64,33,148233,2,0,P|45:65|35:103,1,59.4999981842042,8|0,0:0|0:0,0:0:0:0:
107,255,148386,2,0,L|133:120,1,118.999996368408,2|2,0:0|1:2,0:0:0:0:
0,301,148693,1,2,0:0:0:0:
226,205,148846,2,0,B|265:187|265:187|340:207,1,118.999996368408,10|0,0:0|0:0,0:0:0:0:
414,339,149152,5,4,1:0:0:0:
487,276,149305,2,0,P|516:222|497:162,1,118.999996368408,2|8,0:0|0:0,0:0:0:0:
264,279,149611,1,2,0:0:0:0:
423,217,149764,1,2,1:2:0:0:
315,356,149917,1,2,0:0:0:0:
135,283,150070,2,0,L|273:266,1,118.999996368408,10|0,0:0|0:0,0:0:0:0:
146,101,150376,6,0,P|90:153|91:210,1,118.999996368408,4|2,1:0|0:0,0:0:0:0:
254,108,150682,2,0,P|236:33|187:5,1,118.999996368408,8|2,0:0|0:0,0:0:0:0:
189,182,150989,1,2,1:2:0:0:
341,135,151142,1,2,0:0:0:0:
378,275,151295,1,10,0:0:0:0:
512,304,151448,1,0,0:0:0:0:
275,231,151601,6,0,L|294:367,1,118.999996368408,4|2,1:0|0:0,0:0:0:0:
475,108,151907,2,0,L|456:244,1,118.999996368408,8|2,0:0|0:0,0:0:0:0:
458,225,152136,1,2,0:0:0:0:
458,225,152213,1,2,1:2:0:0:
422,32,152366,1,2,0:0:0:0:
341,135,152519,5,10,0:0:0:0:
300,127,152595,1,10,0:0:0:0:
259,120,152672,1,0,1:0:0:0:
218,112,152748,1,0,1:0:0:0:
182,77,152825,6,0,B|159:68|159:68|151:81|151:81|103:85|51:130,1,118.999996368408,4|0,1:0|0:0,0:0:0:0:
23,320,153131,5,10,0:0:0:0:
65,284,153233,1,2,0:0:0:0:
119,278,153335,1,2,0:0:0:0:
81,203,153437,5,2,1:2:0:0:
128,194,153539,1,2,0:0:0:0:
171,214,153641,1,2,0:0:0:0:
183,134,153743,5,10,0:0:0:0:
222,147,153845,1,2,0:0:0:0:
246,179,153947,1,2,0:0:0:0:
301,116,154049,5,2,1:2:0:0:
325,142,154151,1,2,0:0:0:0:
328,178,154253,1,2,0:0:0:0:
408,156,154355,5,10,0:0:0:0:
415,186,154457,1,2,0:0:0:0:
402,214,154559,1,2,0:0:0:0:
482,237,154661,5,2,1:2:0:0:
474,262,154763,1,2,0:0:0:0:
453,278,154865,1,2,0:0:0:0:
488,357,154968,6,0,P|454:371|416:368,3,59.4999981842042,10|2|2|2,0:0|0:0|0:0|0:0,0:0:0:0:
326,384,155274,5,4,1:0:0:0:
292,368,155351,1,2,0:0:0:0:
257,351,155427,1,2,0:0:0:0:
221,335,155504,1,2,0:0:0:0:
180,310,155580,5,10,0:0:0:0:
217,292,155657,1,2,0:0:0:0:
255,273,155733,1,2,0:0:0:0:
295,256,155810,1,2,0:0:0:0:
333,228,155886,5,2,1:2:0:0:
292,208,155963,1,2,0:0:0:0:
250,187,156039,1,2,0:0:0:0:
206,168,156116,1,2,0:0:0:0:
162,145,156193,5,10,0:0:0:0:
207,123,156270,1,2,0:0:0:0:
253,99,156346,1,2,0:0:0:0:
301,79,156423,1,2,0:0:0:0:
348,58,156499,6,0,P|330:33|304:19,2,42.5,10|10|10,1:2|1:2|1:2,0:0:0:0:
353,148,156805,1,10,0:0:0:0:
198,28,156958,1,0,0:0:0:0:
53,230,157111,5,10,1:2:0:0:
444,159,157264,1,10,1:2:0:0:
218,364,157570,6,0,P|183:327|270:256,1,191.250007295609,4|0,1:0|0:0,0:0:0:0:
297,160,158335,2,0,P|341:182|365:267,1,127.500004863739,2|0,0:0|0:0,0:0:0:0:
459,283,158948,2,0,P|433:319|415:333,1,63.7500024318696,2|0,0:0|0:0,0:0:0:0:
199,170,159560,5,2,0:0:0:0:
51,216,159713,1,2,0:0:0:0:
161,259,159866,1,2,0:0:0:0:
50,133,160019,6,0,P|97:211|118:315,1,191.250007295609,2|0,0:0|0:0,0:0:0:0:
165,48,160784,2,0,P|192:111|198:176,1,127.500004863739,2|0,0:0|0:0,0:0:0:0:
306,0,161397,2,0,P|313:44|306:86,1,63.7500024318696,2|0,1:2|0:0,0:0:0:0:
263,230,162009,5,2,1:2:0:0:
376,160,162162,1,2,1:2:0:0:
442,216,162315,1,2,1:2:0:0:
198,304,162468,1,4,1:0:0:0:
479,362,162774,5,2,1:2:0:0:
479,362,162851,1,0,1:0:0:0:
479,362,162927,2,0,P|493:303|493:276,1,63.7500024318696,0|10,1:0|1:2,0:0:0:0:
493,300,163157,1,8,1:2:0:0:
493,300,163233,1,10,1:2:0:0:
330,326,163386,2,0,L|417:312,1,72.2500013780594,4|0,1:0|0:0,0:0:0:0:
266,377,163693,2,0,L|186:364,1,80.7499978437424,4|0,1:0|0:0,0:0:0:0:
60,322,163999,5,2,0:0:0:0:
60,322,164075,1,0,0:0:0:0:
60,322,164152,2,0,L|12:339,4,40.3749989218712,2|0|2|0|2,0:0|0:0|0:0|0:0|0:0,0:0:0:0:
160,286,164611,5,4,1:0:0:0:
32,229,164764,1,4,1:0:0:0:
244,148,164917,2,0,L|228:242,1,80.7499978437424,4|0,1:0|0:0,0:0:0:0:
157,85,165223,1,2,1:2:0:0:
157,85,165300,1,0,1:0:0:0:
157,85,165376,1,0,1:0:0:0:
337,43,165529,1,10,1:2:0:0:
337,43,165606,1,8,1:2:0:0:
337,43,165682,1,10,1:2:0:0:
78,12,165835,5,4,1:0:0:0:
421,96,166142,1,4,1:0:0:0:
395,187,166295,5,0,1:0:0:0:
395,187,166371,1,0,1:0:0:0:
395,187,166448,2,0,P|345:156|334:125,2,80.7499978437424,2|10|10,1:2|1:2|1:2,0:0:0:0:
438,263,166830,5,8,0:1:0:0:
438,263,166907,2,0,P|420:272|399:275,3,40.3749989218712,10|8|8|0,1:2|1:2|1:2|0:0,0:0:0:0:
311,247,167213,5,0,1:0:0:0:
285,235,167289,1,0,1:0:0:0:
257,232,167366,1,2,1:2:0:0:
229,235,167443,1,0,1:0:0:0:
203,246,167519,6,0,L|185:349,1,97.7500018644333,4|0,1:0|1:0,0:0:0:0:
140,159,167825,2,0,L|37:141,1,97.7500018644333,8|2,0:0|1:2,0:0:0:0:
247,60,168131,5,10,0:0:0:0:
227,148,168284,1,0,1:0:0:0:
331,32,168437,1,8,0:0:0:0:
181,2,168591,1,2,1:2:0:0:
356,127,168744,6,0,P|416:88|430:29,1,97.7500018644333,10|0,0:0|1:0,0:0:0:0:
140,159,169050,1,10,0:0:0:0:
325,240,169203,1,0,1:0:0:0:
99,322,169356,1,10,0:0:0:0:
409,318,169509,1,0,1:0:0:0:
409,318,169585,1,0,1:0:0:0:
409,318,169662,2,0,P|440:269|429:201,1,97.7500018644333,10|0,0:0|1:0,0:0:0:0:
117,38,169968,6,0,L|374:87,1,204,4|0,1:0|0:0,0:0:0:0:
423,98,170274,6,0,L|171:169,1,229.499992996216,8|0,0:0|0:0,0:0:0:0:
86,184,170580,6,0,L|337:255,1,255,8|0,0:0|1:0,0:0:0:0:
466,305,170886,5,8,0:0:0:0:
414,324,170962,1,8,0:0:0:0:
361,344,171039,1,0,1:0:0:0:
309,364,171115,1,0,1:0:0:0:
256,383,171193,5,4,1:0:0:0:
46,305,171499,1,2,0:0:0:0:
292,190,171805,6,0,P|276:231|259:299,1,102,2|0,0:0|0:0,0:0:0:0:
179,121,172417,6,0,P|191:160|201:200,1,68,4|0,0:0|0:0,0:0:0:0:
398,71,172723,2,0,P|379:107|357:142,1,68,4|0,0:0|0:0,0:0:0:0:
91,73,173029,5,0,1:0:0:0:
121,31,173105,1,0,1:0:0:0:
171,16,173182,1,0,1:0:0:0:
219,32,173258,1,0,1:0:0:0:
265,68,173335,5,8,1:2:0:0:
272,128,173411,1,8,1:2:0:0:
280,189,173488,1,8,1:2:0:0:
287,250,173564,1,8,1:2:0:0:
295,310,173642,6,0,P|381:331|447:262,1,191.250007295609,4|0,1:0|0:0,0:0:0:0:
196,251,173948,2,0,L|222:404,1,127.500004863739,10|0,0:0|0:0,0:0:0:0:
347,83,174254,2,0,L|500:57,1,127.500004863739,2|0,1:2|0:0,0:0:0:0:
359,244,174560,1,10,0:0:0:0:
182,127,174713,1,2,0:0:0:0:
304,352,174866,5,2,1:2:0:0:
413,158,175019,1,0,0:0:0:0:
482,351,175172,1,10,0:0:0:0:
272,266,175325,1,0,0:0:0:0:
500,178,175478,5,2,1:2:0:0:
180,280,175631,1,2,0:0:0:0:
304,352,175784,2,0,P|365:269|325:193,1,191.250007295609,10|0,0:0|0:0,0:0:0:0:
223,150,176091,6,0,L|74:162,1,127.500004863739,2|0,1:2|0:0,0:0:0:0:
317,47,176397,1,10,0:0:0:0:
272,266,176550,1,2,0:0:0:0:
217,49,176703,1,2,1:2:0:0:
462,69,176856,1,0,0:0:0:0:
314,135,177009,1,10,0:0:0:0:
492,212,177162,1,2,0:0:0:0:
396,352,177315,6,0,L|376:209,1,127.500004863739,2|0,1:2|0:0,0:0:0:0:
123,334,177621,1,10,0:0:0:0:
280,306,177774,1,2,0:0:0:0:
9,287,177927,2,0,P|91:299|163:203,1,191.250007295609,2|0,1:2|0:0,0:0:0:0:
29,159,178233,2,0,P|55:189|76:241,2,63.7500024318696,10|8|0,0:0|0:0|1:0,0:0:0:0:
158,2,178540,6,0,P|160:56|181:129,1,127.500004863739,4|0,1:0|0:0,0:0:0:0:
425,110,178846,1,10,0:0:0:0:
266,56,178999,1,2,0:0:0:0:
385,208,179152,2,0,L|525:183,1,127.500004863739,2|0,1:2|0:0,0:0:0:0:
415,342,179458,2,0,P|331:341|291:305,1,127.500004863739,10|2,0:0|0:0,0:0:0:0:
55,124,179764,6,0,B|88:150|88:150|115:249,1,127.500004863739,2|0,1:2|0:0,0:0:0:0:
353,0,180070,2,0,B|357:41|357:41|307:130,1,127.500004863739,10|0,0:0|0:0,0:0:0:0:
155,81,180376,1,2,1:2:0:0:
362,288,180529,1,2,0:0:0:0:
215,191,180682,2,0,B|266:192|266:192|296:210|296:210|408:188,1,191.250007295609,10|0,0:0|0:0,0:0:0:0:
464,136,180989,5,4,1:0:0:0:
240,279,181142,1,0,1:0:0:0:
243,104,181295,1,8,0:0:0:0:
281,358,181448,2,0,B|230:359|230:359|200:377|200:377|88:355,1,191.250007295609,4|0,1:0|0:0,0:0:0:0:
30,307,181754,5,0,1:0:0:0:
330,245,181907,1,10,0:0:0:0:
67,139,182060,2,0,P|82:211|127:252,1,127.500004863739,4|0,1:0|0:0,0:0:0:0:
385,4,182366,5,2,1:2:0:0:
162,159,182519,1,10,0:0:0:0:
447,71,182672,1,4,1:0:0:0:
123,71,182825,1,2,0:0:0:0:
473,165,182978,5,0,1:0:0:0:
493,205,183054,1,0,1:0:0:0:
496,250,183131,1,8,1:2:0:0:
482,293,183207,1,8,1:2:0:0:
453,328,183284,1,8,0:0:0:0:
413,349,183360,1,8,0:0:0:0:
368,354,183437,6,0,L|174:328,1,191.250007295609,4|0,1:0|0:0,0:0:0:0:
76,251,183744,2,0,L|111:413,1,127.500004863739,10|0,0:0|0:0,0:0:0:0:
270,131,184050,2,0,L|305:293,1,127.500004863739,2|0,1:2|0:0,0:0:0:0:
129,65,184356,1,10,0:0:0:0:
178,216,184509,1,2,0:0:0:0:
487,99,184662,6,0,B|438:113|438:113|424:130|424:130|370:149,1,127.500004863739,2|0,1:2|0:0,0:0:0:0:
217,326,184968,2,0,B|168:340|168:340|154:357|154:357|100:376,1,127.500004863739,10|0,0:0|0:0,0:0:0:0:
420,298,185274,2,0,B|371:284|371:284|357:267|357:267|303:248,1,127.500004863739,2|2,1:2|0:0,0:0:0:0:
129,65,185580,2,0,B|80:51|80:51|66:34|66:34|12:15,1,127.500004863739,10|0,0:0|0:0,0:0:0:0:
178,216,185886,5,2,1:2:0:0:
295,9,186040,1,0,0:0:0:0:
387,177,186193,2,0,P|418:248|419:298,1,127.500004863739,10|2,0:0|0:0,0:0:0:0:
243,356,186499,2,0,P|284:308|305:248,1,127.500004863739,2|0,1:2|0:0,0:0:0:0:
132,104,186805,1,10,0:0:0:0:
178,216,186958,1,2,0:0:0:0:
315,18,187111,6,0,L|450:38,1,127.500004863739,2|0,1:2|0:0,0:0:0:0:
509,195,187417,1,10,0:0:0:0:
368,122,187570,1,2,0:0:0:0:
305,248,187723,2,0,P|385:232|419:192,1,127.500004863739,2|0,1:2|0:0,0:0:0:0:
204,71,188029,1,10,0:0:0:0:
161,58,188105,1,8,0:0:0:0:
117,64,188182,1,0,1:0:0:0:
80,88,188258,1,0,1:0:0:0:
56,126,188335,6,0,L|72:258,1,127.500004863739,4|0,1:0|0:0,0:0:0:0:
172,384,188642,1,10,0:0:0:0:
210,217,188795,1,2,0:0:0:0:
375,321,188948,2,0,B|328:330|328:330|241:314,1,127.500004863739,2|0,1:2|0:0,0:0:0:0:
249,315,189177,1,0,0:0:0:0:
249,315,189254,2,0,L|72:279,1,127.500004863739,10|2,0:0|0:0,0:0:0:0:
446,244,189560,6,0,P|473:309|446:385,1,127.500004863739,2|0,1:2|0:0,0:0:0:0:
381,92,189866,2,0,P|423:36|503:21,1,127.500004863739,10|0,0:0|0:0,0:0:0:0:
282,225,190172,2,0,P|212:215|159:154,1,127.500004863739,2|2,1:2|0:0,0:0:0:0:
456,149,190478,1,10,0:0:0:0:
370,314,190631,1,0,0:0:0:0:
261,93,190784,5,4,1:0:0:0:
512,30,190937,1,0,1:0:0:0:
282,225,191091,1,8,0:0:0:0:
223,0,191244,2,0,L|349:16,1,127.500004863739,4|0,1:0|0:0,0:0:0:0:
94,107,191550,1,0,1:0:0:0:
94,107,191626,1,0,1:0:0:0:
94,107,191703,1,10,0:0:0:0:
354,185,191856,1,0,1:0:0:0:
12,362,192009,5,4,1:0:0:0:
24,320,192085,1,8,1:2:0:0:
48,287,192162,1,10,1:2:0:0:
79,260,192238,1,0,1:0:0:0:
115,240,192315,1,2,1:2:0:0:
156,231,192391,1,0,1:0:0:0:
198,234,192468,1,0,1:0:0:0:
238,243,192544,1,0,1:0:0:0:
275,264,192621,6,0,L|286:336,3,63.7500024318696,2|0|0|0,1:2|1:0|1:0|1:0,0:0:0:0:
358,384,192927,2,0,P|387:294|377:210,1,127.500004863739,12|0,1:2|0:0,0:0:0:0:
82,119,193233,6,0,B|102:164|102:164|99:185|99:185|118:251,1,127.500004863739,4|0,1:0|0:0,0:0:0:0:
255,9,193540,2,0,B|262:57|262:57|254:77|254:77|255:145,1,127.500004863739,10|0,0:0|0:0,0:0:0:0:
460,102,193846,2,0,B|454:150|454:150|441:167|441:167|425:234,1,127.500004863739,2|0,1:2|0:0,0:0:0:0:
256,358,194152,1,10,0:0:0:0:
166,288,194305,2,0,P|224:244|302:246,1,127.500004863739,2|0,0:0|1:0,0:0:0:0:
511,367,194611,5,2,0:0:0:0:
466,191,194764,1,10,0:0:0:0:
343,314,194917,1,2,0:0:0:0:
380,127,195070,2,0,L|408:-1,1,127.500004863739,2|0,1:2|0:0,0:0:0:0:
138,163,195376,2,0,L|166:291,1,127.500004863739,10|0,0:0|0:0,0:0:0:0:
52,24,195682,6,0,P|146:77|211:89,1,127.500004863739,2|0,1:2|0:0,0:0:0:0:
165,287,195989,2,0,P|268:258|323:220,1,127.500004863739,10|2,0:0|0:0,0:0:0:0:
444,373,196295,2,0,P|496:279|509:214,1,127.500004863739,2|0,1:2|0:0,0:0:0:0:
291,106,196601,1,10,0:0:0:0:
503,131,196754,6,0,L|373:161,1,127.500004863739,2|0,0:0|1:0,0:0:0:0:
201,201,197060,1,2,0:0:0:0:
364,41,197213,2,0,L|234:11,1,127.500004863739,10|2,0:0|0:0,0:0:0:0:
8,165,197519,2,0,L|138:135,1,127.500004863739,2|0,1:2|0:0,0:0:0:0:
297,351,197825,1,10,0:0:0:0:
250,372,197901,1,8,0:0:0:0:
201,365,197978,1,0,1:0:0:0:
162,334,198054,1,0,1:0:0:0:
147,286,198131,6,0,B|199:271|199:271|239:279|239:279|352:251,1,191.250007295609,4|0,1:0|0:0,0:0:0:0:
387,187,198437,2,0,L|523:215,1,127.500004863739,10|2,0:0|0:0,0:0:0:0:
73,221,198744,6,0,B|119:193|119:193|160:190|160:190|261:134,1,191.250007295609,2|0,1:2|0:0,0:0:0:0:
306,43,199050,2,0,L|437:10,1,127.500004863739,10|2,0:0|0:0,0:0:0:0:
6,164,199356,5,2,1:2:0:0:
246,239,199509,1,2,0:0:0:0:
177,85,199662,1,10,0:0:0:0:
90,322,199815,1,2,0:0:0:0:
322,366,199968,2,0,P|384:355|448:305,1,127.500004863739,2|2,1:2|0:0,0:0:0:0:
320,142,200274,2,0,L|354:279,1,127.500004863739,10|0,0:0|0:0,0:0:0:0:
477,40,200580,5,4,1:0:0:0:
164,100,200733,1,0,1:0:0:0:
490,182,200886,1,8,0:0:0:0:
234,164,201040,1,0,1:0:0:0:
479,309,201193,1,8,0:0:0:0:
278,255,201346,1,0,1:0:0:0:
278,255,201422,1,0,1:0:0:0:
278,255,201499,1,8,0:0:0:0:
394,381,201652,1,0,1:0:0:0:
96,167,201805,5,12,0:0:0:0:
396,96,201958,1,0,1:0:0:0:
143,239,202111,1,8,0:0:0:0:
393,183,202264,1,0,1:0:0:0:
199,303,202417,1,8,0:0:0:0:
373,278,202570,1,0,1:0:0:0:
373,278,202647,1,0,1:0:0:0:
373,278,202723,1,8,0:0:0:0:
289,365,202876,1,2,0:0:0:0:
189,158,203029,6,0,L|220:10,1,127.500004863739,4|0,1:0|0:0,0:0:0:0:
300,216,203335,1,8,0:0:0:0:
109,269,203489,1,2,1:2:0:0:
109,269,203565,1,0,1:0:0:0:
109,269,203642,2,0,L|78:121,1,127.500004863739,6|2,1:2|0:0,0:0:0:0:
289,365,203948,1,8,0:0:0:0:
289,365,204024,1,8,0:0:0:0:
289,365,204101,1,2,1:2:0:0:
17,354,204254,5,14,1:2:0:0:
238,285,204407,1,14,1:2:0:0:
73,138,204560,1,14,1:2:0:0:
128,352,204713,1,2,0:0:0:0:
168,185,204866,2,0,B|290:143|290:143|264:161|252:191,1,191.250007295609,2|0,0:0|0:0,0:0:0:0:
339,221,205172,6,0,P|358:270|509:149,1,356.999989105225,2|0,0:0|0:0,0:0:0:0:
430,97,206244,5,2,0:0:0:0:
413,100,206320,1,2,0:0:0:0:
395,103,206397,1,2,0:0:0:0:
378,106,206473,1,2,0:0:0:0:
360,109,206550,1,2,0:0:0:0:
343,112,206626,1,2,0:0:0:0:
325,115,206703,6,0,L|251:102,1,59.4999981842042,4|0,1:0|0:0,0:0:0:0:
211,167,207009,2,0,L|137:154,1,59.4999981842042,8|2,0:3|0:0,0:0:0:0:
301,28,207315,2,0,L|227:15,1,59.4999981842042,8|0,0:3|1:0,0:0:0:0:
185,76,207545,1,0,1:0:0:0:
185,76,207621,2,0,L|111:63,1,59.4999981842042,2|2,1:2|0:0,0:0:0:0:
31,201,207927,6,0,P|48:235|75:258,1,59.4999981842042,2|0,1:2|0:0,0:0:0:0:
23,324,208233,2,0,P|59:336|94:333,1,59.4999981842042,8|0,0:3|0:0,0:0:0:0:
145,268,208540,2,0,P|181:255|216:258,1,59.4999981842042,2|0,1:2|1:0,0:0:0:0:
243,327,208769,1,0,1:0:0:0:
243,327,208846,2,0,P|279:339|314:336,1,59.4999981842042,8|2,0:3|0:0,0:0:0:0:
392,168,209152,5,2,1:2:0:0:
428,92,209305,1,2,0:0:0:0:
466,211,209458,2,0,L|485:282,1,59.4999981842042,8|2,0:3|0:0,0:0:0:0:
355,337,209764,2,0,L|340:279,1,59.4999981842042,2|2,0:0|1:2,0:0:0:0:
271,236,209994,1,0,1:0:0:0:
271,236,210070,2,0,L|256:178,1,59.4999981842042,8|2,0:3|0:0,0:0:0:0:
290,99,210376,5,2,1:2:0:0:
165,189,210529,1,0,1:0:0:0:
165,189,210606,1,0,1:0:0:0:
165,189,210682,2,0,P|115:168|103:151,1,59.4999981842042,8|0,0:3|1:0,0:0:0:0:
14,181,210989,2,0,L|28:122,1,59.4999981842042,8|0,0:3|1:0,0:0:0:0:
102,81,211218,1,0,1:0:0:0:
102,81,211295,2,0,L|89:22,1,59.4999981842042,8|2,0:3|1:2,0:0:0:0:
154,273,211601,6,0,P|106:266|34:299,1,118.999996368408,2|8,1:2|0:3,0:0:0:0:
112,364,212060,1,2,0:0:0:0:
112,364,212213,2,0,P|150:375|190:367,1,59.4999981842042,8|0,0:3|1:0,0:0:0:0:
232,317,212443,1,0,1:0:0:0:
232,317,212519,2,0,P|270:306|310:314,1,59.4999981842042,8|2,0:3|0:0,0:0:0:0:
385,371,212825,6,0,L|368:300,1,59.4999981842042,2|0,1:2|0:0,0:0:0:0:
461,283,213131,2,0,L|478:212,1,59.4999981842042,8|0,0:3|1:0,0:0:0:0:
372,164,213437,2,0,L|359:106,1,59.4999981842042,2|0,1:2|1:0,0:0:0:0:
359,105,213667,1,0,1:0:0:0:
359,105,213744,1,8,0:3:0:0:
276,57,213897,1,2,0:0:0:0:
387,17,214050,6,0,P|419:11|434:13,3,29.7499990921021,2|0|2|0,1:2|1:0|1:2|1:0,0:0:0:0:
447,83,214356,2,0,P|474:101|484:113,3,29.7499990921021,10|8|10|0,1:2|1:2|1:2|1:0,0:0:0:0:
443,172,214662,2,0,P|450:204|447:219,3,29.7499990921021,2|0|2|0,1:2|1:0|1:2|1:0,0:0:0:0:
377,232,214968,2,0,P|359:258|347:268,3,29.7499990921021,10|8|10|8,1:2|1:2|1:2|1:2,0:0:0:0:
277,299,215274,6,0,L|270:239,2,59.4999981842042,6|2|2,1:2|0:0|0:0,0:0:0:0:
133,123,215912,1,2,0:0:0:0:
