osu file format v14

[General]
AudioFilename: audio.mp3
AudioLeadIn: 0
PreviewTime: 53643
Countdown: 0
SampleSet: Soft
StackLeniency: 0.2
Mode: 0
LetterboxInBreaks: 0
WidescreenStoryboard: 1

[Editor]
Bookmarks: 10326,20581,30377,40020,53643,86704,96500,106296,119765,147928,157571,162469,171194,204561
DistanceSpacing: 1.6
BeatDivisor: 4
GridSize: 32
TimelineZoom: 2.5

[Metadata]
Title:Gambling
TitleUnicode:ギャンブル
Artist:syudou
ArtistUnicode:syudou
Creator:DMK7
Version:Vanya's Extra
Source:月が導く異世界道中
Tags:Vanya Vanya2 Simple- Gamble japanese rock jrock j-rock ツキミチ Tsukimichi: Tsukimichi Moonlit Fantasy -Moonlit Fantasy- tsuki ga michibiku isekai douchuu anime op opening male vocal
BeatmapID:4390538
BeatmapSetID:1912881

[Difficulty]
HPDrainRate:5.5
CircleSize:3.8
OverallDifficulty:8.8
ApproachRate:9.2
SliderMultiplier:1.8
SliderTickRate:1

[Events]
//Background and Video events
0,0,"keepgambling3new.jpg",0,0
//Break Periods
2,96700,103277
2,157772,161900
//Storyboard Layer 0 (Background)
//Storyboard Layer 1 (Fail)
//Storyboard Layer 2 (Pass)
//Storyboard Layer 3 (Foreground)
//Storyboard Layer 4 (Overlay)
//Storyboard Sound Samples

[TimingPoints]
990,306.122448979592,4,2,1,45,1,0
990,-133.333333333333,4,2,1,45,0,0
8336,-133.333333333333,4,2,1,55,0,0
10326,-133.333333333333,4,2,1,75,0,0
10479,-66.6666666666667,4,2,1,75,0,0
10709,-66.6666666666667,4,2,1,5,0,0
10785,-83.3333333333333,4,2,1,75,0,0
14459,-66.6666666666667,4,2,1,75,0,0
15683,-83.3333333333333,4,2,1,75,0,0
19357,-66.6666666666667,4,2,1,75,0,0
20581,-66.6666666666667,4,2,1,60,0,0
21194,-133.333333333333,4,2,1,60,0,0
30377,-111.111111111111,4,2,1,65,0,0
30607,-111.111111111111,4,2,1,5,0,0
30683,-111.111111111111,4,2,1,65,0,0
31219,-111.111111111111,4,2,1,5,0,0
31296,-111.111111111111,4,2,1,65,0,0
33362,-111.111111111111,4,2,1,5,0,0
33438,-111.111111111111,4,2,1,65,0,0
33668,-111.111111111111,4,2,1,5,0,0
33745,-111.111111111111,4,2,1,65,0,0
35505,-111.111111111111,4,2,1,5,0,0
35581,-111.111111111111,4,2,1,65,0,0
36117,-111.111111111111,4,2,1,5,0,0
36194,-111.111111111111,4,2,1,65,0,0
37954,-111.111111111111,4,2,1,5,0,0
38030,-111.111111111111,4,2,1,65,0,0
38260,-111.111111111111,4,2,1,5,0,0
38336,-111.111111111111,4,2,1,65,0,0
38566,-111.111111111111,4,2,1,5,0,0
38642,-111.111111111111,4,2,1,65,0,0
38872,-111.111111111111,4,2,1,5,0,0
38949,-111.111111111111,4,2,1,65,0,0
40020,-100,4,2,1,50,0,0
40990,-100,4,2,1,5,0,0
41092,-100,4,2,1,50,0,0
43438,-100,4,2,1,5,0,0
43541,-100,4,2,1,50,0,0
44918,-100,4,2,1,60,0,0
47367,-100,4,2,1,65,0,0
48821,-100,4,2,1,5,0,0
48898,-100,4,2,1,65,0,0
48974,-100,4,2,1,5,0,0
49051,-100,4,2,1,65,0,0
49127,-100,4,2,1,5,0,0
49204,-100,4,2,1,65,0,0
49816,-100,4,2,1,75,0,0
49969,-83.3333333333333,4,2,1,75,0,0
52648,-83.3333333333333,4,2,1,5,0,0
52724,-66.6666666666667,4,2,1,75,0,0
52954,-66.6666666666667,4,2,1,5,0,0
53030,-55.5555555555556,4,2,1,45,0,0
53183,-55.5555555555556,4,2,1,55,0,0
53336,-50,4,2,1,65,0,0
53490,-50,4,2,1,75,0,0
53643,-400,4,2,1,60,0,0
54408,-400,4,2,1,75,0,0
54561,-66.6666666666667,4,2,1,75,0,0
54791,-66.6666666666667,4,2,1,5,0,0
54867,-76.9230769230769,4,2,1,80,0,0
55709,-76.9230769230769,4,2,1,5,0,0
55785,-76.9230769230769,4,2,1,80,0,0
56321,-76.9230769230769,4,2,1,5,0,0
56397,-76.9230769230769,4,2,1,80,0,0
57546,-76.9230769230769,4,2,1,5,0,0
57622,-76.9230769230769,4,2,1,80,0,0
58464,-76.9230769230769,4,2,1,5,0,0
58541,-76.9230769230769,4,2,1,80,0,0
61525,-76.9230769230769,4,2,1,5,0,0
61602,-76.9230769230769,4,2,1,80,0,0
62291,-76.9230769230769,4,2,1,5,0,0
62367,-76.9230769230769,4,2,1,85,0,0
62444,-76.9230769230769,4,2,1,5,0,0
62520,-76.9230769230769,4,2,1,85,0,0
63515,-76.9230769230769,4,2,1,5,0,0
63592,-76.9230769230769,4,2,1,85,0,0
65505,-76.9230769230769,4,2,1,5,0,0
65581,-76.9230769230769,4,2,1,80,0,0
67342,-76.9230769230769,4,2,1,5,0,0
67418,-76.9230769230769,4,2,1,80,0,0
68566,-76.9230769230769,4,2,1,5,0,0
68643,-76.9230769230769,4,2,1,80,0,0
71627,-76.9230769230769,4,2,1,5,0,0
71704,-76.9230769230769,4,2,1,80,0,0
72086,-76.9230769230769,4,2,1,5,0,0
72163,-76.9230769230769,4,2,1,85,0,0
72240,-76.9230769230769,4,2,1,5,0,0
72316,-76.9230769230769,4,2,1,85,0,0
73311,-76.9230769230769,4,2,1,5,0,0
73387,-76.9230769230769,4,2,1,85,0,0
75301,-76.9230769230769,4,2,1,5,0,0
75377,-76.9230769230769,4,2,1,80,0,0
77750,-76.9230769230769,4,2,1,5,0,0
77826,-76.9230769230769,4,2,1,80,0,0
81729,-76.9230769230769,4,2,1,5,0,0
81806,-76.9230769230769,4,2,1,80,0,0
86245,-76.9230769230769,4,2,1,75,0,0
86627,-76.9230769230769,4,2,1,5,0,0
86704,-83.3333333333333,4,2,1,75,0,0
90377,-66.6666666666667,4,2,1,75,0,0
91602,-83.3333333333333,4,2,1,75,0,0
95275,-66.6666666666667,4,2,1,75,0,0
96500,-66.6666666666667,4,2,1,50,0,0
97954,-66.6666666666667,4,2,1,5,0,0
98030,-66.6666666666667,4,2,1,50,0,0
103541,-66.6666666666667,4,2,1,55,0,0
103847,-66.6666666666667,4,2,1,60,0,0
105990,-100,4,2,1,60,0,0
106296,-100,4,2,1,65,0,0
106525,-100,4,2,1,5,0,0
106602,-100,4,2,1,65,0,0
107137,-100,4,2,1,5,0,0
107214,-100,4,2,1,65,0,0
109281,-100,4,2,1,5,0,0
109357,-100,4,2,1,65,0,0
109587,-100,4,2,1,5,0,0
109664,-100,4,2,1,65,0,0
111041,-100,4,2,1,60,0,0
112265,-100,4,2,1,65,0,0
112495,-100,4,2,1,5,0,0
112571,-100,4,2,1,65,0,0
113490,-100,4,2,1,70,0,0
114714,-100,4,2,1,75,0,0
115785,-83.3333333333333,4,2,1,75,0,0
116015,-83.3333333333333,4,2,1,5,0,0
116092,-83.3333333333333,4,2,1,70,0,0
118541,-83.3333333333333,4,2,1,75,0,0
118770,-83.3333333333333,4,2,1,5,0,0
118846,-83.3333333333333,4,2,1,75,0,0
119076,-83.3333333333333,4,2,1,5,0,0
119153,-83.3333333333333,4,2,1,45,0,0
119306,-83.3333333333333,4,2,1,55,0,0
119459,-83.3333333333333,4,2,1,65,0,0
119613,-83.3333333333333,4,2,1,75,0,0
119765,-83.3333333333333,4,2,1,60,0,0
120530,-83.3333333333333,4,2,1,75,0,0
120683,-66.6666666666667,4,2,1,75,0,0
120913,-66.6666666666667,4,2,1,5,0,0
120990,-76.9230769230769,4,2,1,80,0,0
121831,-76.9230769230769,4,2,1,5,0,0
121908,-76.9230769230769,4,2,1,80,0,0
122444,-76.9230769230769,4,2,1,5,0,0
122520,-76.9230769230769,4,2,1,80,0,0
123668,-76.9230769230769,4,2,1,5,0,0
123745,-76.9230769230769,4,2,1,80,0,0
124586,-76.9230769230769,4,2,1,5,0,0
124663,-76.9230769230769,4,2,1,80,0,0
127648,-76.9230769230769,4,2,1,5,0,0
127724,-76.9230769230769,4,2,1,80,0,0
128336,-76.9230769230769,4,2,1,85,0,0
128413,-76.9230769230769,4,2,1,5,0,0
128489,-76.9230769230769,4,2,1,85,0,0
128566,-76.9230769230769,4,2,1,5,0,0
128642,-76.9230769230769,4,2,1,85,0,0
129637,-76.9230769230769,4,2,1,5,0,0
129714,-76.9230769230769,4,2,1,85,0,0
130785,-76.9230769230769,4,2,1,80,0,0
131627,-76.9230769230769,4,2,1,5,0,0
131704,-76.9230769230769,4,2,1,80,0,0
132622,-76.9230769230769,4,2,1,85,0,0
132852,-76.9230769230769,4,2,1,5,0,0
132928,-76.9230769230769,4,2,1,85,0,0
133158,-76.9230769230769,4,2,1,5,0,0
133234,-76.9230769230769,4,2,1,80,0,0
134688,-76.9230769230769,4,2,1,5,0,0
134765,-76.9230769230769,4,2,1,80,0,0
137750,-76.9230769230769,4,2,1,5,0,0
137826,-76.9230769230769,4,2,1,80,0,0
138132,-76.9230769230769,4,2,1,85,0,0
138209,-76.9230769230769,4,2,1,5,0,0
138285,-76.9230769230769,4,2,1,85,0,0
138362,-76.9230769230769,4,2,1,5,0,0
138438,-76.9230769230769,4,2,1,85,0,0
139433,-76.9230769230769,4,2,1,5,0,0
139510,-76.9230769230769,4,2,1,85,0,0
140581,-76.9230769230769,4,2,1,80,0,0
141423,-76.9230769230769,4,2,1,5,0,0
141500,-76.9230769230769,4,2,1,80,0,0
143872,-76.9230769230769,4,2,1,5,0,0
143949,-76.9230769230769,4,2,1,80,0,0
147928,-76.9230769230769,4,2,1,75,0,0
149076,-76.9230769230769,4,2,1,5,0,0
149153,-76.9230769230769,4,2,1,75,0,0
151525,-76.9230769230769,4,2,1,5,0,0
151602,-76.9230769230769,4,2,1,45,0,0
151908,-76.9230769230769,4,2,1,55,0,0
152214,-76.9230769230769,4,2,1,75,0,0
152520,-76.9230769230769,4,2,1,65,0,0
153056,-76.9230769230769,4,2,1,5,0,0
153132,-76.9230769230769,4,2,1,75,0,0
157571,-200,4,2,1,35,0,0
162469,-66.6666666666667,4,2,1,60,0,0
163464,-66.6666666666667,4,2,1,5,0,0
163694,-66.6666666666667,4,2,1,60,0,0
163770,-66.6666666666667,4,2,1,5,0,0
163847,-66.6666666666667,4,2,1,60,0,0
164612,-66.6666666666667,4,2,1,75,0,0
164689,-66.6666666666667,4,2,1,5,0,0
164765,-66.6666666666667,4,2,1,75,0,0
164842,-66.6666666666667,4,2,1,5,0,0
164918,-66.6666666666667,4,2,1,75,0,0
164995,-66.6666666666667,4,2,1,5,0,0
165071,-66.6666666666667,4,2,1,65,0,0
165913,-66.6666666666667,4,2,1,5,0,0
166143,-66.6666666666667,4,2,1,65,0,0
166220,-66.6666666666667,4,2,1,5,0,0
166296,-66.6666666666667,4,2,1,65,0,0
167214,-83.3333333333333,4,2,1,65,0,0
167367,-83.3333333333333,4,2,1,75,0,0
170199,-83.3333333333333,4,2,1,5,0,0
170275,-83.3333333333333,4,2,1,75,0,0
170505,-83.3333333333333,4,2,1,5,0,0
170581,-83.3333333333333,4,2,1,45,0,0
170734,-83.3333333333333,4,2,1,55,0,0
170887,-83.3333333333333,4,2,1,65,0,0
171041,-83.3333333333333,4,2,1,75,0,0
171194,-83.3333333333333,4,2,1,60,0,0
171806,-1000,4,2,1,60,0,0
172342,-1000,4,2,1,5,0,0
172418,-1000,4,2,1,60,0,0
173030,-76.9230769230769,4,2,1,75,0,0
173643,-76.9230769230769,4,2,1,80,0,0
173872,-76.9230769230769,4,2,1,5,0,0
173949,-76.9230769230769,4,2,1,80,0,0
174484,-76.9230769230769,4,2,1,5,0,0
174561,-76.9230769230769,4,2,1,80,0,0
175097,-76.9230769230769,4,2,1,5,0,0
175173,-76.9230769230769,4,2,1,80,0,0
176321,-76.9230769230769,4,2,1,5,0,0
176398,-76.9230769230769,4,2,1,80,0,0
177240,-76.9230769230769,4,2,1,5,0,0
177316,-76.9230769230769,4,2,1,80,0,0
180301,-76.9230769230769,4,2,1,5,0,0
180377,-76.9230769230769,4,2,1,80,0,0
180990,-76.9230769230769,4,2,1,85,0,0
181067,-76.9230769230769,4,2,1,5,0,0
181143,-76.9230769230769,4,2,1,85,0,0
181220,-76.9230769230769,4,2,1,5,0,0
181296,-76.9230769230769,4,2,1,85,0,0
182291,-76.9230769230769,4,2,1,5,0,0
182368,-76.9230769230769,4,2,1,85,0,0
183438,-76.9230769230769,4,2,1,80,0,0
184280,-76.9230769230769,4,2,1,5,0,0
184357,-76.9230769230769,4,2,1,80,0,0
186117,-76.9230769230769,4,2,1,5,0,0
186194,-76.9230769230769,4,2,1,80,0,0
187342,-76.9230769230769,4,2,1,5,0,0
187418,-76.9230769230769,4,2,1,80,0,0
190403,-76.9230769230769,4,2,1,5,0,0
190479,-76.9230769230769,4,2,1,80,0,0
190785,-76.9230769230769,4,2,1,85,0,0
190862,-76.9230769230769,4,2,1,5,0,0
190938,-76.9230769230769,4,2,1,85,0,0
191015,-76.9230769230769,4,2,1,5,0,0
191091,-76.9230769230769,4,2,1,85,0,0
193234,-76.9230769230769,4,2,1,80,0,0
194076,-76.9230769230769,4,2,1,5,0,0
194153,-76.9230769230769,4,2,1,80,0,0
196525,-76.9230769230769,4,2,1,5,0,0
196602,-76.9230769230769,4,2,1,80,0,0
200505,-76.9230769230769,4,2,1,5,0,0
200581,-76.9230769230769,4,2,1,80,0,0
206704,-76.9230769230769,4,2,1,40,0,0
207010,-133.333333333333,4,2,1,35,0,0
211602,-133.333333333333,4,2,1,55,0,0
215275,-133.333333333333,4,2,1,55,0,0

[Colours]
Combo1 : 152,87,67
Combo2 : 202,181,26
Combo3 : 112,112,58
Combo4 : 57,113,113

[HitObjects]
80,269,990,6,0,B|186:223|186:223|194:168|150:153,1,202.500007724762,2|0,2:2|0:0,0:0:0:0:
205,235,1602,2,0,L|287:256,1,67.5000025749208,2|0,2:2|1:2,0:0:0:0:
343,224,1832,1,0,1:2:0:0:
343,224,1908,1,2,1:2:0:0:
410,187,2061,1,0,1:2:0:0:
440,77,2215,6,0,P|399:25|333:44,1,135.000005149842,2|2,1:2|2:2,0:0:0:0:
287,101,2674,1,0,1:2:0:0:
224,52,2827,2,0,L|132:37,1,67.5000025749208,2|0,1:2|1:2,0:0:0:0:
91,79,3056,1,0,1:2:0:0:
91,79,3133,1,2,1:2:0:0:
137,144,3286,1,0,1:2:0:0:
56,233,3439,6,0,B|32:242|32:242|-21:212|0:148,2,135.000005149842,2|2|2,1:2|2:2|2:2,0:0:0:0:
115,285,4204,2,0,L|108:325,2,33.7500012874604,0|0|2,1:2|1:2|1:2,0:0:0:0:
182,247,4510,1,0,1:2:0:0:
258,346,4664,6,0,P|299:342|324:312,1,67.5000025749208,2|0,2:2|1:2,0:0:0:0:
389,301,4893,1,0,1:2:0:0:
389,301,4970,1,2,1:2:0:0:
357,229,5123,1,0,1:2:0:0:
316,134,5276,2,0,L|326:44,1,67.5000025749208,2|0,2:2|1:2,0:0:0:0:
390,24,5505,1,0,1:2:0:0:
390,24,5582,1,2,1:2:0:0:
447,78,5735,1,0,1:2:0:0:
301,143,5888,6,0,B|231:158|266:203|197:222,1,135.000005149842,2|2,1:2|2:2,0:0:0:0:
131,185,6347,1,0,0:0:0:0:
61,150,6500,2,0,L|45:84,1,67.5000025749208,2|0,2:2|1:2,0:0:0:0:
90,21,6730,1,0,1:2:0:0:
90,21,6806,1,2,1:2:0:0:
163,47,6959,1,0,1:2:0:0:
281,105,7112,6,0,B|271:119|271:119|293:240,1,135.000005149842,2|2,1:2|2:2,0:0:0:0:
357,278,7572,1,0,1:2:0:0:
416,227,7725,2,0,P|453:228|486:265,1,67.5000025749208,2|0,1:2|1:2,0:0:0:0:
512,319,7954,1,0,1:2:0:0:
512,319,8031,1,2,1:2:0:0:
450,373,8184,1,0,1:2:0:0:
351,289,8337,6,0,L|268:302,1,67.5000025749208,2|0,1:2|1:2,0:0:0:0:
230,355,8567,1,0,1:2:0:0:
230,355,8643,2,0,L|147:368,1,67.5000025749208,10|0,2:2|1:2,0:0:0:0:
93,336,8873,1,0,1:2:0:0:
81,326,8949,1,10,2:2:0:0:
64,297,9026,1,8,2:2:0:0:
66,264,9102,1,0,1:2:0:0:
86,237,9179,1,0,1:2:0:0:
117,226,9255,6,0,P|160:184|133:100,1,135.000005149842,2|2,2:2|2:1,0:0:0:0:
136,111,10327,2,0,L|88:125,1,33.7500012874604,0|0,1:2|1:2,0:0:0:0:
10,68,10480,6,0,B|-12:45|-12:45|160:108,1,202.500007724762,4|0,2:2|0:0,0:0:0:0:
208,155,10786,6,0,P|266:158|282:42,1,161.999995056153,4|0,2:1|1:2,0:0:0:0:
247,25,11092,1,10,2:2:0:0:
379,133,11245,1,2,1:2:0:0:
512,17,11398,2,0,P|460:28|434:73,1,107.999996704102,10|2,2:2|1:2,0:0:0:0:
460,152,11628,1,0,1:2:0:0:
460,152,11704,2,0,L|525:166,1,53.9999983520508,10|0,2:2|0:0,0:0:0:0:
374,255,11857,2,0,L|309:269,1,53.9999983520508,2|0,1:2|0:0,0:0:0:0:
476,384,12010,6,0,P|479:323|422:289,1,107.999996704102,10|2,2:2|1:2,0:0:0:0:
245,223,12317,2,0,P|209:261|216:313,1,107.999996704102,10|2,2:2|1:2,0:0:0:0:
359,177,12623,1,10,2:2:0:0:
297,353,12776,1,2,1:2:0:0:
193,151,12929,1,10,2:2:0:0:
85,288,13082,5,2,1:2:0:0:
84,299,13158,1,0,1:2:0:0:
75,304,13235,2,0,B|-1:286|-1:286|-27:242|21:209,1,161.999995056153,10|0,2:2|1:2,0:0:0:0:
91,205,13541,1,10,2:2:0:0:
11,59,13694,1,2,1:2:0:0:
177,155,13847,2,0,B|188:105|188:105|192:101|192:101|204:51,1,107.999996704102,10|2,2:2|1:2,0:0:0:0:
130,4,14077,1,0,1:2:0:0:
130,4,14153,2,0,P|114:30|128:80,1,53.9999983520508,10|8,2:2|2:2,0:0:0:0:
246,209,14306,2,0,P|262:183|248:133,1,53.9999983520508,2|0,1:2|1:2,0:0:0:0:
55,132,14459,6,0,P|139:139|204:37,1,202.500007724762,12|0,1:2|0:0,0:0:0:0:
225,214,14766,2,0,P|189:137|68:132,1,202.500007724762,12|0,1:2|0:0,0:0:0:0:
212,26,15072,2,0,P|163:95|219:202,1,202.500007724762,12|0,1:2|0:0,0:0:0:0:
55,132,15378,2,0,P|139:139|204:37,1,202.500007724762,12|8,1:2|1:3,0:0:0:0:
295,36,15684,6,0,B|384:18|384:18|424:10|452:35,1,161.999995056153,6|0,2:2|1:2,0:0:0:0:
512,81,15990,1,10,2:2:0:0:
360,167,16143,1,2,1:2:0:0:
508,296,16296,2,0,B|466:260|466:260|414:270,1,107.999996704102,10|2,2:2|1:2,0:0:0:0:
354,318,16526,1,0,1:2:0:0:
354,318,16602,2,0,L|364:403,1,53.9999983520508,10|0,2:2|0:0,0:0:0:0:
248,230,16755,2,0,L|254:176,1,53.9999983520508,2|0,1:2|0:0,0:0:0:0:
181,276,16908,6,0,P|128:286|76:301,1,107.999996704102,10|2,2:2|1:2,0:0:0:0:
0,121,17215,2,0,P|51:135|104:146,1,107.999996704102,10|2,2:2|1:2,0:0:0:0:
302,81,17521,1,10,2:2:0:0:
139,7,17674,1,2,1:2:0:0:
245,155,17827,1,10,2:2:0:0:
356,20,17980,5,2,1:2:0:0:
364,15,18056,1,0,1:2:0:0:
374,18,18133,2,0,P|433:52|415:152,1,161.999995056153,10|0,2:2|1:2,0:0:0:0:
363,173,18439,1,10,2:2:0:0:
452,323,18592,1,2,1:2:0:0:
321,245,18745,2,0,L|205:262,1,107.999996704102,10|2,2:2|1:2,0:0:0:0:
160,330,18975,1,0,1:2:0:0:
160,330,19051,2,0,L|167:383,1,53.9999983520508,10|8,2:2|2:2,0:0:0:0:
5,274,19204,2,0,L|12:327,1,53.9999983520508,2|0,1:2|1:2,0:0:0:0:
138,124,19357,6,0,L|168:332,1,202.500007724762,12|0,1:2|0:0,0:0:0:0:
273,134,19664,2,0,L|77:56,1,202.500007724762,12|0,1:2|0:0,0:0:0:0:
196,245,19970,2,0,L|361:114,1,202.500007724762,12|0,1:2|0:0,0:0:0:0:
138,124,20276,2,0,L|168:332,1,202.500007724762,12|8,1:2|1:3,0:0:0:0:
202,167,20582,5,6,1:2:0:0:
357,356,20888,1,8,2:2:0:0:
428,320,21041,1,2,1:2:0:0:
400,246,21194,2,0,L|387:122,1,67.5000025749208,2|0,1:2|1:2,0:0:0:0:
446,122,21500,1,10,2:2:0:0:
446,122,21653,1,2,1:2:0:0:
352,53,21806,6,0,P|293:50|264:134,1,135.000005149842,2|10,1:2|2:2,0:0:0:0:
202,167,22266,1,0,1:2:0:0:
130,128,22419,2,0,B|53:138|77:97|-6:108,1,135.000005149842,2|8,1:2|2:2,0:0:0:0:
88,224,22878,1,2,1:2:0:0:
22,285,23031,5,2,1:2:0:0:
22,285,23184,1,2,1:2:0:0:
7,199,23337,1,10,2:2:0:0:
7,199,23490,1,2,1:2:0:0:
129,295,23643,2,0,L|214:309,1,67.5000025749208,2|0,1:2|1:2,0:0:0:0:
79,368,23949,2,0,L|-6:382,1,67.5000025749208,10|2,2:2|1:2,0:0:0:0:
197,226,24255,6,0,P|232:276|308:286,2,135.000005149842,2|10|2,1:2|2:2|1:2,0:0:0:0:
246,166,25021,1,8,1:1:0:0:
372,263,25174,1,8,2:1:0:0:
496,185,25327,1,2,1:2:0:0:
381,85,25480,6,0,L|363:176,1,67.5000025749208,2|0,1:2|1:2,0:0:0:0:
449,302,25786,2,0,P|481:293|504:269,1,67.5000025749208,8|2,2:2|1:2,0:0:0:0:
349,359,26092,2,0,P|325:335|293:327,1,67.5000025749208,2|0,1:2|1:2,0:0:0:0:
176,235,26398,2,0,L|85:253,1,67.5000025749208,10|2,2:2|1:2,0:0:0:0:
241,180,26704,6,0,L|259:89,1,67.5000025749208,2|2,1:2|1:2,0:0:0:0:
92,249,27010,2,0,P|52:241|30:150,1,135.000005149842,10|2,2:2|1:2,0:0:0:0:
89,119,27470,1,0,1:2:0:0:
189,35,27623,1,8,2:2:0:0:
115,3,27776,1,2,1:2:0:0:
172,111,27929,6,0,L|260:130,1,67.5000025749208,2|2,1:2|1:2,0:0:0:0:
374,58,28235,2,0,P|351:21|306:12,1,67.5000025749208,10|2,2:2|1:2,0:0:0:0:
470,137,28541,2,0,L|451:225,1,67.5000025749208,2|0,1:2|1:2,0:0:0:0:
327,254,28847,2,0,P|297:237|283:207,1,67.5000025749208,10|2,2:2|1:2,0:0:0:0:
448,213,29153,5,10,2:2:0:0:
370,340,29306,1,0,1:2:0:0:
236,205,29459,1,10,2:2:0:0:
236,205,29536,1,8,2:2:0:0:
236,205,29612,2,0,L|293:195,1,33.7500012874604,0|0,1:2|1:2,0:0:0:0:
265,323,29766,5,10,2:2:0:0:
119,202,29919,1,2,1:2:0:0:
0,341,30072,1,10,2:2:0:0:
86,312,30225,1,2,1:2:0:0:
46,148,30378,6,0,B|21:182|21:182|29:220,1,80.9999975280763,6|2,1:2|2:2,0:0:0:0:
185,132,30684,1,8,2:2:0:0:
44,49,30837,1,2,2:2:0:0:
132,209,30990,2,0,L|232:226,1,80.9999975280763,0|2,1:2|2:2,0:0:0:0:
338,333,31296,1,8,2:2:0:0:
269,374,31449,1,2,2:2:0:0:
323,231,31602,5,0,1:2:0:0:
446,319,31755,1,2,2:2:0:0:
511,182,31908,1,8,2:2:0:0:
405,244,32061,1,2,1:2:0:0:
413,249,32138,1,8,2:2:0:0:
418,244,32215,2,0,L|395:85,1,121.499996292114,0|0,1:2|0:0,0:0:0:0:
443,57,32521,2,0,P|480:54|518:106,1,80.9999975280763,8|2,2:2|2:2,0:0:0:0:
285,55,32827,6,0,P|242:108|160:117,1,121.499996292114,0|0,1:2|0:0,0:0:0:0:
128,80,33133,2,0,L|113:-4,1,80.9999975280763,8|2,2:2|2:2,0:0:0:0:
285,190,33439,2,0,L|125:161,1,161.999995056153,0|8,1:2|2:2,0:0:0:0:
5,269,33898,1,2,2:2:0:0:
159,370,34051,6,0,L|168:307,2,40.4999987640381,8|8|10,2:2|2:2|2:2,0:0:0:0:
249,281,34357,1,8,2:2:0:0:
258,276,34434,2,0,P|306:284|330:345,1,80.9999975280763,8|8,2:2|2:3,0:0:0:0:
380,363,34664,2,0,L|477:381,1,80.9999975280763,8|10,2:2|2:3,0:0:0:0:
512,203,34970,1,8,2:2:0:0:
496,205,35046,1,8,2:2:0:0:
480,208,35123,1,10,2:2:0:0:
464,211,35199,1,8,2:2:0:0:
448,214,35276,6,0,P|386:199|376:95,1,161.999995056153,4|8,1:2|2:2,0:0:0:0:
202,147,35735,1,2,2:2:0:0:
339,36,35888,2,0,B|379:24|379:24|424:55,1,80.9999975280763,0|2,1:2|2:2,0:0:0:0:
332,202,36194,1,8,2:2:0:0:
239,50,36347,1,2,2:2:0:0:
119,206,36500,6,0,B|83:212|83:212|78:215|78:215|40:222,1,80.9999975280763,0|2,1:2|2:2,0:0:0:0:
292,111,36806,2,0,B|328:117|328:117|333:120|333:120|370:127,1,80.9999975280763,8|2,2:2|2:2,0:0:0:0:
253,275,37112,1,0,1:2:0:0:
114,116,37266,1,2,2:2:0:0:
245,178,37419,1,8,2:2:0:0:
158,283,37572,1,2,2:2:0:0:
393,384,37725,6,0,P|386:332|304:327,1,121.499996292114,4|0,1:2|0:0,0:0:0:0:
262,359,38031,2,0,L|162:379,1,80.9999975280763,8|2,2:2|2:2,0:0:0:0:
0,225,38337,2,0,B|16:241|16:241|165:272,1,161.999995056153,6|8,1:2|2:2,0:0:0:0:
262,166,38796,1,2,2:2:0:0:
142,68,38949,5,8,2:2:0:0:
134,69,39026,1,8,2:2:0:0:
130,77,39102,2,0,L|140:143,1,40.4999987640381,0|0,1:2|1:2,0:0:0:0:
249,252,39255,1,12,2:2:0:0:
357,104,39408,1,0,1:2:0:0:
176,188,39561,5,8,1:2:0:0:
0,86,39715,1,8,1:2:0:0:
304,42,40021,6,0,L|324:241,1,180,6|0,1:2|1:2,0:0:0:0:
424,304,40480,1,2,1:2:0:0:
495,212,40633,1,0,0:0:0:0:
333,301,40786,2,0,B|246:305|268:350|209:373,1,135,10|0,2:2|0:0,0:0:0:0:
148,345,41092,2,0,P|138:324|136:302,1,45,2|0,1:2|0:0,0:0:0:0:
209,190,41245,1,0,1:2:0:0:
94,193,41398,5,2,2:2:0:0:
249,295,41551,2,0,P|335:311|383:384,1,180,0|0,1:2|0:0,0:0:0:0:
149,296,42010,5,10,2:2:0:0:
295,216,42164,1,2,2:2:0:0:
189,72,42317,1,2,1:2:0:0:
236,4,42470,6,0,P|225:93|218:183,1,180,2|0,1:2|1:2,0:0:0:0:
75,257,42929,2,0,P|23:228|29:179,1,90,2|0,1:2|0:0,0:0:0:0:
90,0,43235,2,0,P|95:44|98:89,1,90,10|0,2:2|0:0,0:0:0:0:
275,240,43541,2,0,P|328:238|359:134,1,135,2|0,1:2|0:0,0:0:0:0:
324,112,43847,5,2,2:2:0:0:
178,213,44000,1,0,1:2:0:0:
310,332,44153,2,0,B|389:344|356:372|432:384,1,135,2|0,1:2|0:0,0:0:0:0:
471,311,44459,5,12,2:2:0:0:
289,248,44612,1,2,2:2:0:0:
173,384,44766,1,2,1:2:0:0:
318,325,44919,6,0,P|332:254|330:103,1,180,6|2,1:2|1:2,0:0:0:0:
140,55,45378,2,0,P|124:96|123:141,1,90,10|2,2:2|1:2,0:0:0:0:
301,69,45684,1,2,1:2:0:0:
174,211,45837,1,0,1:2:0:0:
12,121,45990,1,10,2:2:0:0:
251,181,46143,6,0,P|312:197|329:322,1,180,2|2,1:2|1:2,0:0:0:0:
124,384,46602,2,0,P|92:338|122:286,1,90,10|6,2:2|2:3,0:0:0:0:
162,266,46832,1,4,2:3:0:0:
162,266,46908,1,6,2:3:0:0:
297,366,47061,1,8,2:3:0:0:
451,302,47215,1,8,2:3:0:0:
324,163,47368,6,0,B|332:54|378:107|386:-1,1,180,6|2,1:2|1:2,0:0:0:0:
202,113,47827,1,10,2:2:0:0:
406,218,47980,1,2,1:2:0:0:
369,0,48133,2,0,L|379:110,1,90,2|0,1:2|1:2,0:0:0:0:
250,203,48439,1,10,2:2:0:0:
121,16,48592,6,0,P|58:25|26:142,1,180,2|2,1:2|1:2,0:0:0:0:
176,243,49051,1,10,2:2:0:0:
40,349,49204,1,2,1:2:0:0:
32,342,49281,1,0,1:2:0:0:
39,333,49357,2,0,B|67:327|67:327|85:307|85:307|118:300,1,90,2|0,1:2|1:2,0:0:0:0:
266,194,49664,2,0,L|269:162,6,22.5,12|0|0|0|2|0|0,2:2|0:0|0:0|0:0|1:2|0:0|1:2,0:0:0:0:
320,252,49970,6,0,B|400:270|361:317|451:338,1,161.999995056153,14|0,1:2|0:0,0:0:0:0:
453,326,50276,2,0,L|372:338,1,53.9999983520508,8|0,1:2|0:0,0:0:0:0:
492,169,50429,1,2,1:2:0:0:
365,12,50582,6,0,L|345:192,1,161.999995056153,10|0,1:2|0:0,0:0:0:0:
359,181,50888,2,0,L|364:124,1,53.9999983520508,8|0,1:2|0:0,0:0:0:0:
223,9,51041,1,2,1:2:0:0:
132,160,51194,6,0,P|53:173|16:58,1,215.999993408203,14|10,1:2|1:2,0:0:0:0:
195,237,51653,1,0,1:2:0:0:
289,50,51806,5,10,1:2:0:0:
105,141,51959,1,0,1:2:0:0:
275,196,52112,5,14,1:2:0:0:
432,261,52266,1,0,1:2:0:0:
239,320,52419,6,0,P|179:316|109:408,1,161.999995056153,4|0,1:2|0:0,0:0:0:0:
298,273,52725,2,0,P|354:266|451:387,1,202.500007724762,0|0,1:2|0:0,0:0:0:0:
210,152,53031,2,0,P|97:181|64:292,1,242.999992584229,8|8,1:2|1:2,0:0:0:0:
324,67,53337,2,0,P|436:96|472:257,1,270,8|8,1:2|1:2,0:0:0:0:
252,87,53643,6,0,P|239:44|239:0,1,90,2|2,1:1|2:2,0:0:0:0:
480,231,54408,1,0,1:2:0:0:
483,221,54485,1,0,1:2:0:0:
475,214,54561,2,0,B|407:223|407:223|376:282|376:282|292:294,1,202.500007724762,6|0,2:2|0:0,0:0:0:0:
244,248,54868,6,0,P|177:256|154:363,1,175.499991966248,4|0,3:1|0:0,0:0:0:0:
255,238,55174,2,0,B|260:175|289:194|296:120,1,116.999994644165,10|0,2:2|0:0,0:0:0:0:
73,0,55480,2,0,P|102:82|117:168,1,175.499991966248,2|0,1:2|0:0,0:0:0:0:
63,223,55786,1,10,2:2:0:0:
207,88,55939,1,2,2:2:0:0:
388,202,56092,6,0,P|459:204|475:79,1,175.499991966248,2|0,1:2|0:0,0:0:0:0:
485,114,56398,2,0,B|472:135|472:135|499:252,1,116.999994644165,10|0,2:2|0:0,0:0:0:0:
347,344,56704,1,2,1:2:0:0:
209,187,56857,1,2,2:2:0:0:
411,292,57010,2,0,B|168:332|169:332,2,233.999989288331,10|0|10,2:2|1:2|2:2,0:0:0:0:
196,180,57776,5,2,2:2:0:0:
350,85,57929,2,0,B|392:126|392:126|377:213,1,116.999994644165,2|0,1:2|0:0,0:0:0:0:
280,289,58235,1,10,2:2:0:0:
124,220,58388,1,0,0:0:0:0:
269,28,58541,6,0,B|266:127|199:90|195:180,1,175.499991966248,2|0,1:2|0:0,0:0:0:0:
124,220,58847,2,0,P|71:201|62:145,1,116.999994644165,10|2,2:2|2:2,0:0:0:0:
0,384,59153,2,0,P|57:320|142:308,1,175.499991966248,2|0,1:2|0:0,0:0:0:0:
205,359,59459,1,10,2:2:0:0:
245,381,59536,1,8,2:2:0:0:
291,377,59612,1,0,1:2:0:0:
327,348,59689,1,0,1:2:0:0:
340,304,59766,6,0,B|332:246|332:246|360:194|360:194|351:126,1,175.499991966248,4|0,1:2|0:0,0:0:0:0:
390,67,60072,1,10,2:2:0:0:
512,209,60225,1,2,2:2:0:0:
343,134,60378,2,0,L|326:-5,1,116.999994644165,2|0,1:2|0:0,0:0:0:0:
249,161,60607,1,0,0:0:0:0:
240,169,60684,2,0,P|176:177|131:63,1,175.499991966248,10|0,2:2|1:2,0:0:0:0:
175,28,60990,6,0,B|160:142|160:142|156:146|156:146|141:258,2,233.999989288331,2|10|2,1:2|2:2|1:2,0:0:0:0:
27,147,61755,1,2,2:2:0:0:
236,243,61908,2,0,P|235:177|164:161,1,116.999994644165,14|0,2:2|0:0,0:0:0:0:
4,308,62215,5,14,1:2:0:0:
121,92,62368,1,10,1:2:0:0:
76,379,62521,1,0,1:2:0:0:
24,162,62674,2,0,B|120:185|102:110|190:130,1,175.499991966248,14|0,1:2|0:0,0:0:0:0:
260,98,62980,2,0,L|271:16,1,58.4999973220826,8|8,1:2|1:2,0:0:0:0:
398,228,63133,2,0,L|387:310,1,58.4999973220826,2|0,1:2|1:2,0:0:0:0:
505,94,63286,6,0,P|421:81|367:145,1,175.499991966248,14|0,1:2|0:0,0:0:0:0:
389,217,63592,1,2,1:2:0:0:
241,359,63745,1,10,1:2:0:0:
121,92,63898,1,6,1:2:0:0:
301,216,64051,1,10,1:2:0:0:
68,347,64204,1,0,1:2:0:0:
59,340,64281,1,0,1:2:0:0:
60,327,64357,5,10,1:2:0:0:
97,283,64434,1,0,1:2:0:0:
153,270,64510,1,2,1:2:0:0:
205,294,64587,1,0,1:2:0:0:
232,345,64664,6,0,B|260:357|260:357|451:311,1,175.499991966248,6|0,1:2|0:0,0:0:0:0:
449,261,64970,2,0,P|508:284|505:368,1,116.999994644165,10|0,1:2|0:0,0:0:0:0:
371,247,65276,2,0,P|348:181|355:64,1,175.499991966248,2|0,1:2|0:0,0:0:0:0:
420,42,65582,1,10,1:2:0:0:
261,148,65735,1,2,2:2:0:0:
147,7,65888,6,0,B|94:32|94:32|119:152,1,175.499991966248,2|0,1:2|1:2,0:0:0:0:
75,208,66194,2,0,P|28:208|1:120,1,116.999994644165,10|0,1:2|0:0,0:0:0:0:
152,322,66500,2,0,L|276:344,1,116.999994644165,2|0,1:2|0:0,0:0:0:0:
36,384,66806,2,0,L|266:342,2,233.999989288331,10|0|10,1:2|1:2|1:2,0:0:0:0:
316,281,67725,6,0,P|375:299|386:385,1,116.999994644165,2|0,1:2|0:0,0:0:0:0:
243,236,68031,1,10,1:2:0:0:
421,132,68184,1,2,1:2:0:0:
328,270,68337,6,0,B|319:184|319:184|321:179|321:179|311:95,1,175.499991966248,2|0,1:2|0:0,0:0:0:0:
248,53,68643,2,0,B|190:38|190:38|155:84,1,116.999994644165,10|2,1:2|2:2,0:0:0:0:
91,126,68873,1,0,0:0:0:0:
91,126,68949,2,0,L|101:212,1,58.4999973220826,2|0,1:2|0:0,0:0:0:0:
206,285,69102,2,0,L|212:343,1,58.4999973220826
0,276,69255,5,10,1:2:0:0:
32,272,69332,1,0,1:2:0:0:
65,268,69408,1,0,1:2:0:0:
97,264,69485,1,0,1:2:0:0:
130,260,69561,6,0,B|226:246|178:186|275:174,1,175.499991966248,4|0,1:2|0:0,0:0:0:0:
338,124,69868,1,10,1:2:0:0:
500,227,70021,1,2,2:2:0:0:
357,361,70174,2,0,L|340:244,1,116.999994644165,2|0,1:2|1:2,0:0:0:0:
196,112,70480,2,0,P|128:123|112:194,1,116.999994644165,10|0,1:2|0:0,0:0:0:0:
328,115,70786,6,0,L|345:-2,1,116.999994644165,6|0,1:2|0:0,0:0:0:0:
187,196,71092,2,0,B|103:207|103:207|94:216|94:216|13:227,1,175.499991966248,10|0,1:2|0:0,0:0:0:0:
8,216,71398,2,0,L|119:199,1,58.4999973220826,2|0,1:2|0:0,0:0:0:0:
216,284,71551,1,0,0:0:0:0:
354,212,71704,1,14,1:2:0:0:
219,367,71857,1,2,1:2:0:0:
125,155,72010,5,14,1:2:0:0:
312,296,72164,1,10,1:2:0:0:
228,76,72317,1,0,1:2:0:0:
126,292,72470,2,0,P|61:307|7:197,1,175.499991966248,14|0,1:2|0:0,0:0:0:0:
7,215,72776,2,0,P|35:225|52:248,1,58.4999973220826,10|8,1:2|1:2,0:0:0:0:
154,366,72929,2,0,P|181:356|198:333,1,58.4999973220826,2|0,1:2|1:2,0:0:0:0:
288,174,73082,6,0,L|268:-32,1,175.499991966248,14|0,1:2|0:0,0:0:0:0:
335,49,73388,2,0,B|329:52|329:52|320:131,1,58.4999973220826,0|0,1:2|1:2,0:0:0:0:
166,172,73541,1,10,1:2:0:0:
315,324,73694,1,4,1:2:0:0:
413,148,73847,5,10,1:2:0:0:
368,121,73924,1,0,1:2:0:0:
317,132,74000,1,2,1:2:0:0:
288,174,74077,1,0,1:2:0:0:
293,226,74153,1,10,1:2:0:0:
264,268,74230,1,0,1:2:0:0:
213,279,74306,1,2,1:2:0:0:
168,252,74383,1,0,1:2:0:0:
152,206,74459,6,0,P|263:223|314:323,3,233.999989288331,6|10|2|10,1:2|2:2|1:2|2:2,0:0:0:0:
140,196,75531,2,0,P|112:133|145:87,1,116.999994644165,2|0,1:2|1:2,0:0:0:0:
347,28,75837,5,2,2:2:0:0:
258,175,75990,1,10,2:2:0:0:
210,9,76143,1,2,2:2:0:0:
330,228,76296,2,0,P|406:233|447:121,1,175.499991966248,2|0,1:2|0:0,0:0:0:0:
444,144,76602,2,0,L|433:293,1,116.999994644165,10|0,2:2|0:0,0:0:0:0:
213,379,76908,6,0,B|88:365|133:291|9:276,3,233.999989288331,2|10|2|10,1:2|2:2|1:2|2:2,0:0:0:0:
225,368,77980,2,0,B|264:324|264:324|236:243,1,116.999994644165,2|0,1:2|1:2,0:0:0:0:
78,168,78286,1,2,2:2:0:0:
185,61,78439,2,0,L|174:196,1,116.999994644165,10|0,2:2|0:0,0:0:0:0:
38,384,78745,2,0,P|71:326|202:321,1,175.499991966248,2|0,1:2|0:0,0:0:0:0:
225,368,79051,5,8,2:2:0:0:
269,379,79128,1,8,2:2:0:0:
312,362,79204,1,2,1:2:0:0:
337,324,79281,1,0,1:2:0:0:
336,278,79357,6,0,B|316:252|316:252|346:48,1,233.999989288331,6|8,1:2|2:2,0:0:0:0:
241,138,79817,1,2,1:2:0:0:
421,14,79970,2,0,L|158:49,1,233.999989288331,2|8,1:2|2:2,0:0:0:0:
360,197,80429,1,2,1:2:0:0:
152,287,80582,5,2,1:2:0:0:
241,138,80735,1,2,2:2:0:0:
69,94,80888,1,10,2:2:0:0:
153,170,81041,1,2,1:2:0:0:
8,335,81194,6,0,P|67:275|151:286,1,175.499991966248,2|0,1:2|0:0,0:0:0:0:
169,361,81500,2,0,B|254:369|254:369|262:373|262:373|368:384,1,175.499991966248,14|0,2:2|0:0,0:0:0:0:
414,347,81806,5,12,2:2:0:0:
512,101,81959,1,0,1:2:0:0:
355,287,82112,5,8,2:2:0:0:
371,72,82266,1,0,1:2:0:0:
275,288,82419,5,8,2:2:0:0:
238,117,82572,1,0,1:2:0:0:
213,337,82725,5,8,2:2:0:0:
139,197,82878,1,0,1:2:0:0:
296,26,83031,5,12,2:2:0:0:
250,204,83184,1,0,1:2:0:0:
140,57,83337,5,8,2:2:0:0:
174,180,83490,1,0,1:2:0:0:
46,159,83643,5,8,2:2:0:0:
104,214,83796,1,0,1:2:0:0:
49,280,83949,5,12,2:2:0:0:
61,284,84026,1,0,1:2:0:0:
71,286,84102,1,2,1:2:0:0:
239,339,84255,6,0,B|365:308|365:308|392:248|336:222,1,233.999989288331,6|8,1:2|2:2,0:0:0:0:
459,329,84715,1,2,1:2:0:0:
459,341,84791,1,0,1:2:0:0:
450,350,84868,2,0,P|382:353|331:207,1,233.999989288331,2|8,1:2|2:2,0:0:0:0:
384,166,85250,1,8,2:2:0:0:
384,166,85327,2,0,L|467:181,1,58.4999973220826,2|0,1:2|1:2,0:0:0:0:
313,25,85480,5,10,1:2:0:0:
178,175,85633,1,10,1:2:0:0:
9,76,85786,1,10,1:2:0:0:
136,104,86245,5,0,1:2:0:0:
127,104,86322,1,0,1:2:0:0:
119,110,86398,2,0,L|151:326,1,175.499991966248,4|0,2:2|0:0,0:0:0:0:
218,309,86704,6,0,B|303:322|273:371|356:384,1,161.999995056153,4|0,2:1|1:2,0:0:0:0:
418,336,87010,1,10,2:2:0:0:
306,231,87164,1,2,1:2:0:0:
461,119,87317,2,0,P|501:169|472:220,1,107.999996704102,10|2,2:2|1:2,0:0:0:0:
435,261,87546,1,0,1:2:0:0:
435,261,87623,2,0,L|375:255,1,53.9999983520508,10|0,2:2|0:0,0:0:0:0:
264,151,87776,2,0,L|324:145,1,53.9999983520508,2|0,1:2|0:0,0:0:0:0:
204,319,87929,6,0,B|152:335|152:335|107:294,1,107.999996704102,10|2,2:2|1:2,0:0:0:0:
29,138,88235,2,0,B|68:101|68:101|120:117,1,107.999996704102,10|2,2:2|1:2,0:0:0:0:
177,236,88541,1,10,2:2:0:0:
209,46,88694,1,2,1:2:0:0:
88,191,88847,1,10,2:2:0:0:
283,135,89000,1,2,1:2:0:0:
276,143,89077,1,0,1:2:0:0:
267,141,89153,6,0,P|239:89|296:1,1,161.999995056153,10|0,2:2|1:2,0:0:0:0:
357,40,89459,1,10,2:2:0:0:
258,158,89612,1,2,1:2:0:0:
379,273,89766,2,0,B|423:281|423:281|444:292|444:292|482:300,1,107.999996704102,10|2,2:2|1:2,0:0:0:0:
512,208,89995,1,0,1:2:0:0:
512,208,90072,2,0,B|495:204|495:204|442:216,1,53.9999983520508,10|8,2:2|2:2,0:0:0:0:
393,356,90225,2,0,B|376:360|376:360|323:348,1,53.9999983520508,2|0,1:2|1:2,0:0:0:0:
198,269,90378,6,0,B|150:184|96:227|45:134,1,202.500007724762,12|0,1:2|0:0,0:0:0:0:
235,74,90684,2,0,B|185:157|249:182|194:273,1,202.500007724762,12|0,1:2|0:0,0:0:0:0:
47,139,90990,2,0,B|144:140|133:71|240:74,1,202.500007724762,12|0,1:2|0:0,0:0:0:0:
198,269,91296,2,0,B|150:184|96:227|45:134,1,202.500007724762,12|8,1:2|1:3,0:0:0:0:
157,341,91602,6,0,P|212:285|290:290,1,161.999995056153,6|0,2:2|1:2,0:0:0:0:
338,350,91908,1,10,2:2:0:0:
480,268,92061,1,2,1:2:0:0:
379,139,92215,2,0,L|392:31,1,107.999996704102,10|2,2:2|1:2,0:0:0:0:
466,14,92444,1,0,1:2:0:0:
466,14,92521,2,0,L|485:98,1,53.9999983520508,10|0,2:2|0:0,0:0:0:0:
299,112,92674,2,0,L|280:28,1,53.9999983520508,2|0,1:2|0:0,0:0:0:0:
234,165,92827,6,0,P|190:195|137:190,1,107.999996704102,10|2,2:2|1:2,0:0:0:0:
45,27,93133,2,0,P|97:21|141:51,1,107.999996704102,10|2,2:2|1:2,0:0:0:0:
22,172,93439,1,10,2:2:0:0:
194,247,93592,1,2,1:2:0:0:
97,121,93745,1,10,2:2:0:0:
16,313,93898,1,2,1:2:0:0:
10,305,93975,1,0,1:2:0:0:
16,296,94051,6,0,B|121:278|121:278|144:323|185:327,1,161.999995056153,10|0,2:2|1:2,0:0:0:0:
194,247,94357,1,10,2:2:0:0:
341,152,94510,1,2,1:2:0:0:
285,379,94664,2,0,B|255:334|255:334|270:282,1,107.999996704102,10|2,2:2|1:2,0:0:0:0:
338,235,94893,1,0,1:2:0:0:
338,235,94970,2,0,L|422:248,1,53.9999983520508,10|8,2:2|2:2,0:0:0:0:
234,121,95123,2,0,L|150:134,1,53.9999983520508,2|0,1:2|1:2,0:0:0:0:
277,6,95276,6,0,P|357:60|355:157,1,202.500007724762,12|0,1:2|0:0,0:0:0:0:
391,243,95582,2,0,P|303:285|220:234,1,202.500007724762,12|0,1:2|0:0,0:0:0:0:
129,224,95888,2,0,P|136:127|221:80,1,202.500007724762,12|0,1:2|0:0,0:0:0:0:
277,6,96194,2,0,P|357:60|355:157,1,202.500007724762,12|8,1:2|1:3,0:0:0:0:
267,158,96500,5,6,1:2:0:0:
267,158,103847,6,0,B|252:199|252:199|74:232|74:232|60:275,3,270.000010299683,6|2|2|2,1:2|1:2|1:2|1:2,0:0:0:0:
175,250,105072,5,2,2:2:0:0:
21,16,105837,2,0,L|37:91,1,67.5000025749208,2|0,2:2|0:0,0:0:0:0:
48,89,105990,2,0,P|130:96|179:38,1,135,10|0,2:2|0:0,0:0:0:0:
232,27,106296,6,0,P|284:37|282:126,1,135,4|0,1:2|0:0,0:0:0:0:
234,156,106602,1,8,2:2:0:0:
385,241,106755,1,2,2:2:0:0:
315,349,106908,2,0,L|301:245,1,90,0|2,1:2|2:2,0:0:0:0:
471,313,107215,1,8,2:2:0:0:
325,183,107368,1,2,2:2:0:0:
192,318,107521,5,0,1:2:0:0:
134,143,107674,1,2,2:2:0:0:
0,216,107827,2,0,P|44:220|86:237,1,90,8|2,2:2|1:2,0:0:0:0:
115,325,108056,1,8,2:2:0:0:
105,317,108133,2,0,P|112:263|207:247,1,135,0|0,1:2|0:0,0:0:0:0:
237,184,108439,1,8,2:2:0:0:
68,77,108592,1,2,2:2:0:0:
202,0,108745,6,0,B|191:15|191:15|211:128,1,90,0|2,1:2|2:2,0:0:0:0:
69,190,109051,2,0,B|169:213|138:147|242:170,1,180,8|0,2:2|1:2,0:0:0:0:
353,276,109510,1,2,2:2:0:0:
456,187,109664,2,0,B|468:142|468:142|426:92,1,90,8|2,2:2|2:2,0:0:0:0:
321,202,109970,5,12,2:2:0:0:
420,323,110123,1,10,2:2:0:0:
430,331,110199,2,0,L|488:337,2,45,8|8|8,2:2|2:2|2:2,0:0:0:0:
310,375,110429,1,10,2:2:0:0:
306,383,110505,1,8,2:2:0:0:
295,383,110582,2,0,P|237:351|233:303,1,90,8|10,2:3|3:2,0:0:0:0:
80,223,110888,1,8,1:2:0:0:
251,66,111041,6,0,B|229:171|193:121|172:224,1,180,6|2,1:2|1:2,0:0:0:0:
15,294,111500,1,10,2:2:0:0:
68,139,111653,1,2,2:2:0:0:
249,260,111806,2,0,P|290:246|302:204,1,90,2|0,1:2|1:2,0:0:0:0:
126,295,112112,1,10,2:2:0:0:
246,142,112266,6,0,L|423:173,1,180,6|2,1:2|1:2,0:0:0:0:
326,75,112725,1,10,2:2:0:0:
479,12,112878,1,2,2:2:0:0:
416,157,113031,1,2,1:2:0:0:
362,2,113184,1,0,1:2:0:0:
500,108,113337,1,10,2:2:0:0:
351,209,113490,6,0,P|280:211|231:314,1,180,6|2,1:2|1:2,0:0:0:0:
408,272,113949,1,10,2:2:0:0:
280,362,114102,1,2,2:2:0:0:
141,282,114255,2,0,L|126:178,1,90,2|0,1:2|1:2,0:0:0:0:
295,82,114561,2,0,L|301:37,1,45,10|0,2:2|0:0,0:0:0:0:
138,32,114715,6,0,B|160:86|160:86|210:117|210:117|234:174,1,180,6|2,1:2|1:2,0:0:0:0:
377,286,115174,1,8,2:2:0:0:
461,142,115327,1,2,1:2:0:0:
319,216,115480,1,10,2:2:0:0:
462,377,115633,1,2,1:2:0:0:
470,368,115709,1,0,1:2:0:0:
465,357,115786,2,0,P|398:319|302:379,1,161.999995056153,14|0,2:2|0:0,0:0:0:0:
247,369,116092,5,6,1:2:0:0:
106,261,116245,1,2,1:2:0:0:
304,225,116398,1,10,2:2:0:0:
232,276,116551,1,2,1:2:0:0:
221,275,116628,1,0,1:2:0:0:
214,267,116704,2,0,L|188:134,1,107.999996704102,2|2,1:2|1:2,0:0:0:0:
116,104,116934,1,0,1:2:0:0:
123,111,117010,2,0,B|140:105|140:105|161:-5,1,107.999996704102,10|0,2:2|1:2,0:0:0:0:
278,135,117317,5,2,1:2:0:0:
427,0,117470,1,2,1:2:0:0:
293,49,117623,1,10,2:2:0:0:
430,189,117776,1,2,1:2:0:0:
437,184,117852,1,0,1:2:0:0:
432,176,117929,2,0,P|369:166|315:244,1,161.999995056153,2|0,1:2|0:0,0:0:0:0:
356,303,118235,2,0,L|420:312,2,53.9999983520508,10|8|2,2:2|2:2|1:2,0:0:0:0:
228,375,118541,6,0,B|138:376|173:319|78:327,1,161.999995056153,4|0,1:2|0:0,0:0:0:0:
12,275,118847,2,0,P|11:210|120:219,1,161.999995056153,0|0,1:2|0:0,0:0:0:0:
151,238,119153,1,8,1:2:0:0:
190,252,119230,1,8,1:2:0:0:
231,242,119306,1,8,1:2:0:0:
259,209,119383,1,8,1:2:0:0:
262,167,119459,1,8,1:2:0:0:
289,133,119536,1,8,1:2:0:0:
330,123,119612,1,8,1:2:0:0:
370,138,119689,1,8,1:2:0:0:
376,147,119766,5,2,1:1:0:0:
392,333,120531,6,0,L|400:272,1,53.9999983520508,0|0,1:2|1:2,0:0:0:0:
338,228,120684,2,0,B|283:254|235:197|268:202|226:141|163:166,1,202.500007724762,6|0,2:2|0:0,0:0:0:0:
90,196,120990,6,0,B|122:222|122:222|96:68,1,175.499991966248,4|0,3:1|0:0,0:0:0:0:
54,26,121296,2,0,P|110:53|164:26,1,116.999994644165,10|0,2:2|0:0,0:0:0:0:
387,29,121602,2,0,B|361:123|318:79|287:169,1,175.499991966248,2|0,1:2|0:0,0:0:0:0:
338,228,121908,1,10,2:2:0:0:
181,304,122061,1,2,2:2:0:0:
335,384,122215,6,0,B|450:359|450:359|460:323|435:308,1,175.499991966248,2|0,1:2|0:0,0:0:0:0:
410,237,122521,2,0,P|355:250|332:301,1,116.999994644165,10|0,2:2|0:0,0:0:0:0:
192,381,122827,1,2,1:2:0:0:
69,258,122980,1,2,2:2:0:0:
259,337,123133,6,0,B|239:253|239:253|204:213|204:213|181:120,2,233.999989288331,10|0|10,2:2|1:2|2:2,0:0:0:0:
287,178,123898,1,2,2:2:0:0:
165,296,124051,2,0,B|107:309|107:309|58:259,1,116.999994644165,2|0,1:2|0:0,0:0:0:0:
215,43,124357,2,0,B|157:30|157:30|108:80,1,116.999994644165,10|0,2:2|0:0,0:0:0:0:
231,228,124664,6,0,P|332:239|372:326,1,175.499991966248,2|0,1:2|0:0,0:0:0:0:
328,362,124970,1,10,2:2:0:0:
494,242,125123,1,2,2:2:0:0:
302,110,125276,1,2,1:2:0:0:
363,209,125429,1,0,0:0:0:0:
498,113,125582,5,10,2:2:0:0:
494,89,125658,1,8,2:2:0:0:
491,66,125735,1,0,1:2:0:0:
487,43,125811,1,0,1:2:0:0:
484,20,125888,6,0,B|345:43|345:43|403:68,1,175.499991966248,4|0,1:2|0:0,0:0:0:0:
408,123,126194,2,0,P|351:158|289:105,1,116.999994644165,10|2,2:2|2:2,0:0:0:0:
105,115,126500,2,0,L|88:-9,1,116.999994644165,2|0,1:2|0:0,0:0:0:0:
170,161,126730,1,0,0:0:0:0:
181,163,126806,2,0,P|232:131|221:65,1,116.999994644165,10|0,2:2|1:2,0:0:0:0:
0,207,127112,6,0,P|83:199|129:269,1,175.499991966248,2|0,1:2|0:0,0:0:0:0:
192,317,127419,2,0,P|248:331|291:274,1,116.999994644165,10|0,2:2|0:0,0:0:0:0:
96,350,127725,1,2,1:2:0:0:
224,235,127878,1,2,2:2:0:0:
379,343,128031,2,0,B|422:349|422:349|445:373|445:373|484:379,1,116.999994644165,14|0,2:2|0:0,0:0:0:0:
307,114,128337,5,14,1:2:0:0:
185,329,128490,1,10,1:2:0:0:
394,246,128643,1,0,1:2:0:0:
233,72,128796,2,0,B|188:57|188:57|126:103|158:169,1,175.499991966248,14|0,1:2|0:0,0:0:0:0:
219,223,129102,2,0,L|307:209,1,58.4999973220826,8|8,1:2|1:2,0:0:0:0:
354,50,129255,2,0,L|411:40,1,58.4999973220826,2|0,1:2|1:2,0:0:0:0:
486,147,129408,6,0,P|398:137|311:131,1,175.499991966248,14|0,1:2|0:0,0:0:0:0:
251,83,129715,1,2,1:2:0:0:
0,199,129868,1,10,1:2:0:0:
99,36,130021,1,6,1:2:0:0:
230,210,130174,1,10,1:2:0:0:
69,347,130327,1,0,1:2:0:0:
78,349,130403,1,0,1:2:0:0:
84,342,130480,5,10,1:2:0:0:
90,295,130556,1,0,1:2:0:0:
97,249,130633,1,2,1:2:0:0:
103,202,130709,1,0,1:2:0:0:
110,156,130786,6,0,P|98:232|196:263,1,175.499991966248,6|0,1:2|0:0,0:0:0:0:
230,210,131092,2,0,B|220:158|220:158|216:155|216:155|206:96,1,116.999994644165,10|0,1:2|0:0,0:0:0:0:
356,384,131398,2,0,L|385:160,1,175.499991966248,2|0,1:2|0:0,0:0:0:0:
441,163,131704,1,10,1:2:0:0:
288,275,131857,1,2,2:2:0:0:
504,310,132010,5,2,1:2:0:0:
365,201,132164,1,2,1:2:0:0:
453,55,132317,2,0,B|484:107|484:107|450:152,1,116.999994644165,10|2,1:2|2:2,0:0:0:0:
230,20,132623,2,0,P|162:31|156:152,1,175.499991966248,2|0,1:2|0:0,0:0:0:0:
182,190,132929,2,0,B|244:199|223:221|298:233,1,116.999994644165,10|0,1:2|0:0,0:0:0:0:
45,380,133235,6,0,L|23:192,1,175.499991966248,0|0,1:2|0:0,0:0:0:0:
51,132,133541,1,10,1:2:0:0:
193,282,133694,1,2,2:2:0:0:
344,167,133847,2,0,P|364:112|354:55,1,116.999994644165,2|0,1:2|0:0,0:0:0:0:
135,35,134153,2,0,P|129:120|181:189,1,175.499991966248,10|0,1:2|1:2,0:0:0:0:
265,204,134459,6,0,P|321:214|349:263,1,116.999994644165,2|0,1:2|0:0,0:0:0:0:
184,384,134766,2,0,P|164:330|192:281,1,116.999994644165,10|2,1:2|2:2,0:0:0:0:
363,358,135072,2,0,P|426:372|506:379,1,116.999994644165,2|0,1:2|0:0,0:0:0:0:
252,194,135378,5,10,1:2:0:0:
211,197,135454,1,0,1:2:0:0:
170,203,135531,1,0,1:2:0:0:
130,211,135607,1,0,1:2:0:0:
91,220,135684,6,0,P|10:209|0:128,1,175.499991966248,4|0,1:2|0:0,0:0:0:0:
68,90,135990,1,10,1:2:0:0:
264,185,136143,1,2,2:2:0:0:
188,0,136296,2,0,L|167:127,1,116.999994644165,2|0,1:2|0:0,0:0:0:0:
27,297,136602,2,0,P|-19:225|5:144,1,175.499991966248,10|0,1:2|0:0,0:0:0:0:
88,355,136908,6,0,B|217:359|169:272|301:283,3,233.999989288331,6|10|2|14,1:2|1:2|1:2|1:2,0:0:0:0:
184,148,137980,1,2,1:2:0:0:
352,107,138133,5,14,1:2:0:0:
228,212,138286,1,10,1:2:0:0:
76,105,138439,1,0,1:2:0:0:
290,163,138592,2,0,L|509:135,1,175.499991966248,14|0,1:2|0:0,0:0:0:0:
474,151,138898,2,0,L|416:158,1,58.4999973220826,10|8,1:2|1:2,0:0:0:0:
290,7,139051,2,0,L|282:64,1,58.4999973220826,2|0,1:2|1:2,0:0:0:0:
145,220,139204,6,0,P|58:228|19:138,1,175.499991966248,14|0,1:2|0:0,0:0:0:0:
27,156,139510,2,0,P|56:163|76:183,1,58.4999973220826,0|0,1:2|1:2,0:0:0:0:
228,299,139664,1,10,1:2:0:0:
356,207,139817,1,4,1:2:0:0:
185,374,139970,5,10,1:2:0:0:
150,335,140046,1,0,1:2:0:0:
143,284,140123,1,2,1:2:0:0:
168,238,140199,1,0,1:2:0:0:
214,216,140276,1,10,1:2:0:0:
260,193,140352,1,0,1:2:0:0:
285,147,140429,1,2,1:2:0:0:
278,96,140505,1,0,1:2:0:0:
243,58,140582,6,0,B|230:92|230:92|310:232|310:232|298:266,3,233.999989288331,6|10|2|10,1:2|2:2|1:2|2:2,0:0:0:0:
256,49,141653,2,0,B|302:7|302:7|353:27,1,116.999994644165,2|0,1:2|1:2,0:0:0:0:
426,197,141959,5,2,2:2:0:0:
506,9,142112,1,10,2:2:0:0:
323,99,142266,1,2,2:2:0:0:
500,233,142419,2,0,P|424:236|385:337,1,175.499991966248,2|0,1:2|0:0,0:0:0:0:
320,366,142725,2,0,P|257:365|233:307,1,116.999994644165,10|0,2:2|0:0,0:0:0:0:
91,232,143031,6,0,L|54:0,3,233.999989288331,2|10|2|10,1:2|2:2|1:2|2:2,0:0:0:0:
85,248,144102,2,0,B|71:308|44:284|26:346,1,116.999994644165,2|0,1:2|1:2,0:0:0:0:
183,253,144408,5,2,2:2:0:0:
49,122,144561,2,0,L|71:257,1,116.999994644165,10|0,2:2|0:0,0:0:0:0:
226,352,144868,2,0,B|248:361|248:361|399:329,1,175.499991966248,2|0,1:2|0:0,0:0:0:0:
448,276,145174,1,8,2:2:0:0:
462,232,145250,1,8,2:2:0:0:
447,189,145327,1,2,1:2:0:0:
408,165,145403,1,0,1:2:0:0:
362,170,145480,6,0,P|294:161|298:22,1,233.999989288331,6|8,1:2|2:2,0:0:0:0:
133,78,145939,1,2,1:2:0:0:
373,42,146092,2,0,L|116:70,1,233.999989288331,2|8,1:2|2:2,0:0:0:0:
44,205,146551,1,2,1:2:0:0:
213,139,146704,5,2,1:2:0:0:
44,61,146857,1,2,2:2:0:0:
138,222,147010,1,10,2:2:0:0:
200,17,147164,1,2,2:2:0:0:
54,197,147317,2,0,L|74:319,1,116.999994644165,10|8,2:2|2:2,0:0:0:0:
136,357,147546,1,8,2:2:0:0:
145,365,147623,5,14,2:2:0:0:
190,371,147699,1,8,2:2:0:0:
234,355,147776,1,8,2:2:0:0:
264,320,147852,1,8,2:2:0:0:
275,275,147929,6,0,P|326:222|422:288,1,175.499991966248,4|0,1:1|0:0,0:0:0:0:
409,269,148235,2,0,P|353:250|344:181,1,116.999994644165,10|2,1:2|2:2,0:0:0:0:
428,88,148541,1,2,1:2:0:0:
312,12,148694,1,0,0:0:0:0:
490,135,148847,2,0,L|295:113,1,175.499991966248,10|0,1:2|0:0,0:0:0:0:
247,69,149153,5,2,1:2:0:0:
129,179,149306,1,2,2:2:0:0:
0,36,149459,1,10,1:2:0:0:
153,92,149612,1,2,2:2:0:0:
67,247,149766,2,0,B|24:202|24:202|41:150,1,116.999994644165,2|0,1:2|0:0,0:0:0:0:
226,274,150072,2,0,P|293:262|260:146,1,175.499991966248,10|0,1:2|1:2,0:0:0:0:
216,150,150378,5,2,1:2:0:0:
387,279,150531,1,0,0:0:0:0:
212,384,150684,2,0,P|190:345|220:272,1,116.999994644165,10|2,1:2|2:2,0:0:0:0:
422,168,150990,1,2,1:2:0:0:
358,360,151143,1,0,0:0:0:0:
284,200,151296,6,0,B|257:119|257:119|210:87|210:87|182:-1,2,233.999989288331,10|8|8,1:2|1:2|1:2,0:0:0:0:
246,268,152061,1,8,1:2:0:0:
143,307,152215,1,10,1:2:0:0:
31,213,152368,1,10,1:2:0:0:
94,78,152521,2,0,P|123:71|151:78,1,58.4999973220826,10|8,1:2|1:2,0:0:0:0:
283,65,152674,2,0,P|302:86|310:114,1,58.4999973220826,10|8,1:2|1:2,0:0:0:0:
424,229,152827,6,0,B|413:334|359:271|332:408,1,175.499991966248,14|0,1:2|0:0,0:0:0:0:
254,384,153133,5,10,1:2:0:0:
198,333,153234,1,2,2:2:0:0:
231,265,153336,1,2,2:2:0:0:
302,231,153439,5,2,1:2:0:0:
346,190,153541,1,2,2:2:0:0:
320,135,153643,1,2,2:2:0:0:
249,93,153745,5,10,1:2:0:0:
213,60,153847,1,2,2:2:0:0:
234,16,153949,1,2,2:2:0:0:
310,43,154051,6,0,B|345:41|357:32|386:30,2,77.9999964294435,2|2|2,1:2|2:2|2:2,0:0:0:0:
230,171,154357,6,0,B|195:169|183:160|153:158,2,77.9999964294435,10|2|2,1:2|2:2|2:2,0:0:0:0:
337,318,154664,6,0,B|372:316|384:307|413:305,2,77.9999964294435,2|2|2,1:2|2:2|2:2,0:0:0:0:
220,362,154970,6,0,P|165:377|114:343,1,116.999994644165,10|0,1:2|0:0,0:0:0:0:
8,171,155276,6,0,L|-1:113,3,58.4999973220826,2|2|2|2,1:2|2:2|2:2|2:2,0:0:0:0:
68,221,155582,2,0,L|77:279,3,58.4999973220826,10|2|2|2,1:2|2:2|2:2|2:2,0:0:0:0:
122,159,155888,1,2,1:2:0:0:
158,131,155965,1,2,2:2:0:0:
205,129,156041,1,2,2:2:0:0:
244,153,156118,1,2,2:2:0:0:
263,195,156194,1,10,1:2:0:0:
282,236,156271,1,2,2:2:0:0:
321,261,156347,1,2,2:2:0:0:
367,258,156424,1,2,2:2:0:0:
404,231,156500,6,0,L|415:145,1,58.4999973220826,2|0,1:2|1:2,0:0:0:0:
316,33,156653,2,0,L|323:91,1,58.4999973220826,0|0,1:2|0:0,0:0:0:0:
479,273,156806,6,0,L|493:156,1,116.999994644165,12|0,1:2|0:0,0:0:0:0:
442,100,157036,1,0,1:2:0:0:
443,90,157112,1,10,1:2:0:0:
245,198,157266,1,10,1:2:0:0:
241,207,157572,5,6,1:2:0:0:
35,90,162470,6,0,L|24:10,1,67.5000025749208,8|0,2:2|0:0,0:0:0:0:
234,90,162776,2,0,L|224:156,1,67.5000025749208,0|0,1:2|1:2,0:0:0:0:
230,164,162929,1,0,1:2:0:0:
162,201,163082,2,0,L|171:267,1,67.5000025749208,0|0,1:2|1:2,0:0:0:0:
166,275,163235,1,0,1:2:0:0:
35,294,163388,6,0,L|24:374,1,67.5000025749208,8|0,2:2|0:0,0:0:0:0:
25,361,163694,2,0,L|35:294,1,67.5000025749208,8|0,2:2|0:0,0:0:0:0:
281,373,164000,5,2,2:2:0:0:
415,238,164153,1,2,2:2:0:0:
401,241,164230,1,2,2:2:0:0:
388,243,164306,1,2,2:2:0:0:
374,245,164383,1,2,2:2:0:0:
361,247,164459,1,2,2:2:0:0:
487,361,164612,6,0,L|477:295,1,67.5000025749208,8|0,2:2|0:0,0:0:0:0:
477,294,164766,2,0,L|487:361,1,67.5000025749208,8|0,2:2|0:0,0:0:0:0:
487,361,164919,2,0,L|477:294,1,67.5000025749208,8|0,2:2|0:0,0:0:0:0:
276,195,165225,2,0,L|286:128,1,67.5000025749208,0|0,1:2|1:2,0:0:0:0:
298,120,165378,1,0,1:2:0:0:
249,56,165531,1,0,1:2:0:0:
249,56,165607,1,0,1:2:0:0:
249,56,165684,1,0,1:2:0:0:
487,23,165837,6,0,L|477:90,1,67.5000025749208,8|0,2:2|0:0,0:0:0:0:
477,90,166143,2,0,L|487:23,1,67.5000025749208,8|0,2:2|0:0,0:0:0:0:
214,132,166449,5,0,1:2:0:0:
214,132,166526,1,0,1:2:0:0:
214,132,166602,1,8,2:2:0:0:
41,41,166755,1,0,1:2:0:0:
134,183,166908,1,0,1:2:0:0:
295,106,167061,2,0,L|285:39,1,67.5000025749208,0|0,1:2|1:2,0:0:0:0:
216,3,167215,2,0,P|142:27|118:101,1,161.999995056153,8|8,2:2|2:2,0:0:0:0:
27,163,167521,6,0,L|150:185,1,107.999996704102,14|0,2:2|1:2,0:0:0:0:
269,322,167827,1,8,2:2:0:0:
400,216,167980,1,2,1:2:0:0:
197,274,168133,2,0,P|161:313|154:366,1,107.999996704102,10|0,2:2|1:2,0:0:0:0:
410,334,168439,5,8,2:2:0:0:
291,225,168592,1,2,1:2:0:0:
468,152,168745,6,0,B|505:192|505:192|489:243,1,107.999996704102,14|0,2:2|1:2,0:0:0:0:
347,107,169051,2,0,L|361:-8,1,107.999996704102,10|0,2:2|1:2,0:0:0:0:
272,143,169357,2,0,P|197:167|103:117,1,161.999995056153,10|0,2:2|0:0,0:0:0:0:
69,70,169664,6,0,B|96:39|96:39|59:255,1,215.999993408203,14|4,2:2|1:2,0:0:0:0:
174,375,170276,5,0,1:2:0:0:
398,305,170582,5,8,1:2:0:0:
269,72,170888,5,8,1:2:0:0:
45,142,171194,5,2,2:2:0:0:
256,295,171806,6,0,L|323:280,1,67.5,2|0,2:2|0:0,0:0:0:0:
398,304,173031,5,8,1:2:0:0:
454,293,173107,1,8,1:2:0:0:
487,247,173184,1,8,1:2:0:0:
479,191,173260,1,8,1:2:0:0:
434,156,173337,1,8,1:2:0:0:
377,162,173414,1,8,1:2:0:0:
332,127,173490,1,8,1:2:0:0:
324,70,173567,1,8,1:2:0:0:
357,24,173643,6,0,P|362:106|197:120,1,233.999989288331,4|10,3:1|2:2,0:0:0:0:
99,34,174102,1,0,0:0:0:0:
0,200,174255,2,0,P|46:169|106:186,1,116.999994644165,2|0,1:2|0:0,0:0:0:0:
230,313,174561,1,10,2:2:0:0:
68,384,174715,1,2,2:2:0:0:
141,261,174868,6,0,L|339:277,1,175.499991966248,2|0,1:2|0:0,0:0:0:0:
384,234,175174,2,0,B|405:178|405:178|367:135,1,116.999994644165,10|0,2:2|0:0,0:0:0:0:
454,332,175480,1,2,1:2:0:0:
288,189,175633,1,2,2:2:0:0:
491,130,175786,2,0,B|475:141|475:141|344:118,1,116.999994644165,10|0,2:2|0:0,0:0:0:0:
196,46,176092,6,0,B|213:137|275:101|287:188,1,175.499991966248,0|0,1:2|0:0,0:0:0:0:
239,248,176398,1,10,2:2:0:0:
76,369,176551,1,2,2:2:0:0:
165,203,176704,2,0,P|123:171|30:214,1,116.999994644165,2|0,1:2|0:0,0:0:0:0:
279,327,177010,2,0,B|397:307|397:307|411:278|392:255,1,175.499991966248,10|0,2:2|0:0,0:0:0:0:
381,241,177317,6,0,P|361:295|396:349,1,116.999994644165,2|0,1:2|0:0,0:0:0:0:
510,240,177623,1,10,2:2:0:0:
344,155,177776,1,2,2:2:0:0:
427,39,177929,2,0,P|458:87|461:145,1,116.999994644165,2|0,1:2|0:0,0:0:0:0:
261,224,178235,1,10,2:2:0:0:
240,187,178311,1,8,2:2:0:0:
230,146,178388,1,0,1:2:0:0:
232,105,178465,1,0,1:2:0:0:
245,65,178541,6,0,B|271:86|271:86|82:47,1,175.499991966248,4|0,1:2|0:0,0:0:0:0:
82,0,178847,1,10,2:2:0:0:
0,154,179000,1,2,2:2:0:0:
133,267,179153,2,0,P|157:206|128:155,1,116.999994644165,2|0,1:2|0:0,0:0:0:0:
0,289,179459,2,0,P|67:281|138:360,1,175.499991966248,10|0,2:2|1:2,0:0:0:0:
214,375,179766,6,0,B|341:318|341:318|307:368,1,175.499991966248,2|0,1:2|0:0,0:0:0:0:
258,304,180072,2,0,P|230:260|282:198,1,116.999994644165,10|0,2:2|0:0,0:0:0:0:
418,288,180378,1,2,1:2:0:0:
301,138,180531,1,2,2:2:0:0:
149,237,180684,2,0,B|94:247|94:247|88:245|88:245|34:254,1,116.999994644165,14|0,2:2|0:0,0:0:0:0:
111,73,180990,5,12,1:2:0:0:
256,206,181143,1,8,1:2:0:0:
438,119,181296,1,0,1:2:0:0:
289,2,181449,2,0,P|204:30|216:135,1,175.499991966248,12|0,1:2|0:0,0:0:0:0:
212,110,181755,2,0,P|222:75|206:28,1,58.4999973220826,8|8,1:2|1:2,0:0:0:0:
33,39,181908,2,0,P|23:74|39:121,1,58.4999973220826,2|0,1:2|1:2,0:0:0:0:
163,252,182061,6,0,P|246:243|365:233,1,175.499991966248,14|0,1:2|0:0,0:0:0:0:
343,225,182368,2,0,P|313:222|284:218,1,58.4999973220826,2|0,1:2|1:2,0:0:0:0:
147,339,182521,1,10,1:2:0:0:
28,188,182674,1,6,1:2:0:0:
237,283,182827,1,10,1:2:0:0:
432,168,182980,2,0,P|427:196|425:226,1,58.4999973220826,0|0,1:2|1:2,0:0:0:0:
346,363,183133,5,10,1:2:0:0:
340,316,183209,1,0,1:2:0:0:
334,270,183286,1,2,1:2:0:0:
329,223,183362,1,0,1:2:0:0:
323,177,183439,6,0,P|384:152|373:47,1,175.499991966248,6|0,1:2|0:0,0:0:0:0:
327,1,183745,2,0,P|270:3|239:50,1,116.999994644165,10|0,1:2|0:0,0:0:0:0:
136,172,184051,2,0,B|8:204|8:204|-10:247,1,175.499991966248,2|0,1:2|0:0,0:0:0:0:
36,305,184357,2,0,P|93:305|112:242,1,116.999994644165,10|2,1:2|2:2,0:0:0:0:
93,27,184664,6,0,P|74:94|153:176,1,175.499991966248,2|0,1:2|1:2,0:0:0:0:
195,225,184970,2,0,L|325:206,1,116.999994644165,10|0,1:2|0:0,0:0:0:0:
476,291,185276,1,2,1:2:0:0:
369,128,185429,1,0,0:0:0:0:
284,314,185582,2,0,P|219:360|104:313,1,175.499991966248,10|0,1:2|0:0,0:0:0:0:
59,373,185888,6,0,B|89:353|89:353|103:214,1,175.499991966248,0|0,1:2|0:0,0:0:0:0:
166,172,186194,2,0,B|159:130|159:130|141:108|141:108|132:63,1,116.999994644165,10|0,1:2|0:0,0:0:0:0:
13,191,186500,1,2,1:2:0:0:
194,261,186653,1,0,0:0:0:0:
305,100,186806,1,10,1:2:0:0:
166,172,186959,1,2,1:2:0:0:
355,261,187112,6,0,P|422:257|489:339,1,175.499991966248,2|0,1:2|0:0,0:0:0:0:
419,366,187419,1,10,1:2:0:0:
277,295,187572,1,2,2:2:0:0:
383,148,187725,2,0,B|408:94|408:94|377:45,1,116.999994644165,2|0,1:2|0:0,0:0:0:0:
190,16,188031,5,10,1:2:0:0:
139,25,188107,1,0,1:2:0:0:
108,66,188184,1,0,1:2:0:0:
114,117,188260,1,0,1:2:0:0:
153,150,188337,6,0,B|271:174|271:174|303:196|303:233,1,175.499991966248,4|0,1:2|0:0,0:0:0:0:
258,282,188643,1,10,1:2:0:0:
435,222,188796,1,2,2:2:0:0:
351,384,188949,2,0,B|342:370|342:370|367:259,1,116.999994644165,2|0,1:2|1:2,0:0:0:0:
234,358,189179,1,0,1:2:0:0:
224,366,189255,2,0,L|41:385,1,175.499991966248,10|0,1:2|0:0,0:0:0:0:
3,321,189561,6,0,P|26:260|106:274,1,116.999994644165,6|0,1:2|0:0,0:0:0:0:
156,98,189868,2,0,P|220:87|248:163,1,116.999994644165,10|0,1:2|0:0,0:0:0:0:
448,113,190174,2,0,P|489:163|437:225,1,116.999994644165,2|0,1:2|0:0,0:0:0:0:
261,256,190480,5,14,1:2:0:0:
215,36,190633,1,2,1:2:0:0:
107,180,190786,5,14,1:2:0:0:
267,122,190939,1,8,1:2:0:0:
372,243,191092,1,0,1:2:0:0:
201,288,191245,2,0,B|88:307|132:352|44:394,1,175.499991966248,12|0,1:2|0:0,0:0:0:0:
47,369,191551,2,0,B|53:354|53:354|119:325,1,58.4999973220826,8|8,1:2|1:2,0:0:0:0:
209,209,191704,2,0,B|224:206|224:206|283:249,1,58.4999973220826,0|0,1:2|0:0,0:0:0:0:
415,363,191857,6,0,P|478:354|478:224,1,175.499991966248,12|8,1:2|1:2,0:0:0:0:
459,200,192164,1,0,1:2:0:0:
448,205,192240,1,0,1:2:0:0:
436,200,192317,1,10,1:2:0:0:
402,169,192393,1,8,1:2:0:0:
397,123,192470,1,0,1:2:0:0:
424,86,192546,1,0,1:2:0:0:
469,77,192623,5,10,1:2:0:0:
320,171,192776,1,2,1:2:0:0:
186,74,192929,1,8,2:2:0:0:
49,138,193082,1,2,2:2:0:0:
129,15,193235,6,0,L|166:270,3,233.999989288331,4|10|2|10,3:1|2:2|1:2|2:2,0:0:0:0:
111,2,194306,2,0,P|44:17|46:103,1,116.999994644165,2|0,1:2|1:2,0:0:0:0:
184,158,194612,5,2,2:2:0:0:
18,271,194766,1,10,2:2:0:0:
98,112,194919,1,2,2:2:0:0:
210,313,195072,2,0,B|332:345|332:345|380:311,1,175.499991966248,2|0,1:2|0:0,0:0:0:0:
449,340,195378,2,0,L|461:210,1,116.999994644165,10|0,2:2|0:0,0:0:0:0:
413,48,195684,6,0,B|388:173|329:121|309:252,3,233.999989288331,2|10|2|10,1:2|2:2|1:2|2:2,0:0:0:0:
431,46,196755,2,0,P|484:66|480:158,1,116.999994644165,2|0,1:2|1:2,0:0:0:0:
398,233,197061,5,2,2:2:0:0:
249,130,197215,2,0,L|227:-2,1,116.999994644165,10|0,2:2|0:0,0:0:0:0:
315,190,197521,2,0,L|141:161,1,175.499991966248,2|0,1:2|0:0,0:0:0:0:
87,107,197827,2,0,L|72:20,1,58.4999973220826,8|8,2:2|2:2,0:0:0:0:
9,267,197980,5,2,1:2:0:0:
2,259,198056,1,0,1:2:0:0:
8,250,198133,2,0,P|67:230|168:365,1,233.999989288331,6|8,1:2|2:2,0:0:0:0:
303,201,198592,1,2,1:2:0:0:
98,376,198745,2,0,B|213:362|213:362|220:364|220:364|330:350,1,233.999989288331,2|8,1:2|2:2,0:0:0:0:
156,220,199204,1,2,1:2:0:0:
373,136,199357,5,2,1:2:0:0:
276,277,199510,1,2,2:2:0:0:
169,54,199664,1,10,2:2:0:0:
304,186,199817,1,2,1:2:0:0:
431,71,199970,2,0,B|381:39|381:39|327:59,1,116.999994644165,2|0,1:2|0:0,0:0:0:0:
156,220,200276,2,0,P|73:226|33:153,1,175.499991966248,14|0,2:2|0:0,0:0:0:0:
76,87,200582,5,12,2:2:0:0:
384,0,200735,1,0,1:2:0:0:
147,136,200888,5,8,2:2:0:0:
370,137,201041,1,0,1:2:0:0:
156,220,201194,5,8,2:2:0:0:
307,273,201347,1,0,1:2:0:0:
105,290,201500,5,8,2:2:0:0:
195,347,201653,1,0,1:2:0:0:
388,219,201806,5,12,2:2:0:0:
220,271,201959,1,0,1:2:0:0:
403,218,202112,5,8,2:2:0:0:
261,191,202266,1,0,1:2:0:0:
420,216,202419,5,8,2:2:0:0:
337,152,202572,1,0,1:2:0:0:
434,215,202725,5,12,2:2:0:0:
418,180,202878,1,2,1:2:0:0:
220,271,203031,6,0,P|105:280|16:354,1,233.999989288331,6|8,1:2|2:2,0:0:0:0:
140,140,203490,1,2,1:2:0:0:
131,146,203567,1,0,1:2:0:0:
128,158,203643,2,0,P|216:231|331:241,1,233.999989288331,2|8,1:2|2:2,0:0:0:0:
398,203,204026,1,8,2:2:0:0:
405,196,204102,1,2,1:2:0:0:
280,340,204255,5,10,1:2:0:0:
212,87,204408,1,10,1:2:0:0:
380,346,204561,1,10,1:2:0:0:
256,192,205174,12,8,206704,2:1:0:0:
465,232,207010,6,0,P|394:235|363:307,1,135.000005149842,8|8,2:1|2:1,0:0:0:0:
201,252,207470,1,8,1:1:0:0:
274,358,207623,1,8,1:1:0:0:
293,227,207776,1,0,1:2:0:0:
186,332,207929,6,0,L|47:357,1,135.000005149842,8|8,1:1|2:1,0:0:0:0:
0,294,208388,2,0,L|12:224,1,67.5000025749208,0|8,1:2|1:1,0:0:0:0:
86,92,208694,1,8,1:1:0:0:
73,89,208771,1,0,1:2:0:0:
66,98,208847,2,0,L|78:167,1,67.5000025749208,8|0,1:1|1:2,0:0:0:0:
150,205,209153,6,0,P|215:211|279:151,2,135.000005149842,8|8|8,1:1|2:1|2:1,0:0:0:0:
343,136,209919,2,0,L|349:103,2,33.7500012874604,8|0|8,1:1|1:2|1:1,0:0:0:0:
385,237,210225,1,0,1:2:0:0:
464,169,210378,6,0,L|481:81,1,67.5000025749208,8|8,2:1|1:1,0:0:0:0:
505,21,210607,1,0,1:2:0:0:
496,16,210684,2,0,L|408:33,1,67.5000025749208,8|0,1:1|1:2,0:0:0:0:
327,136,210990,2,0,P|268:133|210:76,1,135.000005149842,8|8,2:1|1:1,0:0:0:0:
102,2,211449,1,0,1:2:0:0:
16,96,211602,6,0,L|38:241,1,135.000005149842,0|2,1:2|2:2,0:0:0:0:
130,283,212061,1,0,0:0:0:0:
214,225,212215,2,0,P|257:232|289:323,1,135.000005149842,2|2,2:2|1:2,0:0:0:0:
293,308,212674,1,0,1:2:0:0:
371,370,212827,6,0,L|512:381,2,135.000005149842,2|2|2,1:2|2:2|1:2,0:0:0:0:
293,308,213592,2,0,L|284:244,2,33.7500012874604,0|0|2,1:2|1:2|1:2,0:0:0:0:
207,384,213898,1,0,1:2:0:0:
103,334,214051,6,0,P|91:292|109:253,1,67.5000025749208,10|0,2:2|1:2,0:0:0:0:
200,200,214357,2,0,L|264:209,2,33.7500012874604,6|4|0,2:3|2:3|1:2,0:0:0:0:
100,116,214664,2,0,L|36:125,2,33.7500012874604,10|8|0,2:2|2:2|1:2,0:0:0:0:
161,0,214970,1,10,2:2:0:0:
162,16,215046,1,8,2:2:0:0:
164,33,215123,1,10,2:2:0:0:
166,50,215199,1,8,2:2:0:0:
168,67,215276,5,10,1:2:0:0:
