osu file format v14

[General]
AudioFilename: audio.mp3
AudioLeadIn: 0
PreviewTime: 53643
Countdown: 0
SampleSet: Soft
StackLeniency: 0.7
Mode: 0
LetterboxInBreaks: 0
WidescreenStoryboard: 0

[Editor]
Bookmarks: 10326,20581,30377,40020,53643,86704,96500,106296,119765,147928,157571,162469,171194,204561
DistanceSpacing: 1.6
BeatDivisor: 4
GridSize: 32
TimelineZoom: 2.5

[Metadata]
Title:Gambling
TitleUnicode:ギャンブル
Artist:syudou
ArtistUnicode:syudou
Creator:DMK7
Version:This life itself is a GAMBLE, more than anything else
Source:月が導く異世界道中
Tags:Vanya Vanya2 Simple- Gamble japanese rock jrock j-rock ツキミチ Tsukimichi: Tsukimichi Moonlit Fantasy -Moonlit Fantasy- tsuki ga michibiku isekai douchuu anime op opening male vocal
BeatmapID:3945834
BeatmapSetID:1912881

[Difficulty]
HPDrainRate:5.5
CircleSize:4.2
OverallDifficulty:9
ApproachRate:9.5
SliderMultiplier:1.8
SliderTickRate:1

[Events]
//Background and Video events
0,0,"keepgambling3new.jpg",0,0
//Break Periods
2,157966,160873
//Storyboard Layer 0 (Background)
//Storyboard Layer 1 (Fail)
//Storyboard Layer 2 (Pass)
//Storyboard Layer 3 (Foreground)
//Storyboard Layer 4 (Overlay)
//Storyboard Sound Samples

[TimingPoints]
990,306.122448979592,4,2,1,45,1,0
990,-142.857142857143,4,2,1,45,0,0
4357,-142.857142857143,4,2,1,45,0,0
8336,-142.857142857143,4,2,1,55,0,0
10326,-71.4285714285714,4,2,1,75,0,0
10709,-71.4285714285714,4,2,1,5,0,0
10785,-90.9090909090909,4,2,1,75,0,0
14459,-83.3333333333333,4,2,1,75,0,0
15683,-90.9090909090909,4,2,1,75,0,0
19357,-83.3333333333333,4,2,1,75,0,0
20581,-125,4,2,1,60,0,0
22342,-125,4,2,1,60,0,0
22418,-125,4,2,1,60,0,0
27240,-125,4,2,1,5,0,0
27316,-125,4,2,1,60,0,0
28770,-125,4,2,1,5,0,0
28847,-125,4,2,1,60,0,0
30377,-100,4,2,1,65,0,0
30607,-100,4,2,1,5,0,0
30683,-100,4,2,1,65,0,0
30990,-100,4,2,1,65,0,0
31219,-100,4,2,1,5,0,0
31296,-100,4,2,1,65,0,0
33132,-90.9090909090909,4,2,1,65,0,0
33362,-90.9090909090909,4,2,1,5,0,0
33438,-90.9090909090909,4,2,1,65,0,0
33668,-90.9090909090909,4,2,1,5,0,0
33745,-100,4,2,1,65,0,0
35505,-100,4,2,1,5,0,0
35581,-100,4,2,1,65,0,0
36117,-100,4,2,1,5,0,0
36194,-100,4,2,1,65,0,0
37724,-90.9090909090909,4,2,1,65,0,0
37954,-90.9090909090909,4,2,1,5,0,0
38030,-333.333333333333,4,2,1,65,0,0
38260,-333.333333333333,4,2,1,5,0,0
38336,-90.9090909090909,4,2,1,65,0,0
38566,-90.9090909090909,4,2,1,5,0,0
38642,-76.9230769230769,4,2,1,65,0,0
38872,-76.9230769230769,4,2,1,5,0,0
38949,-90.9090909090909,4,2,1,65,0,0
40020,-125,4,2,1,50,0,0
40990,-125,4,2,1,5,0,0
41092,-125,4,2,1,50,0,0
43438,-125,4,2,1,5,0,0
43541,-125,4,2,1,50,0,0
44918,-111.111111111111,4,2,1,60,0,0
47367,-76.9230769230769,4,2,1,65,0,0
47597,-76.9230769230769,4,2,1,5,0,0
47673,-100,4,2,1,65,0,0
47750,-100,4,2,1,5,0,0
47826,-100,4,2,1,65,0,0
48821,-100,4,2,1,5,0,0
48898,-100,4,2,1,65,0,0
48974,-100,4,2,1,5,0,0
49051,-100,4,2,1,65,0,0
49127,-100,4,2,1,5,0,0
49204,-100,4,2,1,65,0,0
49816,-90.9090909090909,4,2,1,75,0,0
52648,-90.9090909090909,4,2,1,5,0,0
52724,-90.9090909090909,4,2,1,75,0,0
52954,-90.9090909090909,4,2,1,5,0,0
53030,-90.9090909090909,4,2,1,45,0,0
53183,-90.9090909090909,4,2,1,55,0,0
53336,-90.9090909090909,4,2,1,65,0,0
53490,-90.9090909090909,4,2,1,75,0,0
53643,-166.666666666667,4,2,1,60,0,0
54408,-71.4285714285715,4,2,1,75,0,0
54791,-71.4285714285715,4,2,1,5,0,0
54867,-83.3333333333333,4,2,1,80,0,1
55709,-83.3333333333333,4,2,1,5,0,1
55785,-83.3333333333333,4,2,1,80,0,1
56321,-83.3333333333333,4,2,1,5,0,1
56397,-83.3333333333333,4,2,1,80,0,1
57546,-83.3333333333333,4,2,1,5,0,1
57622,-83.3333333333333,4,2,1,80,0,1
58464,-83.3333333333333,4,2,1,5,0,1
58541,-83.3333333333333,4,2,1,80,0,1
61525,-83.3333333333333,4,2,1,5,0,1
61602,-83.3333333333333,4,2,1,80,0,1
62214,-76.9230769230769,4,2,1,80,0,1
62291,-76.9230769230769,4,2,1,5,0,1
62367,-76.9230769230769,4,2,1,85,0,1
62444,-76.9230769230769,4,2,1,5,0,1
62520,-76.9230769230769,4,2,1,85,0,1
63515,-76.9230769230769,4,2,1,5,0,1
63592,-76.9230769230769,4,2,1,85,0,1
64663,-83.3333333333333,4,2,1,85,0,1
65505,-83.3333333333333,4,2,1,5,0,1
65581,-83.3333333333333,4,2,1,80,0,1
67342,-83.3333333333333,4,2,1,5,0,1
67418,-83.3333333333333,4,2,1,80,0,1
68566,-83.3333333333333,4,2,1,5,0,1
68643,-83.3333333333333,4,2,1,80,0,1
71627,-83.3333333333333,4,2,1,5,0,1
71704,-83.3333333333333,4,2,1,80,0,1
72010,-76.9230769230769,4,2,1,80,0,1
72086,-76.9230769230769,4,2,1,5,0,1
72163,-76.9230769230769,4,2,1,85,0,1
72240,-76.9230769230769,4,2,1,5,0,1
72316,-76.9230769230769,4,2,1,85,0,1
73311,-76.9230769230769,4,2,1,5,0,1
73387,-76.9230769230769,4,2,1,85,0,1
74459,-83.3333333333333,4,2,1,85,0,1
75301,-83.3333333333333,4,2,1,5,0,1
75377,-83.3333333333333,4,2,1,80,0,1
77750,-83.3333333333333,4,2,1,5,0,1
77826,-83.3333333333333,4,2,1,80,0,1
81729,-83.3333333333333,4,2,1,5,0,1
81806,-83.3333333333333,4,2,1,80,0,1
86245,-71.4285714285714,4,2,1,75,0,1
86627,-71.4285714285714,4,2,1,5,0,1
86704,-90.9090909090909,4,2,1,75,0,0
90377,-83.3333333333333,4,2,1,75,0,0
91602,-90.9090909090909,4,2,1,75,0,0
95275,-83.3333333333333,4,2,1,75,0,0
96500,-142.857142857143,4,2,1,50,0,0
97954,-142.857142857143,4,2,1,5,0,0
98030,-142.857142857143,4,2,1,50,0,0
101398,-125,4,2,1,50,0,0
103541,-125,4,2,1,55,0,0
103847,-111.111111111111,4,2,1,60,0,0
106296,-100,4,2,1,65,0,0
106525,-100,4,2,1,5,0,0
106602,-100,4,2,1,65,0,0
107137,-100,4,2,1,5,0,0
107214,-100,4,2,1,65,0,0
109051,-90.9090909090909,4,2,1,65,0,0
109281,-90.9090909090909,4,2,1,5,0,0
109357,-90.9090909090909,4,2,1,65,0,0
109587,-90.9090909090909,4,2,1,5,0,0
109664,-100,4,2,1,65,0,0
111041,-95.2380952380952,4,2,1,60,0,0
112265,-90.9090909090909,4,2,1,65,0,0
112495,-90.9090909090909,4,2,1,5,0,0
112571,-90.9090909090909,4,2,1,65,0,0
113490,-86.9565217391304,4,2,1,70,0,0
114714,-83.3333333333333,4,2,1,75,0,0
116015,-83.3333333333333,4,2,1,5,0,0
116092,-100,4,2,1,70,0,0
118541,-90.9090909090909,4,2,1,75,0,0
118770,-90.9090909090909,4,2,1,5,0,0
118846,-90.9090909090909,4,2,1,75,0,0
119076,-90.9090909090909,4,2,1,5,0,0
119152,-90.9090909090909,4,2,1,45,0,0
119306,-90.9090909090909,4,2,1,55,0,0
119459,-90.9090909090909,4,2,1,65,0,0
119613,-90.9090909090909,4,2,1,75,0,0
119765,-166.666666666667,4,2,1,60,0,0
120224,-111.111111111111,4,2,1,60,0,0
120530,-71.4285714285715,4,2,1,75,0,0
120913,-71.4285714285715,4,2,1,5,0,0
120990,-83.3333333333333,4,2,1,80,0,1
121831,-83.3333333333333,4,2,1,5,0,1
121908,-83.3333333333333,4,2,1,80,0,1
122444,-83.3333333333333,4,2,1,5,0,1
122520,-83.3333333333333,4,2,1,80,0,1
123668,-83.3333333333333,4,2,1,5,0,1
123745,-83.3333333333333,4,2,1,80,0,1
124586,-83.3333333333333,4,2,1,5,0,1
124663,-83.3333333333333,4,2,1,80,0,1
127648,-83.3333333333333,4,2,1,5,0,1
127724,-83.3333333333333,4,2,1,80,0,1
128336,-76.9230769230769,4,2,1,85,0,1
128413,-76.9230769230769,4,2,1,5,0,1
128489,-76.9230769230769,4,2,1,85,0,1
128566,-76.9230769230769,4,2,1,5,0,1
128642,-76.9230769230769,4,2,1,85,0,1
129637,-76.9230769230769,4,2,1,5,0,1
129714,-76.9230769230769,4,2,1,85,0,1
130785,-83.3333333333333,4,2,1,80,0,1
131627,-83.3333333333333,4,2,1,5,0,1
131704,-83.3333333333333,4,2,1,80,0,1
132622,-76.9230769230769,4,2,1,85,0,1
132852,-76.9230769230769,4,2,1,5,0,1
132928,-76.9230769230769,4,2,1,85,0,1
133158,-76.9230769230769,4,2,1,5,0,1
133234,-83.3333333333333,4,2,1,80,0,1
134688,-83.3333333333333,4,2,1,5,0,1
134765,-83.3333333333333,4,2,1,80,0,1
137750,-83.3333333333333,4,2,1,5,0,1
137826,-83.3333333333333,4,2,1,80,0,1
138132,-76.9230769230769,4,2,1,85,0,1
138209,-76.9230769230769,4,2,1,5,0,1
138285,-76.9230769230769,4,2,1,85,0,1
138362,-76.9230769230769,4,2,1,5,0,1
138438,-76.9230769230769,4,2,1,85,0,1
139433,-76.9230769230769,4,2,1,5,0,1
139510,-76.9230769230769,4,2,1,85,0,1
140581,-83.3333333333333,4,2,1,80,0,1
141423,-83.3333333333333,4,2,1,5,0,1
141500,-83.3333333333333,4,2,1,80,0,1
143872,-83.3333333333333,4,2,1,5,0,1
143949,-83.3333333333333,4,2,1,80,0,1
147928,-90.9090909090909,4,2,1,75,0,0
149076,-90.9090909090909,4,2,1,5,0,0
149153,-90.9090909090909,4,2,1,75,0,0
151525,-90.9090909090909,4,2,1,5,0,0
151602,-90.9090909090909,4,2,1,45,0,0
151908,-90.9090909090909,4,2,1,55,0,0
152214,-90.9090909090909,4,2,1,75,0,0
152520,-90.9090909090909,4,2,1,65,0,0
153056,-90.9090909090909,4,2,1,5,0,0
153132,-90.9090909090909,4,2,1,75,0,0
157571,-142.857142857143,4,2,1,35,0,0
162469,-125,4,2,1,60,0,0
163387,-71.4285714285714,4,2,1,60,0,0
163464,-71.4285714285714,4,2,1,5,0,0
163694,-71.4285714285714,4,2,1,60,0,0
163770,-71.4285714285714,4,2,1,5,0,0
163847,-125,4,2,1,60,0,0
164612,-71.4285714285714,4,2,1,75,0,0
164689,-71.4285714285714,4,2,1,5,0,0
164765,-71.4285714285714,4,2,1,75,0,0
164842,-71.4285714285714,4,2,1,5,0,0
164918,-71.4285714285714,4,2,1,75,0,0
164995,-71.4285714285714,4,2,1,5,0,0
165071,-111.111111111111,4,2,1,65,0,0
165836,-71.4285714285714,4,2,1,65,0,0
165913,-71.4285714285714,4,2,1,5,0,0
166143,-71.4285714285714,4,2,1,65,0,0
166220,-71.4285714285714,4,2,1,5,0,0
166296,-111.111111111111,4,2,1,65,0,0
167214,-90.9090909090909,4,2,1,65,0,0
167367,-90.9090909090909,4,2,1,75,0,0
169969,-90.9090909090909,4,2,1,75,0,0
170199,-90.9090909090909,4,2,1,5,0,0
170275,-90.9090909090909,4,2,1,75,0,0
170505,-90.9090909090909,4,2,1,5,0,0
170581,-90.9090909090909,4,2,1,45,0,0
170734,-90.9090909090909,4,2,1,55,0,0
170887,-90.9090909090909,4,2,1,65,0,0
171041,-90.9090909090909,4,2,1,75,0,0
171194,-166.666666666667,4,2,1,60,0,0
172342,-166.666666666667,4,2,1,5,0,0
172418,-166.666666666667,4,2,1,60,0,0
173030,-99.9999999999999,4,2,1,75,0,0
173336,-90.9090909090909,4,2,1,75,0,0
173643,-83.3333333333333,4,2,1,80,0,1
173872,-83.3333333333333,4,2,1,5,0,1
173949,-83.3333333333333,4,2,1,80,0,1
174484,-83.3333333333333,4,2,1,5,0,1
174561,-83.3333333333333,4,2,1,80,0,1
175097,-83.3333333333333,4,2,1,5,0,1
175173,-83.3333333333333,4,2,1,80,0,1
176321,-83.3333333333333,4,2,1,5,0,1
176398,-83.3333333333333,4,2,1,80,0,1
177240,-83.3333333333333,4,2,1,5,0,1
177316,-83.3333333333333,4,2,1,80,0,1
180301,-83.3333333333333,4,2,1,5,0,1
180377,-83.3333333333333,4,2,1,80,0,1
180990,-76.9230769230769,4,2,1,85,0,1
181067,-76.9230769230769,4,2,1,5,0,1
181143,-76.9230769230769,4,2,1,85,0,1
181220,-76.9230769230769,4,2,1,5,0,1
181296,-76.9230769230769,4,2,1,85,0,1
182291,-76.9230769230769,4,2,1,5,0,1
182368,-76.9230769230769,4,2,1,85,0,1
183438,-83.3333333333333,4,2,1,80,0,1
184280,-83.3333333333333,4,2,1,5,0,1
184357,-83.3333333333333,4,2,1,80,0,1
186117,-83.3333333333333,4,2,1,5,0,1
186194,-83.3333333333333,4,2,1,80,0,1
187342,-83.3333333333333,4,2,1,5,0,1
187418,-83.3333333333333,4,2,1,80,0,1
190403,-83.3333333333333,4,2,1,5,0,1
190479,-83.3333333333333,4,2,1,80,0,1
190785,-76.9230769230769,4,2,1,85,0,1
190862,-76.9230769230769,4,2,1,5,0,1
190938,-76.9230769230769,4,2,1,85,0,1
191015,-76.9230769230769,4,2,1,5,0,1
191091,-76.9230769230769,4,2,1,85,0,1
193234,-83.3333333333333,4,2,1,80,0,1
194076,-83.3333333333333,4,2,1,5,0,1
194153,-83.3333333333333,4,2,1,80,0,1
196525,-83.3333333333333,4,2,1,5,0,1
196602,-83.3333333333333,4,2,1,80,0,1
200505,-83.3333333333333,4,2,1,5,0,1
200581,-83.3333333333333,4,2,1,80,0,1
204561,-100,4,2,1,80,0,0
206704,-142.857142857143,4,2,1,35,0,0
211602,-142.857142857143,4,2,1,55,0,0
215275,-166.666666666667,4,2,1,55,0,0

[Colours]
Combo1 : 152,87,67
Combo2 : 202,181,26
Combo3 : 112,112,58
Combo4 : 57,113,113

[HitObjects]
53,304,990,6,0,P|96:257|164:269,1,125.999996154785,2|2,2:2|2:2,0:0:0:0:
225,350,1449,1,0,0:0:0:0:
225,350,1602,2,0,P|268:339|298:331,1,62.9999980773926,2|0,2:2|1:2,0:0:0:0:
317,328,1832,1,0,1:2:0:0:
317,328,1908,1,2,1:2:0:0:
355,233,2061,1,0,1:2:0:0:
426,346,2215,6,0,P|438:285|453:212,1,125.999996154785,2|2,1:2|2:2,0:0:0:0:
394,146,2674,2,0,L|351:126,2,31.4999990386963,0|0|2,1:2|1:2|1:2,0:0:0:0:
472,106,2979,2,0,L|515:86,2,31.4999990386963,0|0|2,1:2|1:2|1:2,0:0:0:0:
382,23,3286,1,0,1:2:0:0:
301,91,3439,5,2,1:2:0:0:
301,91,3592,1,0,0:0:0:0:
231,28,3745,1,2,2:2:0:0:
231,28,3898,1,0,0:0:0:0:
167,107,4051,2,0,P|121:94|83:84,1,62.9999980773926,2|0,2:2|1:2,0:0:0:0:
83,86,4280,1,0,1:2:0:0:
83,86,4357,1,2,1:2:0:0:
15,167,4510,1,0,1:2:0:0:
121,274,4664,6,0,P|110:234|101:197,1,62.9999980773926,2|0,2:2|1:2,0:0:0:0:
167,107,4969,2,0,P|174:137|183:167,1,62.9999980773926,2|0,1:2|1:2,0:0:0:0:
245,265,5276,6,0,P|256:225|281:126,1,125.999996154785,2|2,2:2|1:2,0:0:0:0:
232,50,5735,1,0,1:2:0:0:
331,73,5888,6,0,P|395:57|462:40,1,125.999996154785,2|2,1:2|2:2,0:0:0:0:
509,118,6347,1,0,0:0:0:0:
509,118,6500,2,0,P|466:131|430:142,1,62.9999980773926,2|0,2:2|1:2,0:0:0:0:
432,147,6730,1,0,1:2:0:0:
432,147,6806,1,2,1:2:0:0:
309,229,6959,1,0,1:2:0:0:
339,153,7112,6,0,P|350:196|373:288,1,125.999996154785,2|2,1:2|2:2,0:0:0:0:
466,326,7572,2,0,L|502:309,2,31.4999990386963,0|0|2,1:2|1:2|1:2,0:0:0:0:
369,377,7877,2,0,L|333:360,2,31.4999990386963,0|0|2,1:2|1:2|1:2,0:0:0:0:
226,318,8184,1,0,1:2:0:0:
309,229,8337,6,0,L|297:277,1,31.4999990386963,2|0,1:2|0:0,0:0:0:0:
208,174,8490,1,0,1:2:0:0:
208,174,8567,1,0,1:2:0:0:
208,174,8643,2,0,L|219:218,1,31.4999990386963,10|8,2:2|2:2,0:0:0:0:
318,140,8796,2,0,L|310:109,1,31.4999990386963,0|0,1:2|1:2,0:0:0:0:
193,63,8949,5,10,2:2:0:0:
175,56,9026,1,8,2:2:0:0:
157,50,9102,1,0,1:2:0:0:
140,44,9179,1,0,1:2:0:0:
123,38,9255,2,0,P|112:84|100:126,1,62.9999980773926,2|2,2:2|2:2,0:0:0:0:
82,218,9561,5,2,2:1:0:0:
82,218,10327,6,0,L|71:178,2,41.9999987182618,0|0|0,1:2|1:2|1:2,0:0:0:0:
98,240,10480,2,0,B|125:260|166:248|166:248|198:288|198:288|240:281|277:302,1,188.999994232178,4|0,2:2|0:0,0:0:0:0:
335,308,10786,5,4,2:1:0:0:
237,176,10939,1,2,1:2:0:0:
237,176,11016,1,0,1:2:0:0:
237,176,11092,1,10,2:2:0:0:
220,358,11245,1,2,1:2:0:0:
222,129,11398,1,10,2:2:0:0:
359,334,11551,1,2,1:2:0:0:
359,334,11628,1,0,1:2:0:0:
359,334,11704,2,0,P|409:321|464:308,1,99.0000030212403,10|2,2:2|1:2,0:0:0:0:
400,99,12010,6,0,P|387:156|373:210,1,99.0000030212403,10|2,2:2|1:2,0:0:0:0:
372,228,12240,1,0,1:2:0:0:
372,228,12317,1,10,2:2:0:0:
493,87,12470,1,2,1:2:0:0:
300,145,12623,1,10,2:2:0:0:
465,199,12775,2,0,L|513:184,1,49.5000015106202,2|2,1:2|1:2,0:0:0:0:
314,51,12929,2,0,P|263:66|210:83,1,99.0000030212403,10|2,2:2|1:2,0:0:0:0:
128,223,13235,5,10,2:2:0:0:
308,152,13388,1,2,1:2:0:0:
308,152,13465,1,0,1:2:0:0:
308,152,13541,1,10,2:2:0:0:
90,63,13694,1,2,1:2:0:0:
238,215,13847,1,10,2:2:0:0:
189,14,14000,5,2,1:2:0:0:
187,27,14077,1,0,1:2:0:0:
184,42,14153,1,10,2:2:0:0:
181,57,14230,1,8,2:2:0:0:
178,74,14306,2,0,L|167:127,1,49.5000015106202,2|0,1:2|1:2,0:0:0:0:
104,332,14459,5,12,1:2:0:0:
374,278,14612,1,0,1:2:0:0:
67,241,14766,5,12,1:2:0:0:
360,178,14919,1,0,1:2:0:0:
23,152,15072,5,12,1:2:0:0:
353,82,15225,1,0,1:2:0:0:
73,7,15378,1,12,1:2:0:0:
73,7,15454,1,8,1:2:0:0:
73,7,15531,2,0,L|89:63,1,53.9999983520508,8|8,1:3|1:3,0:0:0:0:
136,171,15684,5,6,2:2:0:0:
248,54,15837,1,2,1:2:0:0:
248,54,15914,1,0,1:2:0:0:
248,54,15990,1,10,2:2:0:0:
225,236,16143,1,2,1:2:0:0:
161,88,16296,1,10,2:2:0:0:
86,290,16449,1,2,1:2:0:0:
86,290,16526,1,0,1:2:0:0:
86,290,16602,2,0,P|124:331|185:314,1,99.0000030212403,10|2,2:2|1:2,0:0:0:0:
304,285,16908,6,0,P|363:282|405:323,1,99.0000030212403,10|2,2:2|1:2,0:0:0:0:
418,331,17138,1,0,1:2:0:0:
418,331,17215,1,10,2:2:0:0:
391,185,17368,1,2,1:2:0:0:
332,363,17521,1,10,2:2:0:0:
380,136,17673,2,0,L|394:200,1,49.5000015106202,2|2,1:2|1:2,0:0:0:0:
512,313,17827,2,0,P|501:265|489:210,1,99.0000030212403,10|2,2:2|1:2,0:0:0:0:
459,58,18133,5,10,2:2:0:0:
296,201,18286,1,2,1:2:0:0:
296,201,18362,1,0,1:2:0:0:
296,201,18439,1,10,2:2:0:0:
504,143,18592,1,2,1:2:0:0:
284,65,18745,1,10,2:2:0:0:
420,264,18898,5,2,1:2:0:0:
418,251,18975,1,0,1:2:0:0:
415,236,19051,1,10,2:2:0:0:
412,221,19128,1,8,2:2:0:0:
409,204,19204,2,0,L|398:151,1,49.5000015106202,2|0,1:2|1:2,0:0:0:0:
374,0,19357,5,12,1:2:0:0:
126,51,19510,1,0,1:2:0:0:
411,72,19664,5,12,1:2:0:0:
123,140,19817,1,0,1:2:0:0:
452,139,19970,5,12,1:2:0:0:
112,226,20123,1,0,1:2:0:0:
435,310,20276,1,12,1:2:0:0:
435,310,20352,1,8,1:2:0:0:
435,310,20429,2,0,L|416:256,1,53.9999983520508,8|8,1:3|1:3,0:0:0:0:
349,190,20582,6,0,P|329:264|307:338,1,144,6|8,1:2|2:2,0:0:0:0:
177,298,21041,1,2,1:2:0:0:
177,298,21194,2,0,P|210:271|257:276,1,72,2|0,1:2|1:2,0:0:0:0:
188,379,21500,2,0,P|146:378|111:345,1,72,10|2,2:2|1:2,0:0:0:0:
99,342,21730,1,0,1:2:0:0:
99,342,21806,2,0,P|88:299|79:262,1,72,2|0,1:2|1:2,0:0:0:0:
0,119,22112,6,0,P|-14:172|28:213,1,108,10|0,2:2|1:2,0:0:0:0:
44,205,22418,2,0,P|87:193|127:182,1,72,2|0,1:2|1:2,0:0:0:0:
238,61,22724,2,0,P|203:70|168:80,1,72,8|2,2:2|1:2,0:0:0:0:
150,110,22954,1,0,1:2:0:0:
150,110,23031,5,2,1:2:0:0:
256,147,23184,1,2,1:2:0:0:
162,244,23337,1,10,2:2:0:0:
292,290,23490,1,2,1:2:0:0:
292,290,23567,1,0,1:2:0:0:
292,290,23643,2,0,P|278:241|269:208,1,72,2|0,1:2|1:2,0:0:0:0:
222,342,23949,1,10,2:2:0:0:
369,254,24102,1,2,1:2:0:0:
369,254,24178,1,0,1:2:0:0:
369,254,24255,6,0,P|404:263|439:273,1,72,2|2,1:2|1:2,0:0:0:0:
512,133,24561,2,0,P|477:123|442:114,1,72,10|0,2:2|1:2,0:0:0:0:
465,198,24867,1,2,1:2:0:0:
423,32,25021,5,8,1:1:0:0:
385,177,25174,1,8,2:1:0:0:
337,114,25327,5,2,1:2:0:0:
337,114,25403,1,0,1:2:0:0:
337,114,25480,2,0,P|352:180|372:264,1,144,2|8,1:2|2:2,0:0:0:0:
488,328,25939,1,2,1:2:0:0:
488,328,26092,2,0,P|474:269|440:254,1,72,2|0,1:2|1:2,0:0:0:0:
291,300,26398,2,0,P|305:359|339:374,1,72,10|2,2:2|1:2,0:0:0:0:
344,369,26627,1,0,1:2:0:0:
344,369,26704,2,0,P|384:359|426:350,1,72,2|2,1:2|1:2,0:0:0:0:
270,225,27010,6,0,P|211:239|154:254,1,108,10|0,2:2|1:2,0:0:0:0:
152,272,27316,2,0,P|131:331|119:365,1,72,2|0,1:2|1:2,0:0:0:0:
3,195,27623,1,8,2:2:0:0:
55,289,27776,1,2,1:2:0:0:
55,289,27852,1,0,1:2:0:0:
55,289,27929,6,0,P|76:230|88:196,1,72,2|2,1:2|1:2,0:0:0:0:
170,177,28235,2,0,P|158:143|146:109,1,72,10|2,2:2|1:2,0:0:0:0:
0,7,28541,2,0,P|25:53|93:52,1,108,2|0,1:2|0:0,0:0:0:0:
101,38,28847,2,0,P|139:25|185:42,1,72,10|2,2:2|1:2,0:0:0:0:
282,144,29153,6,0,P|237:137|220:97,1,72,10|0,2:2|1:2,0:0:0:0:
345,59,29459,1,10,2:2:0:0:
371,53,29536,1,8,2:2:0:0:
397,47,29612,1,0,1:2:0:0:
424,41,29689,1,0,1:2:0:0:
457,34,29766,1,10,2:2:0:0:
442,124,29919,5,2,1:2:0:0:
426,213,30072,1,10,2:2:0:0:
411,303,30225,1,2,1:2:0:0:
296,201,30378,6,0,P|313:258|339:349,1,135,6|0,1:2|0:0,0:0:0:0:
342,363,30684,1,8,2:2:0:0:
334,373,30837,1,2,2:2:0:0:
188,247,30990,6,0,P|205:190|231:99,1,135,0|0,1:2|0:0,0:0:0:0:
238,82,31296,1,8,2:2:0:0:
246,73,31449,1,2,2:2:0:0:
134,114,31602,5,0,1:2:0:0:
325,47,31755,1,2,2:2:0:0:
108,122,31908,1,8,2:2:0:0:
354,47,32061,1,2,1:2:0:0:
354,47,32138,1,8,2:2:0:0:
354,47,32215,2,0,P|340:98|326:147,1,90,0|2,1:2|1:2,0:0:0:0:
243,209,32521,1,8,2:2:0:0:
427,162,32674,1,2,2:2:0:0:
238,82,32827,1,0,1:2:0:0:
238,82,33133,6,0,P|182:71|84:50,1,148.50000453186,8|0,2:2|0:0,0:0:0:0:
0,120,33439,2,0,P|72:135|147:151,1,148.50000453186,0|0,1:2|0:0,0:0:0:0:
218,168,33745,1,8,2:2:0:0:
37,251,33898,1,2,2:2:0:0:
150,356,34051,5,8,2:2:0:0:
144,333,34128,1,8,2:2:0:0:
138,309,34204,1,10,2:2:0:0:
132,286,34281,1,8,2:2:0:0:
126,262,34357,2,0,L|114:214,3,45,8|8|10|8,2:2|2:2|2:3|2:3,0:0:0:0:
16,117,34664,5,8,2:2:0:0:
37,119,34740,1,8,2:2:0:0:
58,113,34817,1,10,2:3:0:0:
74,99,34893,1,8,2:3:0:0:
92,74,34970,1,8,2:2:0:0:
113,56,35046,1,8,2:2:0:0:
150,48,35123,1,10,2:2:0:0:
175,61,35199,1,8,2:2:0:0:
196,87,35276,6,0,B|245:71|265:126|242:100|264:158|312:137,1,135,4|0,1:2|0:0,0:0:0:0:
381,121,35582,1,8,2:2:0:0:
391,114,35735,1,2,2:2:0:0:
459,192,35888,6,0,B|413:176|397:225|414:201|391:263|343:242,1,135,0|0,1:2|0:0,0:0:0:0:
277,223,36194,1,8,2:2:0:0:
267,215,36347,1,2,2:2:0:0:
442,289,36500,5,0,1:2:0:0:
288,337,36653,1,2,2:2:0:0:
463,282,36806,1,8,2:2:0:0:
264,345,36959,1,2,2:2:0:0:
406,208,37112,1,0,1:2:0:0:
371,354,37266,1,2,2:2:0:0:
411,181,37419,1,8,2:2:0:0:
366,381,37572,1,2,2:2:0:0:
257,246,37725,6,0,B|207:227|186:297|212:250|186:322|132:297,1,148.50000453186,4|0,1:2|0:0,0:0:0:0:
59,278,38031,2,0,L|10:265,1,40.4999987640381,8|0,2:2|0:0,0:0:0:0:
15,132,38337,6,0,B|65:113|86:183|60:136|86:208|140:183,1,148.50000453186,6|0,1:2|0:0,0:0:0:0:
213,167,38643,2,0,L|389:123,1,175.499991966248,8|0,2:2|0:0,0:0:0:0:
372,28,38949,5,8,2:2:0:0:
343,36,39026,1,8,2:2:0:0:
308,46,39102,1,0,1:2:0:0:
384,125,39255,1,12,2:2:0:0:
210,82,39408,1,0,1:2:0:0:
210,82,39485,1,0,1:2:0:0:
210,82,39561,1,8,1:2:0:0:
459,2,39715,1,8,1:2:0:0:
459,2,40021,6,0,P|511:58|488:121,1,144,6|0,1:2|1:2,0:0:0:0:
454,190,40480,2,0,L|469:246,2,48,2|2|2,1:2|2:2|2:2,0:0:0:0:
379,148,40786,2,0,P|312:134|249:122,1,96,10|0,2:2|0:0,0:0:0:0:
208,88,41092,5,2,1:2:0:0:
214,63,41194,2,0,L|226:16,1,48,2|2,2:2|2:2,0:0:0:0:
139,156,41398,1,2,2:2:0:0:
146,181,41500,2,0,L|158:228,1,48,2|2,2:2|2:2,0:0:0:0:
60,96,41704,1,2,1:2:0:0:
65,73,41806,2,0,L|77:26,1,48,2|2,2:2|2:2,0:0:0:0:
43,194,42010,5,10,2:2:0:0:
65,271,42164,2,0,L|84:340,1,72,2|2,2:2|1:2,0:0:0:0:
166,267,42470,6,0,B|215:281|215:281|238:314|238:314|304:328,1,144,2|0,1:2|1:2,0:0:0:0:
363,337,42929,2,0,L|417:320,2,48,2|2|2,1:2|2:2|2:2,0:0:0:0:
292,244,43235,2,0,P|337:229|383:215,1,96,10|0,2:2|0:0,0:0:0:0:
465,248,43541,5,2,1:2:0:0:
472,273,43643,2,0,L|484:320,1,48,2|2,2:2|2:2,0:0:0:0:
477,150,43847,1,2,2:2:0:0:
484,125,43949,2,0,L|496:78,1,48,2|2,2:2|2:2,0:0:0:0:
395,14,44153,1,2,1:2:0:0:
370,22,44255,2,0,L|316:40,1,48,2|2,2:2|2:2,0:0:0:0:
225,110,44459,6,0,P|262:120|311:136,1,72,12|2,2:2|2:2,0:0:0:0:
365,152,44766,1,2,1:2:0:0:
235,24,44919,6,0,P|177:27|137:126,1,161.999995056153,6|2,1:2|1:2,0:0:0:0:
167,212,45378,1,10,2:2:0:0:
55,129,45531,1,2,1:2:0:0:
55,129,45607,1,0,1:2:0:0:
55,129,45684,2,0,P|42:177|28:224,1,80.9999975280763,2|0,1:2|1:2,0:0:0:0:
0,343,45990,2,0,B|31:312|31:312|80:323,1,80.9999975280763,10|2,2:2|1:2,0:0:0:0:
105,338,46219,1,0,1:2:0:0:
105,338,46296,6,0,P|152:352|193:311,1,80.9999975280763,0|2,1:2|1:2,0:0:0:0:
259,209,46602,1,10,2:2:0:0:
142,250,46755,2,0,L|190:265,1,40.4999987640381,6|4,2:3|2:3,0:0:0:0:
252,339,46908,2,0,L|300:324,1,40.4999987640381,6|4,2:3|2:3,0:0:0:0:
374,295,47061,1,8,2:3:0:0:
402,285,47138,1,8,2:3:0:0:
431,276,47215,1,8,2:3:0:0:
460,267,47291,1,8,2:3:0:0:
487,258,47368,6,0,B|535:238|535:238|380:193,1,175.499991966248,6|0,1:2|0:0,0:0:0:0:
344,215,47673,2,0,L|285:195,1,45,2|0,1:2|0:0,0:0:0:0:
455,110,47827,1,10,2:2:0:0:
348,55,47980,1,2,1:2:0:0:
348,55,48056,1,0,1:2:0:0:
348,55,48133,2,0,P|366:116|379:159,1,90,2|0,1:2|1:2,0:0:0:0:
432,23,48439,1,10,2:2:0:0:
249,135,48592,6,0,P|196:98|114:135,1,135,2|0,1:2|0:0,0:0:0:0:
82,170,48898,2,0,L|63:240,1,45,2|0,1:2|0:0,0:0:0:0:
122,15,49051,1,10,2:2:0:0:
214,224,49204,1,2,1:2:0:0:
214,224,49281,1,0,1:2:0:0:
214,224,49357,2,0,P|273:208|316:196,1,90,2|0,1:2|1:2,0:0:0:0:
493,145,49664,1,12,2:2:0:0:
351,85,49817,5,2,1:2:0:0:
351,85,49893,1,0,1:2:0:0:
351,85,49970,1,14,1:2:0:0:
471,248,50123,1,0,1:2:0:0:
422,21,50276,1,8,1:2:0:0:
327,281,50428,5,2,1:2:0:0:
327,281,50505,1,0,1:2:0:0:
327,281,50582,1,10,1:2:0:0:
493,145,50735,1,0,1:2:0:0:
226,199,50888,1,8,1:2:0:0:
448,371,51041,2,0,L|436:321,1,49.5000015106202,2|0,1:2|1:2,0:0:0:0:
389,91,51194,5,14,1:2:0:0:
327,281,51347,1,0,1:2:0:0:
404,77,51500,5,10,1:2:0:0:
314,293,51653,1,0,1:2:0:0:
418,66,51806,5,10,1:2:0:0:
304,303,51959,1,0,1:2:0:0:
258,35,52112,5,14,1:2:0:0:
406,174,52266,1,0,1:2:0:0:
406,174,52342,1,0,1:2:0:0:
406,174,52419,6,0,P|345:192|245:223,1,148.50000453186,4|0,1:2|0:0,0:0:0:0:
81,119,52725,2,0,P|146:99|205:166,1,148.50000453186,0|0,1:2|0:0,0:0:0:0:
159,278,53031,5,8,1:2:0:0:
152,254,53107,1,8,1:2:0:0:
146,230,53184,1,8,1:2:0:0:
140,206,53260,1,8,1:2:0:0:
130,179,53337,1,8,1:2:0:0:
118,217,53414,1,8,1:2:0:0:
109,257,53490,1,8,1:2:0:0:
99,297,53567,1,8,1:2:0:0:
89,337,53643,5,2,1:1:0:0:
235,256,53949,5,2,2:2:0:0:
25,160,54255,5,2,2:2:0:0:
88,51,54408,6,0,L|77:11,2,41.9999987182618,0|0|0,1:2|1:2|1:2,0:0:0:0:
109,69,54561,2,0,B|134:90|176:81|176:81|205:123|205:123|247:119|283:143,1,188.999994232178,6|0,2:2|0:0,0:0:0:0:
349,154,54868,6,0,P|396:129|413:77,1,107.999996704102,4|0,3:1|0:0,0:0:0:0:
223,209,55174,2,0,P|245:272|263:325,1,107.999996704102,10|0,2:2|0:0,0:0:0:0:
325,63,55480,2,0,P|262:49|161:26,1,161.999995056153,2|0,1:2|0:0,0:0:0:0:
93,8,55786,1,10,2:2:0:0:
270,135,55939,1,2,2:2:0:0:
58,241,56092,6,0,B|46:194|25:159|25:159|56:111|108:147,1,161.999995056153,2|0,1:2|0:0,0:0:0:0:
139,197,56398,2,0,B|186:230|186:230|248:205,1,107.999996704102,10|0,2:2|0:0,0:0:0:0:
374,124,56704,1,2,1:2:0:0:
226,310,56857,1,2,2:2:0:0:
228,57,57010,1,10,2:2:0:0:
371,237,57164,1,0,0:0:0:0:
306,9,57317,6,0,B|225:33|225:33|219:38|219:38|120:65,1,161.999995056153,0|0,1:2|0:0,0:0:0:0:
79,83,57623,1,10,2:2:0:0:
266,189,57776,1,2,2:2:0:0:
48,294,57929,1,2,1:2:0:0:
149,176,58082,1,0,0:0:0:0:
200,355,58235,2,0,P|275:335|375:311,1,161.999995056153,10|0,2:2|0:0,0:0:0:0:
430,296,58541,6,0,P|457:237|433:195,1,107.999996704102,2|0,1:2|0:0,0:0:0:0:
308,59,58847,1,10,2:2:0:0:
371,237,59000,1,2,2:2:0:0:
490,100,59153,2,0,P|429:87|383:75,1,107.999996704102,2|0,1:2|0:0,0:0:0:0:
165,32,59459,1,10,2:2:0:0:
165,32,59536,1,8,2:2:0:0:
165,32,59612,2,0,L|181:92,1,53.9999983520508,0|0,1:2|1:2,0:0:0:0:
218,220,59766,6,0,P|235:168|253:117,1,107.999996704102,4|0,1:2|0:0,0:0:0:0:
65,67,60072,1,10,2:2:0:0:
135,251,60225,1,2,2:2:0:0:
163,153,60378,2,0,P|103:171|43:189,1,107.999996704102,2|0,1:2|0:0,0:0:0:0:
29,359,60684,2,0,B|69:316|69:316|137:334,1,107.999996704102,10|0,2:2|1:2,0:0:0:0:
180,377,60914,1,0,1:2:0:0:
180,377,60990,6,0,P|230:384|275:327,1,107.999996704102,2|0,1:2|0:0,0:0:0:0:
428,197,61296,2,0,P|362:194|320:279,1,161.999995056153,10|0,2:2|0:0,0:0:0:0:
344,339,61602,1,2,1:2:0:0:
286,133,61755,1,2,2:2:0:0:
409,287,61908,2,0,P|472:267|526:252,1,107.999996704102,14|0,2:2|0:0,0:0:0:0:
464,71,62215,6,0,L|399:92,1,58.4999973220826,14|0,1:2|0:0,0:0:0:0:
277,227,62368,2,0,L|334:209,1,58.4999973220826,10|0,1:2|0:0,0:0:0:0:
500,168,62521,1,0,1:2:0:0:
305,42,62674,6,0,B|224:70|224:70|199:121|199:121|147:119|109:149,1,233.999989288331,14|8,1:2|1:2,0:0:0:0:
54,192,63056,1,8,1:2:0:0:
54,192,63133,2,0,B|66:235|77:274,1,58.4999973220826,2|0,1:2|1:2,0:0:0:0:
30,346,63286,6,0,P|73:290|184:312,1,175.499991966248,14|0,1:2|0:0,0:0:0:0:
218,356,63592,2,0,L|289:328,1,58.4999973220826,2|0,1:2|1:2,0:0:0:0:
411,291,63745,2,0,L|340:263,1,58.4999973220826,10|10,1:2|1:2,0:0:0:0:
240,184,63898,1,6,1:2:0:0:
240,184,63975,1,0,1:2:0:0:
240,184,64051,2,0,L|258:248,1,58.4999973220826,10|0,1:2|1:2,0:0:0:0:
357,365,64204,5,0,1:2:0:0:
392,379,64281,1,0,1:2:0:0:
431,378,64357,1,10,1:2:0:0:
466,362,64434,1,0,1:2:0:0:
491,333,64510,1,2,1:2:0:0:
502,295,64587,1,0,1:2:0:0:
506,261,64664,6,0,P|490:203|475:148,1,107.999996704102,6|0,1:2|0:0,0:0:0:0:
300,3,64970,2,0,P|264:51|293:119,1,107.999996704102,10|0,1:2|0:0,0:0:0:0:
411,291,65276,2,0,B|392:216|392:216|385:208|385:208|364:130,1,161.999995056153,2|0,1:2|0:0,0:0:0:0:
343,66,65582,1,10,1:2:0:0:
286,223,65735,1,2,2:2:0:0:
497,46,65888,6,0,B|454:10|454:10|396:22,1,107.999996704102,2|0,1:2|1:2,0:0:0:0:
343,66,66118,1,0,1:2:0:0:
343,66,66194,2,0,P|279:83|202:102,1,107.999996704102,10|0,1:2|0:0,0:0:0:0:
72,203,66500,1,2,1:2:0:0:
175,20,66653,1,0,0:0:0:0:
177,252,66806,1,10,1:2:0:0:
42,56,66959,1,0,0:0:0:0:
31,273,67112,6,0,B|90:291|90:291|106:326|106:326|172:344,1,161.999995056153,0|0,1:2|0:0,0:0:0:0:
236,370,67419,1,10,1:2:0:0:
349,210,67572,1,0,0:0:0:0:
177,252,67725,2,0,P|247:276|298:296,1,107.999996704102,2|0,1:2|0:0,0:0:0:0:
460,215,68031,1,10,1:2:0:0:
384,368,68184,1,2,1:2:0:0:
384,368,68260,1,0,1:2:0:0:
384,368,68337,6,0,P|368:296|343:186,1,161.999995056153,2|0,1:2|0:0,0:0:0:0:
331,135,68643,1,10,1:2:0:0:
268,249,68796,1,2,2:2:0:0:
491,104,68949,2,0,P|445:88|389:67,1,107.999996704102,2|0,1:2|0:0,0:0:0:0:
192,85,69255,1,10,1:2:0:0:
192,85,69332,1,0,1:2:0:0:
192,85,69408,2,0,L|246:106,1,53.9999983520508,0|0,1:2|1:2,0:0:0:0:
331,135,69561,6,0,P|315:76|298:16,1,107.999996704102,4|0,1:2|0:0,0:0:0:0:
175,188,69868,1,10,1:2:0:0:
354,234,70021,1,2,2:2:0:0:
192,85,70174,2,0,B|137:75|137:75|81:138,1,107.999996704102,2|0,1:2|1:2,0:0:0:0:
63,179,70403,1,0,1:2:0:0:
63,179,70480,2,0,P|81:241|101:309,1,107.999996704102,10|0,1:2|0:0,0:0:0:0:
227,384,70786,6,0,P|242:332|257:280,1,107.999996704102,6|0,1:2|0:0,0:0:0:0:
445,212,71092,2,0,B|401:250|401:250|338:228,1,107.999996704102,10|0,1:2|0:0,0:0:0:0:
192,85,71398,2,0,P|251:68|353:35,1,161.999995056153,2|0,1:2|0:0,0:0:0:0:
418,17,71704,1,14,1:2:0:0:
263,202,71857,1,2,1:2:0:0:
263,202,71934,1,0,1:2:0:0:
263,202,72010,6,0,L|285:131,1,58.4999973220826,14|0,1:2|0:0,0:0:0:0:
407,97,72164,2,0,L|392:153,1,58.4999973220826,10|0,1:2|0:0,0:0:0:0:
350,307,72317,1,0,1:2:0:0:
445,212,72470,6,0,B|407:238|366:237|366:237|334:293|334:293|274:296|223:328,1,233.999989288331,14|10,1:2|1:2,0:0:0:0:
186,349,72852,1,8,1:2:0:0:
186,349,72929,2,0,L|122:334,1,58.4999973220826,2|0,1:2|1:2,0:0:0:0:
0,231,73082,6,0,B|46:235|78:272|78:272|92:222|133:179,1,175.499991966248,14|0,1:2|0:0,0:0:0:0:
173,147,73388,2,0,L|242:126,1,58.4999973220826,0|0,1:2|1:2,0:0:0:0:
379,60,73541,2,0,L|323:42,1,58.4999973220826,10|10,1:2|1:2,0:0:0:0:
215,0,73694,1,4,1:2:0:0:
215,0,73771,1,0,1:2:0:0:
215,0,73847,2,0,L|197:55,1,58.4999973220826,10|0,1:2|1:2,0:0:0:0:
117,197,74000,5,2,1:2:0:0:
116,235,74077,1,0,1:2:0:0:
129,271,74153,1,10,1:2:0:0:
156,300,74230,1,0,1:2:0:0:
191,316,74306,1,2,1:2:0:0:
230,317,74383,1,0,1:2:0:0:
266,304,74459,6,0,P|323:289|396:269,1,107.999996704102,6|0,1:2|0:0,0:0:0:0:
324,43,74766,2,0,P|306:93|286:149,1,107.999996704102,10|0,2:2|0:0,0:0:0:0:
472,283,75072,2,0,P|443:194|418:116,1,161.999995056153,2|0,1:2|0:0,0:0:0:0:
399,60,75378,1,10,2:2:0:0:
326,219,75531,1,2,1:2:0:0:
326,219,75607,1,0,1:2:0:0:
326,219,75684,6,0,P|272:233|226:184,1,107.999996704102,0|2,1:2|2:2,0:0:0:0:
129,45,75990,1,10,2:2:0:0:
46,217,76143,1,2,2:2:0:0:
167,149,76296,2,0,P|103:135|29:117,1,107.999996704102,2|0,1:2|0:0,0:0:0:0:
116,348,76602,2,0,B|170:355|170:355|218:305,1,107.999996704102,10|0,2:2|0:0,0:0:0:0:
272,172,76908,6,0,P|287:234|303:296,1,107.999996704102,2|0,1:2|0:0,0:0:0:0:
46,217,77215,2,0,B|27:167|27:167|71:112,1,107.999996704102,10|0,2:2|0:0,0:0:0:0:
163,0,77521,2,0,B|177:62|177:62|159:100|159:100|174:158,1,161.999995056153,2|0,1:2|0:0,0:0:0:0:
193,225,77827,1,10,2:2:0:0:
338,140,77980,1,2,1:2:0:0:
338,140,78056,1,0,1:2:0:0:
338,140,78133,6,0,P|297:95|229:111,1,107.999996704102,0|2,1:2|2:2,0:0:0:0:
323,262,78439,2,0,P|382:247|456:228,1,107.999996704102,10|0,2:2|0:0,0:0:0:0:
509,100,78745,2,0,P|450:85|376:64,1,107.999996704102,2|0,1:2|0:0,0:0:0:0:
188,0,79051,2,0,L|205:71,1,53.9999983520508,8|8,2:2|2:2,0:0:0:0:
251,174,79204,1,2,1:2:0:0:
251,174,79281,1,0,1:2:0:0:
251,174,79357,6,0,B|306:182|306:182|350:126,1,107.999996704102,6|0,1:2|0:0,0:0:0:0:
415,0,79664,1,8,2:2:0:0:
276,98,79817,1,2,1:2:0:0:
276,98,79893,1,0,1:2:0:0:
276,98,79970,2,0,P|197:85|150:76,1,107.999996704102,2|0,1:2|0:0,0:0:0:0:
4,49,80276,1,8,2:2:0:0:
143,183,80429,1,2,1:2:0:0:
143,183,80505,1,0,1:2:0:0:
143,183,80582,5,2,1:2:0:0:
90,13,80735,1,2,2:2:0:0:
14,159,80888,1,10,2:2:0:0:
169,79,81041,1,2,1:2:0:0:
169,79,81118,1,0,1:2:0:0:
169,79,81194,6,0,P|154:141|138:203,1,107.999996704102,2|0,1:2|0:0,0:0:0:0:
63,344,81500,2,0,B|125:288|125:288|205:322,1,161.999995056153,14|0,2:2|0:0,0:0:0:0:
251,367,81806,5,12,2:2:0:0:
512,183,81959,1,0,1:2:0:0:
230,158,82112,5,8,2:2:0:0:
456,333,82266,1,0,1:2:0:0:
402,148,82419,5,8,2:2:0:0:
346,360,82572,1,0,1:2:0:0:
346,360,82648,1,0,1:2:0:0:
346,360,82725,1,8,2:2:0:0:
444,237,82878,1,0,1:2:0:0:
230,158,83031,5,12,2:2:0:0:
512,40,83184,1,0,1:2:0:0:
343,234,83337,5,8,2:2:0:0:
368,4,83490,1,0,1:2:0:0:
402,148,83643,5,8,2:2:0:0:
258,81,83796,1,0,1:2:0:0:
258,81,83873,1,0,1:2:0:0:
258,81,83949,1,12,2:2:0:0:
430,53,84102,1,2,1:2:0:0:
343,234,84255,6,0,B|284:251|284:251|229:213,1,107.999996704102,6|0,1:2|0:0,0:0:0:0:
80,106,84561,1,8,2:2:0:0:
112,269,84715,1,2,1:2:0:0:
112,269,84791,1,0,1:2:0:0:
112,269,84868,2,0,P|130:207|145:157,1,107.999996704102,2|0,1:2|0:0,0:0:0:0:
182,8,85174,2,0,L|201:69,1,53.9999983520508,8|8,2:2|2:2,0:0:0:0:
234,185,85327,2,0,L|253:124,1,53.9999983520508,2|0,1:2|1:2,0:0:0:0:
288,10,85480,5,10,1:2:0:0:
206,264,85633,1,10,1:2:0:0:
84,8,85786,1,10,1:2:0:0:
15,92,86245,6,0,L|4:52,2,41.9999987182618,0|0|0,1:2|1:2|1:2,0:0:0:0:
43,113,86398,2,0,B|63:140|51:181|51:181|91:213|91:213|84:255|105:292,1,188.999994232178,4|0,2:2|0:0,0:0:0:0:
124,351,86704,5,4,2:1:0:0:
190,179,86857,1,2,1:2:0:0:
190,179,86934,1,0,1:2:0:0:
190,179,87010,1,10,2:2:0:0:
3,275,87164,1,2,1:2:0:0:
214,169,87317,1,10,2:2:0:0:
149,382,87470,1,2,1:2:0:0:
149,382,87546,1,0,1:2:0:0:
149,382,87623,2,0,P|160:348|182:280,1,99.0000030212403,10|2,2:2|1:2,0:0:0:0:
315,72,87929,6,0,P|328:129|342:183,1,99.0000030212403,10|2,2:2|1:2,0:0:0:0:
350,205,88158,1,0,1:2:0:0:
350,205,88235,1,10,2:2:0:0:
222,60,88388,1,2,1:2:0:0:
415,118,88541,1,10,2:2:0:0:
261,181,88694,2,0,L|202:166,1,49.5000015106202,2|2,1:2|1:2,0:0:0:0:
401,33,88847,2,0,B|451:30|451:30|485:70,1,99.0000030212403,10|2,2:2|1:2,0:0:0:0:
471,280,89153,5,10,2:2:0:0:
415,118,89306,1,2,1:2:0:0:
415,118,89383,1,0,1:2:0:0:
415,118,89459,1,10,2:2:0:0:
304,288,89612,1,2,1:2:0:0:
503,170,89766,1,10,2:2:0:0:
275,7,89919,5,2,1:2:0:0:
277,20,89995,1,0,1:2:0:0:
280,35,90072,1,10,2:2:0:0:
283,50,90148,1,8,2:2:0:0:
286,67,90225,2,0,L|297:120,1,49.5000015106202,2|0,1:2|1:2,0:0:0:0:
420,304,90378,5,12,1:2:0:0:
151,245,90531,1,0,1:2:0:0:
457,213,90684,5,12,1:2:0:0:
165,145,90837,1,0,1:2:0:0:
500,124,90990,5,12,1:2:0:0:
172,49,91143,1,0,1:2:0:0:
407,19,91296,1,12,1:2:0:0:
407,19,91373,1,8,1:2:0:0:
407,19,91449,2,0,L|389:77,1,53.9999983520508,8|8,1:3|1:3,0:0:0:0:
349,197,91602,5,6,2:2:0:0:
284,23,91755,1,2,1:2:0:0:
284,23,91832,1,0,1:2:0:0:
284,23,91908,1,10,2:2:0:0:
464,130,92061,1,2,1:2:0:0:
255,203,92215,1,10,2:2:0:0:
399,74,92368,1,2,1:2:0:0:
399,74,92444,1,0,1:2:0:0:
399,74,92521,2,0,P|414:132|427:182,1,99.0000030212403,10|2,2:2|1:2,0:0:0:0:
236,292,92827,6,0,B|270:253|270:253|338:267,1,99.0000030212403,10|2,2:2|1:2,0:0:0:0:
343,281,93056,1,0,1:2:0:0:
343,281,93133,1,10,2:2:0:0:
197,371,93286,1,2,1:2:0:0:
333,174,93439,1,10,2:2:0:0:
352,370,93592,2,0,L|300:353,1,49.5000015106202,2|2,1:2|1:2,0:0:0:0:
191,222,93745,2,0,P|204:177|224:109,1,99.0000030212403,10|2,2:2|1:2,0:0:0:0:
147,27,94051,5,10,2:2:0:0:
304,88,94204,1,2,1:2:0:0:
304,88,94281,1,0,1:2:0:0:
304,88,94357,1,10,2:2:0:0:
116,172,94510,1,2,1:2:0:0:
246,2,94664,1,10,2:2:0:0:
392,193,94817,5,2,1:2:0:0:
379,189,94893,1,0,1:2:0:0:
364,184,94970,1,10,2:2:0:0:
350,179,95046,1,8,2:2:0:0:
333,174,95123,2,0,L|281:156,1,49.5000015106202,2|0,1:2|1:2,0:0:0:0:
81,71,95276,5,12,1:2:0:0:
145,326,95429,1,0,1:2:0:0:
163,35,95582,5,12,1:2:0:0:
236,316,95735,1,0,1:2:0:0:
246,2,95888,5,12,1:2:0:0:
330,305,96041,1,0,1:2:0:0:
402,32,96194,1,12,1:2:0:0:
402,32,96271,1,8,1:2:0:0:
402,32,96347,2,0,L|344:55,1,53.9999983520508,8|8,1:3|1:3,0:0:0:0:
245,109,96500,6,0,P|294:125|391:160,1,125.999996154785,6|2,1:2|2:2,0:0:0:0:
477,208,96959,1,0,0:0:0:0:
477,208,97112,2,0,P|463:167|451:132,1,62.9999980773926,2|0,2:2|1:2,0:0:0:0:
380,230,97419,2,0,P|390:259|400:289,1,62.9999980773926,2|0,2:2|1:2,0:0:0:0:
448,357,97725,6,0,P|410:327|354:345,1,94.499997116089,2|0,2:2|0:0,0:0:0:0:
334,351,98031,2,0,P|304:343|263:333,1,62.9999980773926,2|0,2:2|1:2,0:0:0:0:
284,181,98337,2,0,P|294:210|304:240,1,62.9999980773926,2|0,2:2|1:2,0:0:0:0:
314,269,98567,1,0,1:2:0:0:
314,269,98643,1,2,2:2:0:0:
198,218,98796,1,0,1:2:0:0:
175,328,98949,5,2,1:2:0:0:
175,328,99102,1,0,0:0:0:0:
112,245,99255,1,2,2:2:0:0:
112,245,99408,1,0,0:0:0:0:
55,353,99561,2,0,P|45:323|34:293,1,62.9999980773926,2|0,2:2|1:2,0:0:0:0:
137,160,99868,2,0,P|126:189|116:219,1,62.9999980773926,2|0,2:2|1:2,0:0:0:0:
26,140,100174,5,2,2:2:0:0:
26,140,100327,1,0,0:0:0:0:
102,63,100480,2,0,P|145:73|177:81,1,62.9999980773926,2|0,2:2|1:2,0:0:0:0:
189,90,100709,1,0,1:2:0:0:
189,90,100786,1,2,2:2:0:0:
241,177,100939,5,8,1:1:0:0:
290,26,101092,1,8,2:1:0:0:
241,177,101245,1,0,1:2:0:0:
379,15,101398,6,0,P|367:57|336:172,1,144,4|0,1:2|1:2,0:0:0:0:
380,239,101857,1,2,2:2:0:0:
380,239,102010,2,0,P|415:224|452:213,1,72,0|2,1:2|2:2,0:0:0:0:
492,98,102317,2,0,P|462:108|423:125,1,72,0|2,1:2|2:2,0:0:0:0:
341,154,102623,6,0,B|296:136|296:136|277:107|277:107|218:88,2,144,4|0|0,1:2|1:2|1:2,0:0:0:0:
376,237,103388,1,0,1:2:0:0:
376,237,103465,1,0,1:2:0:0:
376,237,103541,2,0,P|328:256|293:272,1,72,4|0,1:2|0:0,0:0:0:0:
174,360,103847,5,6,1:2:0:0:
207,264,104000,1,2,2:2:0:0:
288,337,104153,1,2,1:2:0:0:
202,184,104306,1,2,2:2:0:0:
116,304,104459,5,2,1:2:0:0:
116,304,104536,1,0,1:2:0:0:
116,304,104612,2,0,L|128:357,1,40.4999987640381,0|0,1:2|1:2,0:0:0:0:
32,259,104766,1,2,1:2:0:0:
32,259,104842,1,0,1:2:0:0:
32,259,104919,2,0,L|44:206,1,40.4999987640381,0|0,1:2|1:2,0:0:0:0:
73,109,105072,5,2,2:2:0:0:
80,87,105225,1,2,2:2:0:0:
88,66,105378,1,2,2:2:0:0:
96,43,105684,5,2,2:2:0:0:
178,65,105837,5,2,2:2:0:0:
255,86,105990,1,10,2:2:0:0:
332,107,106143,1,2,2:2:0:0:
396,54,106296,6,0,B|416:106|416:106|405:141|405:141|427:206,1,135,4|0,1:2|0:0,0:0:0:0:
430,217,106602,1,8,2:2:0:0:
437,224,106755,1,2,2:2:0:0:
280,258,106908,6,0,B|320:269|320:269|343:299|343:299|397:312,1,135,0|0,1:2|0:0,0:0:0:0:
425,322,107215,1,8,2:2:0:0:
431,330,107368,1,2,2:2:0:0:
266,340,107521,5,0,1:2:0:0:
324,185,107674,1,2,2:2:0:0:
257,367,107827,1,8,2:2:0:0:
342,159,107980,1,2,1:2:0:0:
342,159,108056,1,8,2:2:0:0:
342,159,108133,2,0,P|289:176|250:189,1,90,0|2,1:2|1:2,0:0:0:0:
111,236,108439,1,8,2:2:0:0:
209,107,108592,1,2,2:2:0:0:
184,318,108745,1,0,1:2:0:0:
184,318,109051,6,0,P|164:248|139:155,1,148.50000453186,8|0,2:2|0:0,0:0:0:0:
65,67,109357,2,0,P|135:87|228:112,1,148.50000453186,0|0,1:2|0:0,0:0:0:0:
277,129,109664,1,8,2:2:0:0:
186,2,109817,1,2,2:2:0:0:
144,174,109970,5,12,2:2:0:0:
167,180,110046,1,8,2:2:0:0:
191,186,110123,1,10,2:2:0:0:
214,192,110199,1,8,2:2:0:0:
238,198,110276,2,0,L|286:210,3,45,8|8|10|8,2:2|2:2|2:2|2:2,0:0:0:0:
160,283,110582,5,8,2:3:0:0:
137,289,110658,1,8,2:3:0:0:
113,295,110735,2,0,L|62:311,1,45,10|8,3:2|2:3,0:0:0:0:
0,236,110888,2,0,L|42:222,1,45,8|8,1:2|2:3,0:0:0:0:
152,366,111041,6,0,B|218:393|246:319|218:348|252:274|311:304,1,188.999994232178,6|2,1:2|1:2,0:0:0:0:
465,361,111500,2,0,P|413:363|388:316,1,94.499997116089,10|2,2:2|2:2,0:0:0:0:
352,216,111806,1,2,1:2:0:0:
448,275,111959,1,0,1:2:0:0:
457,284,112112,1,10,2:2:0:0:
423,145,112266,6,0,P|358:168|231:210,1,198.000006042481,6|2,1:2|1:2,0:0:0:0:
314,92,112725,2,0,P|267:108|220:123,1,99.0000030212403,10|2,2:2|2:2,0:0:0:0:
101,163,113031,1,2,1:2:0:0:
165,73,113184,1,0,1:2:0:0:
172,63,113337,1,10,2:2:0:0:
38,42,113490,6,0,P|56:108|91:252,1,207.000003948212,6|2,1:2|1:2,0:0:0:0:
191,272,113949,2,0,P|172:208|159:161,1,103.500001974106,10|2,2:2|2:2,0:0:0:0:
62,320,114255,1,2,1:2:0:0:
237,355,114408,1,0,1:2:0:0:
237,355,114485,1,0,1:2:0:0:
237,355,114561,1,10,2:2:0:0:
88,242,114715,6,0,P|164:265|207:277,1,107.999996704102,6|0,1:2|0:0,0:0:0:0:
265,141,115021,2,0,P|213:155|161:171,1,107.999996704102,2|8,1:2|2:2,0:0:0:0:
45,96,115327,1,2,1:2:0:0:
45,96,115403,1,0,1:2:0:0:
45,96,115480,2,0,P|84:48|142:65,1,107.999996704102,10|2,2:2|1:2,0:0:0:0:
157,74,115709,1,0,1:2:0:0:
157,74,115786,2,0,B|230:53|230:53|236:56|236:56|321:31,1,161.999995056153,14|0,2:2|0:0,0:0:0:0:
383,15,116092,6,0,P|414:43|407:92,1,90,6|2,1:2|1:2,0:0:0:0:
296,235,116398,1,10,2:2:0:0:
340,117,116551,1,2,1:2:0:0:
340,117,116628,1,0,1:2:0:0:
340,117,116704,2,0,P|357:168|377:229,1,90,2|2,1:2|1:2,0:0:0:0:
441,324,117010,2,0,P|458:273|478:212,1,90,10|0,2:2|1:2,0:0:0:0:
480,214,117240,1,0,1:2:0:0:
480,214,117317,5,2,1:2:0:0:
365,285,117470,1,2,1:2:0:0:
464,132,117623,1,10,2:2:0:0:
368,202,117776,1,2,1:2:0:0:
368,202,117852,1,0,1:2:0:0:
368,202,117929,2,0,P|315:190|258:177,1,90,2|2,1:2|1:2,0:0:0:0:
164,44,118235,5,10,2:2:0:0:
196,48,118311,1,8,2:2:0:0:
219,72,118388,1,2,1:2:0:0:
222,105,118465,1,0,1:2:0:0:
203,132,118541,6,0,B|157:152|157:152|135:185|135:185|53:214,1,148.50000453186,4|0,1:2|0:0,0:0:0:0:
4,249,118847,2,0,P|67:302|125:276,1,148.50000453186,0|0,1:2|0:0,0:0:0:0:
206,213,119153,5,8,1:2:0:0:
229,230,119230,1,8,1:2:0:0:
244,257,119306,1,8,1:2:0:0:
246,287,119383,1,8,1:2:0:0:
239,323,119459,1,8,1:2:0:0:
267,299,119536,1,8,1:2:0:0:
301,283,119612,1,8,1:2:0:0:
337,277,119689,1,8,1:2:0:0:
374,279,119766,5,2,1:1:0:0:
471,197,120072,5,10,2:2:0:0:
477,216,120148,1,8,2:2:0:0:
482,234,120225,2,0,L|494:280,1,40.4999987640381,0|0,1:2|1:2,0:0:0:0:
357,182,120378,2,0,L|365:141,1,40.4999987640381,10|10,2:2|2:2,0:0:0:0:
431,69,120531,6,0,L|442:109,2,41.9999987182618,0|0|0,1:2|1:2|1:2,0:0:0:0:
413,43,120684,2,0,P|346:14|264:97,1,188.999994232178,6|0,2:2|0:0,0:0:0:0:
231,148,120990,6,0,P|180:133|115:114,1,107.999996704102,4|0,3:1|0:0,0:0:0:0:
58,309,121296,2,0,B|113:311|113:311|160:254,1,107.999996704102,10|0,2:2|0:0,0:0:0:0:
64,38,121602,2,0,B|12:89|12:89|52:177,1,161.999995056153,2|0,1:2|0:0,0:0:0:0:
80,235,121908,1,10,2:2:0:0:
191,69,122061,1,2,2:2:0:0:
226,263,122215,6,0,B|282:244|282:244|322:258|322:258|379:239,1,161.999995056153,2|0,1:2|0:0,0:0:0:0:
450,218,122521,2,0,B|486:260|486:260|464:308,1,107.999996704102,10|0,2:2|0:0,0:0:0:0:
337,163,122827,1,2,1:2:0:0:
512,90,122980,1,2,2:2:0:0:
373,318,123133,1,10,2:2:0:0:
320,39,123286,1,0,0:0:0:0:
450,218,123439,6,0,P|358:202|281:190,1,161.999995056153,0|0,1:2|0:0,0:0:0:0:
218,176,123745,1,10,2:2:0:0:
289,310,123898,1,2,2:2:0:0:
258,86,124051,1,2,1:2:0:0:
124,270,124204,1,0,0:0:0:0:
349,142,124357,6,0,B|361:95|385:62|385:62|354:20|299:48,1,161.999995056153,10|0,2:2|0:0,0:0:0:0:
258,86,124664,2,0,P|203:101|140:121,1,107.999996704102,2|0,1:2|0:0,0:0:0:0:
0,40,124970,1,10,2:2:0:0:
176,197,125123,1,2,2:2:0:0:
87,45,125276,2,0,P|70:108|52:171,1,107.999996704102,2|0,1:2|0:0,0:0:0:0:
21,326,125582,1,10,2:2:0:0:
21,326,125658,1,8,2:2:0:0:
21,326,125735,2,0,L|81:307,1,53.9999983520508,0|0,1:2|1:2,0:0:0:0:
176,197,125888,6,0,P|118:214|65:230,1,107.999996704102,4|0,1:2|0:0,0:0:0:0:
156,111,126194,1,10,2:2:0:0:
203,282,126347,1,2,2:2:0:0:
58,149,126500,2,0,B|30:102|30:102|66:51,1,107.999996704102,2|0,1:2|0:0,0:0:0:0:
265,0,126806,2,0,P|248:63|230:126,1,107.999996704102,10|0,2:2|1:2,0:0:0:0:
215,176,127036,1,0,1:2:0:0:
215,176,127112,6,0,P|257:205|328:168,1,107.999996704102,2|0,1:2|0:0,0:0:0:0:
482,61,127419,2,0,P|419:53|362:134,1,161.999995056153,10|0,2:2|0:0,0:0:0:0:
381,195,127725,1,2,1:2:0:0:
343,1,127878,1,2,2:2:0:0:
454,140,128031,2,0,P|429:206|408:265,1,107.999996704102,14|0,2:2|0:0,0:0:0:0:
250,369,128337,6,0,L|228:304,1,58.4999973220826,14|0,1:2|0:0,0:0:0:0:
291,173,128490,2,0,L|309:232,1,58.4999973220826,10|0,1:2|0:0,0:0:0:0:
356,357,128643,1,0,1:2:0:0:
219,234,128796,6,0,B|162:257|162:257|143:293|143:293|70:318|70:318|88:256,1,233.999989288331,14|8,1:2|1:2,0:0:0:0:
102,196,129179,1,8,1:2:0:0:
102,196,129255,2,0,L|126:121,1,58.4999973220826,2|0,1:2|1:2,0:0:0:0:
58,28,129408,6,0,P|93:90|207:48,1,175.499991966248,14|0,1:2|0:0,0:0:0:0:
239,28,129715,2,0,L|304:45,1,58.4999973220826,2|0,1:2|1:2,0:0:0:0:
403,113,129868,2,0,L|338:130,1,58.4999973220826,10|10,1:2|1:2,0:0:0:0:
235,185,130021,1,6,1:2:0:0:
235,185,130097,1,0,1:2:0:0:
235,185,130174,2,0,L|257:117,1,58.4999973220826,10|0,1:2|1:2,0:0:0:0:
389,28,130327,5,0,1:2:0:0:
427,26,130403,1,0,1:2:0:0:
463,41,130480,1,10,1:2:0:0:
488,70,130556,1,0,1:2:0:0:
500,107,130633,1,2,1:2:0:0:
494,146,130709,1,0,1:2:0:0:
471,175,130786,6,0,P|410:194|339:217,1,107.999996704102,6|0,1:2|0:0,0:0:0:0:
185,28,131092,2,0,P|240:46|293:62,1,107.999996704102,10|0,1:2|0:0,0:0:0:0:
323,280,131398,2,0,B|261:242|261:242|294:141,1,161.999995056153,2|0,1:2|0:0,0:0:0:0:
303,107,131704,1,10,1:2:0:0:
437,245,131857,1,2,2:2:0:0:
205,163,132010,5,2,1:2:0:0:
441,73,132164,1,2,1:2:0:0:
323,280,132317,1,10,1:2:0:0:
223,28,132470,1,2,2:2:0:0:
343,182,132623,6,0,B|316:198|285:200|285:200|252:241|252:241|211:238|179:267,1,175.499991966248,2|0,1:2|0:0,0:0:0:0:
58,271,132929,2,0,B|85:287|116:289|116:289|149:330|149:330|190:327|222:356,1,175.499991966248,10|0,1:2|0:0,0:0:0:0:
277,376,133235,6,0,P|331:358|393:339,1,107.999996704102,0|0,1:2|0:0,0:0:0:0:
471,191,133541,1,10,1:2:0:0:
323,280,133694,1,2,2:2:0:0:
472,367,133847,2,0,P|454:311|435:251,1,107.999996704102,2|0,1:2|0:0,0:0:0:0:
382,85,134153,1,10,1:2:0:0:
477,197,134306,1,0,1:2:0:0:
477,197,134383,1,0,1:2:0:0:
477,197,134459,6,0,P|394:179|306:160,1,161.999995056153,2|0,1:2|0:0,0:0:0:0:
249,140,134766,1,10,1:2:0:0:
323,280,134919,1,2,2:2:0:0:
278,60,135072,2,0,B|219:53|219:53|163:108,1,107.999996704102,2|0,1:2|0:0,0:0:0:0:
131,200,135378,1,10,1:2:0:0:
131,200,135454,1,0,1:2:0:0:
131,200,135531,2,0,L|109:127,1,53.9999983520508,0|0,1:2|1:2,0:0:0:0:
11,77,135684,6,0,P|27:128|43:179,1,107.999996704102,4|0,1:2|0:0,0:0:0:0:
99,351,135990,1,10,1:2:0:0:
107,359,136143,1,2,2:2:0:0:
11,248,136296,2,0,P|71:264|138:280,1,107.999996704102,2|0,1:2|0:0,0:0:0:0:
190,297,136526,1,0,1:2:0:0:
190,297,136602,2,0,P|242:276|262:221,1,107.999996704102,10|0,1:2|0:0,0:0:0:0:
140,114,136908,6,0,P|156:165|172:216,1,107.999996704102,6|0,1:2|0:0,0:0:0:0:
49,142,137215,2,0,B|17:100|17:100|45:31,1,107.999996704102,10|0,1:2|0:0,0:0:0:0:
188,8,137521,2,0,B|210:77|210:77|215:81|215:81|243:166,1,161.999995056153,2|0,1:2|0:0,0:0:0:0:
262,230,137827,1,14,1:2:0:0:
354,64,137980,1,2,1:2:0:0:
354,64,138056,1,0,1:2:0:0:
354,64,138133,6,0,L|280:40,1,58.4999973220826,14|0,1:2|0:0,0:0:0:0:
313,164,138286,2,0,L|368:182,1,58.4999973220826,10|0,1:2|0:0,0:0:0:0:
512,237,138439,1,0,1:2:0:0:
461,75,138592,6,0,B|463:127|436:157|436:157|444:212|444:212|407:243|420:303,1,233.999989288331,14|10,1:2|1:2,0:0:0:0:
434,372,138975,1,8,1:2:0:0:
434,372,139051,2,0,L|364:358,1,58.4999973220826,2|0,1:2|1:2,0:0:0:0:
230,235,139204,6,0,B|279:227|312:196|312:196|349:226|336:276,1,175.499991966248,14|0,1:2|0:0,0:0:0:0:
305,337,139510,2,0,L|249:321,1,58.4999973220826,0|0,1:2|1:2,0:0:0:0:
141,287,139664,2,0,L|165:360,1,58.4999973220826,10|10,1:2|1:2,0:0:0:0:
238,242,139817,1,4,1:2:0:0:
238,242,139893,1,0,1:2:0:0:
238,242,139970,2,0,L|219:186,1,58.4999973220826,10|0,1:2|1:2,0:0:0:0:
147,40,140123,5,2,1:2:0:0:
109,29,140199,1,0,1:2:0:0:
72,36,140276,1,10,1:2:0:0:
42,61,140352,1,0,1:2:0:0:
27,97,140429,1,2,1:2:0:0:
31,135,140505,1,0,1:2:0:0:
53,167,140582,6,0,P|112:148|161:132,1,107.999996704102,6|0,1:2|0:0,0:0:0:0:
353,42,140888,2,0,P|299:26|250:8,1,107.999996704102,10|0,2:2|0:0,0:0:0:0:
164,221,141194,2,0,P|239:230|282:160,1,161.999995056153,2|0,1:2|0:0,0:0:0:0:
266,92,141500,1,10,2:2:0:0:
411,235,141653,1,2,1:2:0:0:
411,235,141730,1,0,1:2:0:0:
411,235,141806,6,0,P|392:171|377:123,1,107.999996704102,0|2,1:2|2:2,0:0:0:0:
353,42,142112,1,10,2:2:0:0:
318,228,142266,1,2,2:2:0:0:
443,74,142419,2,0,P|458:125|475:181,1,107.999996704102,2|0,1:2|0:0,0:0:0:0:
363,311,142725,2,0,B|404:275|404:275|479:307,1,107.999996704102,10|0,2:2|0:0,0:0:0:0:
324,378,143031,6,0,P|265:359|216:343,1,107.999996704102,2|0,1:2|0:0,0:0:0:0:
134,215,143337,2,0,B|186:200|186:200|232:237,1,107.999996704102,10|0,2:2|0:0,0:0:0:0:
79,360,143643,2,0,B|27:323|27:323|47:218,1,161.999995056153,2|0,1:2|0:0,0:0:0:0:
60,156,143949,1,10,2:2:0:0:
164,318,144102,1,2,1:2:0:0:
164,318,144179,1,0,1:2:0:0:
164,318,144255,6,0,P|149:267|132:211,1,107.999996704102,0|2,1:2|2:2,0:0:0:0:
16,61,144561,2,0,P|75:80|124:96,1,107.999996704102,10|0,2:2|0:0,0:0:0:0:
298,168,144868,2,0,B|248:190|248:190|208:153,1,107.999996704102,2|0,1:2|0:0,0:0:0:0:
388,24,145174,1,8,2:2:0:0:
423,13,145250,1,8,2:2:0:0:
458,27,145327,1,2,1:2:0:0:
476,59,145403,1,0,1:2:0:0:
466,93,145480,6,0,P|399:121|356:139,1,107.999996704102,6|0,1:2|0:0,0:0:0:0:
239,268,145786,1,8,2:2:0:0:
305,175,145939,1,2,1:2:0:0:
305,175,146016,1,0,1:2:0:0:
305,175,146092,6,0,P|320:226|335:278,1,107.999996704102,2|0,1:2|0:0,0:0:0:0:
272,374,146398,1,8,2:2:0:0:
457,244,146551,1,2,1:2:0:0:
457,244,146628,1,0,1:2:0:0:
457,244,146704,5,2,1:2:0:0:
215,176,146857,1,2,2:2:0:0:
443,346,147010,1,10,2:2:0:0:
374,32,147164,1,2,2:2:0:0:
345,235,147317,5,10,2:2:0:0:
305,246,147393,1,8,2:2:0:0:
265,239,147470,1,8,2:2:0:0:
234,212,147546,1,8,2:2:0:0:
215,176,147623,1,14,2:2:0:0:
186,148,147699,1,8,2:2:0:0:
148,134,147776,1,8,2:2:0:0:
108,137,147852,1,8,2:2:0:0:
78,157,147929,6,0,P|56:219|31:279,1,99.0000030212403,4|0,1:1|0:0,0:0:0:0:
13,31,148235,1,10,1:2:0:0:
148,134,148388,2,0,P|206:114|267:91,1,99.0000030212403,2|2,2:2|1:2,0:0:0:0:
399,50,148694,1,0,0:0:0:0:
346,224,148847,2,0,P|330:159|307:60,1,148.50000453186,10|0,1:2|0:0,0:0:0:0:
292,9,149153,5,2,1:2:0:0:
480,123,149306,1,2,2:2:0:0:
257,188,149459,1,10,1:2:0:0:
457,271,149612,1,2,2:2:0:0:
367,143,149766,2,0,P|383:96|399:49,1,99.0000030212403,2|0,1:2|0:0,0:0:0:0:
257,188,150072,2,0,P|280:251|299:304,1,99.0000030212403,10|0,1:2|1:2,0:0:0:0:
330,350,150301,1,0,1:2:0:0:
330,350,150378,6,0,B|378:365|378:365|428:315,1,99.0000030212403,2|0,1:2|0:0,0:0:0:0:
505,177,150684,1,10,1:2:0:0:
363,273,150837,1,2,2:2:0:0:
445,73,150990,1,2,1:2:0:0:
457,271,151143,1,0,0:0:0:0:
336,133,151296,2,0,B|286:147|286:147|263:182|263:182|199:196,1,148.50000453186,10|0,1:2|0:0,0:0:0:0:
140,223,151602,6,0,L|125:277,3,49.5000015106202,8|8|8|8,1:2|1:2|1:2|1:2,0:0:0:0:
218,107,151908,2,0,L|204:59,3,49.5000015106202,8|8|8|8,1:2|1:2|1:2|1:2,0:0:0:0:
66,179,152215,6,0,L|51:233,1,49.5000015106202,10|8,1:2|1:2,0:0:0:0:
127,87,152368,2,0,L|113:39,1,49.5000015106202,10|8,1:2|1:2,0:0:0:0:
209,193,152521,5,10,1:2:0:0:
245,193,152597,1,8,1:2:0:0:
278,176,152674,1,10,1:2:0:0:
299,146,152750,1,8,1:2:0:0:
316,124,152827,2,0,P|369:80|458:126,1,148.50000453186,14|0,1:2|0:0,0:0:0:0:
496,148,153133,5,10,1:2:0:0:
503,176,153234,2,0,L|480:245,1,66.0000020141602,2|2,2:2|2:2,0:0:0:0:
373,257,153439,1,2,1:2:0:0:
366,229,153541,2,0,L|389:160,1,66.0000020141602,2|2,2:2|2:2,0:0:0:0:
406,336,153745,1,10,1:2:0:0:
434,343,153847,2,0,L|503:320,1,66.0000020141602,2|2,2:2|2:2,0:0:0:0:
288,261,154051,5,2,1:2:0:0:
249,273,154153,1,2,2:2:0:0:
210,285,154255,1,2,2:2:0:0:
169,362,154357,5,10,1:2:0:0:
136,352,154459,1,2,2:2:0:0:
103,342,154561,1,2,2:2:0:0:
62,269,154664,5,2,1:2:0:0:
92,262,154765,1,2,2:2:0:0:
111,235,154867,2,0,L|102:202,1,33.0000010070801,2|2,2:2|2:2,0:0:0:0:
97,184,154969,6,0,L|69:87,1,99.0000030212403,10|2,1:2|2:2,0:0:0:0:
60,59,155199,1,2,2:2:0:0:
170,122,155276,5,2,1:2:0:0:
170,122,155352,1,2,2:2:0:0:
170,122,155429,2,0,L|233:141,1,49.5000015106202,2|2,2:2|2:2,0:0:0:0:
302,212,155582,1,10,1:2:0:0:
302,212,155658,1,2,2:2:0:0:
302,212,155735,2,0,L|365:193,1,49.5000015106202,2|2,2:2|2:2,0:0:0:0:
488,95,155888,5,2,1:2:0:0:
469,63,155965,1,2,2:2:0:0:
437,44,156041,1,2,2:2:0:0:
401,42,156118,1,2,2:2:0:0:
367,57,156194,1,10,1:2:0:0:
326,83,156271,1,2,2:2:0:0:
278,79,156347,1,2,2:2:0:0:
241,48,156424,1,2,2:2:0:0:
213,28,156500,6,0,L|163:14,1,49.5000015106202,2|0,1:2|1:2,0:0:0:0:
41,167,156653,2,0,L|104:186,1,49.5000015106202,0|0,1:2|0:0,0:0:0:0:
191,119,156806,6,0,P|139:103|77:83,1,99.0000030212403,12|0,1:2|0:0,0:0:0:0:
28,65,157035,1,0,1:2:0:0:
28,65,157112,5,10,1:2:0:0:
115,293,157266,1,10,1:2:0:0:
279,120,157572,5,6,1:2:0:0:
256,192,161398,12,8,162470,2:2:0:0:
156,117,162776,5,0,1:2:0:0:
126,106,162852,1,0,1:2:0:0:
99,96,162929,1,0,1:2:0:0:
34,214,163082,5,0,1:2:0:0:
64,203,163158,1,0,1:2:0:0:
91,193,163235,1,0,1:2:0:0:
236,156,163388,6,0,L|213:240,1,62.9999980773926,8|0,2:2|0:0,0:0:0:0:
76,350,163694,6,0,L|94:290,1,62.9999980773926,8|0,2:2|0:0,0:0:0:0:
213,342,164000,5,2,2:2:0:0:
233,335,164077,1,2,2:2:0:0:
254,329,164153,1,2,2:2:0:0:
274,322,164230,1,2,2:2:0:0:
295,316,164306,1,2,2:2:0:0:
316,311,164383,1,2,2:2:0:0:
340,304,164459,1,2,2:2:0:0:
360,298,164536,1,2,2:2:0:0:
378,292,164612,6,0,L|448:267,1,62.9999980773926,8|0,2:2|0:0,0:0:0:0:
508,151,164766,2,0,L|448:172,1,62.9999980773926,8|0,2:2|0:0,0:0:0:0:
305,213,164919,2,0,L|326:153,1,62.9999980773926,8|0,2:2|0:0,0:0:0:0:
405,23,165225,5,0,1:2:0:0:
416,53,165301,1,0,1:2:0:0:
426,80,165378,1,0,1:2:0:0:
244,130,165531,5,0,1:2:0:0:
254,103,165607,1,0,1:2:0:0:
265,73,165684,1,0,1:2:0:0:
448,172,165837,6,0,L|388:193,1,62.9999980773926,8|0,2:2|0:0,0:0:0:0:
257,375,166143,6,0,L|316:353,1,62.9999980773926,8|0,2:2|0:0,0:0:0:0:
371,291,166296,5,0,1:2:0:0:
344,281,166373,1,0,1:2:0:0:
314,270,166449,2,0,L|258:247,1,40.4999987640381,0|0,1:2|1:2,0:0:0:0:
210,187,166602,5,8,2:2:0:0:
186,194,166679,1,8,2:2:0:0:
163,201,166755,1,0,1:2:0:0:
140,207,166832,1,0,1:2:0:0:
116,214,166908,1,0,1:2:0:0:
93,221,166985,1,0,1:2:0:0:
73,227,167061,2,0,L|20:242,1,40.4999987640381,0|0,1:2|1:2,0:0:0:0:
48,141,167215,5,8,2:2:0:0:
48,141,167291,1,8,2:2:0:0:
48,141,167368,2,0,L|118:119,1,49.5000015106202,10|8,2:2|2:2,0:0:0:0:
307,71,167521,5,14,2:2:0:0:
193,286,167674,1,0,1:2:0:0:
227,37,167827,1,8,2:2:0:0:
370,215,167980,5,2,1:2:0:0:
370,215,168056,1,0,1:2:0:0:
370,215,168133,1,10,2:2:0:0:
95,126,168286,1,0,1:2:0:0:
366,0,168439,1,8,2:2:0:0:
154,212,168592,2,0,L|175:156,1,49.5000015106202,2|0,1:2|1:2,0:0:0:0:
227,37,168745,5,14,2:2:0:0:
263,257,168898,1,0,1:2:0:0:
212,26,169051,5,10,2:2:0:0:
281,270,169204,1,0,1:2:0:0:
198,17,169357,5,10,2:2:0:0:
298,283,169510,1,0,1:2:0:0:
311,51,169664,5,14,2:2:0:0:
56,185,169817,1,0,1:2:0:0:
56,185,169893,1,0,1:2:0:0:
56,185,169970,6,0,P|119:168|209:142,1,148.50000453186,4|0,1:2|0:0,0:0:0:0:
362,242,170276,2,0,P|303:248|265:166,1,148.50000453186,0|0,1:2|0:0,0:0:0:0:
311,51,170582,5,8,1:2:0:0:
334,68,170658,1,8,1:2:0:0:
349,95,170735,1,8,1:2:0:0:
351,125,170811,1,8,1:2:0:0:
344,161,170888,1,8,1:2:0:0:
372,137,170965,1,8,1:2:0:0:
406,121,171041,1,8,1:2:0:0:
442,115,171118,1,8,1:2:0:0:
479,117,171194,5,2,2:2:0:0:
362,242,171500,5,2,2:2:0:0:
512,253,171806,6,0,B|488:275|455:277|455:277|426:317|426:317|384:316|351:339,1,188.999994232178,2|0,2:2|0:0,0:0:0:0:
285,360,172419,5,2,2:2:0:0:
188,220,172725,5,2,2:2:0:0:
140,350,173031,5,8,1:2:0:0:
140,350,173107,1,8,1:2:0:0:
140,350,173184,2,0,L|121:293,1,45,8|8,1:2|1:2,0:0:0:0:
40,247,173337,1,8,1:2:0:0:
40,247,173414,1,8,1:2:0:0:
40,247,173490,2,0,L|60:185,1,49.5000015106202,8|8,1:2|1:2,0:0:0:0:
90,101,173643,6,0,P|159:125|221:52,1,161.999995056153,4|0,3:1|0:0,0:0:0:0:
257,8,173949,2,0,B|314:-2|314:-2|354:41,1,107.999996704102,10|0,2:2|0:0,0:0:0:0:
491,198,174255,2,0,P|413:181|331:163,1,161.999995056153,2|0,1:2|0:0,0:0:0:0:
262,143,174561,1,10,2:2:0:0:
432,87,174715,1,2,2:2:0:0:
265,226,174868,6,0,B|218:230|188:196|188:196|146:215|154:278,1,161.999995056153,2|0,1:2|0:0,0:0:0:0:
179,329,175174,2,0,B|231:347|231:347|285:312,1,107.999996704102,10|0,2:2|0:0,0:0:0:0:
413,200,175480,1,2,1:2:0:0:
343,362,175633,1,2,2:2:0:0:
345,114,175786,1,10,2:2:0:0:
509,303,175939,1,0,0:0:0:0:
431,53,176092,6,0,P|353:70|271:88,1,161.999995056153,0|0,1:2|0:0,0:0:0:0:
199,104,176398,1,10,2:2:0:0:
327,0,176551,1,2,2:2:0:0:
182,243,176704,1,2,1:2:0:0:
108,0,176857,1,0,0:0:0:0:
272,87,177010,6,0,P|350:104|432:122,1,161.999995056153,10|0,2:2|0:0,0:0:0:0:
495,157,177317,2,0,P|512:197|465:251,1,107.999996704102,2|0,1:2|0:0,0:0:0:0:
298,345,177623,1,10,2:2:0:0:
417,193,177776,1,2,2:2:0:0:
476,327,177929,2,0,P|422:312|357:295,1,107.999996704102,2|0,1:2|0:0,0:0:0:0:
188,242,178235,1,10,2:2:0:0:
188,242,178311,1,8,2:2:0:0:
188,242,178388,2,0,L|208:312,1,53.9999983520508,0|0,1:2|1:2,0:0:0:0:
298,345,178541,6,0,P|278:278|264:227,1,107.999996704102,4|0,1:2|0:0,0:0:0:0:
158,132,178847,1,10,2:2:0:0:
337,166,179000,1,2,2:2:0:0:
179,49,179153,2,0,B|121:46|121:46|68:103,1,107.999996704102,2|0,1:2|0:0,0:0:0:0:
24,277,179459,2,0,P|75:297|119:249,1,107.999996704102,10|0,2:2|1:2,0:0:0:0:
161,214,179689,1,0,1:2:0:0:
161,214,179766,6,0,B|215:195|215:195|264:235,1,107.999996704102,2|0,1:2|0:0,0:0:0:0:
394,368,180072,2,0,P|320:352|232:336,1,161.999995056153,10|0,2:2|0:0,0:0:0:0:
165,322,180378,1,2,1:2:0:0:
336,240,180531,1,2,2:2:0:0:
146,100,180684,2,0,P|165:153|185:208,1,107.999996704102,14|0,2:2|0:0,0:0:0:0:
279,50,180990,6,0,L|220:67,1,58.4999973220826,12|0,1:2|0:0,0:0:0:0:
301,143,181143,2,0,L|358:127,1,58.4999973220826,8|0,1:2|0:0,0:0:0:0:
502,87,181296,1,0,1:2:0:0:
370,15,181449,6,0,B|393:116|393:116|402:120|402:120|429:242,1,233.999989288331,12|8,1:2|1:2,0:0:0:0:
447,314,181832,1,8,1:2:0:0:
447,314,181908,2,0,L|508:281,1,58.4999973220826,2|0,1:2|1:2,0:0:0:0:
329,257,182061,6,0,B|257:229|241:312|271:258|242:351|174:316,1,175.499991966248,14|0,1:2|0:0,0:0:0:0:
114,308,182368,2,0,L|54:292,1,58.4999973220826,2|0,1:2|1:2,0:0:0:0:
31,198,182521,2,0,L|87:213,1,58.4999973220826,10|10,1:2|1:2,0:0:0:0:
184,246,182674,1,6,1:2:0:0:
184,246,182750,1,0,1:2:0:0:
184,246,182827,2,0,L|159:175,1,58.4999973220826,10|0,1:2|1:2,0:0:0:0:
97,8,182980,5,0,1:2:0:0:
62,11,183056,1,0,1:2:0:0:
36,34,183133,1,10,1:2:0:0:
25,67,183209,1,0,1:2:0:0:
35,100,183286,1,2,1:2:0:0:
61,122,183362,1,0,1:2:0:0:
95,132,183439,6,0,P|159:114|215:99,1,107.999996704102,6|0,1:2|0:0,0:0:0:0:
280,263,183745,2,0,B|225:269|225:269|188:220,1,107.999996704102,10|0,1:2|0:0,0:0:0:0:
306,2,184051,2,0,B|350:49|350:49|281:148,1,161.999995056153,2|0,1:2|0:0,0:0:0:0:
258,191,184357,1,10,1:2:0:0:
204,24,184510,1,2,2:2:0:0:
393,151,184664,6,0,P|451:134|509:116,1,107.999996704102,2|0,1:2|1:2,0:0:0:0:
495,207,184893,1,0,1:2:0:0:
495,207,184970,2,0,P|432:225|376:241,1,107.999996704102,10|0,1:2|0:0,0:0:0:0:
244,280,185276,1,2,1:2:0:0:
460,319,185429,1,0,0:0:0:0:
297,121,185582,1,10,1:2:0:0:
278,379,185735,1,0,0:0:0:0:
391,236,185888,6,0,P|299:217|204:195,1,161.999995056153,0|0,1:2|0:0,0:0:0:0:
158,186,186194,1,10,1:2:0:0:
297,121,186347,1,0,0:0:0:0:
172,268,186500,2,0,B|118:271|118:271|78:213,1,107.999996704102,2|0,1:2|0:0,0:0:0:0:
20,60,186806,1,10,1:2:0:0:
165,193,186959,1,2,1:2:0:0:
165,193,187036,1,0,1:2:0:0:
165,193,187112,6,0,B|196:154|241:153|241:153|265:111|233:78,1,161.999995056153,2|0,1:2|0:0,0:0:0:0:
181,32,187419,1,10,1:2:0:0:
37,178,187572,1,2,2:2:0:0:
89,5,187725,2,0,P|110:70|131:129,1,107.999996704102,2|0,1:2|0:0,0:0:0:0:
206,316,188031,1,10,1:2:0:0:
206,316,188107,1,0,1:2:0:0:
206,316,188184,2,0,L|228:253,1,53.9999983520508,0|0,1:2|1:2,0:0:0:0:
165,193,188337,6,0,P|141:259|120:314,1,107.999996704102,4|0,1:2|0:0,0:0:0:0:
254,183,188643,1,10,1:2:0:0:
89,119,188796,1,2,2:2:0:0:
188,10,188949,2,0,P|212:71|234:130,1,107.999996704102,2|0,1:2|1:2,0:0:0:0:
254,183,189179,1,0,1:2:0:0:
254,183,189255,2,0,B|306:194|306:194|364:140,1,107.999996704102,10|0,1:2|0:0,0:0:0:0:
441,31,189561,6,0,P|376:51|318:69,1,107.999996704102,6|0,1:2|0:0,0:0:0:0:
462,215,189868,2,0,P|492:180|470:103,1,107.999996704102,10|0,1:2|0:0,0:0:0:0:
346,156,190174,2,0,P|371:237|402:336,1,161.999995056153,2|0,1:2|0:0,0:0:0:0:
416,383,190480,1,14,1:2:0:0:
298,255,190633,1,2,1:2:0:0:
298,255,190709,1,0,1:2:0:0:
298,255,190786,6,0,L|239:270,1,58.4999973220826,14|0,1:2|0:0,0:0:0:0:
207,361,190939,2,0,L|277:343,1,58.4999973220826,8|0,1:2|0:0,0:0:0:0:
394,310,191092,1,0,1:2:0:0:
274,170,191245,6,0,B|171:198|171:198|167:205|167:205|39:240,1,233.999989288331,12|8,1:2|1:2,0:0:0:0:
1,291,191628,1,8,1:2:0:0:
1,291,191704,2,0,L|28:356,1,58.4999973220826,4|0,1:2|0:0,0:0:0:0:
131,353,191857,2,0,L|108:298,1,58.4999973220826,8|0,1:2|1:2,0:0:0:0:
37,147,192010,5,12,1:2:0:0:
64,155,192087,1,8,1:2:0:0:
93,152,192164,1,0,1:2:0:0:
119,139,192240,1,0,1:2:0:0:
137,116,192317,1,10,1:2:0:0:
159,85,192393,1,8,1:2:0:0:
195,72,192470,1,0,1:2:0:0:
232,82,192546,1,0,1:2:0:0:
258,100,192623,6,0,L|287:178,1,58.4999973220826,10|0,1:2|0:0,0:0:0:0:
370,61,192776,2,0,L|357:23,2,38.9999982147218,2|0|0,1:2|1:2|1:2,0:0:0:0:
389,95,192929,2,0,P|371:151|346:226,1,116.999994644165,10|2,2:2|2:2,0:0:0:0:
209,376,193235,6,0,P|269:358|320:344,1,107.999996704102,4|0,3:1|0:0,0:0:0:0:
512,293,193541,2,0,P|451:276|400:259,1,107.999996704102,10|0,2:2|0:0,0:0:0:0:
246,130,193847,2,0,B|272:193|272:193|259:232|259:232|281:284,1,161.999995056153,2|0,1:2|0:0,0:0:0:0:
312,345,194153,1,10,2:2:0:0:
181,188,194306,1,2,1:2:0:0:
181,188,194383,1,0,1:2:0:0:
181,188,194459,6,0,P|160:253|141:309,1,107.999996704102,0|2,1:2|2:2,0:0:0:0:
334,148,194766,1,10,2:2:0:0:
154,86,194919,1,2,2:2:0:0:
342,239,195072,2,0,P|402:221|453:207,1,107.999996704102,2|0,1:2|0:0,0:0:0:0:
492,40,195378,2,0,P|439:54|387:68,1,107.999996704102,10|0,2:2|0:0,0:0:0:0:
193,169,195684,6,0,B|148:140|148:140|155:70,1,107.999996704102,2|0,1:2|0:0,0:0:0:0:
342,239,195990,2,0,P|321:304|302:360,1,107.999996704102,10|0,2:2|0:0,0:0:0:0:
106,373,196296,2,0,P|85:303|55:204,1,161.999995056153,2|0,1:2|0:0,0:0:0:0:
36,149,196602,1,10,2:2:0:0:
169,266,196755,1,2,1:2:0:0:
169,266,196832,1,0,1:2:0:0:
169,266,196908,6,0,B|222:274|222:274|265:222,1,107.999996704102,0|2,1:2|2:2,0:0:0:0:
226,66,197215,2,0,P|205:131|186:187,1,107.999996704102,10|0,2:2|0:0,0:0:0:0:
407,285,197521,2,0,P|386:220|367:164,1,107.999996704102,2|0,1:2|0:0,0:0:0:0:
316,18,197827,2,0,L|376:33,1,53.9999983520508,8|8,2:2|2:2,0:0:0:0:
446,90,197980,1,2,1:2:0:0:
446,90,198056,1,0,1:2:0:0:
446,90,198133,6,0,P|357:112|308:125,1,107.999996704102,6|0,1:2|0:0,0:0:0:0:
147,41,198439,1,8,2:2:0:0:
277,201,198592,1,2,1:2:0:0:
277,201,198669,1,0,1:2:0:0:
277,201,198745,2,0,P|256:136|237:80,1,107.999996704102,2|0,1:2|0:0,0:0:0:0:
77,210,199051,1,8,2:2:0:0:
290,284,199204,1,2,1:2:0:0:
290,284,199281,1,0,1:2:0:0:
290,284,199357,5,2,1:2:0:0:
168,130,199510,1,2,2:2:0:0:
137,365,199664,1,10,2:2:0:0:
277,201,199817,1,2,1:2:0:0:
277,201,199893,1,0,1:2:0:0:
277,201,199970,6,0,P|336:220|385:236,1,107.999996704102,2|0,1:2|0:0,0:0:0:0:
484,353,200276,2,0,B|406:381|406:381|342:324,1,161.999995056153,14|0,2:2|0:0,0:0:0:0:
290,284,200582,5,12,2:2:0:0:
512,105,200735,1,0,1:2:0:0:
231,75,200888,5,8,2:2:0:0:
475,209,201041,1,0,1:2:0:0:
180,265,201194,5,8,2:2:0:0:
389,149,201347,1,0,1:2:0:0:
389,149,201424,1,0,1:2:0:0:
389,149,201500,1,8,2:2:0:0:
145,101,201653,1,0,1:2:0:0:
349,239,201806,5,12,2:2:0:0:
56,384,201959,1,0,1:2:0:0:
278,147,202112,5,8,2:2:0:0:
197,384,202266,1,0,1:2:0:0:
99,176,202419,5,8,2:2:0:0:
277,285,202572,1,0,1:2:0:0:
277,285,202648,1,0,1:2:0:0:
277,285,202725,1,12,2:2:0:0:
110,303,202878,1,2,1:2:0:0:
278,147,203031,6,0,P|336:131|401:112,1,107.999996704102,6|0,1:2|0:0,0:0:0:0:
512,230,203337,1,8,2:2:0:0:
480,60,203490,1,2,1:2:0:0:
480,60,203567,1,0,1:2:0:0:
480,60,203643,2,0,P|459:120|435:187,1,107.999996704102,2|0,1:2|0:0,0:0:0:0:
385,346,203949,2,0,L|366:285,1,53.9999983520508,8|8,2:2|2:2,0:0:0:0:
333,169,204102,2,0,L|314:230,1,53.9999983520508,2|0,1:2|1:2,0:0:0:0:
265,370,204255,5,10,1:2:0:0:
361,87,204408,1,10,1:2:0:0:
501,327,204561,1,10,1:2:0:0:
256,192,205174,12,0,206551,0:0:0:0:
67,115,206704,6,0,P|114:130|148:141,1,62.9999980773926,8|0,2:1|0:0,0:0:0:0:
230,191,207010,2,0,P|183:206|149:217,1,62.9999980773926,8|0,2:1|0:0,0:0:0:0:
75,258,207317,2,0,P|94:306|106:336,1,62.9999980773926,8|8,2:1|1:1,0:0:0:0:
110,343,207546,1,0,1:2:0:0:
110,343,207623,1,8,1:1:0:0:
202,288,207776,1,0,1:2:0:0:
259,376,207929,6,0,P|288:366|319:356,1,62.9999980773926,8|0,1:1|0:0,0:0:0:0:
433,223,208235,2,0,P|423:252|413:283,1,62.9999980773926,8|0,2:1|1:2,0:0:0:0:
411,309,208465,1,0,1:2:0:0:
411,309,208541,1,8,1:1:0:0:
349,189,208694,2,0,L|361:146,2,31.4999990386963,8|0|8,1:1|1:2|1:1,0:0:0:0:
319,283,209000,1,0,1:2:0:0:
235,182,209153,5,8,1:1:0:0:
235,182,209306,1,0,0:0:0:0:
194,300,209459,1,8,2:1:0:0:
194,300,209612,1,0,0:0:0:0:
131,210,209766,2,0,P|101:200|70:190,1,62.9999980773926,8|8,2:1|1:1,0:0:0:0:
43,181,209995,1,0,1:2:0:0:
43,181,210072,1,8,1:1:0:0:
7,70,210225,1,0,1:2:0:0:
118,124,210378,6,0,P|147:114|178:104,1,62.9999980773926,8|8,2:1|1:1,0:0:0:0:
206,100,210607,1,0,1:2:0:0:
206,100,210684,1,8,1:1:0:0:
273,9,210837,1,0,1:2:0:0:
308,113,210990,6,0,P|318:142|327:172,1,62.9999980773926,8|8,2:1|1:1,0:0:0:0:
339,200,211220,1,0,1:2:0:0:
339,200,211296,1,8,1:1:0:0:
427,133,211449,1,0,1:2:0:0:
497,244,211602,6,0,P|436:261|368:281,1,125.999996154785,0|2,1:2|2:2,0:0:0:0:
301,340,212061,1,0,0:0:0:0:
301,340,212215,2,0,P|271:330|240:320,1,62.9999980773926,2|0,2:2|1:2,0:0:0:0:
217,311,212444,1,0,1:2:0:0:
217,311,212521,1,2,1:2:0:0:
156,223,212674,1,0,1:2:0:0:
81,324,212827,6,0,P|69:263|54:190,1,125.999996154785,2|2,1:2|2:2,0:0:0:0:
125,141,213286,2,0,L|168:121,2,31.4999990386963,0|0|2,1:2|1:2|1:2,0:0:0:0:
35,103,213592,1,0,1:2:0:0:
16,93,213669,1,0,1:2:0:0:
0,84,213745,1,2,1:2:0:0:
101,24,213898,1,0,1:2:0:0:
202,61,214051,6,0,L|250:76,1,31.4999990386963,10|8,2:2|2:2,0:0:0:0:
286,134,214204,2,0,L|334:119,1,31.4999990386963,0|0,1:2|1:2,0:0:0:0:
369,61,214357,1,6,2:3:0:0:
369,61,214434,1,4,2:3:0:0:
369,61,214510,2,0,L|417:76,1,31.4999990386963,0|0,1:2|1:2,0:0:0:0:
474,139,214664,5,10,2:2:0:0:
467,161,214740,1,8,2:2:0:0:
461,184,214817,1,0,1:2:0:0:
455,207,214893,1,0,1:2:0:0:
450,229,214970,2,0,L|435:278,1,31.4999990386963,10|8,2:2|2:2,0:0:0:0:
393,346,215123,2,0,L|383:315,1,31.4999990386963,10|8,2:2|2:2,0:0:0:0:
351,229,215276,5,10,1:2:0:0:
